<?xml version="1.0" standalone="no"?>
<!DOCTYPE svg PUBLIC "-//W3C//DTD SVG 1.1//EN" "http://www.w3.org/Graphics/SVG/1.1/DTD/svg11.dtd" >
<svg xmlns="http://www.w3.org/2000/svg" xmlns:xlink="http://www.w3.org/1999/xlink" version="1.1">
<metadata>
Created by FontForge 20201107 at Mon Jul 15 14:12:18 2024
 By 
Copyright (c) 2014 by Daniel Hernandez &#38; Miguel Hernandez. All rights reserved.
</metadata>
<defs>
<font id="Texta-Bold" horiz-adv-x="1220" >
  <font-face 
    font-family="Texta Bold"
    font-weight="700"
    font-stretch="normal"
    units-per-em="2048"
    panose-1="2 0 0 0 0 0 0 0 0 0"
    ascent="1536"
    descent="-512"
    x-height="860"
    cap-height="1229"
    bbox="-53 -393 2013 1665"
    underline-thickness="102"
    underline-position="-204"
    unicode-range="U+000D-25CA"
  />
<missing-glyph horiz-adv-x="1155" 
 />
    <glyph glyph-name=".notdef" horiz-adv-x="1155" 
 />
    <glyph glyph-name=".null" horiz-adv-x="0" 
 />
    <glyph glyph-name="nonmarkingreturn" horiz-adv-x="682" 
 />
    <glyph glyph-name="NUL" horiz-adv-x="0" 
 />
    <glyph glyph-name="NUL" horiz-adv-x="0" 
 />
    <glyph glyph-name="CR" unicode="&#xd;" horiz-adv-x="215" 
 />
    <glyph glyph-name="space" unicode=" " horiz-adv-x="438" 
 />
    <glyph glyph-name="exclam" unicode="!" horiz-adv-x="454" 
d="M344 1229l-49 -850h-137l-52 850h238zM100 113q0 54 36.5 91.5t90.5 37.5t91.5 -37.5t37.5 -91.5t-37.5 -91.5t-91.5 -37.5t-90.5 37.5t-36.5 91.5z" />
    <glyph glyph-name="quotedbl" unicode="&#x22;" horiz-adv-x="673" 
d="M311 1401l-94 -428h-121l35 428h180zM616 1401l-94 -428h-121l33 428h182z" />
    <glyph glyph-name="numbersign" unicode="#" horiz-adv-x="1300" 
d="M1065 1194l-70 -317h242l-27 -121h-241l-70 -320h238l-27 -121h-238l-69 -315h-129l67 315h-307l-67 -315h-131l69 315h-242l27 121h242l69 320h-237l26 121h238l70 317h127l-70 -317h309l70 317h131zM528 756l-67 -320h307l70 320h-310z" />
    <glyph glyph-name="dollar" unicode="$" horiz-adv-x="1062" 
d="M74 125l110 154q5 -4 14 -10.5t38.5 -24.5t61 -32.5t80 -29t97.5 -20.5v381q-207 64 -299 145t-92 217q0 150 101.5 242.5t289.5 105.5v213h121v-213q73 -4 137.5 -18.5t104.5 -32t70 -34t42 -27.5l13 -11l-111 -165q-4 3 -11 9t-32 21t-53 27t-71.5 24.5t-88.5 16.5
v-342q213 -61 306 -149t93 -228q0 -154 -102.5 -255t-296.5 -116v-192h-121v192q-76 5 -145.5 22.5t-114 39t-78 42t-48.5 34.5zM770 330q0 59 -37.5 98t-136.5 76v-340q88 12 131 55.5t43 110.5zM307 913q0 -51 37.5 -85t130.5 -68v303q-79 -11 -123.5 -49.5t-44.5 -100.5z
" />
    <glyph glyph-name="percent" unicode="%" horiz-adv-x="1357" 
d="M350 1255q126 0 199.5 -89t73.5 -216q0 -128 -74 -217.5t-199 -89.5t-198.5 89.5t-73.5 217.5t73.5 216.5t198.5 88.5zM350 1124q-59 0 -90 -46.5t-31 -127.5t31 -127.5t90 -46.5t90 46.5t31 127.5t-31 127.5t-90 46.5zM1008 596q126 0 200 -89t74 -218
q0 -126 -74.5 -215.5t-199.5 -89.5q-124 0 -198.5 89.5t-74.5 215.5q0 128 74 217.5t199 89.5zM1008 465q-58 0 -89.5 -46.5t-31.5 -129.5q0 -78 32 -125t89 -47q58 0 89 46.5t31 125.5q0 83 -30.5 129.5t-89.5 46.5zM1067 1229h188l-976 -1229h-187z" />
    <glyph glyph-name="ampersand" unicode="&#x26;" horiz-adv-x="1257" 
d="M965 612l190 -45q-36 -196 -131 -331l240 -236h-283l-92 92q-146 -112 -340 -112q-222 0 -339.5 96.5t-117.5 251.5q0 61 19 112.5t55.5 91.5t76.5 69t95 58l-27 29q-114 117 -114 258q0 131 97 220t257 89t256 -83t96 -214q0 -65 -20.5 -119t-60 -95.5t-80.5 -70
t-99 -59.5l244 -241q57 105 78 239zM547 152q117 0 215 73l-293 301q-76 -41 -116 -86t-40 -108q0 -81 66.5 -130.5t167.5 -49.5zM399 938q0 -47 22.5 -85.5t76.5 -92.5l16 -17q93 45 142 89t49 106q0 68 -41.5 108.5t-112.5 40.5q-69 0 -110.5 -40.5t-41.5 -108.5z" />
    <glyph glyph-name="quotesingle" unicode="'" horiz-adv-x="370" 
d="M311 1401l-92 -428h-123l35 428h180z" />
    <glyph glyph-name="parenleft" unicode="(" horiz-adv-x="563" 
d="M281 588q0 -117 19 -226t45 -184.5t63.5 -145t64.5 -107t57 -72.5l-127 -134q-331 352 -331 869q0 140 26 270.5t61.5 219.5t86.5 172t85 124.5t72 81.5l127 -133q-249 -286 -249 -735z" />
    <glyph glyph-name="parenright" unicode=")" horiz-adv-x="565" 
d="M283 588q0 447 -250 735l129 133q330 -351 330 -868q0 -511 -330 -869l-129 134q30 35 57.5 72.5t64.5 107t63.5 145t45.5 184.5t19 226z" />
    <glyph glyph-name="asterisk" unicode="*" horiz-adv-x="792" 
d="M154 909l182 191l-254 41l49 145l227 -125l-34 260h147l-45 -262l236 127l49 -145l-260 -41l186 -191l-125 -88l-119 236l-119 -236z" />
    <glyph glyph-name="plus" unicode="+" horiz-adv-x="1040" 
d="M604 1055v-371h361v-164h-361v-354h-168v354h-360v164h360v371h168z" />
    <glyph glyph-name="comma" unicode="," horiz-adv-x="436" 
d="M338 100v-14q0 -128 -70 -221t-196 -117l-31 109q65 15 103.5 47t45.5 78q-43 9 -70.5 41.5t-27.5 76.5q0 52 36 87.5t87 35.5t87 -35.5t36 -87.5z" />
    <glyph glyph-name="hyphen" unicode="-" horiz-adv-x="794" 
d="M111 387v164h573v-164h-573z" />
    <glyph glyph-name="period" unicode="." horiz-adv-x="430" 
d="M215 -20q-51 0 -87 34.5t-36 85.5q0 52 36 87.5t87 35.5t87 -35.5t36 -87.5q0 -51 -36 -85.5t-87 -34.5z" />
    <glyph glyph-name="slash" unicode="/" horiz-adv-x="1210" 
d="M250 -227l-207 -2l920 1833h202z" />
    <glyph glyph-name="zero" unicode="0" horiz-adv-x="1249" 
d="M625 -29q-169 0 -293 89t-184 232.5t-60 319.5q0 132 35.5 248t101.5 204.5t169 139.5t231 51q103 0 190.5 -33t151 -92.5t108 -140t66.5 -176t22 -201.5q0 -131 -35 -246.5t-101 -203.5t-170 -139.5t-232 -51.5zM625 168q157 0 243 123.5t86 320.5q0 198 -86 323.5
t-243 125.5q-156 0 -243 -125.5t-87 -323.5q0 -196 87 -320t243 -124z" />
    <glyph glyph-name="one" unicode="1" horiz-adv-x="641" 
d="M31 1049v180h471v-1229h-203v1049h-268z" />
    <glyph glyph-name="two" unicode="2" horiz-adv-x="1036" 
d="M90 0v141l494 496q63 63 86.5 110t23.5 107q0 89 -62 148t-165 59q-31 0 -60.5 -5.5t-56.5 -16.5t-47.5 -21t-43 -26.5t-33.5 -25t-29 -24t-19 -16.5l-108 161q6 7 18 18t52 40t84.5 51.5t115 40.5t143.5 18q209 0 326 -108t117 -273q0 -94 -31.5 -169t-106.5 -148
l-376 -377h536v-180h-858z" />
    <glyph glyph-name="three" unicode="3" horiz-adv-x="1038" 
d="M483 569h-164v129l326 351h-543v180h818v-156l-324 -342q170 -13 256 -102.5t86 -247.5q0 -82 -27 -153.5t-81 -129t-143.5 -90.5t-205.5 -33q-80 0 -151.5 17.5t-117 42.5t-79.5 50t-49 43l-14 17l110 148q5 -5 13.5 -14t37.5 -31.5t60.5 -40t81 -31.5t100.5 -14
q125 0 188.5 60t63.5 151q0 196 -242 196z" />
    <glyph glyph-name="four" unicode="4" horiz-adv-x="1150" 
d="M45 276v150l668 803h176v-772h203v-181h-203v-276h-203v276h-641zM301 465v-8h385v471l-348 -428z" />
    <glyph glyph-name="five" unicode="5" horiz-adv-x="1013" 
d="M870 1049h-530l-6 -299q61 12 139 12q234 0 349.5 -102t115.5 -279q0 -182 -119 -294t-342 -112q-78 0 -148.5 17.5t-116 42.5t-79 50t-48.5 43l-15 17l110 148q4 -5 12.5 -14t37.5 -31.5t60.5 -40t81 -31.5t101.5 -14q119 0 185.5 57.5t66.5 159.5q0 96 -73.5 152.5
t-215.5 56.5q-74 0 -141.5 -12t-96.5 -22t-32 -13l-27 20l19 668h712v-180z" />
    <glyph glyph-name="six" unicode="6" horiz-adv-x="1101" 
d="M313 666v-15q108 121 287 121q188 0 306 -106.5t118 -274.5q0 -179 -126 -296.5t-318 -117.5q-82 0 -153 20.5t-134 67t-107.5 117t-70 175.5t-25.5 237q0 309 138 482t370 173q75 0 141.5 -16.5t107.5 -40.5t71.5 -48t43.5 -40l13 -17l-115 -155q-4 3 -25 23.5t-39 34
t-47.5 31t-67.5 27t-81 9.5q-135 0 -211 -94t-76 -297zM580 600q-104 0 -173 -57.5t-83 -153.5q24 -115 89.5 -170t161.5 -55q104 0 170 65t66 160q0 92 -63.5 151.5t-167.5 59.5z" />
    <glyph glyph-name="seven" unicode="7" horiz-adv-x="931" 
d="M55 1049v180h848v-142l-530 -1087h-238l524 1049h-604z" />
    <glyph glyph-name="eight" unicode="8" horiz-adv-x="1085" 
d="M545 -29q-211 0 -333 108.5t-122 270.5q0 96 44 171.5t126 121.5q-66 45 -101.5 114t-35.5 148q0 153 111 251.5t311 98.5q199 0 309.5 -99t110.5 -251q0 -79 -35.5 -148t-102.5 -114q81 -46 125.5 -122t44.5 -171q0 -161 -122 -270t-330 -109zM784 356q0 88 -66 145.5
t-173 57.5q-109 0 -175.5 -57.5t-66.5 -145.5q0 -87 67 -145.5t175 -58.5q107 0 173 58.5t66 145.5zM545 715q98 0 155.5 52t57.5 128q0 75 -57.5 127.5t-155.5 52.5q-99 0 -157 -52.5t-58 -127.5q0 -77 58 -128.5t157 -51.5z" />
    <glyph glyph-name="nine" unicode="9" horiz-adv-x="1097" 
d="M512 164q134 0 206.5 97t65.5 300v14q-104 -120 -286 -120q-188 0 -306 106.5t-118 274.5q0 179 126.5 296t319.5 117q82 0 152.5 -20.5t133 -67t107 -116.5t70 -175t25.5 -237q0 -311 -133 -485.5t-363 -174.5q-75 0 -141.5 16.5t-107.5 40t-71.5 47t-43.5 39.5l-13 17
l115 158q4 -4 24.5 -24t39.5 -34t48.5 -32t68 -27.5t81.5 -9.5zM518 627q103 0 172.5 57.5t81.5 151.5q-22 115 -88 171t-162 56q-104 0 -169.5 -64.5t-65.5 -160.5q0 -92 63.5 -151.5t167.5 -59.5z" />
    <glyph glyph-name="colon" unicode=":" horiz-adv-x="462" 
d="M168 43q-25 26 -24 62.5t28 60.5q26 25 62 22.5t61 -28.5t23.5 -62t-29.5 -61q-26 -25 -62 -22.5t-59 28.5zM168 694q-25 26 -24 61.5t28 59.5q26 25 62 23.5t61 -27.5q25 -28 23.5 -63t-29.5 -60q-26 -25 -62 -23.5t-59 29.5z" />
    <glyph glyph-name="semicolon" unicode=";" horiz-adv-x="489" 
d="M371 100v-14q0 -128 -70.5 -221t-196.5 -117l-30 109q65 15 103.5 47t45.5 78q-43 9 -70.5 41.5t-27.5 76.5q0 52 36 87.5t87 35.5q52 0 87.5 -35.5t35.5 -87.5zM248 631q-52 0 -87.5 34.5t-35.5 86.5q0 51 36 86.5t87 35.5q52 0 87.5 -35.5t35.5 -86.5q0 -52 -35 -86.5
t-88 -34.5z" />
    <glyph glyph-name="less" unicode="&#x3c;" horiz-adv-x="761" 
d="M74 549v129l557 369v-216l-371 -219l371 -219v-215z" />
    <glyph glyph-name="equal" unicode="=" horiz-adv-x="940" 
d="M119 713v164h704v-164h-704zM119 322v165h704v-165h-704z" />
    <glyph glyph-name="greater" unicode="&#x3e;" horiz-adv-x="761" 
d="M688 678v-129l-557 -371v215l371 219l-371 219v216z" />
    <glyph glyph-name="question" unicode="?" horiz-adv-x="884" 
d="M154 977l-97 164q5 5 14.5 12.5t42 27t69 34.5t95.5 27.5t121 12.5q188 0 301 -88.5t113 -240.5q0 -60 -17 -110.5t-44.5 -86.5t-61 -67.5t-67.5 -58.5t-63 -53.5t-49 -59t-24 -68.5l-4 -47h-153v71q0 60 27 112t65 89.5t76 73.5t65 80.5t27 93.5q0 74 -56.5 120
t-150.5 46q-38 0 -75.5 -8.5t-64 -21t-47.5 -25t-32 -20.5zM285 111q0 53 36.5 89t88.5 36t88.5 -36t36.5 -89q0 -54 -36 -90.5t-89 -36.5t-89 36.5t-36 90.5z" />
    <glyph glyph-name="at" unicode="@" horiz-adv-x="2050" 
d="M1528 104q-59 0 -108 15t-79.5 36.5t-53 50.5t-33 52t-15.5 45h-12q-15 -24 -36 -49t-61 -59.5t-101 -56t-132 -21.5q-161 0 -261.5 104t-100.5 277q0 116 37.5 214.5t100.5 165t146.5 103.5t175.5 37q63 0 113 -15.5t82.5 -42t52 -54t31.5 -58.5l35 149h161l-57 -495
q-6 -60 -6 -88q0 -76 45 -123t121 -47q112 0 185 107.5t73 293.5q0 90 -23 181t-66.5 176.5t-111.5 159t-153 129t-196.5 87t-236.5 31.5q-183 0 -343 -68.5t-270 -183t-173 -268t-63 -320.5q0 -172 67 -328.5t179.5 -269.5t268 -180t326.5 -67q72 0 143 12t121 29t89.5 34
t58.5 29l20 12l50 -104q-7 -5 -20.5 -13.5t-60 -30.5t-98.5 -39t-134 -30.5t-169 -13.5q-167 0 -318 50.5t-267 141t-201.5 210t-130.5 262t-45 292.5q0 154 44.5 298.5t130.5 264t202.5 209t269.5 139.5t323 50q195 0 367.5 -70t294 -188.5t192 -280t70.5 -338.5
q0 -235 -121.5 -390t-318.5 -155zM954 301q118 0 196.5 92t78.5 223q0 103 -57 161.5t-152 58.5q-111 0 -190.5 -87t-79.5 -221q0 -106 55.5 -166.5t148.5 -60.5z" />
    <glyph glyph-name="A" unicode="A" 
d="M713 1229l504 -1229h-213l-101 252h-586l-98 -252h-215l504 1229h205zM610 993l-225 -569h451z" />
    <glyph glyph-name="B" unicode="B" horiz-adv-x="1232" 
d="M1151 350q0 -170 -117.5 -260t-324.5 -90h-557v1229h538q204 0 314 -86.5t110 -247.5q0 -91 -46 -159.5t-126 -102.5v-8q96 -27 152.5 -99t56.5 -176zM729 537h-375v-357h359q98 0 161.5 48t63.5 132q0 76 -59.5 124t-149.5 53zM901 874q0 86 -56.5 130.5t-156.5 44.5
h-334v-344h330q99 0 158 46.5t59 122.5z" />
    <glyph glyph-name="C" unicode="C" horiz-adv-x="1146" 
d="M991 283l117 -156q-5 -6 -15.5 -16.5t-48.5 -37.5t-82 -47.5t-116.5 -37.5t-151.5 -17q-184 0 -326.5 86.5t-218 232t-75.5 322.5q0 179 75.5 325t218 232t326.5 86q79 0 151 -16t118 -38.5t80.5 -44.5t49.5 -38l15 -16l-117 -158q-4 5 -12.5 13t-37 28.5t-60 36
t-81.5 28.5t-102 13q-181 0 -297 -129t-116 -322q0 -191 116 -318.5t297 -127.5q52 0 101.5 12t82.5 29t59 34.5t38 29.5z" />
    <glyph glyph-name="D" unicode="D" horiz-adv-x="1296" 
d="M1219 614q0 -276 -173.5 -445t-459.5 -169h-434v1229h434q286 0 459.5 -169.5t173.5 -445.5zM573 1049h-219v-869h219q190 0 314.5 117.5t124.5 316.5q0 203 -124 319t-315 116z" />
    <glyph glyph-name="E" unicode="E" horiz-adv-x="1105" 
d="M926 709v-172h-572v-357h672v-180h-874v1229h874v-180h-672v-340h572z" />
    <glyph glyph-name="F" unicode="F" horiz-adv-x="1091" 
d="M926 707v-172h-572v-535h-202v1229h878v-180h-676v-342h572z" />
    <glyph glyph-name="G" unicode="G" horiz-adv-x="1308" 
d="M1036 516v6h-374v172h589v-121q0 -276 -150.5 -439t-412.5 -163q-185 0 -326 87t-213.5 231.5t-72.5 322.5q0 179 74.5 324.5t216.5 232t327 86.5q85 0 162 -16t125 -39.5t84.5 -46.5t52.5 -39l15 -16l-119 -156q-5 5 -14 13t-39.5 29t-65 37t-89.5 29t-112 13
q-183 0 -296 -128.5t-113 -322.5q0 -193 111 -319.5t292 -126.5q160 0 254 96.5t94 253.5z" />
    <glyph glyph-name="H" unicode="H" horiz-adv-x="1331" 
d="M1180 1229v-1229h-203v522h-623v-522h-202v1229h202v-535h623v535h203z" />
    <glyph glyph-name="I" unicode="I" horiz-adv-x="507" 
d="M354 1229v-1229h-202v1229h202z" />
    <glyph glyph-name="J" unicode="J" horiz-adv-x="909" 
d="M31 78l96 160q9 -8 26.5 -19.5t70.5 -31t106 -19.5q119 0 177.5 66t59.5 212v783h203v-821q-2 -201 -110 -319t-318 -118q-58 0 -111.5 11.5t-86.5 25t-62.5 32.5t-37.5 26t-13 12z" />
    <glyph glyph-name="K" unicode="K" horiz-adv-x="1202" 
d="M354 1229v-617l578 617h239v-25l-458 -491l465 -686v-27h-224q-254 375 -381 563l-219 -233v-330h-202v1229h202z" />
    <glyph glyph-name="L" unicode="L" horiz-adv-x="1011" 
d="M958 0h-806v1229h202v-1049h604v-180z" />
    <glyph glyph-name="M" unicode="M" horiz-adv-x="1486" 
d="M1135 0v856l-355 -463h-73l-353 457v-850h-202v1229h155l436 -574l439 574h151l2 -1229h-200z" />
    <glyph glyph-name="N" unicode="N" horiz-adv-x="1363" 
d="M1212 1229v-1229h-151l-707 872v-872h-202v1229h153l705 -869v869h202z" />
    <glyph glyph-name="O" unicode="O" horiz-adv-x="1382" 
d="M690 -29q-136 0 -252 50.5t-194.5 137t-123 204t-44.5 249.5q0 133 44.5 251t123 204.5t194.5 137t252 50.5q182 0 324 -86t217.5 -232t75.5 -325q0 -177 -75.5 -322.5t-217.5 -232t-324 -86.5zM690 168q181 0 295.5 126.5t114.5 317.5q0 193 -114.5 321t-295.5 128
q-179 0 -292 -128t-113 -321q0 -191 113 -317.5t292 -126.5z" />
    <glyph glyph-name="P" unicode="P" horiz-adv-x="1181" 
d="M152 0v1229h505q217 0 344 -110.5t127 -301.5q0 -198 -128.5 -309t-346.5 -111h-299v-397h-202zM920 815q0 115 -73 174.5t-200 59.5h-293v-474h295q126 0 198.5 60t72.5 180z" />
    <glyph glyph-name="Q" unicode="Q" horiz-adv-x="1382" 
d="M690 -29q-136 0 -252 50.5t-194.5 137t-123 204t-44.5 249.5q0 133 44.5 251t123 204.5t194.5 137t252 50.5q182 0 324 -86t217.5 -232t75.5 -325q0 -186 -84.5 -338t-233.5 -231l160 -274h-225l-119 213q-68 -11 -115 -11zM690 168q181 0 295.5 126.5t114.5 317.5
q0 193 -114.5 321t-295.5 128q-179 0 -292 -128t-113 -321q0 -191 113 -317.5t292 -126.5z" />
    <glyph glyph-name="R" unicode="R" horiz-adv-x="1226" 
d="M152 1229h505q217 0 344 -110.5t127 -301.5q0 -139 -69 -236.5t-191 -142.5v-10l295 -399v-29h-223l-293 406h-293v-406h-202v1229zM918 815q0 116 -72 175t-199 59h-293v-463h305q118 0 188.5 58t70.5 171z" />
    <glyph glyph-name="S" unicode="S" horiz-adv-x="1060" 
d="M72 125l110 154q6 -5 17 -13t46.5 -28.5t73.5 -36t96 -28.5t115 -13q120 0 179 45.5t59 124.5q0 71 -57.5 115t-221.5 94q-215 64 -311 145.5t-96 220.5q0 161 117.5 255.5t332.5 94.5q85 0 161 -13t122.5 -31.5t81.5 -36.5t49 -31l15 -13l-111 -165q-5 4 -14 11
t-40 24.5t-65.5 31t-88.5 24.5t-110 11q-105 0 -166 -40.5t-61 -113.5q0 -62 58 -101t215 -85q223 -63 319 -151.5t96 -231.5q0 -165 -117.5 -269t-338.5 -104q-88 0 -168.5 16t-132 38.5t-90.5 45t-56 38.5z" />
    <glyph glyph-name="T" unicode="T" horiz-adv-x="1071" 
d="M49 1049v180h973v-180h-385v-1049h-203v1049h-385z" />
    <glyph glyph-name="U" unicode="U" horiz-adv-x="1298" 
d="M649 -29q-236 0 -375 153t-139 396v709h203v-709q0 -158 80.5 -256t230.5 -98q153 0 232.5 97.5t79.5 256.5v709h202v-709q0 -160 -59.5 -283.5t-177 -194.5t-277.5 -71z" />
    <glyph glyph-name="V" unicode="V" 
d="M508 0l-504 1229h215l391 -996l394 996h213l-504 -1229h-205z" />
    <glyph glyph-name="W" unicode="W" horiz-adv-x="1644" 
d="M1069 0l-248 885l-246 -885h-157l-389 1229h215l250 -871l241 871h170l244 -873l250 873h219l-391 -1229h-158z" />
    <glyph glyph-name="X" unicode="X" horiz-adv-x="1128" 
d="M1094 1229l-379 -598l391 -631h-246l-248 422l-49 92l-47 -92l-246 -422h-243l385 631l-375 598h246l239 -402l43 -92l45 92l240 402h244z" />
    <glyph glyph-name="Y" unicode="Y" horiz-adv-x="1099" 
d="M596 748l274 481h226l-445 -758v-471h-202v471l-445 758h227l275 -481l45 -101z" />
    <glyph glyph-name="Z" unicode="Z" horiz-adv-x="1093" 
d="M61 0v145l695 904h-672v180h942v-150l-682 -899h672v-180h-955z" />
    <glyph glyph-name="bracketleft" unicode="[" horiz-adv-x="667" 
d="M121 -266v1700h512v-164h-320v-1372h320v-164h-512z" />
    <glyph glyph-name="backslash" unicode="\" horiz-adv-x="768" 
d="M506 -262l-445 1896h201l445 -1896h-201z" />
    <glyph glyph-name="bracketright" unicode="]" horiz-adv-x="667" 
d="M35 -266v164h317v1372h-317v164h512v-1700h-512z" />
    <glyph glyph-name="asciicircum" unicode="^" horiz-adv-x="854" 
d="M598 1018l-174 260l-176 -260h-158l277 401h116l281 -401h-166z" />
    <glyph glyph-name="underscore" unicode="_" horiz-adv-x="1097" 
d="M96 -246v164h905v-164h-905z" />
    <glyph glyph-name="grave" unicode="`" horiz-adv-x="571" 
d="M285 1018l-187 274l232 35l92 -309h-137z" />
    <glyph glyph-name="a" unicode="a" horiz-adv-x="950" 
d="M838 530v-530h-140l-24 113h-10q-38 -62 -111 -97.5t-174 -35.5q-150 0 -236 76.5t-86 195.5q0 131 100.5 207t291.5 76q99 0 196 -29v29q0 180 -223 180q-57 0 -115 -16t-87 -32l-30 -16l-69 152q5 3 14.5 8.5t42.5 19t69 23.5t92 18.5t114 8.5q191 0 288 -93.5
t97 -257.5zM424 123q92 0 155 53.5t66 132.5v70q-68 33 -174 33q-111 0 -166 -38.5t-55 -109.5q0 -62 46.5 -101.5t127.5 -39.5z" />
    <glyph glyph-name="b" unicode="b" horiz-adv-x="1067" 
d="M123 0v1239h201v-489h8q2 5 7.5 14t26.5 31.5t48.5 40t77.5 31.5t110 14q168 0 280.5 -126.5t112.5 -324.5q0 -202 -113 -326t-286 -124q-64 0 -118.5 16t-86.5 38.5t-54.5 45.5t-30.5 39l-9 16h-8l-29 -135h-137zM313 430q0 -129 68.5 -207t173.5 -78q103 0 170.5 80.5
t67.5 204.5q0 125 -67.5 205t-170.5 80q-105 0 -173.5 -77t-68.5 -208z" />
    <glyph glyph-name="c" unicode="c" horiz-adv-x="837" 
d="M512 -20q-197 0 -319.5 125.5t-122.5 322.5q0 199 122.5 326t319.5 127q52 0 98.5 -8t76 -19t51 -22t30.5 -19l10 -8l-55 -148q-9 6 -25.5 16t-68 26t-103.5 16q-110 0 -182 -77.5t-72 -209.5q0 -133 71.5 -208t182.5 -75q52 0 101 14.5t73 28.5l23 15l53 -146
q-3 -3 -9.5 -8.5t-30 -18.5t-51 -23t-74.5 -18.5t-99 -8.5z" />
    <glyph glyph-name="d" unicode="d" horiz-adv-x="1069" 
d="M737 760h8v479h201v-1239h-135l-31 127h-8q-3 -6 -9.5 -16t-31.5 -35t-55.5 -44.5t-85 -35.5t-117.5 -16q-173 0 -287 124t-114 326q0 199 113 325t282 126q58 0 107 -12.5t78 -30.5t49.5 -35.5t28.5 -30.5zM758 430q0 130 -69 207.5t-175 77.5q-105 0 -172.5 -80
t-67.5 -205q0 -124 68 -204.5t172 -80.5q105 0 174.5 78t69.5 207z" />
    <glyph glyph-name="e" unicode="e" horiz-adv-x="940" 
d="M764 215l72 -137q-4 -4 -12 -11t-37 -25t-62 -31.5t-88.5 -24.5t-116.5 -11q-207 0 -328.5 126.5t-121.5 326.5q0 197 115 325t302 128q184 0 288 -118t104 -310l-2 -54h-611q9 -128 79 -194t187 -66q64 0 122 19t84 38zM483 725q-84 0 -138 -48.5t-71 -144.5h404
q-11 94 -60.5 143.5t-134.5 49.5z" />
    <glyph glyph-name="f" unicode="f" horiz-adv-x="659" 
d="M637 702h-240v-702h-200v702h-154v158h154v74q0 150 81.5 234.5t229.5 84.5q54 0 102.5 -10.5t69.5 -20.5l22 -10l-63 -151q-45 22 -111 22q-60 0 -95.5 -37.5t-35.5 -101.5v-84h240v-158z" />
    <glyph glyph-name="g" unicode="g" horiz-adv-x="962" 
d="M911 707h-123v-5q4 -3 10.5 -11t17.5 -42.5t11 -81.5q0 -115 -91.5 -198.5t-258.5 -83.5q-103 0 -182 37q-28 -14 -38.5 -29.5t-10.5 -38.5q0 -26 15.5 -42t75 -30t169.5 -20q231 -10 324.5 -71t93.5 -185q0 -121 -118 -205t-327 -84q-213 0 -315.5 65t-102.5 175
q0 123 140 196q-129 53 -129 183q0 104 118 163q-61 73 -61 176q0 130 93.5 216t254.5 86q66 0 129 -17h305v-153zM506 4q-53 0 -131 8q-121 -48 -121 -139q0 -51 56 -84t169 -33q121 0 183.5 36t62.5 93q0 111 -219 119zM477 737q-77 0 -123.5 -45.5t-46.5 -111.5
q0 -68 46 -113t124 -45q81 0 127.5 45t46.5 113q0 66 -47 111.5t-127 45.5z" />
    <glyph glyph-name="h" unicode="h" horiz-adv-x="1048" 
d="M123 0v1239h203v-461h6q83 103 256 103q161 0 254.5 -105.5t93.5 -281.5v-494h-201v473q0 103 -54.5 169.5t-148.5 66.5q-96 0 -151 -66t-55 -145v-498h-203z" />
    <glyph glyph-name="i" unicode="i" horiz-adv-x="452" 
d="M225 1018q-52 0 -87.5 34.5t-35.5 86.5q0 51 36 86t87 35q53 0 89 -35t36 -86q0 -52 -36 -86.5t-89 -34.5zM125 0v860h201v-860h-201z" />
    <glyph glyph-name="j" unicode="j" horiz-adv-x="452" 
d="M4 -319v167h31q44 0 67 25.5t23 67.5v919h203v-930q0 -117 -62.5 -183t-183.5 -66h-78zM225 1018q-53 0 -88 34.5t-35 86.5q0 51 35.5 86t87.5 35q53 0 89 -35t36 -86q0 -52 -36 -86.5t-89 -34.5z" />
    <glyph glyph-name="k" unicode="k" horiz-adv-x="933" 
d="M662 860h249l-348 -375l355 -485h-244l-266 360l-84 -90v-270h-201v1239h201v-747z" />
    <glyph glyph-name="l" unicode="l" horiz-adv-x="454" 
d="M127 0v1239h201v-1239h-201z" />
    <glyph glyph-name="m" unicode="m" horiz-adv-x="1650" 
d="M123 0v860h131l25 -123h12q49 73 115.5 108.5t168.5 35.5q104 0 182.5 -40.5t123.5 -115.5h10q46 76 115.5 116t179.5 40q165 0 258.5 -105.5t93.5 -281.5v-494h-201v475q0 103 -52 168.5t-148 65.5q-94 0 -147 -58t-58 -137v-514h-201v496q0 94 -53.5 153.5t-149.5 59.5
q-95 0 -147 -59t-57 -136v-514h-201z" />
    <glyph glyph-name="n" unicode="n" horiz-adv-x="1050" 
d="M123 0v860h131l25 -123h12q47 73 115 108.5t174 35.5q166 0 262 -106t96 -281v-494h-201v475q0 102 -55 168t-150 66q-94 0 -148.5 -60t-59.5 -135v-514h-201z" />
    <glyph glyph-name="o" unicode="o" horiz-adv-x="1021" 
d="M952 426q0 -133 -59.5 -235.5t-160 -156.5t-222.5 -54q-187 0 -313.5 123t-126.5 323q0 202 126.5 328.5t313.5 126.5q122 0 222.5 -56t160 -160.5t59.5 -238.5zM510 139q105 0 175.5 79t70.5 210t-70.5 212t-175.5 81t-175.5 -81t-70.5 -212t70.5 -210t175.5 -79z" />
    <glyph glyph-name="p" unicode="p" horiz-adv-x="1067" 
d="M332 100h-8v-419h-201v1179h133l29 -123h12q3 6 9.5 15.5t32 34.5t57 44t86 34.5t116.5 15.5q172 0 285.5 -124.5t113.5 -326.5q0 -198 -112.5 -324t-280.5 -126q-60 0 -110 12.5t-78.5 30t-48.5 35t-27 30.5zM313 430q0 -130 69 -207.5t173 -77.5q105 0 172.5 80
t67.5 205q0 124 -68 204.5t-172 80.5t-173 -78t-69 -207z" />
    <glyph glyph-name="q" unicode="q" horiz-adv-x="1069" 
d="M946 860v-1179h-201v430h-8q-2 -5 -7.5 -14t-27 -31.5t-49 -40t-77.5 -31.5t-109 -14q-169 0 -282 125.5t-113 324.5q0 202 114 326.5t287 124.5q65 0 119.5 -16.5t86 -39.5t54 -46t31.5 -39l8 -17h10l29 137h135zM758 430q0 129 -69.5 207t-174.5 78q-104 0 -172 -80.5
t-68 -204.5q0 -125 67.5 -205t172.5 -80q106 0 175 77.5t69 207.5z" />
    <glyph glyph-name="r" unicode="r" horiz-adv-x="606" 
d="M582 862v-168h-47q-87 0 -147.5 -59t-63.5 -152v-483h-201v860h131l25 -137h10q69 139 246 139h47z" />
    <glyph glyph-name="s" unicode="s" horiz-adv-x="856" 
d="M70 80l71 137q5 -3 14.5 -9t39.5 -20.5t61.5 -25.5t78 -20t91.5 -9q160 0 160 98q0 33 -28 56t-73.5 38t-100 29t-109 34.5t-100 48.5t-73.5 76.5t-28 113.5q0 111 86 182.5t248 71.5q104 0 193.5 -18.5t126.5 -36.5l38 -19l-68 -156q-12 8 -35 20.5t-93.5 33
t-141.5 20.5q-156 0 -156 -92q0 -28 22 -48t58.5 -31.5t83 -24.5t94.5 -24.5t94.5 -33t83 -49t58.5 -74t22 -106.5q0 -115 -87.5 -188.5t-268.5 -73.5q-71 0 -134 10.5t-103 25t-69.5 29t-42.5 25.5z" />
    <glyph glyph-name="t" unicode="t" horiz-adv-x="679" 
d="M31 860h153v262h201v-262h231v-158h-231v-436q0 -114 109 -114q24 0 50.5 8t41.5 16l14 8l59 -141q-16 -11 -39.5 -23t-71.5 -26t-95 -14q-136 0 -202.5 75t-66.5 207v440h-153v158z" />
    <glyph glyph-name="u" unicode="u" horiz-adv-x="1044" 
d="M721 356v504h201v-860h-131l-35 119h-8q-96 -139 -283 -139q-165 0 -258.5 105.5t-93.5 281.5v493h200v-475q0 -106 50.5 -172t146.5 -66q52 0 94 20t66.5 51.5t37.5 67.5t13 70z" />
    <glyph glyph-name="v" unicode="v" horiz-adv-x="940" 
d="M930 860l-389 -860h-142l-389 860h221l218 -559q16 -32 16 -63h10q0 20 17 63l217 559h221z" />
    <glyph glyph-name="w" unicode="w" horiz-adv-x="1353" 
d="M1333 860l-313 -860h-172l-154 537q-12 34 -12 79h-10q0 -30 -17 -79l-151 -537h-170l-314 860h211l166 -559q15 -50 15 -63h14q0 8 2.5 20t6.5 26t5 21l154 555h170l154 -555q14 -40 14 -67h14q0 17 12 63l170 559h205z" />
    <glyph glyph-name="x" unicode="x" horiz-adv-x="913" 
d="M29 0l303 442l-289 418h229l185 -293h6l184 293h227l-296 -418l313 -442h-229l-199 319h-6l-203 -319h-225z" />
    <glyph glyph-name="y" unicode="y" horiz-adv-x="931" 
d="M918 860l-510 -1179h-209l176 376l-363 803h221l222 -559q14 -47 14 -63h10q0 26 15 63l219 559h205z" />
    <glyph glyph-name="z" unicode="z" horiz-adv-x="870" 
d="M799 0h-729v109l469 589h-465v162h725v-98l-457 -600h457v-162z" />
    <glyph glyph-name="braceleft" unicode="{" horiz-adv-x="593" 
d="M31 668h51q125 0 125 176v332q0 268 295 288l28 -168q-65 -11 -90.5 -38t-25.5 -99v-340q0 -181 -125 -225v-19q61 -20 93 -77.5t32 -143.5v-342q0 -71 26 -99t90 -36l-28 -168q-295 17 -295 287v334q0 178 -125 178h-51v160z" />
    <glyph glyph-name="bar" unicode="|" horiz-adv-x="428" 
d="M307 1407v-1669h-186v1669h186z" />
    <glyph glyph-name="braceright" unicode="}" horiz-adv-x="593" 
d="M514 668h49v-160h-49q-127 0 -127 -178v-334q0 -270 -293 -287l-31 168q65 8 91 36t26 99v342q0 86 32.5 143.5t94.5 77.5v19q-127 44 -127 225v340q0 72 -25.5 99t-91.5 38l31 168q293 -20 293 -288v-332q0 -176 127 -176z" />
    <glyph glyph-name="asciitilde" unicode="~" horiz-adv-x="976" 
d="M635 662q42 0 82.5 13t60.5 25l19 13l67 -125q-3 -3 -9.5 -8.5t-29 -19.5t-46.5 -24.5t-62.5 -19t-77.5 -8.5q-57 0 -146 32.5t-153 32.5q-42 0 -82.5 -12.5t-59.5 -25.5l-20 -13l-65 123q4 3 10.5 8.5t28.5 20t46.5 25t62 19.5t75.5 9q58 0 147 -32.5t152 -32.5z" />
    <glyph glyph-name="uni00A0" unicode="&#xa0;" horiz-adv-x="438" 
 />
    <glyph glyph-name="exclamdown" unicode="&#xa1;" horiz-adv-x="432" 
d="M285 487l49 -849h-238l51 849h138zM88 754q0 55 37.5 92t91.5 37t90.5 -37t36.5 -92q0 -54 -36.5 -91.5t-90.5 -37.5t-91.5 37.5t-37.5 91.5z" />
    <glyph glyph-name="cent" unicode="&#xa2;" horiz-adv-x="876" 
d="M375 0l22 176q-146 38 -231.5 154t-85.5 278q0 196 120.5 322.5t313.5 130.5l23 168h104l-23 -176q50 -8 94 -24.5t62 -28.5l19 -13l-54 -149q-57 39 -143 53l-74 -565h21q51 0 100 14t73 28l23 15l52 -147q-4 -3 -11 -8t-32 -18.5t-53 -23.5t-73.5 -18t-93.5 -8h-28
l-21 -160h-104zM283 608q0 -89 37.5 -155t101.5 -99l70 535q-92 -18 -150.5 -93t-58.5 -188z" />
    <glyph glyph-name="sterling" unicode="&#xa3;" horiz-adv-x="1034" 
d="M932 180v-180h-811v180h2l-2 2q5 2 13.5 6.5t29.5 21.5t37 37.5t29.5 56.5t13.5 77q0 33 -27 143h-129v148h90q-22 108 -22 180q0 79 29.5 149t85 124t143 86t194.5 32q67 0 127.5 -13.5t99 -32.5t68 -37.5t42.5 -31.5l13 -14l-120 -160q-3 4 -9.5 10t-28 22t-46 28.5
t-62.5 22.5t-78 10q-115 0 -174 -61t-59 -157q0 -69 20 -157h402v-148h-365q21 -86 21 -141q0 -116 -62 -203h535z" />
    <glyph glyph-name="yen" unicode="&#xa5;" horiz-adv-x="1212" 
d="M651 748l275 481h225l-363 -617h254v-147h-335v-139h335v-146h-335v-180h-203v180h-332v146h332v139h-332v147h248l-361 617h228l274 -481l45 -101z" />
    <glyph glyph-name="brokenbar" unicode="&#xa6;" horiz-adv-x="446" 
d="M315 676h-184v702h184v-702zM315 -313h-184v702h184v-702z" />
    <glyph glyph-name="section" unicode="&#xa7;" horiz-adv-x="1081" 
d="M74 94l96 148q6 -4 17 -10.5t47.5 -24t76 -30.5t100 -23.5t121.5 -10.5q119 0 175.5 28.5t56.5 74.5q0 54 -50 81t-206 72q-62 18 -108 34.5t-93.5 40t-77 49.5t-48.5 61.5t-19 77.5q0 91 74 137q-125 67 -125 186q0 123 112 196.5t330 73.5q81 0 153.5 -10t118.5 -24
t80 -28t49 -24l15 -10l-95 -153q-5 3 -14 8.5t-40.5 19.5t-66 24.5t-89 19.5t-111.5 9q-209 0 -209 -98q0 -50 47.5 -78.5t161.5 -58.5q84 -23 146 -45.5t122.5 -55.5t92.5 -76.5t32 -96.5q0 -93 -69 -152q120 -72 120 -182q0 -55 -27 -103t-80.5 -86.5t-143.5 -61
t-207 -22.5q-87 0 -167 12.5t-132 30.5t-91.5 36.5t-56.5 31.5zM483 713q-34 7 -86 22q-35 -15 -35 -63q0 -71 216 -133l131 -39q32 26 32 67q0 46 -62.5 78t-195.5 68z" />
    <glyph glyph-name="dieresis" unicode="&#xa8;" horiz-adv-x="931" 
d="M176 1454q0 44 34 78.5t77 34.5q44 0 78 -34.5t34 -78.5t-34 -78.5t-78 -34.5q-43 0 -77 34.5t-34 78.5zM526 1454q0 44 33 78.5t76 34.5q44 0 77 -34t33 -79t-33 -79t-77 -34q-43 0 -76 34.5t-33 78.5z" />
    <glyph glyph-name="copyright" unicode="&#xa9;" horiz-adv-x="1394" 
d="M698 1239q140 0 256.5 -49.5t194 -135t120 -199.5t42.5 -243q0 -128 -42.5 -241.5t-120 -198.5t-194 -134.5t-256.5 -49.5q-185 0 -326.5 85t-214.5 226t-73 313q0 173 73 314.5t214.5 227t326.5 85.5zM698 1153q-119 0 -218.5 -42.5t-165.5 -116t-102 -172t-36 -210.5
q0 -149 61.5 -270t182 -194.5t278.5 -73.5t279.5 73.5t183.5 195t62 269.5q0 112 -36.5 210.5t-103 172t-166.5 116t-219 42.5zM926 868l-70 -104q-6 6 -16.5 14.5t-46 22.5t-74.5 14q-88 0 -140.5 -56.5t-52.5 -144.5t52.5 -143t140.5 -55q39 0 73.5 12t49.5 24l14 13
l70 -103l-8 -8t-24.5 -18t-42 -23t-60 -18t-78.5 -8q-151 0 -239.5 93t-88.5 234t88.5 235.5t239.5 94.5q42 0 79.5 -8t61 -19t40.5 -22t24 -19z" />
    <glyph glyph-name="ordfeminine" unicode="&#xaa;" horiz-adv-x="808" 
d="M70 760q0 101 76.5 159t207.5 58q136 0 191 -51v20q0 95 -38.5 139.5t-135.5 44.5q-95 0 -189 -45l-45 119q14 6 37.5 15t91 23.5t127.5 14.5q162 0 231.5 -80.5t69.5 -234.5v-381h-110l-23 74h-10q-20 -35 -73.5 -62.5t-153.5 -27.5q-110 0 -182 60t-72 155zM217 766
q0 -52 41.5 -83.5t112.5 -31.5q75 0 124.5 36.5t49.5 82.5q0 51 -46.5 80t-121.5 29q-76 0 -118 -30t-42 -83z" />
    <glyph glyph-name="guillemotleft" unicode="&#xab;" horiz-adv-x="974" 
d="M74 403v46l254 387h170v-21l-246 -381v-12l246 -385v-21h-170zM477 403v46l254 387h168v-21l-246 -381v-12l246 -385v-21h-168z" />
    <glyph glyph-name="logicalnot" unicode="&#xac;" horiz-adv-x="1130" 
d="M90 545v164h916v-709h-168v545h-748z" />
    <glyph glyph-name="registered" unicode="&#xae;" horiz-adv-x="1107" 
d="M1018 778q0 -131 -54.5 -238.5t-162 -173t-248.5 -65.5q-140 0 -246.5 66t-160.5 173.5t-54 237.5q0 131 54 238.5t160.5 173t246.5 65.5q141 0 248.5 -65.5t162 -173t54.5 -238.5zM926 778q0 168 -103.5 278.5t-269.5 110.5q-165 0 -267 -108.5t-102 -280.5
q0 -167 103 -278t266 -111q166 0 269.5 110.5t103.5 278.5zM377 993h192q80 0 128 -41t48 -108q0 -87 -75 -127l82 -117v-20h-99l-80 114h-104v-114h-92v413zM567 905h-98v-125h98q36 0 58 16t22 46q0 63 -80 63z" />
    <glyph glyph-name="macron" unicode="&#xaf;" horiz-adv-x="1077" 
d="M248 1368v125h604v-125h-604z" />
    <glyph glyph-name="degree" unicode="&#xb0;" horiz-adv-x="600" 
d="M301 1376q103 0 168.5 -63.5t65.5 -157.5t-65.5 -156.5t-168.5 -62.5q-104 0 -169.5 62.5t-65.5 156.5t65.5 157.5t169.5 63.5zM301 1274q-54 0 -86.5 -33.5t-32.5 -85.5q0 -47 32.5 -80t86.5 -33q52 0 84.5 33t32.5 80q0 52 -32 85.5t-85 33.5z" />
    <glyph glyph-name="plusminus" unicode="&#xb1;" horiz-adv-x="1069" 
d="M623 365h-168v327h-336v164h336v340h168v-340h327v-164h-327v-327zM950 229v-166h-831v166h831z" />
    <glyph glyph-name="twosuperior" unicode="&#xb2;" horiz-adv-x="698" 
d="M102 700v111l271 236q63 55 63 112q0 45 -27 71.5t-83 26.5q-11 0 -22.5 -1.5t-21.5 -3.5t-20.5 -6.5t-18 -7.5t-17.5 -9l-15 -9t-14 -10t-12 -9t-11 -9l-8 -6l-74 108q4 4 10.5 10t30 22t49 28t66 22t82.5 10q125 0 188.5 -62t63.5 -157q0 -59 -20 -103.5t-68 -84.5
l-187 -160h289v-119h-494z" />
    <glyph glyph-name="threesuperior" unicode="&#xb3;" horiz-adv-x="671" 
d="M98 1247v121h465v-90l-133 -172q79 -15 121.5 -65.5t42.5 -127.5q0 -100 -70.5 -164.5t-201.5 -64.5q-43 0 -84 9.5t-67 21t-50 27t-31.5 22t-13.5 12.5l74 101q3 -3 8 -7.5t21.5 -16t34.5 -20.5t46 -16.5t57 -7.5q66 0 100 29.5t34 74.5t-30 71t-89 26h-82v73l129 164
h-281z" />
    <glyph glyph-name="acute" unicode="&#xb4;" horiz-adv-x="571" 
d="M449 1288l-203 -270h-137l106 297z" />
    <glyph glyph-name="mu" unicode="&#xb5;" horiz-adv-x="1044" 
d="M725 356v504h201v-860h-131l-35 119h-8q-96 -139 -283 -139q-89 0 -156 30l4 -272h-200v1122h200v-475q0 -106 50.5 -172t146.5 -66q52 0 94 20t66.5 51.5t37.5 67.5t13 70z" />
    <glyph glyph-name="paragraph" unicode="&#xb6;" horiz-adv-x="1097" 
d="M758 -168v418h-123q-166 0 -294 55.5t-204 170t-76 274.5q0 155 74.5 265t201.5 163t294 53h330v-1399h-203z" />
    <glyph glyph-name="periodcentered" unicode="&#xb7;" horiz-adv-x="444" 
d="M94 735q0 54 37.5 92.5t89.5 38.5q54 0 91.5 -38.5t37.5 -92.5t-37.5 -91.5t-91.5 -37.5q-53 0 -90 37.5t-37 91.5z" />
    <glyph glyph-name="cedilla" unicode="&#xb8;" horiz-adv-x="421" 
d="M150 -141l-35 41l53 106h98l-28 -69q57 0 94 -35.5t37 -96.5q0 -67 -45 -108t-125 -41q-50 0 -91 15t-57 31l-16 15l49 74q57 -41 109 -41q36 0 56.5 16t20.5 44q0 27 -20 41t-53 14q-14 0 -25.5 -1.5t-16.5 -3.5z" />
    <glyph glyph-name="onesuperior" unicode="&#xb9;" horiz-adv-x="440" 
d="M47 1247v121h272v-668h-137v547h-135z" />
    <glyph glyph-name="ordmasculine" unicode="&#xba;" horiz-adv-x="817" 
d="M410 1255q147 0 241 -97t94 -259q0 -156 -94 -252t-241 -96q-148 0 -243 96t-95 252q0 162 94.5 259t243.5 97zM410 1126q-87 0 -139 -61.5t-52 -163.5q0 -100 52 -160.5t139 -60.5q86 0 137 60.5t51 160.5q0 102 -51 163.5t-137 61.5z" />
    <glyph glyph-name="guillemotright" unicode="&#xbb;" horiz-adv-x="974" 
d="M500 449v-46l-254 -387h-170v21l248 385v12l-248 381v21h170zM901 449v-46l-254 -387h-170v21l248 385v12l-248 381v21h170z" />
    <glyph glyph-name="onequarter" unicode="&#xbc;" horiz-adv-x="1304" 
d="M229 0h-166l965 1229h166zM643 164v86l367 418h102v-392h121v-112h-121v-164h-129v164h-340zM88 1108v121h274v-668h-137v547h-137zM858 328q-29 -34 -53 -58l80 6h98v201h-2z" />
    <glyph glyph-name="onehalf" unicode="&#xbd;" horiz-adv-x="1423" 
d="M227 0h-164l963 1229h168zM854 111v-111h494v119h-289l186 160q48 40 68 84.5t20 103.5q0 95 -63 157t-187 62q-42 0 -82 -9.5t-67 -23t-47.5 -27t-30.5 -22.5l-10 -10l74 -109q83 72 157 72q56 0 84.5 -26.5t28.5 -71.5q0 -57 -64 -113zM96 1108v121h273v-668h-138v547
h-135z" />
    <glyph glyph-name="threequarters" unicode="&#xbe;" horiz-adv-x="1445" 
d="M383 0h-166l963 1229h168zM793 158v86l364 418h105v-392h112v-112h-112v-158h-134v158h-335zM92 1108v121h465v-90l-133 -172q78 -15 120 -65t42 -128q0 -100 -70 -164.5t-201 -64.5q-43 0 -84 9.5t-67 21t-50 27t-31 22t-13 12.5l73 100q3 -3 8 -7.5t22 -16t35 -20.5
t46 -16t57 -7q65 0 99 29.5t34 74.5t-29.5 70.5t-88.5 25.5h-82v74l129 164h-281zM1006 324q-23 -29 -54 -60l80 6h96v203h-2z" />
    <glyph glyph-name="questiondown" unicode="&#xbf;" horiz-adv-x="868" 
d="M723 -106l98 -164q-5 -5 -14.5 -12.5t-42 -27.5t-69 -35t-95.5 -27.5t-121 -12.5q-188 0 -302 89t-114 241q0 82 32 147t78 107t93 78.5t82.5 79.5t40.5 92l4 49h156v-74q0 -60 -27 -112t-65 -89.5t-76 -73t-65 -80t-27 -94.5q0 -74 55 -118.5t150 -44.5q60 0 117 20.5
t85 41.5zM592 760q0 -52 -36 -88.5t-89 -36.5t-89 36.5t-36 88.5q0 54 36 90.5t89 36.5t89 -36.5t36 -90.5z" />
    <glyph glyph-name="Agrave" unicode="&#xc0;" 
d="M713 1229l504 -1229h-213l-101 252h-586l-98 -252h-215l504 1229h205zM610 993l-225 -569h451zM537 1300l-187 275l232 35l92 -310h-137z" />
    <glyph glyph-name="Aacute" unicode="&#xc1;" 
d="M713 1229l504 -1229h-213l-101 252h-586l-98 -252h-215l504 1229h205zM610 993l-225 -569h451zM885 1571l-203 -271h-137l106 297z" />
    <glyph glyph-name="Acircumflex" unicode="&#xc2;" 
d="M713 1229l504 -1229h-213l-101 252h-586l-98 -252h-215l504 1229h205zM610 993l-225 -569h451zM713 1341l-101 127l-102 -127h-156l178 248h158l180 -248h-157z" />
    <glyph glyph-name="Atilde" unicode="&#xc3;" 
d="M713 1229l504 -1229h-213l-101 252h-586l-98 -252h-215l504 1229h205zM610 993l-225 -569h451zM770 1346q-53 0 -106.5 25.5t-98 51t-76.5 25.5q-35 0 -51.5 -19t-27.5 -55l-9 -33l-141 15l10 61q16 84 63.5 134.5t131.5 50.5q52 0 105 -26t97.5 -51.5t77.5 -25.5
q37 0 55.5 20t26.5 56l7 31l141 -13l-10 -61q-13 -84 -61.5 -135t-133.5 -51z" />
    <glyph glyph-name="Adieresis" unicode="&#xc4;" 
d="M713 1229l504 -1229h-213l-101 252h-586l-98 -252h-215l504 1229h205zM610 993l-225 -569h451zM324 1454q0 44 33.5 78.5t76.5 34.5q44 0 78.5 -34.5t34.5 -78.5t-34.5 -78.5t-78.5 -34.5q-43 0 -76.5 34.5t-33.5 78.5zM674 1454q0 44 32.5 78.5t75.5 34.5
q44 0 77.5 -34.5t33.5 -78.5t-33.5 -78.5t-77.5 -34.5q-43 0 -75.5 34.5t-32.5 78.5z" />
    <glyph glyph-name="Aring" unicode="&#xc5;" 
d="M713 1229l504 -1229h-213l-101 252h-586l-98 -252h-215l504 1229h205zM610 993l-225 -569h451zM389 1442q0 81 60 130.5t163 49.5q100 0 159.5 -50t59.5 -130q0 -81 -59.5 -131.5t-159.5 -50.5q-103 0 -163 50.5t-60 131.5zM715 1442q0 38 -27.5 59t-75.5 21
q-50 0 -78 -21t-28 -59q0 -39 28 -59.5t78 -20.5q48 0 75.5 20.5t27.5 59.5z" />
    <glyph glyph-name="AE" unicode="&#xc6;" horiz-adv-x="1816" 
d="M-20 0l841 1229h918v-180h-686v-344h569v-173h-569v-352h686v-180h-889v258h-457l-170 -258h-243zM840 930l-330 -498h340v498h-10z" />
    <glyph glyph-name="Ccedilla" unicode="&#xc7;" horiz-adv-x="1146" 
d="M600 -141l-35 41l39 77q-160 20 -281 109.5t-185 226t-64 299.5q0 179 75.5 325t218 232t326.5 86q79 0 151 -16t118 -38.5t80.5 -44.5t49.5 -38l15 -16l-117 -158q-4 5 -12.5 13t-37 28.5t-60 36t-81.5 28.5t-102 13q-181 0 -297 -129t-116 -322q0 -191 116 -318.5
t297 -127.5q52 0 101.5 12t82.5 29t59 34.5t38 29.5l12 12l117 -156q-5 -6 -15.5 -16.5t-48 -37t-80.5 -46.5t-114 -37.5t-148 -18.5l-14 -34q57 0 94 -35.5t37 -96.5q0 -67 -45 -108t-125 -41q-50 0 -91 15t-57 31l-16 15l50 74q57 -41 108 -41q37 0 57.5 16t20.5 44
q0 27 -20 41t-54 14q-14 0 -25.5 -1.5t-16.5 -3.5z" />
    <glyph glyph-name="Egrave" unicode="&#xc8;" horiz-adv-x="1105" 
d="M926 709v-172h-572v-357h672v-180h-874v1229h874v-180h-672v-340h572zM547 1300l-187 275l232 35l92 -310h-137z" />
    <glyph glyph-name="Eacute" unicode="&#xc9;" horiz-adv-x="1105" 
d="M866 1571l-202 -271h-138l107 297zM926 709v-172h-572v-357h672v-180h-874v1229h874v-180h-672v-340h572z" />
    <glyph glyph-name="Ecircumflex" unicode="&#xca;" horiz-adv-x="1105" 
d="M709 1341l-101 127l-102 -127h-156l178 248h158l180 -248h-157zM926 709v-172h-572v-357h672v-180h-874v1229h874v-180h-672v-340h572z" />
    <glyph glyph-name="Edieresis" unicode="&#xcb;" horiz-adv-x="1105" 
d="M317 1454q0 44 34 78.5t77 34.5q44 0 78.5 -34.5t34.5 -78.5t-34.5 -78.5t-78.5 -34.5q-43 0 -77 34.5t-34 78.5zM668 1454q0 44 32.5 78.5t75.5 34.5q44 0 77.5 -34.5t33.5 -78.5t-33.5 -78.5t-77.5 -34.5q-43 0 -75.5 34.5t-32.5 78.5zM926 709v-172h-572v-357h672
v-180h-874v1229h874v-180h-672v-340h572z" />
    <glyph glyph-name="Igrave" unicode="&#xcc;" horiz-adv-x="507" 
d="M354 1229v-1229h-202v1229h202zM178 1300l-186 275l231 35l92 -310h-137z" />
    <glyph glyph-name="Iacute" unicode="&#xcd;" horiz-adv-x="507" 
d="M354 1229v-1229h-202v1229h202zM526 1571l-202 -271h-138l107 297z" />
    <glyph glyph-name="Icircumflex" unicode="&#xce;" horiz-adv-x="507" 
d="M354 1229v-1229h-202v1229h202zM358 1341l-100 127l-102 -127h-156l178 248h158l180 -248h-158z" />
    <glyph glyph-name="Idieresis" unicode="&#xcf;" horiz-adv-x="507" 
d="M354 1229v-1229h-202v1229h202zM-31 1454q0 44 34 78.5t77 34.5q44 0 78.5 -34.5t34.5 -78.5t-34.5 -78.5t-78.5 -34.5q-43 0 -77 34.5t-34 78.5zM319 1454q0 44 33 78.5t76 34.5q44 0 77.5 -34.5t33.5 -78.5t-33.5 -78.5t-77.5 -34.5q-43 0 -76 34.5t-33 78.5z" />
    <glyph glyph-name="Eth" unicode="&#xd0;" horiz-adv-x="1298" 
d="M43 530v183h111v516h434q286 0 459.5 -169.5t173.5 -445.5t-173.5 -445t-459.5 -169h-434v530h-111zM575 1049h-219v-336h316v-183h-316v-350h219q190 0 314.5 117.5t124.5 316.5q0 203 -124 319t-315 116z" />
    <glyph glyph-name="Ntilde" unicode="&#xd1;" horiz-adv-x="1363" 
d="M1212 1229v-1229h-151l-707 872v-872h-202v1229h153l705 -869v869h202zM842 1348q-53 0 -106.5 25.5t-98 51t-76.5 25.5q-35 0 -52 -19.5t-28 -54.5l-8 -33l-141 15l10 61q16 84 63.5 134.5t131.5 50.5q52 0 105 -26t97.5 -51.5t77.5 -25.5q37 0 55.5 20t26.5 56l6 31
l142 -13l-11 -61q-13 -84 -61 -135t-133 -51z" />
    <glyph glyph-name="Ograve" unicode="&#xd2;" horiz-adv-x="1382" 
d="M690 -29q-136 0 -252 50.5t-194.5 137t-123 204t-44.5 249.5q0 133 44.5 251t123 204.5t194.5 137t252 50.5q182 0 324 -86t217.5 -232t75.5 -325q0 -177 -75.5 -322.5t-217.5 -232t-324 -86.5zM690 168q181 0 295.5 126.5t114.5 317.5q0 193 -114.5 321t-295.5 128
q-179 0 -292 -128t-113 -321q0 -191 113 -317.5t292 -126.5zM623 1341l-187 275l232 35l92 -310h-137z" />
    <glyph glyph-name="Oacute" unicode="&#xd3;" horiz-adv-x="1382" 
d="M954 1612l-202 -271h-138l107 297zM690 -29q-136 0 -252 50.5t-194.5 137t-123 204t-44.5 249.5q0 133 44.5 251t123 204.5t194.5 137t252 50.5q182 0 324 -86t217.5 -232t75.5 -325q0 -177 -75.5 -322.5t-217.5 -232t-324 -86.5zM690 168q181 0 295.5 126.5t114.5 317.5
q0 193 -114.5 321t-295.5 128q-179 0 -292 -128t-113 -321q0 -191 113 -317.5t292 -126.5z" />
    <glyph glyph-name="Ocircumflex" unicode="&#xd4;" horiz-adv-x="1382" 
d="M795 1341l-101 127l-102 -127h-156l178 248h158l180 -248h-157zM690 -29q-136 0 -252 50.5t-194.5 137t-123 204t-44.5 249.5q0 133 44.5 251t123 204.5t194.5 137t252 50.5q182 0 324 -86t217.5 -232t75.5 -325q0 -177 -75.5 -322.5t-217.5 -232t-324 -86.5zM690 168
q181 0 295.5 126.5t114.5 317.5q0 193 -114.5 321t-295.5 128q-179 0 -292 -128t-113 -321q0 -191 113 -317.5t292 -126.5z" />
    <glyph glyph-name="Otilde" unicode="&#xd5;" horiz-adv-x="1382" 
d="M690 -29q-136 0 -252 50.5t-194.5 137t-123 204t-44.5 249.5q0 133 44.5 251t123 204.5t194.5 137t252 50.5q182 0 324 -86t217.5 -232t75.5 -325q0 -177 -75.5 -322.5t-217.5 -232t-324 -86.5zM690 168q181 0 295.5 126.5t114.5 317.5q0 193 -114.5 321t-295.5 128
q-179 0 -292 -128t-113 -321q0 -191 113 -317.5t292 -126.5zM844 1346q-53 0 -106.5 25.5t-98 51t-76.5 25.5q-35 0 -52 -19.5t-28 -54.5l-8 -33l-141 15l10 61q16 84 63.5 134.5t131.5 50.5q52 0 105 -26t97.5 -51.5t77.5 -25.5q37 0 55.5 20t26.5 56l6 31l142 -13l-11 -61
q-13 -84 -61 -135t-133 -51z" />
    <glyph glyph-name="Odieresis" unicode="&#xd6;" horiz-adv-x="1382" 
d="M406 1454q0 44 33.5 78.5t76.5 34.5q44 0 78.5 -34.5t34.5 -78.5t-34.5 -78.5t-78.5 -34.5q-43 0 -76.5 34.5t-33.5 78.5zM756 1454q0 44 32.5 78.5t75.5 34.5q44 0 77.5 -34.5t33.5 -78.5t-33.5 -78.5t-77.5 -34.5q-43 0 -75.5 34.5t-32.5 78.5zM690 -29
q-136 0 -252 50.5t-194.5 137t-123 204t-44.5 249.5q0 133 44.5 251t123 204.5t194.5 137t252 50.5q182 0 324 -86t217.5 -232t75.5 -325q0 -177 -75.5 -322.5t-217.5 -232t-324 -86.5zM690 168q181 0 295.5 126.5t114.5 317.5q0 193 -114.5 321t-295.5 128
q-179 0 -292 -128t-113 -321q0 -191 113 -317.5t292 -126.5z" />
    <glyph glyph-name="multiply" unicode="&#xd7;" horiz-adv-x="1028" 
d="M219 195l-115 114l297 305l-297 308l115 114l295 -305l297 305l115 -114l-299 -308l299 -305l-115 -114l-297 305z" />
    <glyph glyph-name="Oslash" unicode="&#xd8;" horiz-adv-x="1402" 
d="M700 -29q-227 0 -389 133l-102 -104h-215l211 217q-119 171 -119 395q0 133 44.5 251t123 204.5t194.5 137t252 50.5q224 0 387 -131l103 105h213l-209 -215q123 -171 123 -402q0 -177 -75.5 -322.5t-217.5 -232t-324 -86.5zM700 168q181 0 295.5 126.5t114.5 317.5
q0 139 -63 250l-594 -610q108 -84 247 -84zM295 612q0 -138 59 -241l592 608q-109 82 -246 82q-179 0 -292 -128t-113 -321z" />
    <glyph glyph-name="Ugrave" unicode="&#xd9;" horiz-adv-x="1298" 
d="M649 -29q-236 0 -375 153t-139 396v709h203v-709q0 -158 80.5 -256t230.5 -98q153 0 232.5 97.5t79.5 256.5v709h202v-709q0 -160 -59.5 -283.5t-177 -194.5t-277.5 -71zM578 1300l-187 275l232 35l92 -310h-137z" />
    <glyph glyph-name="Uacute" unicode="&#xda;" horiz-adv-x="1298" 
d="M913 1571l-202 -271h-138l107 297zM649 -29q-236 0 -375 153t-139 396v709h203v-709q0 -158 80.5 -256t230.5 -98q153 0 232.5 97.5t79.5 256.5v709h202v-709q0 -160 -59.5 -283.5t-177 -194.5t-277.5 -71z" />
    <glyph glyph-name="Ucircumflex" unicode="&#xdb;" horiz-adv-x="1298" 
d="M754 1298l-101 127l-102 -127h-156l178 248h158l180 -248h-157zM649 -29q-236 0 -375 153t-139 396v709h203v-709q0 -158 80.5 -256t230.5 -98q153 0 232.5 97.5t79.5 256.5v709h202v-709q0 -160 -59.5 -283.5t-177 -194.5t-277.5 -71z" />
    <glyph glyph-name="Udieresis" unicode="&#xdc;" horiz-adv-x="1298" 
d="M367 1454q0 44 33.5 78.5t76.5 34.5q44 0 78.5 -34.5t34.5 -78.5t-34.5 -78.5t-78.5 -34.5q-43 0 -76.5 34.5t-33.5 78.5zM717 1454q0 44 32.5 78.5t75.5 34.5q44 0 77.5 -34.5t33.5 -78.5t-33.5 -78.5t-77.5 -34.5q-43 0 -75.5 34.5t-32.5 78.5zM649 -29
q-236 0 -375 153t-139 396v709h203v-709q0 -158 80.5 -256t230.5 -98q153 0 232.5 97.5t79.5 256.5v709h202v-709q0 -160 -59.5 -283.5t-177 -194.5t-277.5 -71z" />
    <glyph glyph-name="Yacute" unicode="&#xdd;" horiz-adv-x="1099" 
d="M596 748l274 481h226l-445 -758v-471h-202v471l-445 758h227l275 -481l45 -101zM819 1638l-203 -270h-137l107 297z" />
    <glyph glyph-name="Thorn" unicode="&#xde;" horiz-adv-x="1189" 
d="M354 1229v-193h312q223 0 349 -109.5t126 -308.5q0 -208 -132 -320t-356 -112h-299v-186h-202v1229h202zM932 612q0 118 -75.5 180t-205.5 62h-297v-489h297q133 0 207 60.5t74 186.5z" />
    <glyph glyph-name="germandbls" unicode="&#xdf;" horiz-adv-x="1019" 
d="M485 539v143q199 33 199 209q0 78 -46.5 127t-127.5 49q-82 0 -134 -57t-52 -156v-854h-201v831q0 197 102.5 302.5t294.5 105.5q168 0 271.5 -98t103.5 -248q0 -88 -38 -155t-105 -101q94 -31 145 -112.5t51 -184.5q0 -163 -104 -259.5t-283 -96.5q-44 0 -79 4t-48 8
l-12 4l12 139q45 -6 96 -6q102 0 163 55t61 146q0 96 -61 150.5t-161 54.5h-47z" />
    <glyph glyph-name="agrave" unicode="&#xe0;" horiz-adv-x="950" 
d="M838 530v-530h-140l-24 113h-10q-38 -62 -111 -97.5t-174 -35.5q-150 0 -236 76.5t-86 195.5q0 131 100.5 207t291.5 76q99 0 196 -29v29q0 180 -223 180q-57 0 -115 -16t-87 -32l-30 -16l-69 152q5 3 14.5 8.5t42.5 19t69 23.5t92 18.5t114 8.5q191 0 288 -93.5
t97 -257.5zM424 123q92 0 155 53.5t66 132.5v70q-68 33 -174 33q-111 0 -166 -38.5t-55 -109.5q0 -62 46.5 -101.5t127.5 -39.5zM401 1018l-186 274l231 35l93 -309h-138z" />
    <glyph glyph-name="aacute" unicode="&#xe1;" horiz-adv-x="950" 
d="M838 530v-530h-140l-24 113h-10q-38 -62 -111 -97.5t-174 -35.5q-150 0 -236 76.5t-86 195.5q0 131 100.5 207t291.5 76q99 0 196 -29v29q0 180 -223 180q-57 0 -115 -16t-87 -32l-30 -16l-69 152q5 3 14.5 8.5t42.5 19t69 23.5t92 18.5t114 8.5q191 0 288 -93.5
t97 -257.5zM424 123q92 0 155 53.5t66 132.5v70q-68 33 -174 33q-111 0 -166 -38.5t-55 -109.5q0 -62 46.5 -101.5t127.5 -39.5zM739 1288l-202 -270h-138l107 297z" />
    <glyph glyph-name="acircumflex" unicode="&#xe2;" horiz-adv-x="950" 
d="M838 530v-530h-140l-24 113h-10q-38 -62 -111 -97.5t-174 -35.5q-150 0 -236 76.5t-86 195.5q0 131 100.5 207t291.5 76q99 0 196 -29v29q0 180 -223 180q-57 0 -115 -16t-87 -32l-30 -16l-69 152q5 3 14.5 8.5t42.5 19t69 23.5t92 18.5t114 8.5q191 0 288 -93.5
t97 -257.5zM424 123q92 0 155 53.5t66 132.5v70q-68 33 -174 33q-111 0 -166 -38.5t-55 -109.5q0 -62 46.5 -101.5t127.5 -39.5zM555 1018l-100 127l-103 -127h-155l178 248h157l181 -248h-158z" />
    <glyph glyph-name="atilde" unicode="&#xe3;" horiz-adv-x="950" 
d="M838 530v-530h-140l-24 113h-10q-38 -62 -111 -97.5t-174 -35.5q-150 0 -236 76.5t-86 195.5q0 131 100.5 207t291.5 76q99 0 196 -29v29q0 180 -223 180q-57 0 -115 -16t-87 -32l-30 -16l-69 152q5 3 14.5 8.5t42.5 19t69 23.5t92 18.5t114 8.5q191 0 288 -93.5
t97 -257.5zM424 123q92 0 155 53.5t66 132.5v70q-68 33 -174 33q-111 0 -166 -38.5t-55 -109.5q0 -62 46.5 -101.5t127.5 -39.5zM606 999q-42 0 -85 16t-72 35.5t-63 35.5t-60 16q-35 0 -52 -19.5t-28 -54.5l-8 -33l-142 15l10 61q36 184 195 184q52 0 105 -25.5t98 -51
t78 -25.5q37 0 55.5 20t26.5 56l6 31l141 -13l-10 -61q-13 -84 -61.5 -135.5t-133.5 -51.5z" />
    <glyph glyph-name="adieresis" unicode="&#xe4;" horiz-adv-x="950" 
d="M838 530v-530h-140l-24 113h-10q-38 -62 -111 -97.5t-174 -35.5q-150 0 -236 76.5t-86 195.5q0 131 100.5 207t291.5 76q99 0 196 -29v29q0 180 -223 180q-57 0 -115 -16t-87 -32l-30 -16l-69 152q5 3 14.5 8.5t42.5 19t69 23.5t92 18.5t114 8.5q191 0 288 -93.5
t97 -257.5zM424 123q92 0 155 53.5t66 132.5v70q-68 33 -174 33q-111 0 -166 -38.5t-55 -109.5q0 -62 46.5 -101.5t127.5 -39.5zM172 1104q0 44 34 78.5t77 34.5q44 0 78 -34.5t34 -78.5t-34 -78.5t-78 -34.5q-43 0 -77 34.5t-34 78.5zM522 1104q0 44 33 78.5t76 34.5
q44 0 77 -34t33 -79t-33 -79t-77 -34q-43 0 -76 34.5t-33 78.5z" />
    <glyph glyph-name="aring" unicode="&#xe5;" horiz-adv-x="950" 
d="M838 530v-530h-140l-24 113h-10q-38 -62 -111 -97.5t-174 -35.5q-150 0 -236 76.5t-86 195.5q0 131 100.5 207t291.5 76q99 0 196 -29v29q0 180 -223 180q-57 0 -115 -16t-87 -32l-30 -16l-69 152q5 3 14.5 8.5t42.5 19t69 23.5t92 18.5t114 8.5q191 0 288 -93.5
t97 -257.5zM424 123q92 0 155 53.5t66 132.5v70q-68 33 -174 33q-111 0 -166 -38.5t-55 -109.5q0 -62 46.5 -101.5t127.5 -39.5zM238 1196q0 81 60 130.5t163 49.5q100 0 159.5 -50t59.5 -130q0 -81 -59.5 -131.5t-159.5 -50.5q-103 0 -163 50.5t-60 131.5zM563 1196
q0 38 -27 59t-75 21q-50 0 -78.5 -21t-28.5 -59q0 -39 28.5 -59.5t78.5 -20.5q48 0 75 20.5t27 59.5z" />
    <glyph glyph-name="ae" unicode="&#xe6;" horiz-adv-x="1515" 
d="M1339 217l72 -135q-4 -4 -12 -11t-36.5 -25.5t-62 -32t-88.5 -25t-116 -11.5q-220 0 -346 142q-116 -139 -347 -139q-172 0 -261 75.5t-89 192.5q0 131 96 205.5t289 74.5q113 0 207 -28v30q0 93 -58 140t-165 47q-56 0 -114 -17.5t-88 -35.5l-30 -17l-69 156q5 3 15 8.5
t43 19t68 23.5t89 18.5t108 8.5q221 0 318 -127q117 127 301 127t287.5 -118t103.5 -310l-2 -54h-610q9 -127 80.5 -192.5t185.5 -65.5q64 0 122 19t84 38zM422 123q104 0 163.5 58.5t59.5 144.5v45q-80 32 -188 32q-207 0 -207 -145q0 -61 43.5 -98t128.5 -37zM1059 725
q-84 0 -138 -48.5t-71 -144.5h405q-11 94 -60.5 143.5t-135.5 49.5z" />
    <glyph glyph-name="ccedilla" unicode="&#xe7;" horiz-adv-x="837" 
d="M424 -150l-35 41l45 95q-166 23 -265 144t-99 298q0 199 122.5 326t319.5 127q52 0 98.5 -8t76 -19t51 -22t30.5 -19l10 -8l-55 -148q-9 6 -25.5 16t-68 26t-103.5 16q-110 0 -182 -77.5t-72 -209.5q0 -133 71.5 -208t182.5 -75q52 0 101 14.5t73 28.5l23 15l53 -146
q-3 -3 -9 -8t-28 -17.5t-47.5 -22.5t-68.5 -18.5t-91 -10.5l-20 -52q57 0 94 -35t37 -96q0 -67 -45 -108t-125 -41q-50 0 -91 15t-57 31l-16 15l49 74q57 -41 109 -41q37 0 57.5 15.5t20.5 43.5q0 27 -20.5 41.5t-53.5 14.5q-14 0 -25.5 -1.5t-16.5 -3.5z" />
    <glyph glyph-name="egrave" unicode="&#xe8;" horiz-adv-x="940" 
d="M764 215l72 -137q-4 -4 -12 -11t-37 -25t-62 -31.5t-88.5 -24.5t-116.5 -11q-207 0 -328.5 126.5t-121.5 326.5q0 197 115 325t302 128q184 0 288 -118t104 -310l-2 -54h-611q9 -128 79 -194t187 -66q64 0 122 19t84 38zM483 725q-84 0 -138 -48.5t-71 -144.5h404
q-11 94 -60.5 143.5t-134.5 49.5zM403 1018l-186 274l232 35l92 -309h-138z" />
    <glyph glyph-name="eacute" unicode="&#xe9;" horiz-adv-x="940" 
d="M758 1288l-203 -270h-137l106 297zM764 215l72 -137q-4 -4 -12 -11t-37 -25t-62 -31.5t-88.5 -24.5t-116.5 -11q-207 0 -328.5 126.5t-121.5 326.5q0 197 115 325t302 128q184 0 288 -118t104 -310l-2 -54h-611q9 -128 79 -194t187 -66q64 0 122 19t84 38zM483 725
q-84 0 -138 -48.5t-71 -144.5h404q-11 94 -60.5 143.5t-134.5 49.5z" />
    <glyph glyph-name="ecircumflex" unicode="&#xea;" horiz-adv-x="940" 
d="M586 1016l-101 127l-102 -127h-156l179 248h157l180 -248h-157zM764 215l72 -137q-4 -4 -12 -11t-37 -25t-62 -31.5t-88.5 -24.5t-116.5 -11q-207 0 -328.5 126.5t-121.5 326.5q0 197 115 325t302 128q184 0 288 -118t104 -310l-2 -54h-611q9 -128 79 -194t187 -66
q64 0 122 19t84 38zM483 725q-84 0 -138 -48.5t-71 -144.5h404q-11 94 -60.5 143.5t-134.5 49.5z" />
    <glyph glyph-name="edieresis" unicode="&#xeb;" horiz-adv-x="940" 
d="M201 1104q0 44 33.5 78.5t76.5 34.5q44 0 78.5 -34.5t34.5 -78.5t-34.5 -78.5t-78.5 -34.5q-43 0 -76.5 34.5t-33.5 78.5zM551 1104q0 44 32.5 78.5t75.5 34.5q44 0 77.5 -34.5t33.5 -78.5t-33.5 -78.5t-77.5 -34.5q-43 0 -75.5 34.5t-32.5 78.5zM764 215l72 -137
q-4 -4 -12 -11t-37 -25t-62 -31.5t-88.5 -24.5t-116.5 -11q-207 0 -328.5 126.5t-121.5 326.5q0 197 115 325t302 128q184 0 288 -118t104 -310l-2 -54h-611q9 -128 79 -194t187 -66q64 0 122 19t84 38zM483 725q-84 0 -138 -48.5t-71 -144.5h404q-11 94 -60.5 143.5
t-134.5 49.5z" />
    <glyph glyph-name="igrave" unicode="&#xec;" horiz-adv-x="452" 
d="M125 0v860h201v-860h-201zM147 1018l-186 274l232 35l92 -309h-138z" />
    <glyph glyph-name="iacute" unicode="&#xed;" horiz-adv-x="452" 
d="M498 1288l-203 -270h-137l106 297zM125 0v860h201v-860h-201z" />
    <glyph glyph-name="icircumflex" unicode="&#xee;" horiz-adv-x="452" 
d="M330 1059l-101 127l-102 -127h-156l179 248h157l180 -248h-157zM125 0v860h201v-860h-201z" />
    <glyph glyph-name="idieresis" unicode="&#xef;" horiz-adv-x="452" 
d="M-53 1169q0 44 33.5 78.5t76.5 34.5q44 0 78.5 -34.5t34.5 -78.5t-34.5 -78t-78.5 -34q-43 0 -76.5 34t-33.5 78zM297 1169q0 44 33 78.5t76 34.5q44 0 77 -34t33 -79q0 -44 -33 -78t-77 -34q-43 0 -76 34t-33 78zM125 0v860h201v-860h-201z" />
    <glyph glyph-name="eth" unicode="&#xf0;" horiz-adv-x="1032" 
d="M516 -20q-204 0 -325 121.5t-121 326.5q0 201 122 326t324 125q34 0 78 -7v9q-30 37 -57 82l-76 120l-228 -139l-67 115l227 137l-166 272v23h193l123 -203l237 146l66 -113l-234 -143l242 -396q61 -102 85 -177.5t24 -176.5q0 -206 -121 -327t-326 -121zM760 430
q0 133 -68 208t-176 75t-176 -76t-68 -207q0 -132 68.5 -209.5t175.5 -77.5q108 0 176 77t68 210z" />
    <glyph glyph-name="ntilde" unicode="&#xf1;" horiz-adv-x="1050" 
d="M123 0v860h131l25 -123h12q47 73 115 108.5t174 35.5q166 0 262 -106t96 -281v-494h-201v475q0 102 -55 168t-150 66q-94 0 -148.5 -60t-59.5 -135v-514h-201zM676 1063q-53 0 -106.5 25.5t-98 51t-76.5 25.5q-35 0 -52 -19t-28 -54l-8 -33l-141 14l10 62q36 184 195 184
q41 0 84 -16t72 -35t63 -35t61 -16q65 0 82 75l6 31l142 -12l-11 -62q-13 -84 -61 -135t-133 -51z" />
    <glyph glyph-name="ograve" unicode="&#xf2;" horiz-adv-x="1021" 
d="M952 426q0 -133 -59.5 -235.5t-160 -156.5t-222.5 -54q-187 0 -313.5 123t-126.5 323q0 202 126.5 328.5t313.5 126.5q122 0 222.5 -56t160 -160.5t59.5 -238.5zM510 139q105 0 175.5 79t70.5 210t-70.5 212t-175.5 81t-175.5 -81t-70.5 -212t70.5 -210t175.5 -79z
M438 1018l-186 274l231 35l92 -309h-137z" />
    <glyph glyph-name="oacute" unicode="&#xf3;" horiz-adv-x="1021" 
d="M778 1288l-203 -270h-137l107 297zM952 426q0 -133 -59.5 -235.5t-160 -156.5t-222.5 -54q-187 0 -313.5 123t-126.5 323q0 202 126.5 328.5t313.5 126.5q122 0 222.5 -56t160 -160.5t59.5 -238.5zM510 139q105 0 175.5 79t70.5 210t-70.5 212t-175.5 81t-175.5 -81
t-70.5 -212t70.5 -210t175.5 -79z" />
    <glyph glyph-name="ocircumflex" unicode="&#xf4;" horiz-adv-x="1021" 
d="M614 1059l-100 127l-102 -127h-156l178 248h158l180 -248h-158zM952 426q0 -133 -59.5 -235.5t-160 -156.5t-222.5 -54q-187 0 -313.5 123t-126.5 323q0 202 126.5 328.5t313.5 126.5q122 0 222.5 -56t160 -160.5t59.5 -238.5zM510 139q105 0 175.5 79t70.5 210
t-70.5 212t-175.5 81t-175.5 -81t-70.5 -212t70.5 -210t175.5 -79z" />
    <glyph glyph-name="otilde" unicode="&#xf5;" horiz-adv-x="1021" 
d="M952 426q0 -133 -59.5 -235.5t-160 -156.5t-222.5 -54q-187 0 -313.5 123t-126.5 323q0 202 126.5 328.5t313.5 126.5q122 0 222.5 -56t160 -160.5t59.5 -238.5zM510 139q105 0 175.5 79t70.5 210t-70.5 212t-175.5 81t-175.5 -81t-70.5 -212t70.5 -210t175.5 -79z
M657 1065q-53 0 -106 25.5t-97.5 51t-76.5 25.5q-35 0 -52 -19t-28 -54l-8 -33l-142 14l11 62q36 184 194 184q52 0 105 -25.5t98 -51t78 -25.5q65 0 82 75l6 31l141 -12l-10 -62q-13 -84 -61.5 -135t-133.5 -51z" />
    <glyph glyph-name="odieresis" unicode="&#xf6;" horiz-adv-x="1021" 
d="M227 1171q0 44 34 78.5t77 34.5q44 0 78.5 -34.5t34.5 -78.5t-34.5 -78t-78.5 -34q-43 0 -77 34t-34 78zM578 1171q0 44 32.5 78.5t75.5 34.5q44 0 77.5 -34.5t33.5 -78.5t-33.5 -78t-77.5 -34q-43 0 -75.5 34t-32.5 78zM952 426q0 -133 -59.5 -235.5t-160 -156.5
t-222.5 -54q-187 0 -313.5 123t-126.5 323q0 202 126.5 328.5t313.5 126.5q122 0 222.5 -56t160 -160.5t59.5 -238.5zM510 139q105 0 175.5 79t70.5 210t-70.5 212t-175.5 81t-175.5 -81t-70.5 -212t70.5 -210t175.5 -79z" />
    <glyph glyph-name="divide" unicode="&#xf7;" horiz-adv-x="997" 
d="M369 274q0 55 37.5 93.5t91.5 38.5t91.5 -38.5t37.5 -93.5q0 -54 -37.5 -90.5t-91.5 -36.5t-91.5 36.5t-37.5 90.5zM369 948q0 54 37.5 91.5t91.5 37.5t91.5 -37.5t37.5 -91.5q0 -55 -37.5 -92t-91.5 -37t-91.5 37t-37.5 92zM100 524v164h797v-164h-797z" />
    <glyph glyph-name="oslash" unicode="&#xf8;" horiz-adv-x="1024" 
d="M954 426q0 -133 -59.5 -235.5t-160 -156.5t-222.5 -54q-155 0 -270 83l-62 -63h-143l131 135q-96 120 -96 291q0 202 126.5 328.5t313.5 126.5q143 0 262 -82l57 61h144l-127 -131q106 -125 106 -303zM512 139q105 0 175.5 79t70.5 210q0 92 -41 166l-359 -399
q65 -56 154 -56zM266 428q0 -91 35 -156l354 398q-60 51 -143 51q-105 0 -175.5 -81t-70.5 -212z" />
    <glyph glyph-name="ugrave" unicode="&#xf9;" horiz-adv-x="1044" 
d="M721 356v504h201v-860h-131l-35 119h-8q-96 -139 -283 -139q-165 0 -258.5 105.5t-93.5 281.5v493h200v-475q0 -106 50.5 -172t146.5 -66q52 0 94 20t66.5 51.5t37.5 67.5t13 70zM442 1018l-186 274l231 35l93 -309h-138z" />
    <glyph glyph-name="uacute" unicode="&#xfa;" horiz-adv-x="1044" 
d="M780 1288l-202 -270h-138l107 297zM721 356v504h201v-860h-131l-35 119h-8q-96 -139 -283 -139q-165 0 -258.5 105.5t-93.5 281.5v493h200v-475q0 -106 50.5 -172t146.5 -66q52 0 94 20t66.5 51.5t37.5 67.5t13 70z" />
    <glyph glyph-name="ucircumflex" unicode="&#xfb;" horiz-adv-x="1044" 
d="M610 1016l-100 127l-102 -127h-156l178 248h158l180 -248h-158zM721 356v504h201v-860h-131l-35 119h-8q-96 -139 -283 -139q-165 0 -258.5 105.5t-93.5 281.5v493h200v-475q0 -106 50.5 -172t146.5 -66q52 0 94 20t66.5 51.5t37.5 67.5t13 70z" />
    <glyph glyph-name="udieresis" unicode="&#xfc;" horiz-adv-x="1044" 
d="M225 1130q0 44 34 78.5t77 34.5q44 0 78.5 -34.5t34.5 -78.5t-34.5 -78t-78.5 -34q-43 0 -77 34t-34 78zM575 1130q0 44 33 78.5t76 34.5q44 0 77.5 -34.5t33.5 -78.5t-33.5 -78t-77.5 -34q-43 0 -76 34t-33 78zM721 356v504h201v-860h-131l-35 119h-8
q-96 -139 -283 -139q-165 0 -258.5 105.5t-93.5 281.5v493h200v-475q0 -106 50.5 -172t146.5 -66q52 0 94 20t66.5 51.5t37.5 67.5t13 70z" />
    <glyph glyph-name="yacute" unicode="&#xfd;" horiz-adv-x="931" 
d="M918 860l-510 -1179h-209l176 376l-363 803h221l222 -559q14 -47 14 -63h10q0 26 15 63l219 559h205zM735 1288l-203 -270h-137l107 297z" />
    <glyph glyph-name="thorn" unicode="&#xfe;" horiz-adv-x="1069" 
d="M332 145h-8v-464h-201v1548h201v-508h8q3 7 8.5 17.5t27.5 38t50 48.5t77.5 38.5t106.5 17.5q173 0 284 -124t111 -327q0 -199 -113 -324.5t-282 -125.5q-59 0 -108.5 17t-78 41t-48.5 48.5t-27 41.5zM315 430q0 -131 68.5 -208t173.5 -77q103 0 170.5 80t67.5 205
q0 124 -67.5 204.5t-170.5 80.5q-105 0 -173.5 -78t-68.5 -207z" />
    <glyph glyph-name="ydieresis" unicode="&#xff;" horiz-adv-x="931" 
d="M918 860l-510 -1179h-209l176 376l-363 803h221l222 -559q14 -47 14 -63h10q0 26 15 63l219 559h205zM182 1128q0 44 34 78.5t77 34.5q44 0 78.5 -34.5t34.5 -78.5t-34.5 -78t-78.5 -34q-43 0 -77 34t-34 78zM532 1128q0 44 33 78.5t76 34.5q44 0 77.5 -34.5t33.5 -78.5
t-33.5 -78t-77.5 -34q-43 0 -76 34t-33 78z" />
    <glyph glyph-name="dotlessi" unicode="&#x131;" horiz-adv-x="452" 
d="M125 0v860h201v-860h-201z" />
    <glyph glyph-name="Lslash" unicode="&#x141;" horiz-adv-x="1019" 
d="M33 442v193l127 78v516h202v-393l277 170v-193l-277 -170v-463h605v-180h-807v520z" />
    <glyph glyph-name="lslash" unicode="&#x142;" horiz-adv-x="489" 
d="M39 449v118l102 64v608h201v-485l117 73v-118l-117 -74v-635h-201v512z" />
    <glyph glyph-name="OE" unicode="&#x152;" horiz-adv-x="2093" 
d="M690 -29q-136 0 -252 50.5t-194.5 137t-123 204t-44.5 249.5q0 133 44.5 251t123 204.5t194.5 137t252 50.5q274 0 449 -188v162h874v-180h-672v-340h572v-172h-572v-357h672v-180h-874v158q-177 -187 -449 -187zM690 168q181 0 295.5 126.5t114.5 317.5
q0 193 -114.5 321t-295.5 128q-179 0 -292 -128t-113 -321q0 -191 113 -317.5t292 -126.5z" />
    <glyph glyph-name="oe" unicode="&#x153;" horiz-adv-x="1662" 
d="M1491 215l72 -137q-4 -4 -12 -11t-37 -25t-62 -31.5t-88.5 -24.5t-116.5 -11q-125 0 -221 48t-154 135q-60 -85 -155 -131.5t-207 -46.5q-187 0 -313.5 123t-126.5 323q0 202 126.5 328.5t313.5 126.5q110 0 205 -48.5t155 -134.5q55 87 143.5 135t200.5 48
q184 0 288 -118t104 -310l-2 -54h-611q9 -128 79.5 -194t187.5 -66q64 0 122 19t84 38zM510 139q105 0 175.5 79t70.5 210t-70.5 212t-175.5 81t-175.5 -81t-70.5 -212t70.5 -210t175.5 -79zM1210 725q-84 0 -138 -48.5t-71 -144.5h404q-11 94 -60.5 143.5t-134.5 49.5z" />
    <glyph glyph-name="Scaron" unicode="&#x160;" horiz-adv-x="1060" 
d="M424 1591l100 -127l103 127h155l-161 -223h-189l-166 223h158zM72 125l110 154q6 -5 17 -13t46.5 -28.5t73.5 -36t96 -28.5t115 -13q120 0 179 45.5t59 124.5q0 71 -57.5 115t-221.5 94q-215 64 -311 145.5t-96 220.5q0 161 117.5 255.5t332.5 94.5q85 0 161 -13
t122.5 -31.5t81.5 -36.5t49 -31l15 -13l-111 -165q-5 4 -14 11t-40 24.5t-65.5 31t-88.5 24.5t-110 11q-105 0 -166 -40.5t-61 -113.5q0 -62 58 -101t215 -85q223 -63 319 -151.5t96 -231.5q0 -165 -117.5 -269t-338.5 -104q-88 0 -168.5 16t-132 38.5t-90.5 45t-56 38.5z
" />
    <glyph glyph-name="scaron" unicode="&#x161;" horiz-adv-x="856" 
d="M328 1241l100 -127l102 127h156l-162 -223h-188l-166 223h158zM70 80l71 137q5 -3 14.5 -9t39.5 -20.5t61.5 -25.5t78 -20t91.5 -9q160 0 160 98q0 33 -28 56t-73.5 38t-100 29t-109 34.5t-100 48.5t-73.5 76.5t-28 113.5q0 111 86 182.5t248 71.5q104 0 193.5 -18.5
t126.5 -36.5l38 -19l-68 -156q-12 8 -35 20.5t-93.5 33t-141.5 20.5q-156 0 -156 -92q0 -28 22 -48t58.5 -31.5t83 -24.5t94.5 -24.5t94.5 -33t83 -49t58.5 -74t22 -106.5q0 -115 -87.5 -188.5t-268.5 -73.5q-71 0 -134 10.5t-103 25t-69.5 29t-42.5 25.5z" />
    <glyph glyph-name="Ydieresis" unicode="&#x178;" horiz-adv-x="1099" 
d="M596 748l274 481h226l-445 -758v-471h-202v471l-445 758h227l275 -481l45 -101zM268 1454q0 44 34 78.5t77 34.5q44 0 78.5 -34.5t34.5 -78.5t-34.5 -78.5t-78.5 -34.5q-43 0 -77 34.5t-34 78.5zM618 1454q0 44 33 78.5t76 34.5q44 0 77.5 -34.5t33.5 -78.5t-33.5 -78.5
t-77.5 -34.5q-43 0 -76 34.5t-33 78.5z" />
    <glyph glyph-name="Zcaron" unicode="&#x17d;" horiz-adv-x="1093" 
d="M436 1591l101 -127l102 127h156l-162 -223h-189l-165 223h157zM61 0v145l695 904h-672v180h942v-150l-682 -899h672v-180h-955z" />
    <glyph glyph-name="zcaron" unicode="&#x17e;" horiz-adv-x="870" 
d="M330 1241l100 -127l102 127h156l-162 -223h-188l-166 223h158zM799 0h-729v109l469 589h-465v162h725v-98l-457 -600h457v-162z" />
    <glyph glyph-name="florin" unicode="&#x192;" horiz-adv-x="1085" 
d="M350 268l88 434h-157v158h190l10 49q70 334 387 334q54 0 102.5 -9.5t70.5 -19.5l22 -10l-82 -168q-47 27 -119 27q-78 0 -121.5 -36.5t-58.5 -115.5l-10 -51h280v-158h-313l-94 -471q-25 -119 -86 -179t-187 -60q-51 0 -98.5 12.5t-69.5 25.5l-22 13l63 156
q46 -29 99 -29q47 0 71.5 22t34.5 76z" />
    <glyph glyph-name="circumflex" unicode="&#x2c6;" horiz-adv-x="759" 
d="M494 1341l-101 127l-102 -127h-156l178 248h158l180 -248h-157z" />
    <glyph glyph-name="caron" unicode="&#x2c7;" horiz-adv-x="665" 
d="M227 1591l101 -127l102 127h156l-162 -223h-188l-166 223h157z" />
    <glyph glyph-name="breve" unicode="&#x2d8;" horiz-adv-x="811" 
d="M547 1665h160q0 -126 -82.5 -214.5t-216.5 -88.5q-135 0 -217 88.5t-82 214.5h157q0 -69 39.5 -113.5t102.5 -44.5q60 0 99.5 44.5t39.5 113.5z" />
    <glyph glyph-name="dotaccent" unicode="&#x2d9;" horiz-adv-x="677" 
d="M340 1126q-58 0 -97.5 39.5t-39.5 98.5t39.5 99t97.5 40t98.5 -40.5t40.5 -98.5t-40 -98t-99 -40z" />
    <glyph glyph-name="ring" unicode="&#x2da;" horiz-adv-x="589" 
d="M74 1442q0 81 60 130.5t163 49.5q100 0 159.5 -50t59.5 -130q0 -81 -59.5 -131.5t-159.5 -50.5q-103 0 -163 50.5t-60 131.5zM399 1442q0 38 -27 59t-75 21q-50 0 -78.5 -21t-28.5 -59q0 -39 28.5 -59.5t78.5 -20.5q48 0 75 20.5t27 59.5z" />
    <glyph glyph-name="ogonek" unicode="&#x2db;" horiz-adv-x="399" 
d="M303 -150l57 -73q-2 -3 -5.5 -7t-17 -14.5t-28.5 -19t-40 -15t-52 -6.5q-75 0 -118.5 41.5t-43.5 108.5q0 42 21 78t55 59.5t61 36.5t54 22l20 -61q-63 -35 -83 -71q-11 -20 -11 -42q0 -65 66 -65q37 0 65 28z" />
    <glyph glyph-name="tilde" unicode="&#x2dc;" horiz-adv-x="993" 
d="M641 1346q-53 0 -106.5 25.5t-98 51t-76.5 25.5q-35 0 -51.5 -19t-27.5 -55l-9 -33l-141 15l10 61q16 84 63.5 134.5t131.5 50.5q52 0 105 -26t97.5 -51.5t77.5 -25.5q37 0 55.5 20t26.5 56l7 31l141 -13l-10 -61q-13 -84 -61.5 -135t-133.5 -51z" />
    <glyph glyph-name="hungarumlaut" unicode="&#x2dd;" horiz-adv-x="808" 
d="M705 1182l-164 -324h-133l79 324h218zM371 1182l-164 -324h-133l80 324h217z" />
    <glyph glyph-name="pi" unicode="&#x3c0;" horiz-adv-x="1079" 
d="M55 860h969v-162h-135v-698h-201v698h-297v-698h-201v698h-135v162z" />
    <glyph glyph-name="endash" unicode="&#x2013;" horiz-adv-x="937" 
d="M121 506v166h686v-166h-686z" />
    <glyph glyph-name="emdash" unicode="&#x2014;" horiz-adv-x="1456" 
d="M121 506v166h1204v-166h-1204z" />
    <glyph glyph-name="quoteleft" unicode="&#x2018;" horiz-adv-x="450" 
d="M84 877v14q0 128 70 221t196 117l31 -109q-133 -31 -148 -125q42 -9 69.5 -42.5t27.5 -75.5q0 -53 -35 -88t-88 -35q-51 0 -87 35.5t-36 87.5z" />
    <glyph glyph-name="quoteright" unicode="&#x2019;" horiz-adv-x="454" 
d="M385 1106v-14q0 -129 -70 -221.5t-196 -116.5l-31 108q133 28 148 125q-42 8 -69.5 41t-27.5 78q0 51 36 87t87 36t87 -36t36 -87z" />
    <glyph glyph-name="quotesinglbase" unicode="&#x201a;" horiz-adv-x="436" 
d="M338 100v-14q0 -128 -70 -221t-196 -117l-31 109q65 15 103.5 47t45.5 78q-43 9 -70.5 41.5t-27.5 76.5q0 52 36 87.5t87 35.5t87 -35.5t36 -87.5z" />
    <glyph glyph-name="quotedblleft" unicode="&#x201c;" horiz-adv-x="790" 
d="M424 877v14q0 128 70 221t196 117l31 -109q-133 -31 -148 -125q42 -9 69.5 -42.5t27.5 -75.5q0 -53 -35 -88t-88 -35q-51 0 -87 35.5t-36 87.5zM84 877v14q0 128 70 221t196 117l31 -109q-133 -31 -148 -125q42 -9 69.5 -42.5t27.5 -75.5q0 -53 -35 -88t-88 -35
q-51 0 -87 35.5t-36 87.5z" />
    <glyph glyph-name="quotedblright" unicode="&#x201d;" horiz-adv-x="782" 
d="M713 1106v-14q0 -129 -70.5 -221.5t-196.5 -116.5l-30 108q132 28 147 125q-43 8 -69.5 40.5t-26.5 78.5q0 51 35.5 87t87.5 36q51 0 87 -36t36 -87zM383 1106v-14q0 -129 -69.5 -221.5t-194.5 -116.5l-33 108q65 14 104 46t46 79q-43 8 -71 41t-28 78q0 51 36 87t87 36
q52 0 87.5 -36t35.5 -87z" />
    <glyph glyph-name="quotedblbase" unicode="&#x201e;" horiz-adv-x="921" 
d="M338 100v-14q0 -128 -70 -221t-196 -117l-31 109q65 15 103.5 47t45.5 78q-43 9 -70.5 41.5t-27.5 76.5q0 52 36 87.5t87 35.5t87 -35.5t36 -87.5zM825 100v-14q0 -128 -70 -221t-196 -117l-31 109q65 15 104 47t46 78q-43 9 -70.5 41.5t-27.5 76.5q0 52 35.5 87.5
t86.5 35.5t87 -35.5t36 -87.5z" />
    <glyph glyph-name="dagger" unicode="&#x2020;" horiz-adv-x="839" 
d="M66 860v164h272v276h168v-276h268v-164h-268l-17 -524h-135l-16 524h-272z" />
    <glyph glyph-name="daggerdbl" unicode="&#x2021;" horiz-adv-x="903" 
d="M100 928v164h273v276h168v-276h268v-164h-268l-15 -244l15 -244h268v-164h-268v-276h-168v276h-273v164h273l12 244l-12 244h-273z" />
    <glyph glyph-name="bullet" unicode="&#x2022;" horiz-adv-x="653" 
d="M326 631q72 0 124 -51t52 -123t-52 -122t-124 -50t-123 50t-51 122t51 123t123 51z" />
    <glyph glyph-name="ellipsis" unicode="&#x2026;" horiz-adv-x="1499" 
d="M98 119q0 59 41 100t99 41t98.5 -41t40.5 -100q0 -58 -40 -97.5t-99 -39.5t-99.5 39.5t-40.5 97.5zM610 119q0 58 40.5 99.5t97.5 41.5q58 0 99.5 -41t41.5 -100q0 -58 -41 -97.5t-100 -39.5q-57 0 -97.5 39.5t-40.5 97.5zM1120 119q0 59 41 100t99 41t98.5 -41
t40.5 -100q0 -58 -40 -97.5t-99 -39.5t-99.5 39.5t-40.5 97.5z" />
    <glyph glyph-name="perthousand" unicode="&#x2030;" horiz-adv-x="1980" 
d="M350 1255q126 0 199.5 -89t73.5 -216q0 -128 -74 -217.5t-199 -89.5t-198.5 89.5t-73.5 217.5t73.5 216.5t198.5 88.5zM350 776q59 0 90 46.5t31 127.5t-31 127.5t-90 46.5t-90 -46.5t-31 -127.5t31 -127.5t90 -46.5zM1067 1229h188l-976 -1229h-187zM1008 596
q126 0 200 -89t74 -218q0 -126 -74.5 -215.5t-199.5 -89.5q-124 0 -198.5 89.5t-74.5 215.5q0 128 74 217.5t199 89.5zM1008 465q-58 0 -89.5 -46.5t-31.5 -129.5q0 -78 32 -125t89 -47q58 0 89 46.5t31 125.5q0 83 -30.5 129.5t-89.5 46.5zM1647 465q-59 0 -91 -46.5
t-32 -129.5q0 -78 32 -125t91 -47q57 0 87.5 46.5t30.5 125.5q0 83 -30 129.5t-88 46.5zM1647 596q124 0 198 -89t74 -218q0 -126 -74 -215.5t-198 -89.5q-125 0 -200 89.5t-75 215.5q0 129 74.5 218t200.5 89z" />
    <glyph glyph-name="guilsinglleft" unicode="&#x2039;" horiz-adv-x="573" 
d="M74 403v46l254 387h170v-21l-246 -381v-12l246 -385v-21h-170z" />
    <glyph glyph-name="guilsinglright" unicode="&#x203a;" horiz-adv-x="573" 
d="M500 449v-46l-254 -387h-170v21l248 385v12l-248 381v21h170z" />
    <glyph glyph-name="fraction" unicode="&#x2044;" horiz-adv-x="1179" 
d="M143 0h-166l1059 1354h166z" />
    <glyph glyph-name="Euro" unicode="&#x20ac;" horiz-adv-x="1183" 
d="M821 547v-146h-370q71 -235 307 -235q43 0 83.5 11t67.5 27t48 32t31 27l9 11l109 -151q-4 -6 -13 -16t-41 -35.5t-69 -45t-98.5 -35.5t-128.5 -16q-207 0 -339.5 117t-180.5 309h-160v146h137q-2 23 -2 69q0 51 2 78h-137v146h162q50 188 181 301.5t337 113.5
q67 0 128 -15t99.5 -36.5t67.5 -43.5t42 -37l13 -15l-109 -156q-3 4 -10 11.5t-30 26.5t-48.5 33t-66.5 26t-84 12q-231 0 -305 -221h368v-146h-397q-2 -27 -2 -78q0 -46 2 -69h397z" />
    <glyph glyph-name="trademark" unicode="&#x2122;" horiz-adv-x="1470" 
d="M825 575h-133v654h94l226 -295l233 295h90v-654h-133v402l-164 -213h-49l-164 213v-402zM580 1229v-117h-191v-537h-131v537h-190v117h512z" />
    <glyph glyph-name="Omega" unicode="&#x2126;" horiz-adv-x="1466" 
d="M100 0v176h250q-118 75 -182 199.5t-64 265.5q0 124 42.5 234.5t120.5 195.5t198.5 134.5t267.5 49.5t268 -49.5t199.5 -134.5t121 -195.5t42.5 -234.5q0 -140 -64.5 -265t-183.5 -200h250v-176h-561v182q100 9 182.5 72t128 160.5t45.5 208.5q0 186 -118.5 312
t-309.5 126q-126 0 -224 -59t-150 -158.5t-52 -220.5q0 -111 46 -208.5t128 -160.5t181 -72v-182h-562z" />
    <glyph glyph-name="partialdiff" unicode="&#x2202;" horiz-adv-x="1034" 
d="M516 -20q-204 0 -325 121.5t-121 326.5q0 201 122 326t324 125q34 0 78 -7v9q-30 37 -57 82l-310 505v23h193l434 -709q61 -102 85 -177.5t24 -176.5q0 -206 -121 -327t-326 -121zM760 430q0 133 -68 208t-176 75t-176 -76t-68 -207q0 -132 68.5 -209.5t175.5 -77.5
q108 0 176 77t68 210z" />
    <glyph glyph-name="Delta" unicode="&#x2206;" horiz-adv-x="1310" 
d="M53 0v37l584 1192h37l586 -1192v-37h-1207zM969 176l-310 692h-10l-309 -692h629z" />
    <glyph glyph-name="product" unicode="&#x220f;" horiz-adv-x="1282" 
d="M1153 1229v-1229h-203v1053h-618v-1053h-203v1229h1024z" />
    <glyph glyph-name="summation" unicode="&#x2211;" horiz-adv-x="919" 
d="M92 1229h737v-176h-483l305 -391v-101l-297 -385h475v-176h-737v176l342 422v27l-342 428v176z" />
    <glyph glyph-name="minus" unicode="&#x2212;" horiz-adv-x="1124" 
d="M119 528v166h889v-166h-889z" />
    <glyph glyph-name="radical" unicode="&#x221a;" horiz-adv-x="1257" 
d="M1280 1229l-813 -1622h-43l-418 817h225l146 -307q59 -143 61 -160h21q1 14 24.5 74t36.5 86l531 1112h229z" />
    <glyph glyph-name="infinity" unicode="&#x221e;" horiz-adv-x="1550" 
d="M430 236q-151 0 -246.5 102t-95.5 246q0 143 95.5 246.5t246.5 103.5q108 0 189 -62.5t159 -173.5q74 110 154.5 173t187.5 63q141 0 241.5 -98t100.5 -252q0 -142 -94.5 -245t-247.5 -103q-75 0 -142 34t-112 80.5t-94 116.5q-74 -109 -154 -170t-188 -61zM1110 776
q-73 0 -129.5 -50t-112.5 -138q61 -94 116.5 -144.5t125.5 -50.5q84 0 134 56t50 135q0 83 -53 137.5t-131 54.5zM442 393q70 0 128 50.5t112 138.5q-40 61 -70.5 98.5t-76 66.5t-93.5 29q-85 0 -134.5 -57.5t-49.5 -134.5q0 -79 49.5 -135t134.5 -56z" />
    <glyph glyph-name="integral" unicode="&#x222b;" horiz-adv-x="651" 
d="M225 43v1030q0 122 58 189t176 67q44 0 85 -11.5t60 -22.5l19 -11l-54 -149q-34 18 -71 18q-36 0 -53 -23.5t-17 -76.5v-1030q0 -122 -57.5 -189t-175.5 -67q-44 0 -85 11t-60 22l-19 12l55 149q35 -18 70 -18q36 0 52.5 23.5t16.5 76.5z" />
    <glyph glyph-name="approxequal" unicode="&#x2248;" horiz-adv-x="1019" 
d="M672 334q-56 0 -111 22t-100.5 44t-77.5 22q-59 0 -78 -64l-8 -28l-174 12l14 78q16 78 70.5 125t146.5 47q56 0 111 -22t100 -44t78 -22q59 0 78 63l8 29l172 -12l-12 -80q-16 -77 -70.5 -123.5t-146.5 -46.5zM672 731q-56 0 -111 22t-100.5 44t-77.5 22q-59 0 -78 -63
l-8 -29l-174 12l14 80q16 77 70.5 123.5t146.5 46.5q56 0 111 -22t100 -44t78 -22q59 0 78 64l8 28l172 -12l-12 -78q-16 -78 -70.5 -125t-146.5 -47z" />
    <glyph glyph-name="notequal" unicode="&#x2260;" horiz-adv-x="970" 
d="M106 715v164h400l88 233l139 -49l-69 -184h200v-164h-260l-98 -264h358v-164h-418l-84 -228l-139 50l66 178h-183v164h242l98 264h-340z" />
    <glyph glyph-name="lessequal" unicode="&#x2264;" horiz-adv-x="794" 
d="M633 528l-117 -120l-393 374v39l393 385l119 -123l-293 -282zM702 297v-166h-598v166h598z" />
    <glyph glyph-name="greaterequal" unicode="&#x2265;" horiz-adv-x="794" 
d="M281 408l-119 120l291 273l-293 282l119 123l393 -385v-39zM94 131v166h596v-166h-596z" />
    <glyph glyph-name="lozenge" unicode="&#x25ca;" horiz-adv-x="962" 
d="M551 1229l348 -615l-348 -614h-139l-346 614l346 615h139zM291 612l176 -340h29l176 340l-176 344h-29z" />
    </font>
</defs>
</svg>
