<?xml version="1.0" standalone="no"?>
<!DOCTYPE svg PUBLIC "-//W3C//DTD SVG 1.1//EN" "http://www.w3.org/Graphics/SVG/1.1/DTD/svg11.dtd" >
<svg xmlns="http://www.w3.org/2000/svg" xmlns:xlink="http://www.w3.org/1999/xlink" version="1.1">
<metadata>
Created by FontForge 20201107 at Mon Jul 15 14:12:18 2024
 By 
Copyright (c) 2014 by Daniel Hernandez &#38; Miguel Hernandez. All rights reserved.
</metadata>
<defs>
<font id="Texta-Black" horiz-adv-x="1224" >
  <font-face 
    font-family="Texta Black"
    font-weight="900"
    font-stretch="normal"
    units-per-em="2048"
    panose-1="2 0 0 0 0 0 0 0 0 0"
    ascent="1536"
    descent="-512"
    x-height="860"
    cap-height="1229"
    bbox="-66 -393 2005 1683"
    underline-thickness="102"
    underline-position="-204"
    unicode-range="U+000D-25CA"
  />
<missing-glyph horiz-adv-x="1155" 
 />
    <glyph glyph-name=".notdef" horiz-adv-x="1155" 
 />
    <glyph glyph-name=".null" horiz-adv-x="0" 
 />
    <glyph glyph-name="nonmarkingreturn" horiz-adv-x="682" 
 />
    <glyph glyph-name="NUL" horiz-adv-x="0" 
 />
    <glyph glyph-name="NUL" horiz-adv-x="0" 
 />
    <glyph glyph-name="CR" unicode="&#xd;" horiz-adv-x="215" 
 />
    <glyph glyph-name="space" unicode=" " horiz-adv-x="405" 
 />
    <glyph glyph-name="exclam" unicode="!" horiz-adv-x="501" 
d="M418 1229l-72 -791h-192l-72 791h336zM78 156q0 72 50 123t122 51t123 -51t51 -123t-51 -122t-123 -50t-122 50t-50 122z" />
    <glyph glyph-name="quotedbl" unicode="&#x22;" horiz-adv-x="720" 
d="M354 1401l-100 -428h-172l24 428h248zM684 1401l-100 -428h-172l24 428h248z" />
    <glyph glyph-name="numbersign" unicode="#" horiz-adv-x="1376" 
d="M1135 1194l-66 -293h248l-39 -168h-246l-61 -270h250l-39 -168h-248l-66 -295h-180l66 295h-273l-65 -295h-180l65 295h-242l37 168h242l61 270h-243l37 168h243l66 293h180l-66 -293h273l65 293h181zM580 733l-62 -270h273l61 270h-272z" />
    <glyph glyph-name="dollar" unicode="$" horiz-adv-x="1107" 
d="M59 137l162 228q15 -10 41.5 -25.5t100 -47t137.5 -42.5v242q-5 0 -13 4q-206 61 -305.5 147t-99.5 231q0 163 105.5 264.5t312.5 114.5v213h121v-213q80 -4 151 -19t114.5 -33.5t75 -36t44.5 -28.5l14 -12l-160 -241q-11 9 -31.5 22.5t-83 40t-124.5 35.5v-215
q214 -60 320 -149.5t106 -235.5q0 -81 -26 -151t-77.5 -125.5t-134 -89.5t-188.5 -40v-194h-121v196q-82 6 -157.5 24.5t-125 41t-87 44t-54.5 35.5zM698 348q0 32 -17 54.5t-60 43.5v-194q77 20 77 96zM424 895q0 -31 17.5 -51t58.5 -37v172q-76 -16 -76 -84z" />
    <glyph glyph-name="percent" unicode="%" horiz-adv-x="1394" 
d="M354 1255q132 0 210.5 -88t78.5 -213q0 -124 -79 -212.5t-210 -88.5q-130 0 -209 88.5t-79 212.5q0 125 79 213t209 88zM354 1100q-96 0 -96 -146q0 -143 96 -143q97 0 97 143q0 146 -97 146zM1042 586q132 0 210.5 -88t78.5 -213q0 -124 -79 -212.5t-210 -88.5
q-130 0 -209 88.5t-79 212.5q0 125 79 213t209 88zM1042 430q-96 0 -96 -145q0 -144 96 -144q97 0 97 144q0 145 -97 145zM1069 1229h229l-976 -1229h-234z" />
    <glyph glyph-name="ampersand" unicode="&#x26;" horiz-adv-x="1353" 
d="M991 682l283 -64q-34 -208 -164 -372l254 -246h-401l-64 63q-147 -83 -311 -83q-259 0 -383.5 100.5t-124.5 273.5q0 114 61 189.5t168 132.5l-16 18q-109 118 -109 238q0 140 108 231.5t296 91.5q184 0 293.5 -87.5t109.5 -225.5q0 -65 -19.5 -119t-57 -94.5t-78 -68.5
t-95.5 -56l166 -162q65 109 84 240zM594 231q60 0 121 25l-221 229q-86 -59 -86 -127q0 -55 48 -91t138 -36zM475 911q0 -28 19.5 -57t64.5 -74q70 30 106.5 59.5t36.5 69.5q0 46 -28 75.5t-84 29.5q-58 0 -86.5 -29t-28.5 -74z" />
    <glyph glyph-name="quotesingle" unicode="'" horiz-adv-x="393" 
d="M354 1401l-98 -428h-174l24 428h248z" />
    <glyph glyph-name="parenleft" unicode="(" horiz-adv-x="616" 
d="M362 588q0 -96 12.5 -184.5t32 -153.5t43.5 -121t48 -92.5t43.5 -63t32.5 -37.5l12 -12l-195 -205q-7 6 -19 17t-47 51t-66.5 86.5t-70.5 122.5t-67 159t-47 197t-19 236t18.5 236t48 198.5t65.5 158.5t72 123.5t65.5 85t47.5 52.5l19 16l195 -205q-9 -8 -24 -23.5
t-54 -74.5t-68.5 -128.5t-53.5 -188t-24 -250.5z" />
    <glyph glyph-name="parenright" unicode=")" horiz-adv-x="618" 
d="M254 588q0 97 -12.5 185.5t-32 153.5t-43 121t-47.5 92.5t-43.5 63t-31.5 38.5l-13 11l194 205q7 -6 19 -17t47 -51t66.5 -86t70.5 -122.5t67 -159.5t47 -197.5t19 -236.5t-18.5 -235.5t-48 -198t-65.5 -158.5t-72 -123.5t-65.5 -85t-47.5 -51.5l-19 -17l-194 205
q9 8 24 23.5t53.5 74.5t68 128.5t53.5 187.5t24 250z" />
    <glyph glyph-name="asterisk" unicode="*" horiz-adv-x="790" 
d="M131 905l168 180l-236 41l56 174l219 -108l-33 242h180l-36 -244l221 110l55 -174l-236 -41l170 -180l-149 -104l-115 215l-116 -215z" />
    <glyph glyph-name="plus" unicode="+" horiz-adv-x="1019" 
d="M629 1055v-334h325v-238h-325v-317h-238v317h-325v238h325v334h238z" />
    <glyph glyph-name="comma" unicode="," horiz-adv-x="471" 
d="M59 -100q110 24 129 86q-53 12 -86.5 55.5t-33.5 101.5q0 69 47 117.5t116 48.5t117.5 -48.5t48.5 -117.5v-10q0 -65 -18 -126.5t-53.5 -114t-93 -91t-130.5 -53.5z" />
    <glyph glyph-name="hyphen" unicode="-" horiz-adv-x="761" 
d="M94 350v238h574v-238h-574z" />
    <glyph glyph-name="period" unicode="." horiz-adv-x="464" 
d="M231 -20q-69 0 -116 47t-47 116t47 117.5t116 48.5t117.5 -48.5t48.5 -117.5t-48.5 -116t-117.5 -47z" />
    <glyph glyph-name="slash" unicode="/" horiz-adv-x="1286" 
d="M330 -229h-289l915 1833h289z" />
    <glyph glyph-name="zero" unicode="0" horiz-adv-x="1290" 
d="M645 -27q-112 0 -206.5 34t-161 94t-113 141.5t-68.5 175t-22 196.5t22 196.5t68.5 175t113 141.5t161 94t206.5 34q113 0 207.5 -34.5t161 -94t113 -141t68.5 -175t22 -196.5t-22 -196.5t-68.5 -175t-113 -141t-161 -94t-207.5 -34.5zM645 260q129 0 196.5 95t67.5 259
t-67.5 259.5t-196.5 95.5t-196.5 -95.5t-67.5 -259.5t67.5 -259t196.5 -95z" />
    <glyph glyph-name="one" unicode="1" horiz-adv-x="700" 
d="M31 973v256h547v-1229h-297v973h-250z" />
    <glyph glyph-name="two" unicode="2" horiz-adv-x="1085" 
d="M86 0v215l457 432q49 46 67.5 82.5t18.5 89.5q0 61 -45.5 103.5t-122.5 42.5q-69 0 -125.5 -27.5t-126.5 -83.5l-156 238q7 7 19.5 18t56.5 39t92 49.5t124.5 39t156.5 17.5q225 0 356 -115t131 -280q0 -106 -33.5 -188t-109.5 -152l-285 -264h436v-256h-911z" />
    <glyph glyph-name="three" unicode="3" horiz-adv-x="1069" 
d="M471 532h-158v179l244 262h-461v256h852v-211l-254 -275q299 -64 299 -362q0 -83 -30.5 -154t-90.5 -127t-160.5 -88t-230.5 -32q-83 0 -158.5 17t-123.5 41.5t-84 49.5t-52 42l-16 17l152 218q5 -5 14 -12.5t37.5 -27.5t59 -35t76 -27.5t89.5 -12.5q99 0 148 37.5
t49 103.5q0 141 -201 141z" />
    <glyph glyph-name="four" unicode="4" horiz-adv-x="1193" 
d="M41 254v219l629 756h284v-721h179v-254h-179v-254h-297v254h-616zM395 518v-10h262v326l-215 -267q-12 -15 -24 -27t-18 -17z" />
    <glyph glyph-name="five" unicode="5" horiz-adv-x="1060" 
d="M920 973h-504l-4 -189q58 4 90 4q499 0 499 -389q0 -89 -30.5 -164t-91 -132.5t-160 -90t-230.5 -32.5q-81 0 -155.5 17t-123 41.5t-85.5 49.5t-53 42l-17 17l150 215q5 -5 14 -12.5t38 -26.5t60 -34t76.5 -27t89.5 -12q99 0 148 38t49 103q0 70 -62.5 113t-205.5 43
q-68 0 -133 -8.5t-96 -17.5l-31 -9l-25 14l18 703h775v-256z" />
    <glyph glyph-name="six" unicode="6" horiz-adv-x="1161" 
d="M422 752v-43q90 77 225 77q204 0 326.5 -99.5t122.5 -283.5q0 -193 -141 -310.5t-349 -117.5q-87 0 -163.5 20t-144.5 65.5t-116.5 113t-77 168t-28.5 225.5q0 200 61 350.5t183 236t292 85.5q81 0 154 -14.5t119 -35.5t80.5 -42.5t49.5 -36.5l15 -14l-160 -240
q-69 59 -120 80.5t-136 21.5q-92 0 -142 -51.5t-50 -154.5zM598 557q-75 0 -124.5 -43t-51.5 -106v-7q0 -71 46.5 -115t129.5 -44q81 0 128.5 44t47.5 113q0 67 -47.5 112.5t-128.5 45.5z" />
    <glyph glyph-name="seven" unicode="7" horiz-adv-x="999" 
d="M53 973v256h918v-213l-516 -1016h-338l508 973h-572z" />
    <glyph glyph-name="eight" unicode="8" horiz-adv-x="1138" 
d="M569 -27q-229 0 -361 111t-132 281q0 185 147 278q-112 97 -112 252q0 156 116.5 258t341.5 102q114 0 203 -28.5t144 -78.5t83.5 -114t28.5 -139q0 -155 -115 -252q150 -93 150 -278q0 -170 -132.5 -281t-361.5 -111zM745 379q0 64 -49 108.5t-127 44.5
q-77 0 -125.5 -44.5t-48.5 -108.5q0 -63 49 -108.5t125 -45.5q77 0 126.5 45.5t49.5 108.5zM569 735q66 0 111 38.5t45 92.5q0 56 -45 95.5t-111 39.5q-64 0 -108.5 -39.5t-44.5 -95.5q0 -54 44.5 -92.5t108.5 -38.5z" />
    <glyph glyph-name="nine" unicode="9" horiz-adv-x="1161" 
d="M549 256q92 0 142 52t50 155v41q-88 -76 -225 -76q-204 0 -326 99.5t-122 283.5q0 193 140.5 310.5t348.5 117.5q87 0 163.5 -20t144.5 -65.5t116.5 -113t77 -168t28.5 -225.5q0 -200 -61 -350.5t-183 -236t-292 -85.5q-81 0 -154 15t-119 36t-80.5 42t-49.5 36l-15 15
l160 239q69 -59 120 -80.5t136 -21.5zM565 657q74 0 123.5 43t52.5 107v6q0 71 -46.5 115.5t-129.5 44.5q-81 0 -128.5 -44.5t-47.5 -113.5q0 -67 47.5 -112.5t128.5 -45.5z" />
    <glyph glyph-name="colon" unicode=":" horiz-adv-x="505" 
d="M88 143q0 69 47.5 117.5t116.5 48.5t117.5 -48.5t48.5 -117.5t-48.5 -116t-117.5 -47t-116.5 47t-47.5 116zM88 709q0 69 47.5 117t116.5 48t117.5 -48t48.5 -117t-48.5 -116.5t-117.5 -47.5t-116.5 47.5t-47.5 116.5z" />
    <glyph glyph-name="semicolon" unicode=";" horiz-adv-x="507" 
d="M80 -100q110 24 129 86q-53 12 -87 55.5t-34 101.5q0 69 47.5 117.5t116.5 48.5t117.5 -48.5t48.5 -117.5v-10q0 -65 -18 -126.5t-53.5 -114t-93 -91t-130.5 -53.5zM252 545q-69 0 -116.5 47.5t-47.5 116.5t47.5 117t116.5 48t117.5 -48t48.5 -117t-48.5 -116.5
t-117.5 -47.5z" />
    <glyph glyph-name="less" unicode="&#x3c;" horiz-adv-x="749" 
d="M70 496v237l557 311v-321l-332 -111l332 -114v-320z" />
    <glyph glyph-name="equal" unicode="=" horiz-adv-x="913" 
d="M104 676v237h705v-237h-705zM104 287v237h705v-237h-705z" />
    <glyph glyph-name="greater" unicode="&#x3e;" horiz-adv-x="749" 
d="M680 733v-237l-557 -318v320l332 114l-332 111v321z" />
    <glyph glyph-name="question" unicode="?" horiz-adv-x="931" 
d="M209 897l-156 236q5 5 14 13.5t42.5 30t72.5 37.5t103 29.5t135 13.5q197 0 320.5 -94t123.5 -254q0 -80 -29 -142.5t-71.5 -100.5t-85.5 -68t-77 -64t-40 -71l-6 -39h-240v61q0 57 21 101t51.5 72.5t60.5 55t51 61t21 77.5q0 54 -36.5 83.5t-102.5 29.5q-41 0 -84 -17
t-65 -34zM270 150q0 69 48.5 116t117.5 47t116.5 -47t47.5 -116t-47.5 -117.5t-116.5 -48.5t-117.5 48.5t-48.5 117.5z" />
    <glyph glyph-name="at" unicode="@" horiz-adv-x="2029" 
d="M1491 104q-56 0 -103.5 11t-78.5 29t-56 39t-38.5 42.5t-22 39.5t-11.5 29l-3 11h-11q-14 -28 -34 -54.5t-55.5 -60t-90 -53.5t-119.5 -20q-161 0 -261.5 102.5t-100.5 276.5q0 235 128.5 378.5t317.5 143.5q183 0 246 -152l23 131h252l-52 -452q-6 -50 -6 -96
q0 -77 49.5 -125t126.5 -48q107 0 168.5 98.5t61.5 270.5q0 90 -23 181t-66.5 176.5t-111.5 159t-153 129t-196.5 87t-236.5 31.5q-183 0 -343 -68.5t-270 -183t-173.5 -268t-63.5 -320.5q0 -172 67 -328.5t180 -269.5t268.5 -180t326.5 -67q72 0 143 12t121 29t89.5 34
t58.5 29l20 12l49 -104q-7 -5 -20.5 -13.5t-60 -30.5t-98 -39t-133.5 -30.5t-169 -13.5q-208 0 -389.5 78.5t-306 210t-196 305.5t-71.5 362q0 154 44.5 298.5t130.5 264t203 209t270 139.5t323 50q195 0 367.5 -70t294 -188.5t192 -280t70.5 -338.5q0 -113 -30.5 -211.5
t-87.5 -173t-147 -117.5t-202 -43zM965 401q79 0 126.5 58t47.5 141q0 137 -135 137q-76 0 -125.5 -53.5t-49.5 -140.5q0 -64 37 -103t99 -39z" />
    <glyph glyph-name="A" unicode="A" 
d="M774 1229l469 -1229h-319l-76 221h-471l-76 -221h-319l469 1229h323zM612 909l-155 -454h311z" />
    <glyph glyph-name="B" unicode="B" horiz-adv-x="1228" 
d="M1161 367q0 -173 -118.5 -270t-335.5 -97h-580v1229h571q214 0 322 -88t108 -248q0 -75 -39 -141.5t-106 -106.5v-16q85 -27 131.5 -97t46.5 -165zM721 510h-297v-254h285q58 0 95.5 37t37.5 88q0 48 -34 86.5t-87 42.5zM813 850q0 52 -33.5 87.5t-87.5 35.5h-268v-242
h262q56 0 91.5 35t35.5 84z" />
    <glyph glyph-name="C" unicode="C" horiz-adv-x="1130" 
d="M942 350l170 -227q-5 -6 -15.5 -16.5t-49 -36.5t-83 -46t-118 -36.5t-154.5 -16.5q-145 0 -265.5 51t-200.5 138.5t-123.5 204.5t-43.5 249t43.5 248.5t123.5 204t200.5 138t265.5 50.5q81 0 154 -15.5t119.5 -37.5t81.5 -43.5t50 -36.5l15 -16l-170 -227q-3 4 -9.5 10
t-29.5 22t-49.5 28t-69 22t-88.5 10q-145 0 -237 -99t-92 -258t92 -257.5t237 -98.5q46 0 88 9.5t69.5 23t48.5 27t30 22.5z" />
    <glyph glyph-name="D" unicode="D" horiz-adv-x="1304" 
d="M1245 614q0 -131 -45.5 -244t-128 -195t-204.5 -128.5t-267 -46.5h-473v1229h473q145 0 267 -46.5t204.5 -128.5t128 -195.5t45.5 -244.5zM578 973h-154v-717h154q154 0 257 97t103 261q0 172 -101.5 265.5t-258.5 93.5z" />
    <glyph glyph-name="E" unicode="E" horiz-adv-x="1091" 
d="M924 739v-233h-500v-250h596v-256h-893v1229h893v-256h-596v-234h500z" />
    <glyph glyph-name="F" unicode="F" horiz-adv-x="1099" 
d="M924 737v-233h-500v-504h-297v1229h901v-256h-604v-236h500z" />
    <glyph glyph-name="G" unicode="G" horiz-adv-x="1312" 
d="M659 498v233h613v-178q0 -263 -159 -421.5t-427 -158.5q-144 0 -263.5 50.5t-198 138t-122 204t-43.5 248.5t44 248.5t123.5 204t199.5 138t264 50.5q88 0 166 -16t126.5 -38.5t85 -44.5t52.5 -38l15 -16l-179 -230q-4 4 -11.5 10.5t-33 24t-54.5 30.5t-75.5 23.5
t-95.5 10.5q-138 0 -228.5 -99.5t-90.5 -257.5t90.5 -257t228.5 -99q121 0 186 62.5t68 162.5v15h-281z" />
    <glyph glyph-name="H" unicode="H" horiz-adv-x="1351" 
d="M1225 1229v-1231h-297v500h-504v-500h-297v1231h297v-498h504v498h297z" />
    <glyph glyph-name="I" unicode="I" horiz-adv-x="550" 
d="M424 1229v-1229h-297v1229h297z" />
    <glyph glyph-name="J" unicode="J" horiz-adv-x="954" 
d="M18 90l144 240q8 -7 23 -18t63.5 -29.5t99.5 -18.5q104 0 149.5 54.5t45.5 173.5v737h297v-799q-1 -91 -29 -170.5t-84 -145.5t-151.5 -104.5t-219.5 -38.5q-65 0 -124 12.5t-96.5 30t-65.5 34.5t-40 30z" />
    <glyph glyph-name="K" unicode="K" horiz-adv-x="1261" 
d="M424 1229v-514l465 514h362v-27l-452 -500l452 -673v-29h-336l-319 479l-172 -192v-287h-297v1229h297z" />
    <glyph glyph-name="L" unicode="L" horiz-adv-x="1028" 
d="M973 0h-846v1229h297v-973h549v-256z" />
    <glyph glyph-name="M" unicode="M" horiz-adv-x="1495" 
d="M1075 0v678l-264 -352h-125l-266 354v-680h-295l2 1229h240l381 -527l380 527h240l2 -1229h-295z" />
    <glyph glyph-name="N" unicode="N" horiz-adv-x="1368" 
d="M1241 1229v-1229h-229l-590 717v-717h-295v1229h229l590 -705v705h295z" />
    <glyph glyph-name="O" unicode="O" horiz-adv-x="1376" 
d="M686 -29q-181 0 -326 87.5t-224 234t-79 321.5t79 321.5t224 233t326 86.5q183 0 329 -87t225 -233t79 -321t-79 -321.5t-225 -234t-329 -87.5zM686 260q139 0 232.5 98.5t93.5 255.5t-93.5 256t-232.5 99q-136 0 -228.5 -99t-92.5 -256t92.5 -255.5t228.5 -98.5z" />
    <glyph glyph-name="P" unicode="P" horiz-adv-x="1183" 
d="M670 1229q210 0 341.5 -116.5t131.5 -297.5q0 -188 -130 -300t-343 -112h-246v-403h-297v1229h543zM836 815q0 77 -51 117.5t-136 40.5h-225v-318h227q81 0 133 42t52 118z" />
    <glyph glyph-name="Q" unicode="Q" horiz-adv-x="1376" 
d="M686 -29q-181 0 -326 87.5t-224 234t-79 321.5t79 321.5t224 233t326 86.5q183 0 329 -87t225 -233t79 -321q0 -181 -84 -330t-231 -233l131 -254h-326l-80 176q-7 0 -21.5 -1t-21.5 -1zM686 260q139 0 232.5 98.5t93.5 255.5t-93.5 256t-232.5 99q-136 0 -228.5 -99
t-92.5 -256t92.5 -255.5t228.5 -98.5z" />
    <glyph glyph-name="R" unicode="R" horiz-adv-x="1228" 
d="M127 1229h543q210 0 341.5 -116.5t131.5 -297.5q0 -125 -61 -219t-169 -145v-23l277 -408v-20h-338l-256 403h-172v-403h-297v1229zM836 815q0 77 -51 117.5t-136 40.5h-225v-318h227q81 0 133 42t52 118z" />
    <glyph glyph-name="S" unicode="S" horiz-adv-x="1091" 
d="M49 137l162 228q7 -5 20 -13t52.5 -28.5t78 -36t92 -28.5t99.5 -13q67 0 101 27.5t34 74.5q0 49 -42.5 80t-168.5 68q-206 61 -305.5 147t-99.5 231q0 174 120 277.5t355 103.5q94 0 176 -13.5t132 -32.5t87 -38.5t52 -32.5l16 -14l-160 -241q-5 4 -15 11t-41.5 24.5
t-65 31t-83 24.5t-98.5 11q-133 0 -133 -90q0 -44 41 -69.5t153 -57.5q215 -60 321.5 -150t106.5 -237q0 -85 -29 -158t-85.5 -129.5t-148.5 -88.5t-210 -32q-95 0 -183 17t-145.5 41t-101.5 48t-64 41z" />
    <glyph glyph-name="T" unicode="T" horiz-adv-x="1083" 
d="M47 973v256h989v-256h-346v-973h-297v973h-346z" />
    <glyph glyph-name="U" unicode="U" horiz-adv-x="1310" 
d="M655 -29q-162 0 -287 73.5t-191 200.5t-66 285v699h297v-699q0 -121 63.5 -195.5t183.5 -74.5q124 0 186 74t62 196v699h297v-699q0 -159 -64.5 -285t-189.5 -200t-291 -74z" />
    <glyph glyph-name="V" unicode="V" 
d="M451 0l-469 1229h319l311 -912l312 912h319l-469 -1229h-323z" />
    <glyph glyph-name="W" unicode="W" horiz-adv-x="1636" 
d="M1028 0l-215 690l-205 -690h-229l-359 1229h326l156 -651l200 651h222l204 -656l160 656h328l-359 -1229h-229z" />
    <glyph glyph-name="X" unicode="X" horiz-adv-x="1208" 
d="M1182 1229l-353 -600l361 -629h-361l-174 362l-51 109l-49 -109l-174 -362h-358l354 629l-350 600h360l168 -342l49 -115l51 115l168 342h359z" />
    <glyph glyph-name="Y" unicode="Y" horiz-adv-x="1122" 
d="M614 856l207 373h320l-430 -752v-477h-297v473l-432 756h319l207 -373l53 -125z" />
    <glyph glyph-name="Z" unicode="Z" horiz-adv-x="1134" 
d="M61 0v223l607 750h-586v256h979v-234l-596 -739h598v-256h-1002z" />
    <glyph glyph-name="bracketleft" unicode="[" horiz-adv-x="686" 
d="M104 -266v1700h545v-238h-266v-1225h266v-237h-545z" />
    <glyph glyph-name="backslash" unicode="\" horiz-adv-x="833" 
d="M492 -262l-443 1896h289l446 -1896h-292z" />
    <glyph glyph-name="bracketright" unicode="]" horiz-adv-x="686" 
d="M37 -266v237h266v1225h-266v238h545v-1700h-545z" />
    <glyph glyph-name="asciicircum" unicode="^" horiz-adv-x="788" 
d="M494 1018l-105 184l-104 -184h-213l243 401h150l252 -401h-223z" />
    <glyph glyph-name="underscore" unicode="_" horiz-adv-x="1050" 
d="M72 -319v237h905v-237h-905z" />
    <glyph glyph-name="grave" unicode="`" horiz-adv-x="571" 
d="M250 1018l-197 278l326 50l67 -328h-196z" />
    <glyph glyph-name="a" unicode="a" horiz-adv-x="962" 
d="M872 530v-530h-200l-41 104h-8q-72 -124 -271 -124q-142 0 -224.5 75t-82.5 195q0 137 98.5 211t292.5 74q80 0 154 -19v27q0 60 -46.5 84t-140.5 24q-53 0 -106.5 -14.5t-80.5 -28.5l-28 -14l-90 209q5 3 15 8.5t44.5 19t74 23.5t103.5 18.5t132 8.5q191 0 298 -96
t107 -255zM590 303v64q-48 18 -117 18q-72 0 -113 -29.5t-41 -81.5q0 -46 33.5 -74t85.5 -28q63 0 107.5 36.5t44.5 94.5z" />
    <glyph glyph-name="b" unicode="b" horiz-adv-x="1060" 
d="M98 0v1239h295v-461h13q2 4 6 11t21.5 25t39.5 31.5t61.5 24.5t86.5 11q167 0 277 -127t110 -326q0 -203 -112 -325.5t-286 -122.5q-55 0 -102 14t-75 33.5t-48 39.5t-27 34l-8 14h-12l-45 -115h-195zM379 432q0 -96 45 -153.5t121 -57.5q74 0 120 59t46 152t-45.5 150
t-120.5 57q-76 0 -121 -56t-45 -151z" />
    <glyph glyph-name="c" unicode="c" horiz-adv-x="831" 
d="M518 -20q-210 0 -338.5 128t-128.5 322q0 195 128.5 323t338.5 128q50 0 96.5 -8t77 -19.5t54 -23t34.5 -19.5l11 -8l-74 -211q-9 5 -24.5 13t-60.5 21t-87 13q-88 0 -142.5 -57t-54.5 -152t54.5 -152t142.5 -57q42 0 85 11.5t65 23.5l22 12l74 -207q-4 -3 -11.5 -8.5
t-33.5 -19.5t-55 -24.5t-76 -19.5t-97 -9z" />
    <glyph glyph-name="d" unicode="d" horiz-adv-x="1062" 
d="M655 782h13v457h295v-1239h-193l-47 111h-12q-3 -5 -8 -14t-26.5 -31.5t-48 -40t-73.5 -31.5t-102 -14q-175 0 -287.5 122t-112.5 326q0 200 110 326.5t279 126.5q46 0 85 -10t61.5 -24.5t38.5 -29.5t22 -25zM684 432q0 95 -45 151t-123 56q-75 0 -120.5 -57t-45.5 -150
t46 -152t120 -59q77 0 122.5 57.5t45.5 153.5z" />
    <glyph glyph-name="e" unicode="e" horiz-adv-x="944" 
d="M756 270l100 -190q-4 -4 -13 -11.5t-39.5 -26t-66 -32.5t-93.5 -25.5t-120 -11.5q-218 0 -345.5 130t-127.5 327q0 195 123 323t315 128q190 0 300 -114.5t110 -313.5l-2 -82h-561q12 -86 63.5 -126t145.5 -40q56 0 108.5 16.5t77.5 32.5zM481 668q-54 0 -91 -35
t-50 -103h276q-3 63 -38 100.5t-97 37.5z" />
    <glyph glyph-name="f" unicode="f" horiz-adv-x="716" 
d="M696 633h-213v-633h-295v633h-141v227h141v25q0 174 89.5 270t257.5 96q57 0 111.5 -10.5t79.5 -20.5l26 -10l-93 -213q-24 13 -73 13q-47 0 -75 -30t-28 -77v-43h213v-227z" />
    <glyph glyph-name="g" unicode="g" horiz-adv-x="978" 
d="M938 643h-104v-4q16 -19 16 -80q0 -116 -98 -194t-283 -78q-57 0 -119 10q-37 -21 -37 -51q0 -16 9 -25t48.5 -17t114.5 -11q255 -10 356 -69.5t101 -193.5q0 -127 -120.5 -213t-344.5 -86q-228 0 -334 57.5t-106 159.5q0 116 121 187q-99 58 -99 170q0 96 125 168
q-98 76 -98 200q0 137 105 220.5t278 83.5q69 0 139 -17h330v-217zM485 -31q-78 4 -116 8q-52 -36 -52 -90q0 -77 160 -77q174 0 174 77q0 39 -33 59t-133 23zM469 694q-52 0 -82.5 -32.5t-30.5 -81.5t30.5 -82t82.5 -33q55 0 86 33t31 82t-31 81.5t-86 32.5z" />
    <glyph glyph-name="h" unicode="h" horiz-adv-x="1058" 
d="M100 0v1239h299v-457h9q71 101 225 101q153 0 245.5 -101.5t92.5 -273.5v-506h-295v481q0 59 -40.5 99.5t-98.5 40.5q-56 0 -95.5 -37t-42.5 -92v-494h-299z" />
    <glyph glyph-name="i" unicode="i" horiz-adv-x="495" 
d="M250 971q-71 0 -118.5 44.5t-47.5 114.5t47.5 116t118.5 46t120.5 -46t49.5 -116q0 -69 -49 -114t-121 -45zM100 0v860h295v-860h-295z" />
    <glyph glyph-name="j" unicode="j" horiz-adv-x="497" 
d="M-12 -319v243h51q61 0 61 64v872h297v-889q0 -132 -75.5 -211t-204.5 -79h-129zM248 971q-71 0 -118.5 44.5t-47.5 114.5t47.5 116t118.5 46t120.5 -46t49.5 -116q0 -69 -49 -114t-121 -45z" />
    <glyph glyph-name="k" unicode="k" horiz-adv-x="985" 
d="M616 860h349l-281 -375l297 -485h-354l-176 291l-56 -72v-219h-295v1239h295v-696z" />
    <glyph glyph-name="l" unicode="l" horiz-adv-x="495" 
d="M100 0v1239h295v-1239h-295z" />
    <glyph glyph-name="m" unicode="m" horiz-adv-x="1630" 
d="M395 483v-483h-295v860h179l47 -117h14q90 138 270 138q99 0 176 -37.5t123 -106.5h11q91 146 266 146q164 0 259 -101.5t95 -275.5v-506h-295v483q0 61 -36 100.5t-99 39.5q-62 0 -100 -34.5t-41 -90.5v-498h-295v483q0 60 -37 100t-100 40q-65 0 -103.5 -38.5
t-38.5 -101.5z" />
    <glyph glyph-name="n" unicode="n" horiz-adv-x="1058" 
d="M100 0v860h179l47 -117h14q54 76 114 108t156 32q164 0 261.5 -102t97.5 -275v-506h-295v483q0 60 -38 100t-101 40q-59 0 -98 -36.5t-42 -92.5v-494h-295z" />
    <glyph glyph-name="o" unicode="o" horiz-adv-x="1015" 
d="M965 426q0 -198 -132.5 -322t-324.5 -124q-193 0 -325 124t-132 322q0 134 61.5 238.5t165.5 160.5t230 56q192 0 324.5 -127t132.5 -328zM508 211q77 0 122.5 59.5t45.5 159.5q0 99 -46 159t-122 60q-78 0 -124 -60t-46 -159q0 -100 46 -159.5t124 -59.5z" />
    <glyph glyph-name="p" unicode="p" horiz-adv-x="1062" 
d="M408 78h-13v-397h-295v1179h187l45 -117h12q3 6 8.5 15t28 33t50 42t76.5 33t105 15q173 0 285.5 -122.5t112.5 -326.5q0 -199 -110 -325.5t-277 -126.5q-47 0 -86.5 10t-62 24.5t-38.5 29t-22 24.5zM381 428q0 -95 45 -151t121 -56q75 0 120.5 57t45.5 150t-46 152
t-120 59q-76 0 -121 -57.5t-45 -153.5z" />
    <glyph glyph-name="q" unicode="q" horiz-adv-x="1060" 
d="M963 860v-1179h-295v401h-13q-2 -4 -6 -11t-21 -24.5t-39 -31t-61.5 -24.5t-85.5 -11q-169 0 -279 126.5t-110 325.5q0 204 112.5 326.5t287.5 122.5q57 0 105 -15t76.5 -36t49 -42t28.5 -36l7 -15h10l47 123h187zM684 428q0 96 -45.5 153.5t-122.5 57.5q-74 0 -120 -59
t-46 -152t45.5 -150t120.5 -57q78 0 123 56t45 151z" />
    <glyph glyph-name="r" unicode="r" horiz-adv-x="647" 
d="M621 860v-250h-46q-83 0 -131.5 -51.5t-48.5 -142.5v-416h-295v860h179l47 -117h12q37 60 94 88.5t143 28.5h46z" />
    <glyph glyph-name="s" unicode="s" horiz-adv-x="882" 
d="M53 70l86 200q15 -9 42 -23t99 -37.5t132 -23.5q100 0 100 52q0 22 -24.5 38t-64 27t-87 23t-95 32.5t-87 50t-64 81.5t-24.5 120q0 120 93.5 195.5t262.5 75.5q116 0 213.5 -19.5t137.5 -39.5l40 -19l-84 -211q-13 9 -37.5 22t-95 34.5t-137.5 21.5q-90 0 -90 -49
q0 -22 25.5 -36.5t65.5 -24.5t89 -21.5t98 -32t89 -50t65.5 -81.5t25.5 -121q0 -124 -96.5 -199t-296.5 -75q-74 0 -141 9.5t-109 22.5t-73 26t-45 22z" />
    <glyph glyph-name="t" unicode="t" horiz-adv-x="720" 
d="M29 860h141v262h295v-262h192v-227h-192v-326q0 -76 78 -76q19 0 38 6.5t28 12.5l9 6l80 -201q-41 -32 -106.5 -53.5t-130.5 -21.5q-150 0 -220.5 85t-70.5 228v340h-141v227z" />
    <glyph glyph-name="u" unicode="u" horiz-adv-x="1056" 
d="M662 369v491h294v-860h-200l-49 115h-13q-92 -135 -248 -135q-164 0 -260 100.5t-96 273.5v506h295v-485q0 -65 35 -106.5t98 -41.5q65 0 104.5 42.5t39.5 99.5z" />
    <glyph glyph-name="v" unicode="v" horiz-adv-x="948" 
d="M961 860l-381 -860h-211l-381 860h321l142 -436q16 -40 16 -76h14q0 23 17 76l141 436h322z" />
    <glyph glyph-name="w" unicode="w" horiz-adv-x="1380" 
d="M1384 860l-307 -860h-250l-112 383q-19 63 -19 115h-12q0 -49 -20 -115l-113 -383h-248l-307 860h311l109 -436q14 -58 14 -76h10q0 15 17 86l106 426h254l107 -426q16 -72 16 -86h10q0 25 15 76l108 436h311z" />
    <glyph glyph-name="x" unicode="x" horiz-adv-x="958" 
d="M25 0l264 434l-260 426h329l123 -246h6l123 246h330l-283 -426l287 -434h-330l-127 258h-6l-129 -258h-327z" />
    <glyph glyph-name="y" unicode="y" horiz-adv-x="935" 
d="M944 860l-495 -1179h-306l193 405l-344 774h321l144 -436q16 -50 16 -76h14q0 29 15 76l141 436h301z" />
    <glyph glyph-name="z" unicode="z" horiz-adv-x="884" 
d="M817 0h-751v166l372 459h-368v235h747v-149l-364 -475h364v-236z" />
    <glyph glyph-name="braceleft" unicode="{" horiz-adv-x="653" 
d="M33 694h47q57 0 81.5 31.5t24.5 105.5v297q0 322 375 336l41 -243q-70 -12 -94.5 -30.5t-24.5 -76.5v-328q0 -73 -34 -123t-95 -69v-19q60 -17 94.5 -67.5t34.5 -122.5v-326q0 -57 24.5 -75.5t94.5 -30.5l-41 -244q-375 14 -375 336v295q0 74 -24.5 105.5t-81.5 31.5h-47
v217z" />
    <glyph glyph-name="bar" unicode="|" horiz-adv-x="477" 
d="M373 1407v-1669h-269v1669h269z" />
    <glyph glyph-name="braceright" unicode="}" horiz-adv-x="653" 
d="M573 694h48v-217h-48q-57 0 -81.5 -31.5t-24.5 -105.5v-295q0 -322 -375 -336l-41 244q70 12 94.5 30.5t24.5 75.5v326q0 72 34.5 122.5t94.5 67.5v19q-61 19 -95 69t-34 123v328q0 58 -24.5 76.5t-94.5 30.5l41 243q375 -14 375 -336v-297q0 -74 24.5 -105.5t81.5 -31.5
z" />
    <glyph glyph-name="asciitilde" unicode="~" horiz-adv-x="962" 
d="M627 694q39 0 76 12t54 24l17 13l94 -182q-3 -4 -9.5 -9.5t-28.5 -21t-47 -27t-65.5 -21t-84.5 -9.5q-56 0 -148.5 33t-152.5 33q-40 0 -77.5 -12.5t-54.5 -24.5l-18 -13l-90 181q3 4 10 10t29.5 21.5t47.5 27.5t65 21.5t82 9.5q56 0 148.5 -33t152.5 -33z" />
    <glyph glyph-name="uni00A0" unicode="&#xa0;" horiz-adv-x="405" 
 />
    <glyph glyph-name="exclamdown" unicode="&#xa1;" horiz-adv-x="481" 
d="M338 430l72 -790h-336l71 790h193zM68 713q0 72 51 122t123 50t122 -50t50 -122t-50 -123t-122 -51t-123 51t-51 123z" />
    <glyph glyph-name="cent" unicode="&#xa2;" horiz-adv-x="876" 
d="M391 0l23 172q-160 35 -254 154.5t-94 283.5q0 127 56 228.5t162.5 161.5t245.5 61l23 168h104l-24 -176q50 -8 93 -24t61 -28l18 -12l-74 -217q-55 33 -129 43l-53 -414h10q42 0 85 12t65 24l22 12l74 -213q-4 -3 -11.5 -8t-33.5 -18.5t-55 -23.5t-76 -18t-97 -8h-16
l-20 -160h-105zM362 610q0 -123 84 -178l52 379q-63 -19 -99.5 -72t-36.5 -129z" />
    <glyph glyph-name="sterling" unicode="&#xa3;" horiz-adv-x="1067" 
d="M979 256v-256h-887v256q4 1 16 8t31.5 22t37 33.5t30 46t12.5 56.5q0 14 -8 76h-119v196h80q-18 99 -18 160q0 168 127.5 278.5t347.5 110.5q67 0 130 -13.5t105.5 -32.5t75.5 -38.5t48 -32.5l16 -14l-177 -246q-3 4 -9 9.5t-25 21t-39.5 27t-51 21t-61.5 9.5
q-75 0 -115.5 -37.5t-40.5 -105.5q0 -47 13 -117h329v-196h-299q7 -47 7 -78q0 -88 -39 -164h483z" />
    <glyph glyph-name="yen" unicode="&#xa5;" horiz-adv-x="1271" 
d="M688 856l207 373h319l-327 -572h221v-196h-324v-80h324v-197h-324v-184h-297v184h-315v197h315v80h-315v196h209l-326 572h320l207 -373l53 -125z" />
    <glyph glyph-name="brokenbar" unicode="&#xa6;" horiz-adv-x="497" 
d="M383 676h-268v702h268v-702zM383 -313h-268v700h268v-700z" />
    <glyph glyph-name="section" unicode="&#xa7;" horiz-adv-x="1138" 
d="M63 96l121 195q6 -4 17.5 -10t49.5 -21.5t78.5 -27.5t101.5 -21.5t122 -9.5q154 0 154 63q0 34 -41 56t-158 53q-37 10 -59.5 16t-59 17.5t-60 21t-55.5 24t-52.5 29.5t-42.5 35t-34.5 41.5t-21 49t-8.5 57.5q0 56 22.5 95t46.5 58q-69 54 -69 154q0 133 116.5 208.5
t346.5 75.5q86 0 163.5 -10.5t127.5 -25t87 -29t54 -24.5l16 -11l-119 -207q-6 3 -16.5 8.5t-44.5 19t-70 23.5t-90.5 18.5t-107.5 8.5q-121 0 -121 -55q0 -30 32 -49t119 -43q179 -48 242 -73q195 -78 204 -209q1 -8 1 -15q0 -64 -22.5 -109t-47.5 -67q70 -61 70 -146
q0 -126 -126 -208.5t-368 -82.5q-93 0 -178.5 13t-141 31.5t-98 37.5t-61.5 32zM508 700l-88 23q-14 -14 -14 -43q0 -77 202 -129l133 -37l3 4l4 8t4.5 10t4 13t1.5 14q0 26 -18 46.5t-54 35.5t-74.5 26.5t-94.5 26.5q-6 1 -9 2z" />
    <glyph glyph-name="dieresis" unicode="&#xa8;" horiz-adv-x="931" 
d="M139 1438q0 55 41 97t94 42q56 0 98 -42t42 -97q0 -54 -42.5 -96t-97.5 -42q-53 0 -94 42t-41 96zM514 1438q0 55 41 97t94 42q55 0 96 -41.5t41 -97.5q0 -54 -41 -96t-96 -42q-53 0 -94 42t-41 96z" />
    <glyph glyph-name="copyright" unicode="&#xa9;" horiz-adv-x="1370" 
d="M686 1239q186 0 327 -85.5t213 -227t72 -314.5q0 -172 -72 -313t-213 -226t-327 -85q-185 0 -326.5 85t-214.5 226t-73 313q0 173 73 314.5t214.5 227t326.5 85.5zM686 1153q-119 0 -218.5 -42.5t-165.5 -116t-102 -172t-36 -210.5q0 -149 61.5 -270t182 -194.5
t278.5 -73.5t279 73.5t183 194.5t62 270q0 150 -62 272.5t-182.5 195.5t-279.5 73zM928 866l-101 -143q-40 37 -110 37q-66 0 -106 -40.5t-40 -105.5q0 -66 40 -105.5t106 -39.5q31 0 58.5 9.5t39.5 18.5l12 9l101 -144q-3 -3 -8.5 -8t-25.5 -18t-44 -23t-63 -18t-82 -8
q-155 0 -246.5 93.5t-91.5 233.5t91.5 235t246.5 95q44 0 83 -8t63.5 -19.5t42.5 -23t26 -19.5z" />
    <glyph glyph-name="ordfeminine" unicode="&#xaa;" horiz-adv-x="790" 
d="M51 758q0 104 80.5 164.5t216.5 60.5q97 0 152 -35v10q0 134 -152 134q-101 0 -174 -41l-57 151q13 6 35.5 15t90.5 24.5t132 15.5q165 0 242 -76.5t77 -226.5v-393h-145l-29 70h-12q-60 -86 -211 -86q-103 0 -174.5 59.5t-71.5 153.5zM252 772q0 -39 31 -65.5t88 -26.5
q52 0 88 28.5t41 65.5v17q-4 36 -38.5 55.5t-88.5 19.5q-59 0 -90 -26.5t-31 -67.5z" />
    <glyph glyph-name="guillemotleft" unicode="&#xab;" horiz-adv-x="1054" 
d="M55 403v43l267 390h243v-19l-256 -381v-18l256 -383v-19h-243zM489 403v43l267 390h243v-19l-256 -381v-18l256 -383v-19h-243z" />
    <glyph glyph-name="logicalnot" unicode="&#xac;" horiz-adv-x="1155" 
d="M78 471v238h966v-709h-241v471h-725z" />
    <glyph glyph-name="registered" unicode="&#xae;" horiz-adv-x="1081" 
d="M1004 778q0 -131 -54.5 -238.5t-162 -173t-248.5 -65.5q-140 0 -246.5 66t-160.5 173.5t-54 237.5q0 131 54 238.5t160.5 173t246.5 65.5q141 0 248.5 -65.5t162 -173t54.5 -238.5zM911 778q0 168 -103 278.5t-269 110.5q-165 0 -267 -108.5t-102 -280.5q0 -167 103 -278
t266 -111q166 0 269 110.5t103 278.5zM352 993h205q82 0 132 -42.5t50 -112.5q0 -81 -63 -125v-2l72 -107v-24h-132l-67 100h-72v-100h-125v413zM553 881h-76v-93h76q55 0 55 46q0 47 -55 47z" />
    <glyph glyph-name="macron" unicode="&#xaf;" horiz-adv-x="1077" 
d="M248 1368v174h604v-174h-604z" />
    <glyph glyph-name="degree" unicode="&#xb0;" horiz-adv-x="577" 
d="M289 1378q107 0 174 -63.5t67 -157.5t-67 -157.5t-174 -63.5t-174.5 63.5t-67.5 157.5t67.5 157.5t174.5 63.5zM289 1237q-38 0 -59 -22t-21 -58q0 -33 21.5 -54.5t58.5 -21.5t59.5 21.5t22.5 54.5q0 36 -22 58t-60 22z" />
    <glyph glyph-name="plusminus" unicode="&#xb1;" horiz-adv-x="1058" 
d="M653 393h-241v289h-312v238h312v305h241v-305h305v-238h-305v-289zM958 272v-237h-858v237h858z" />
    <glyph glyph-name="twosuperior" unicode="&#xb2;" horiz-adv-x="677" 
d="M92 700v144l238 211q45 39 45 80q0 28 -20.5 46.5t-53.5 18.5t-58.5 -13.5t-68.5 -49.5l-106 153q3 4 10 10.5t30 23t49 29t68 23t86 10.5q126 0 197.5 -67.5t71.5 -163.5q0 -117 -78 -184l-119 -105h209v-166h-500z" />
    <glyph glyph-name="threesuperior" unicode="&#xb3;" horiz-adv-x="645" 
d="M80 1200v168h475v-125l-106 -133q64 -24 98.5 -70.5t34.5 -111.5q0 -109 -73 -176.5t-210 -67.5q-46 0 -87.5 9t-67.5 22t-46 26t-28 22l-9 9l101 139q5 -5 14.5 -13t43 -21t71.5 -13q90 0 90 62q0 61 -82 61h-96v86l102 127h-225z" />
    <glyph glyph-name="acute" unicode="&#xb4;" horiz-adv-x="571" 
d="M514 1288l-244 -270h-188l98 297z" />
    <glyph glyph-name="mu" unicode="&#xb5;" horiz-adv-x="1073" 
d="M674 369v491h295v-860h-201l-49 115h-12q-92 -135 -248 -135q-24 0 -64 4l4 -246h-297v1122h295v-485q0 -65 35 -106.5t98 -41.5q65 0 104.5 42.5t39.5 99.5z" />
    <glyph glyph-name="paragraph" unicode="&#xb6;" horiz-adv-x="1144" 
d="M721 -168v418h-109q-245 0 -400 132.5t-155 367.5q0 154 74 264.5t197.5 163.5t283.5 53h406v-1399h-297z" />
    <glyph glyph-name="periodcentered" unicode="&#xb7;" horiz-adv-x="477" 
d="M66 735q0 72 50 123t122 51t123 -51t51 -123t-51 -122t-123 -50t-122 50t-50 122z" />
    <glyph glyph-name="cedilla" unicode="&#xb8;" horiz-adv-x="421" 
d="M139 -160l-45 51l56 115h131l-27 -67q58 0 94.5 -36.5t36.5 -97.5q0 -72 -49.5 -114.5t-138.5 -42.5q-57 0 -104.5 17t-66.5 33l-18 17l64 101q34 -24 57.5 -33.5t56.5 -9.5q64 0 64 41q0 18 -14.5 28.5t-38.5 10.5q-16 0 -30.5 -3.5t-20.5 -6.5z" />
    <glyph glyph-name="onesuperior" unicode="&#xb9;" horiz-adv-x="460" 
d="M39 1200v168h317v-668h-190v500h-127z" />
    <glyph glyph-name="ordmasculine" unicode="&#xba;" horiz-adv-x="782" 
d="M391 1255q144 0 240 -98.5t96 -259.5q0 -154 -96 -250t-240 -96q-145 0 -241.5 96t-96.5 250q0 161 96 259.5t242 98.5zM391 1087q-66 0 -103.5 -50.5t-37.5 -135.5q0 -83 37 -132.5t104 -49.5q66 0 102.5 49.5t36.5 132.5q0 85 -36.5 135.5t-102.5 50.5z" />
    <glyph glyph-name="guillemotright" unicode="&#xbb;" horiz-adv-x="1054" 
d="M565 446v-43l-266 -387h-244v19l256 383v18l-256 381v19h244zM999 446v-43l-266 -387h-244v19l256 383v18l-256 381v19h244z" />
    <glyph glyph-name="onequarter" unicode="&#xbc;" horiz-adv-x="1357" 
d="M289 -2l-230 2l981 1229h230zM655 137v123l369 408h145v-375h113v-156h-113v-137h-182v137h-332zM100 1061v168h318v-668h-191v500h-127zM879 291v-2l49 4h59v131h-2l-74 -98q-5 -8 -13 -17t-14 -13z" />
    <glyph glyph-name="onehalf" unicode="&#xbd;" horiz-adv-x="1462" 
d="M287 0h-230l979 1229h232zM889 143v-143h500v166h-209l118 104q78 67 78 185q0 96 -71 163.5t-197 67.5q-44 0 -85.5 -10t-69 -24t-48.5 -28t-31 -24l-10 -10l107 -154q43 37 68.5 50.5t58.5 13.5t53 -19t20 -47q0 -41 -45 -80zM109 1061v168h317v-668h-190v500h-127z
" />
    <glyph glyph-name="threequarters" unicode="&#xbe;" horiz-adv-x="1433" 
d="M389 0h-233l981 1229h229zM82 1061v168h475v-125l-106 -133q64 -23 98.5 -70.5t34.5 -112.5q0 -109 -72.5 -176t-210.5 -67q-46 0 -87.5 9t-67.5 22t-46 26t-28 22l-9 9l101 139q5 -5 14.5 -13t43 -21t71.5 -13q90 0 90 61q0 62 -82 62h-96v86l102 127h-225zM752 123v123
l368 407h146v-374h98v-156h-98v-123h-185v123h-329zM975 276v-2l49 5h57v131h-2l-71 -99q-5 -8 -13.5 -17t-14.5 -14z" />
    <glyph glyph-name="questiondown" unicode="&#xbf;" horiz-adv-x="915" 
d="M715 -29l155 -235q-5 -5 -14 -13.5t-42.5 -30t-72 -38t-102.5 -30t-135 -13.5q-197 0 -321 94t-124 254q0 80 29 142.5t71.5 100.5t85.5 68.5t77 64.5t40 71l7 38h239v-61q0 -57 -21 -101t-51 -72.5t-60.5 -55t-51.5 -61t-21 -77.5q0 -54 37 -83t103 -29q41 0 84 16.5
t65 33.5zM653 719q0 -69 -48.5 -116.5t-117.5 -47.5t-116 47.5t-47 116.5t47 117.5t116 48.5t117.5 -48.5t48.5 -117.5z" />
    <glyph glyph-name="Agrave" unicode="&#xc0;" 
d="M774 1229l469 -1229h-319l-76 221h-471l-76 -221h-319l469 1229h323zM612 909l-155 -454h311zM504 1300l-197 279l326 49l67 -328h-196z" />
    <glyph glyph-name="Aacute" unicode="&#xc1;" 
d="M774 1229l469 -1229h-319l-76 221h-471l-76 -221h-319l469 1229h323zM612 909l-155 -454h311zM952 1571l-243 -271h-189l98 297z" />
    <glyph glyph-name="Acircumflex" unicode="&#xc2;" 
d="M774 1229l469 -1229h-319l-76 221h-471l-76 -221h-319l469 1229h323zM612 909l-155 -454h311zM700 1300l-86 130l-86 -130h-194l170 291h225l168 -291h-197z" />
    <glyph glyph-name="Atilde" unicode="&#xc3;" 
d="M774 1229l469 -1229h-319l-76 221h-471l-76 -221h-319l469 1229h323zM612 909l-155 -454h311zM770 1311q-53 0 -101.5 18.5t-86 36.5t-64.5 18q-44 0 -57 -51l-8 -33l-207 19l12 76q15 98 71.5 153.5t149.5 55.5q53 0 101.5 -18.5t86 -37t64.5 -18.5q44 0 57 51l9 33
l207 -19l-13 -75q-15 -98 -71.5 -153.5t-149.5 -55.5z" />
    <glyph glyph-name="Adieresis" unicode="&#xc4;" 
d="M774 1229l469 -1229h-319l-76 221h-471l-76 -221h-319l469 1229h323zM612 909l-155 -454h311zM289 1438q0 55 41 97t94 42q56 0 97.5 -41.5t41.5 -97.5q0 -54 -42 -96t-97 -42q-53 0 -94 42t-41 96zM664 1438q0 55 41 97t94 42q55 0 96 -41.5t41 -97.5q0 -54 -41 -96
t-96 -42q-53 0 -94 42t-41 96z" />
    <glyph glyph-name="Aring" unicode="&#xc5;" 
d="M774 1229l469 -1229h-319l-76 221h-471l-76 -221h-319l469 1229h323zM612 909l-155 -454h311zM373 1446q0 86 60 137t179 51t179.5 -51.5t60.5 -136.5q0 -84 -61 -135t-179 -51t-178.5 51t-60.5 135zM700 1446q0 67 -88 67q-41 0 -63.5 -17.5t-22.5 -49.5q0 -66 86 -66
q88 0 88 66z" />
    <glyph glyph-name="AE" unicode="&#xc6;" horiz-adv-x="1847" 
d="M-37 0l838 1229h979v-256h-637v-242h499v-233h-499v-242h637v-256h-934v236h-379l-152 -236h-352zM842 815l-219 -340h223v340h-4z" />
    <glyph glyph-name="Ccedilla" unicode="&#xc7;" horiz-adv-x="1130" 
d="M590 -160l-45 51l41 89q-244 33 -385.5 210.5t-141.5 423.5q0 132 43.5 248.5t123.5 204t200.5 138t265.5 50.5q81 0 154 -15.5t119.5 -37.5t81.5 -43.5t50 -36.5l15 -16l-170 -227q-3 4 -9.5 10t-29.5 22t-49.5 28t-69 22t-88.5 10q-145 0 -237 -99t-92 -258t92 -257.5
t237 -98.5q46 0 88 9.5t69.5 23t48.5 27t30 22.5l10 10l170 -227q-5 -6 -15 -15.5t-46 -34.5t-78 -44.5t-111 -37t-145 -20.5l-12 -32q58 0 94.5 -36.5t36.5 -97.5q0 -72 -50 -114.5t-139 -42.5q-57 0 -104 17t-65 33l-19 17l63 101q33 -24 57.5 -33.5t57.5 -9.5q63 0 63 41
q0 18 -14.5 28.5t-38.5 10.5q-16 0 -30 -3.5t-21 -6.5z" />
    <glyph glyph-name="Egrave" unicode="&#xc8;" horiz-adv-x="1091" 
d="M924 739v-233h-500v-250h596v-256h-893v1229h893v-256h-596v-234h500zM510 1300l-197 279l326 49l68 -328h-197z" />
    <glyph glyph-name="Eacute" unicode="&#xc9;" horiz-adv-x="1091" 
d="M924 739v-233h-500v-250h596v-256h-893v1229h893v-256h-596v-234h500zM932 1571l-244 -271h-188l98 297z" />
    <glyph glyph-name="Ecircumflex" unicode="&#xca;" horiz-adv-x="1091" 
d="M924 739v-233h-500v-250h596v-256h-893v1229h893v-256h-596v-234h500zM682 1300l-86 130l-86 -130h-195l170 291h226l168 -291h-197z" />
    <glyph glyph-name="Edieresis" unicode="&#xcb;" horiz-adv-x="1091" 
d="M924 739v-233h-500v-250h596v-256h-893v1229h893v-256h-596v-234h500zM279 1438q0 55 41 97t94 42q56 0 97.5 -41.5t41.5 -97.5q0 -54 -42 -96t-97 -42q-53 0 -94 42t-41 96zM653 1438q0 55 41 97t94 42q55 0 96.5 -41.5t41.5 -97.5q0 -54 -41.5 -96t-96.5 -42
q-53 0 -94 42t-41 96z" />
    <glyph glyph-name="Igrave" unicode="&#xcc;" horiz-adv-x="550" 
d="M424 1229v-1229h-297v1229h297zM164 1300l-197 279l326 49l67 -328h-196z" />
    <glyph glyph-name="Iacute" unicode="&#xcd;" horiz-adv-x="550" 
d="M424 1229v-1229h-297v1229h297zM612 1571l-243 -271h-189l99 297z" />
    <glyph glyph-name="Icircumflex" unicode="&#xce;" horiz-adv-x="550" 
d="M424 1229v-1229h-297v1229h297zM365 1300l-86 130l-86 -130h-195l170 291h225l168 -291h-196z" />
    <glyph glyph-name="Idieresis" unicode="&#xcf;" horiz-adv-x="550" 
d="M424 1229v-1229h-297v1229h297zM-47 1438q0 55 41 97t94 42q56 0 97.5 -41.5t41.5 -97.5q0 -54 -42 -96t-97 -42q-53 0 -94 42t-41 96zM328 1438q0 55 41 97t94 42q55 0 96 -41.5t41 -97.5q0 -54 -41 -96t-96 -42q-53 0 -94 42t-41 96z" />
    <glyph glyph-name="Eth" unicode="&#xd0;" horiz-adv-x="1308" 
d="M31 489v265h100v475h473q145 0 267 -46.5t204.5 -128.5t128 -195.5t45.5 -244.5t-45.5 -244t-128 -195t-204.5 -128.5t-267 -46.5h-473v489h-100zM582 973h-154v-219h231v-265h-231v-233h154q154 0 257 97t103 261q0 172 -101.5 265.5t-258.5 93.5z" />
    <glyph glyph-name="Ntilde" unicode="&#xd1;" horiz-adv-x="1368" 
d="M1241 1229v-1229h-229l-590 717v-717h-295v1229h229l590 -705v705h295zM840 1311q-53 0 -101.5 18.5t-86 36.5t-64.5 18q-45 0 -58 -51l-8 -33l-207 19l13 76q15 98 71.5 153.5t149.5 55.5q53 0 101.5 -18.5t86 -37t64.5 -18.5q44 0 57 51l8 33l207 -19l-12 -75
q-15 -98 -71.5 -153.5t-149.5 -55.5z" />
    <glyph glyph-name="Ograve" unicode="&#xd2;" horiz-adv-x="1376" 
d="M686 -29q-181 0 -326 87.5t-224 234t-79 321.5t79 321.5t224 233t326 86.5q183 0 329 -87t225 -233t79 -321t-79 -321.5t-225 -234t-329 -87.5zM686 260q139 0 232.5 98.5t93.5 255.5t-93.5 256t-232.5 99q-136 0 -228.5 -99t-92.5 -256t92.5 -255.5t228.5 -98.5z
M582 1300l-197 279l326 49l67 -328h-196z" />
    <glyph glyph-name="Oacute" unicode="&#xd3;" horiz-adv-x="1376" 
d="M686 -29q-181 0 -326 87.5t-224 234t-79 321.5t79 321.5t224 233t326 86.5q183 0 329 -87t225 -233t79 -321t-79 -321.5t-225 -234t-329 -87.5zM686 260q139 0 232.5 98.5t93.5 255.5t-93.5 256t-232.5 99q-136 0 -228.5 -99t-92.5 -256t92.5 -255.5t228.5 -98.5z
M1016 1571l-244 -271h-188l98 297z" />
    <glyph glyph-name="Ocircumflex" unicode="&#xd4;" horiz-adv-x="1376" 
d="M686 -29q-181 0 -326 87.5t-224 234t-79 321.5t79 321.5t224 233t326 86.5q183 0 329 -87t225 -233t79 -321t-79 -321.5t-225 -234t-329 -87.5zM686 260q139 0 232.5 98.5t93.5 255.5t-93.5 256t-232.5 99q-136 0 -228.5 -99t-92.5 -256t92.5 -255.5t228.5 -98.5z
M776 1300l-86 130l-86 -130h-194l170 291h225l168 -291h-197z" />
    <glyph glyph-name="Otilde" unicode="&#xd5;" horiz-adv-x="1376" 
d="M686 -29q-181 0 -326 87.5t-224 234t-79 321.5t79 321.5t224 233t326 86.5q183 0 329 -87t225 -233t79 -321t-79 -321.5t-225 -234t-329 -87.5zM686 260q139 0 232.5 98.5t93.5 255.5t-93.5 256t-232.5 99q-136 0 -228.5 -99t-92.5 -256t92.5 -255.5t228.5 -98.5z
M838 1311q-53 0 -101.5 18.5t-86 36.5t-64.5 18q-45 0 -58 -51l-8 -33l-207 19l13 76q15 98 71.5 153.5t149.5 55.5q53 0 101.5 -18.5t86 -37t64.5 -18.5q44 0 57 51l8 33l207 -19l-12 -75q-15 -98 -71.5 -153.5t-149.5 -55.5z" />
    <glyph glyph-name="Odieresis" unicode="&#xd6;" horiz-adv-x="1376" 
d="M686 -29q-181 0 -326 87.5t-224 234t-79 321.5t79 321.5t224 233t326 86.5q183 0 329 -87t225 -233t79 -321t-79 -321.5t-225 -234t-329 -87.5zM686 260q139 0 232.5 98.5t93.5 255.5t-93.5 256t-232.5 99q-136 0 -228.5 -99t-92.5 -256t92.5 -255.5t228.5 -98.5z
M365 1438q0 55 41 97t94 42q56 0 97.5 -41.5t41.5 -97.5q0 -54 -42 -96t-97 -42q-53 0 -94 42t-41 96zM739 1438q0 55 41 97t94 42q55 0 96.5 -41.5t41.5 -97.5q0 -54 -41.5 -96t-96.5 -42q-53 0 -94 42t-41 96z" />
    <glyph glyph-name="multiply" unicode="&#xd7;" horiz-adv-x="1052" 
d="M246 174l-166 166l280 281l-280 280l166 166l280 -281l281 281l166 -166l-281 -280l281 -281l-166 -166l-281 281z" />
    <glyph glyph-name="Oslash" unicode="&#xd8;" horiz-adv-x="1417" 
d="M709 -29q-208 0 -365 113l-82 -84h-301l232 238q-113 166 -113 376q0 175 79 321.5t224 233t326 86.5q207 0 364 -110l80 84h301l-229 -236q116 -166 116 -379q0 -131 -46.5 -249t-128.5 -205t-201 -138t-256 -51zM709 260q139 0 232 98.5t93 255.5q0 82 -28 152
l-453 -467q65 -39 156 -39zM387 614q0 -74 27 -147l448 463q-70 39 -153 39q-136 0 -229 -99t-93 -256z" />
    <glyph glyph-name="Ugrave" unicode="&#xd9;" horiz-adv-x="1310" 
d="M655 -29q-162 0 -287 73.5t-191 200.5t-66 285v699h297v-699q0 -121 63.5 -195.5t183.5 -74.5q124 0 186 74t62 196v699h297v-699q0 -159 -64.5 -285t-189.5 -200t-291 -74zM549 1300l-197 279l326 49l67 -328h-196z" />
    <glyph glyph-name="Uacute" unicode="&#xda;" horiz-adv-x="1310" 
d="M655 -29q-162 0 -287 73.5t-191 200.5t-66 285v699h297v-699q0 -121 63.5 -195.5t183.5 -74.5q124 0 186 74t62 196v699h297v-699q0 -159 -64.5 -285t-189.5 -200t-291 -74zM985 1571l-244 -271h-188l98 297z" />
    <glyph glyph-name="Ucircumflex" unicode="&#xdb;" horiz-adv-x="1310" 
d="M655 -29q-162 0 -287 73.5t-191 200.5t-66 285v699h297v-699q0 -121 63.5 -195.5t183.5 -74.5q124 0 186 74t62 196v699h297v-699q0 -159 -64.5 -285t-189.5 -200t-291 -74zM745 1300l-86 130l-86 -130h-194l170 291h225l168 -291h-197z" />
    <glyph glyph-name="Udieresis" unicode="&#xdc;" horiz-adv-x="1310" 
d="M655 -29q-162 0 -287 73.5t-191 200.5t-66 285v699h297v-699q0 -121 63.5 -195.5t183.5 -74.5q124 0 186 74t62 196v699h297v-699q0 -159 -64.5 -285t-189.5 -200t-291 -74zM336 1438q0 55 41 97t94 42q55 0 97 -41.5t42 -97.5q0 -54 -42 -96t-97 -42q-53 0 -94 42
t-41 96zM711 1438q0 55 41 97t94 42q55 0 96 -41.5t41 -97.5q0 -54 -41 -96t-96 -42q-53 0 -94 42t-41 96z" />
    <glyph glyph-name="Yacute" unicode="&#xdd;" horiz-adv-x="1122" 
d="M614 856l207 373h320l-430 -752v-477h-297v473l-432 756h319l207 -373l53 -125zM897 1638l-244 -270h-188l98 297z" />
    <glyph glyph-name="Thorn" unicode="&#xde;" horiz-adv-x="1210" 
d="M424 1229v-180h266q225 0 356.5 -114t131.5 -314q0 -211 -140.5 -327t-367.5 -116h-246v-178h-297v1229h297zM870 608q0 87 -58.5 136t-154.5 49h-233v-369h235q97 0 154 47t57 137z" />
    <glyph glyph-name="germandbls" unicode="&#xdf;" horiz-adv-x="1021" 
d="M487 481v209q84 18 117 58.5t33 101.5q0 62 -31 96.5t-90 34.5q-56 0 -88.5 -38.5t-32.5 -100.5v-842h-295v827q0 187 109.5 294.5t308.5 107.5q183 0 301.5 -108.5t118.5 -258.5q0 -88 -35 -152.5t-96 -97.5q72 -33 114 -103t42 -167q0 -155 -101 -252.5t-260 -97.5
l-117 8v186h47q77 0 119.5 40t42.5 110q0 68 -41.5 106.5t-117.5 38.5h-48z" />
    <glyph glyph-name="agrave" unicode="&#xe0;" horiz-adv-x="962" 
d="M872 530v-530h-200l-41 104h-8q-72 -124 -271 -124q-142 0 -224.5 75t-82.5 195q0 137 98.5 211t292.5 74q80 0 154 -19v27q0 60 -46.5 84t-140.5 24q-53 0 -106.5 -14.5t-80.5 -28.5l-28 -14l-90 209q5 3 15 8.5t44.5 19t74 23.5t103.5 18.5t132 8.5q191 0 298 -96
t107 -255zM590 303v64q-48 18 -117 18q-72 0 -113 -29.5t-41 -81.5q0 -46 33.5 -74t85.5 -28q63 0 107.5 36.5t44.5 94.5zM367 1018l-197 278l326 50l67 -328h-196z" />
    <glyph glyph-name="aacute" unicode="&#xe1;" horiz-adv-x="962" 
d="M872 530v-530h-200l-41 104h-8q-72 -124 -271 -124q-142 0 -224.5 75t-82.5 195q0 137 98.5 211t292.5 74q80 0 154 -19v27q0 60 -46.5 84t-140.5 24q-53 0 -106.5 -14.5t-80.5 -28.5l-28 -14l-90 209q5 3 15 8.5t44.5 19t74 23.5t103.5 18.5t132 8.5q191 0 298 -96
t107 -255zM590 303v64q-48 18 -117 18q-72 0 -113 -29.5t-41 -81.5q0 -46 33.5 -74t85.5 -28q63 0 107.5 36.5t44.5 94.5zM782 1288l-243 -270h-189l99 297z" />
    <glyph glyph-name="acircumflex" unicode="&#xe2;" horiz-adv-x="962" 
d="M872 530v-530h-200l-41 104h-8q-72 -124 -271 -124q-142 0 -224.5 75t-82.5 195q0 137 98.5 211t292.5 74q80 0 154 -19v27q0 60 -46.5 84t-140.5 24q-53 0 -106.5 -14.5t-80.5 -28.5l-28 -14l-90 209q5 3 15 8.5t44.5 19t74 23.5t103.5 18.5t132 8.5q191 0 298 -96
t107 -255zM590 303v64q-48 18 -117 18q-72 0 -113 -29.5t-41 -81.5q0 -46 33.5 -74t85.5 -28q63 0 107.5 36.5t44.5 94.5zM535 1018l-86 129l-87 -129h-194l170 291h225l168 -291h-196z" />
    <glyph glyph-name="atilde" unicode="&#xe3;" horiz-adv-x="962" 
d="M872 530v-530h-200l-41 104h-8q-72 -124 -271 -124q-142 0 -224.5 75t-82.5 195q0 137 98.5 211t292.5 74q80 0 154 -19v27q0 60 -46.5 84t-140.5 24q-53 0 -106.5 -14.5t-80.5 -28.5l-28 -14l-90 209q5 3 15 8.5t44.5 19t74 23.5t103.5 18.5t132 8.5q191 0 298 -96
t107 -255zM590 303v64q-48 18 -117 18q-72 0 -113 -29.5t-41 -81.5q0 -46 33.5 -74t85.5 -28q63 0 107.5 36.5t44.5 94.5zM596 965q-53 0 -101.5 18.5t-86 36.5t-64.5 18q-44 0 -57 -51l-8 -33l-207 19l12 76q15 98 71.5 153t149.5 55q53 0 101.5 -18.5t86 -36.5t64.5 -18
q44 0 57 51l9 33l206 -19l-12 -75q-15 -98 -71.5 -153.5t-149.5 -55.5z" />
    <glyph glyph-name="adieresis" unicode="&#xe4;" horiz-adv-x="962" 
d="M872 530v-530h-200l-41 104h-8q-72 -124 -271 -124q-142 0 -224.5 75t-82.5 195q0 137 98.5 211t292.5 74q80 0 154 -19v27q0 60 -46.5 84t-140.5 24q-53 0 -106.5 -14.5t-80.5 -28.5l-28 -14l-90 209q5 3 15 8.5t44.5 19t74 23.5t103.5 18.5t132 8.5q191 0 298 -96
t107 -255zM590 303v64q-48 18 -117 18q-72 0 -113 -29.5t-41 -81.5q0 -46 33.5 -74t85.5 -28q63 0 107.5 36.5t44.5 94.5zM129 1087q0 55 41 97.5t94 42.5q55 0 97 -42t42 -98q0 -54 -42 -95.5t-97 -41.5q-53 0 -94 41.5t-41 95.5zM504 1087q0 55 41 97.5t94 42.5
q55 0 96 -42t41 -98q0 -54 -41 -95.5t-96 -41.5q-53 0 -94 41.5t-41 95.5z" />
    <glyph glyph-name="aring" unicode="&#xe5;" horiz-adv-x="962" 
d="M872 530v-530h-200l-41 104h-8q-72 -124 -271 -124q-142 0 -224.5 75t-82.5 195q0 137 98.5 211t292.5 74q80 0 154 -19v27q0 60 -46.5 84t-140.5 24q-53 0 -106.5 -14.5t-80.5 -28.5l-28 -14l-90 209q5 3 15 8.5t44.5 19t74 23.5t103.5 18.5t132 8.5q191 0 298 -96
t107 -255zM590 303v64q-48 18 -117 18q-72 0 -113 -29.5t-41 -81.5q0 -46 33.5 -74t85.5 -28q63 0 107.5 36.5t44.5 94.5zM213 1196q0 85 60.5 136.5t179.5 51.5t179 -51t60 -137q0 -84 -60.5 -135t-178.5 -51t-179 51t-61 135zM541 1196q0 32 -22.5 50t-65.5 18
q-41 0 -63.5 -18t-22.5 -50q0 -66 86 -66q88 0 88 66z" />
    <glyph glyph-name="ae" unicode="&#xe6;" horiz-adv-x="1486" 
d="M1296 276l101 -190q-4 -4 -13 -11.5t-39.5 -25.5t-66 -32t-93.5 -25.5t-120 -11.5q-199 0 -324 106q-122 -106 -344 -106q-174 0 -266 73.5t-92 186.5q0 136 91.5 207t293.5 71q72 0 164 -18v30q0 61 -49.5 93t-135.5 32q-50 0 -104 -17.5t-83 -34.5l-28 -17l-92 217
q6 3 16.5 8.5t46 19t73.5 23.5t95.5 18.5t114.5 8.5q194 0 308 -97q122 97 280 97q190 0 300 -114.5t110 -313.5l-2 -82h-561q28 -160 208 -160q56 0 108.5 16.5t77.5 32.5zM440 172q73 0 110.5 43.5t37.5 112.5v22q-65 17 -137 17q-64 0 -98 -26.5t-34 -74.5q0 -94 121 -94
zM1022 668q-54 0 -91 -35t-50 -103h276q-3 63 -38 100.5t-97 37.5z" />
    <glyph glyph-name="ccedilla" unicode="&#xe7;" horiz-adv-x="831" 
d="M383 -160l-45 51l49 105q-155 36 -245.5 154.5t-90.5 279.5q0 195 128.5 323t338.5 128q50 0 96.5 -8t77 -19.5t54 -23t34.5 -19.5l11 -8l-74 -211q-9 5 -24.5 13t-60.5 21t-87 13q-88 0 -142.5 -57t-54.5 -152t54.5 -152t142.5 -57q42 0 85 11.5t65 23.5l22 12l74 -207
q-4 -3 -11.5 -8.5t-33.5 -19.5t-55 -24.5t-76 -19.5t-97 -9h-4l-16 -41q58 0 94.5 -36.5t36.5 -97.5q0 -72 -50 -114.5t-139 -42.5q-57 0 -104 17t-66 33l-18 17l63 101q33 -24 57.5 -33.5t57.5 -9.5q64 0 64 41q0 18 -15 28.5t-39 10.5q-16 0 -30 -3.5t-20 -6.5z" />
    <glyph glyph-name="egrave" unicode="&#xe8;" horiz-adv-x="944" 
d="M756 270l100 -190q-4 -4 -13 -11.5t-39.5 -26t-66 -32.5t-93.5 -25.5t-120 -11.5q-218 0 -345.5 130t-127.5 327q0 195 123 323t315 128q190 0 300 -114.5t110 -313.5l-2 -82h-561q12 -86 63.5 -126t145.5 -40q56 0 108.5 16.5t77.5 32.5zM481 668q-54 0 -91 -35
t-50 -103h276q-3 63 -38 100.5t-97 37.5zM354 1018l-196 278l325 50l68 -328h-197z" />
    <glyph glyph-name="eacute" unicode="&#xe9;" horiz-adv-x="944" 
d="M831 1288l-243 -270h-189l99 297zM756 270l100 -190q-4 -4 -13 -11.5t-39.5 -26t-66 -32.5t-93.5 -25.5t-120 -11.5q-218 0 -345.5 130t-127.5 327q0 195 123 323t315 128q190 0 300 -114.5t110 -313.5l-2 -82h-561q12 -86 63.5 -126t145.5 -40q56 0 108.5 16.5
t77.5 32.5zM481 668q-54 0 -91 -35t-50 -103h276q-3 63 -38 100.5t-97 37.5z" />
    <glyph glyph-name="ecircumflex" unicode="&#xea;" horiz-adv-x="944" 
d="M573 1018l-86 129l-86 -129h-194l170 291h225l168 -291h-197zM756 270l100 -190q-4 -4 -13 -11.5t-39.5 -26t-66 -32.5t-93.5 -25.5t-120 -11.5q-218 0 -345.5 130t-127.5 327q0 195 123 323t315 128q190 0 300 -114.5t110 -313.5l-2 -82h-561q12 -86 63.5 -126
t145.5 -40q56 0 108.5 16.5t77.5 32.5zM481 668q-54 0 -91 -35t-50 -103h276q-3 63 -38 100.5t-97 37.5z" />
    <glyph glyph-name="edieresis" unicode="&#xeb;" horiz-adv-x="944" 
d="M756 270l100 -190q-4 -4 -13 -11.5t-39.5 -26t-66 -32.5t-93.5 -25.5t-120 -11.5q-218 0 -345.5 130t-127.5 327q0 195 123 323t315 128q190 0 300 -114.5t110 -313.5l-2 -82h-561q12 -86 63.5 -126t145.5 -40q56 0 108.5 16.5t77.5 32.5zM481 668q-54 0 -91 -35
t-50 -103h276q-3 63 -38 100.5t-97 37.5zM164 1087q0 55 41 97.5t94 42.5q55 0 97 -42t42 -98q0 -54 -42 -95.5t-97 -41.5q-53 0 -94 41.5t-41 95.5zM539 1087q0 55 41 97.5t94 42.5q55 0 96 -42t41 -98q0 -54 -41 -95.5t-96 -41.5q-53 0 -94 41.5t-41 95.5z" />
    <glyph glyph-name="igrave" unicode="&#xec;" horiz-adv-x="495" 
d="M100 0v860h295v-860h-295zM137 1018l-196 278l325 50l68 -328h-197z" />
    <glyph glyph-name="iacute" unicode="&#xed;" horiz-adv-x="495" 
d="M588 1288l-244 -270h-188l98 297zM100 0v860h295v-860h-295z" />
    <glyph glyph-name="icircumflex" unicode="&#xee;" horiz-adv-x="495" 
d="M100 0v860h295v-860h-295zM340 1018l-86 129l-86 -129h-195l170 291h226l168 -291h-197z" />
    <glyph glyph-name="idieresis" unicode="&#xef;" horiz-adv-x="495" 
d="M-66 1153q0 55 41.5 97t94.5 42q56 0 97.5 -42t41.5 -97q0 -54 -42 -95.5t-97 -41.5q-53 0 -94.5 41.5t-41.5 95.5zM309 1153q0 55 41 97t94 42q55 0 96.5 -41.5t41.5 -97.5q0 -54 -41.5 -95.5t-96.5 -41.5q-53 0 -94 41.5t-41 95.5zM100 0v860h295v-860h-295z" />
    <glyph glyph-name="eth" unicode="&#xf0;" horiz-adv-x="1044" 
d="M522 -23q-209 0 -340 121.5t-131 327.5q0 198 132 324.5t339 126.5h17v8q-35 43 -66 96l-41 70l-194 -119l-93 158l197 120l-145 258v23h282l86 -145l209 127l92 -158l-209 -127l209 -357q67 -123 95.5 -205t31.5 -184v-16q0 -207 -129 -328t-342 -121zM696 430
q0 95 -47 151t-127 56q-78 0 -126 -58t-48 -149q0 -93 48.5 -153t125.5 -60q80 0 127 59.5t47 153.5z" />
    <glyph glyph-name="ntilde" unicode="&#xf1;" horiz-adv-x="1058" 
d="M100 0v860h179l47 -117h14q54 76 114 108t156 32q164 0 261.5 -102t97.5 -275v-506h-295v483q0 60 -38 100t-101 40q-59 0 -98 -36.5t-42 -92.5v-494h-295zM674 1028q-53 0 -101.5 18.5t-86 37t-64.5 18.5q-44 0 -57 -51l-9 -33l-206 18l12 76q15 98 71.5 153.5
t149.5 55.5q53 0 101.5 -18.5t86 -37t64.5 -18.5q44 0 57 51l8 33l207 -18l-12 -76q-15 -98 -71.5 -153.5t-149.5 -55.5z" />
    <glyph glyph-name="ograve" unicode="&#xf2;" horiz-adv-x="1015" 
d="M965 426q0 -198 -132.5 -322t-324.5 -124q-193 0 -325 124t-132 322q0 134 61.5 238.5t165.5 160.5t230 56q192 0 324.5 -127t132.5 -328zM508 211q77 0 122.5 59.5t45.5 159.5q0 99 -46 159t-122 60q-78 0 -124 -60t-46 -159q0 -100 46 -159.5t124 -59.5zM401 1018
l-196 278l325 50l68 -328h-197z" />
    <glyph glyph-name="oacute" unicode="&#xf3;" horiz-adv-x="1015" 
d="M965 426q0 -198 -132.5 -322t-324.5 -124q-193 0 -325 124t-132 322q0 134 61.5 238.5t165.5 160.5t230 56q192 0 324.5 -127t132.5 -328zM508 211q77 0 122.5 59.5t45.5 159.5q0 99 -46 159t-122 60q-78 0 -124 -60t-46 -159q0 -100 46 -159.5t124 -59.5zM842 1288
l-244 -270h-188l98 297z" />
    <glyph glyph-name="ocircumflex" unicode="&#xf4;" horiz-adv-x="1015" 
d="M965 426q0 -198 -132.5 -322t-324.5 -124q-193 0 -325 124t-132 322q0 134 61.5 238.5t165.5 160.5t230 56q192 0 324.5 -127t132.5 -328zM508 211q77 0 122.5 59.5t45.5 159.5q0 99 -46 159t-122 60q-78 0 -124 -60t-46 -159q0 -100 46 -159.5t124 -59.5zM598 1018
l-86 129l-86 -129h-195l170 291h226l168 -291h-197z" />
    <glyph glyph-name="otilde" unicode="&#xf5;" horiz-adv-x="1015" 
d="M965 426q0 -198 -132.5 -322t-324.5 -124q-193 0 -325 124t-132 322q0 134 61.5 238.5t165.5 160.5t230 56q192 0 324.5 -127t132.5 -328zM508 211q77 0 122.5 59.5t45.5 159.5q0 99 -46 159t-122 60q-78 0 -124 -60t-46 -159q0 -100 46 -159.5t124 -59.5zM653 1030
q-53 0 -101.5 18.5t-86 37t-64.5 18.5q-44 0 -57 -51l-8 -33l-207 18l12 76q15 98 71.5 153.5t149.5 55.5q53 0 101.5 -18.5t86 -37t64.5 -18.5q45 0 58 51l8 33l207 -18l-13 -76q-15 -98 -71.5 -153.5t-149.5 -55.5z" />
    <glyph glyph-name="odieresis" unicode="&#xf6;" horiz-adv-x="1015" 
d="M965 426q0 -198 -132.5 -322t-324.5 -124q-193 0 -325 124t-132 322q0 134 61.5 238.5t165.5 160.5t230 56q192 0 324.5 -127t132.5 -328zM508 211q77 0 122.5 59.5t45.5 159.5q0 99 -46 159t-122 60q-78 0 -124 -60t-46 -159q0 -100 46 -159.5t124 -59.5zM188 1155
q0 55 41.5 97t94.5 42q56 0 97.5 -42t41.5 -97q0 -54 -42 -95.5t-97 -41.5q-53 0 -94.5 41.5t-41.5 95.5zM563 1155q0 55 41 97t94 42q55 0 96.5 -41.5t41.5 -97.5q0 -54 -41.5 -95.5t-96.5 -41.5q-53 0 -94 41.5t-41 95.5z" />
    <glyph glyph-name="divide" unicode="&#xf7;" horiz-adv-x="989" 
d="M322 231q0 72 50 123.5t122 51.5t123 -51.5t51 -123.5t-51 -122t-123 -50t-122 50t-50 122zM322 991q0 72 50 123t122 51t123 -51t51 -123t-51 -122t-123 -50t-122 50t-50 122zM66 487v238h858v-238h-858z" />
    <glyph glyph-name="oslash" unicode="&#xf8;" horiz-adv-x="1015" 
d="M965 426q0 -198 -132.5 -322t-324.5 -124q-148 0 -260 71l-49 -51h-187l135 141q-96 116 -96 285q0 134 61.5 238.5t165.5 160.5t230 56q138 0 250 -70l49 49h188l-133 -139q103 -124 103 -295zM508 211q77 0 122.5 59.5t45.5 159.5q0 48 -12 88l-248 -280q40 -27 92 -27
zM338 430q0 -51 8 -84l246 279q-38 24 -84 24q-78 0 -124 -60t-46 -159z" />
    <glyph glyph-name="ugrave" unicode="&#xf9;" horiz-adv-x="1056" 
d="M662 369v491h294v-860h-200l-49 115h-13q-92 -135 -248 -135q-164 0 -260 100.5t-96 273.5v506h295v-485q0 -65 35 -106.5t98 -41.5q65 0 104.5 42.5t39.5 99.5zM406 1018l-197 278l326 50l67 -328h-196z" />
    <glyph glyph-name="uacute" unicode="&#xfa;" horiz-adv-x="1056" 
d="M844 1288l-244 -270h-188l98 297zM662 369v491h294v-860h-200l-49 115h-13q-92 -135 -248 -135q-164 0 -260 100.5t-96 273.5v506h295v-485q0 -65 35 -106.5t98 -41.5q65 0 104.5 42.5t39.5 99.5z" />
    <glyph glyph-name="ucircumflex" unicode="&#xfb;" horiz-adv-x="1056" 
d="M594 1018l-86 129l-86 -129h-195l170 291h226l168 -291h-197zM662 369v491h294v-860h-200l-49 115h-13q-92 -135 -248 -135q-164 0 -260 100.5t-96 273.5v506h295v-485q0 -65 35 -106.5t98 -41.5q65 0 104.5 42.5t39.5 99.5z" />
    <glyph glyph-name="udieresis" unicode="&#xfc;" horiz-adv-x="1056" 
d="M186 1157q0 55 41.5 97t94.5 42q56 0 97.5 -42t41.5 -97q0 -54 -42 -95.5t-97 -41.5q-53 0 -94.5 41.5t-41.5 95.5zM561 1157q0 55 41 97t94 42q55 0 96.5 -41.5t41.5 -97.5q0 -54 -41.5 -95.5t-96.5 -41.5q-53 0 -94 41.5t-41 95.5zM662 369v491h294v-860h-200l-49 115
h-13q-92 -135 -248 -135q-164 0 -260 100.5t-96 273.5v506h295v-485q0 -65 35 -106.5t98 -41.5q65 0 104.5 42.5t39.5 99.5z" />
    <glyph glyph-name="yacute" unicode="&#xfd;" horiz-adv-x="935" 
d="M944 860l-495 -1179h-306l193 405l-344 774h321l144 -436q16 -50 16 -76h14q0 29 15 76l141 436h301zM797 1288l-244 -270h-188l98 297z" />
    <glyph glyph-name="thorn" unicode="&#xfe;" horiz-adv-x="1062" 
d="M408 96h-13v-415h-295v1548h295v-455h11q2 4 7 11.5t23.5 26t41 32.5t61 25.5t82.5 11.5q174 0 281.5 -122t107.5 -327q0 -199 -110 -325.5t-279 -126.5q-46 0 -85.5 12t-62 29t-38 34t-21.5 29zM381 428q0 -95 45 -151t121 -56q75 0 120.5 57t45.5 150t-46 152t-120 59
q-76 0 -121 -57.5t-45 -153.5z" />
    <glyph glyph-name="ydieresis" unicode="&#xff;" horiz-adv-x="935" 
d="M944 860l-495 -1179h-306l193 405l-344 774h321l144 -436q16 -50 16 -76h14q0 29 15 76l141 436h301zM141 1153q0 55 41 97t94 42q56 0 98 -42t42 -97q0 -54 -42.5 -95.5t-97.5 -41.5q-53 0 -94 41.5t-41 95.5zM516 1153q0 55 41 97t94 42q55 0 96 -41.5t41 -97.5
q0 -54 -41 -95.5t-96 -41.5q-53 0 -94 41.5t-41 95.5z" />
    <glyph glyph-name="dotlessi" unicode="&#x131;" horiz-adv-x="495" 
d="M100 0v860h295v-860h-295z" />
    <glyph glyph-name="Lslash" unicode="&#x141;" horiz-adv-x="1042" 
d="M27 375v336l114 67v451h297v-271l195 117v-334l-195 -118v-367h549v-256h-846v444z" />
    <glyph glyph-name="lslash" unicode="&#x142;" horiz-adv-x="528" 
d="M29 428v158l75 47v606h295v-424l117 72v-158l-117 -72v-657h-295v475z" />
    <glyph glyph-name="OE" unicode="&#x152;" horiz-adv-x="2074" 
d="M1909 739v-233h-500v-250h596v-256h-893v131q-174 -160 -426 -160q-181 0 -326 87.5t-224 234t-79 321.5t79 321.5t224 233t326 86.5q249 0 426 -159v133h893v-256h-596v-234h500zM686 260q139 0 232.5 98.5t93.5 255.5t-93.5 256t-232.5 99q-136 0 -228.5 -99
t-92.5 -256t92.5 -255.5t228.5 -98.5z" />
    <glyph glyph-name="oe" unicode="&#x153;" horiz-adv-x="1673" 
d="M1485 270l100 -190q-4 -4 -13 -11.5t-39.5 -26t-66 -32.5t-93.5 -25.5t-120 -11.5q-126 0 -223.5 45t-159.5 127q-63 -79 -158 -122t-204 -43q-193 0 -325 124t-132 322q0 134 61.5 238.5t165.5 160.5t230 56q108 0 202.5 -44t157.5 -124q60 79 150.5 123.5t200.5 44.5
q189 0 299 -114.5t110 -313.5l-2 -82h-561q12 -86 63.5 -126t145.5 -40q56 0 108.5 16.5t77.5 32.5zM508 211q77 0 122.5 59.5t45.5 159.5q0 99 -46 159t-122 60q-78 0 -124 -60t-46 -159q0 -100 46 -159.5t124 -59.5zM1210 668q-54 0 -91 -35t-50 -103h277
q-3 63 -38.5 100.5t-97.5 37.5z" />
    <glyph glyph-name="Scaron" unicode="&#x160;" horiz-adv-x="1091" 
d="M49 137l162 228q7 -5 20 -13t52.5 -28.5t78 -36t92 -28.5t99.5 -13q67 0 101 27.5t34 74.5q0 49 -42.5 80t-168.5 68q-206 61 -305.5 147t-99.5 231q0 174 120 277.5t355 103.5q94 0 176 -13.5t132 -32.5t87 -38.5t52 -32.5l16 -14l-160 -241q-5 4 -15 11t-41.5 24.5
t-65 31t-83 24.5t-98.5 11q-133 0 -133 -90q0 -44 41 -69.5t153 -57.5q215 -60 321.5 -150t106.5 -237q0 -85 -29 -158t-85.5 -129.5t-148.5 -88.5t-210 -32q-95 0 -183 17t-145.5 41t-101.5 48t-64 41zM461 1591l86 -129l86 129h194l-131 -223h-301l-131 223h197z" />
    <glyph glyph-name="scaron" unicode="&#x161;" horiz-adv-x="882" 
d="M53 70l86 200q15 -9 42 -23t99 -37.5t132 -23.5q100 0 100 52q0 22 -24.5 38t-64 27t-87 23t-95 32.5t-87 50t-64 81.5t-24.5 120q0 120 93.5 195.5t262.5 75.5q116 0 213.5 -19.5t137.5 -39.5l40 -19l-84 -211q-13 9 -37.5 22t-95 34.5t-137.5 21.5q-90 0 -90 -49
q0 -22 25.5 -36.5t65.5 -24.5t89 -21.5t98 -32t89 -50t65.5 -81.5t25.5 -121q0 -124 -96.5 -199t-296.5 -75q-74 0 -141 9.5t-109 22.5t-73 26t-45 22zM346 1241l86 -129l86 129h195l-131 -223h-301l-131 223h196z" />
    <glyph glyph-name="Ydieresis" unicode="&#x178;" horiz-adv-x="1122" 
d="M614 856l207 373h320l-430 -752v-477h-297v473l-432 756h319l207 -373l53 -125zM244 1438q0 55 41 97t94 42q55 0 97 -41.5t42 -97.5q0 -54 -42 -96t-97 -42q-53 0 -94 42t-41 96zM618 1438q0 55 41.5 97t94.5 42q55 0 96 -41.5t41 -97.5q0 -54 -41 -96t-96 -42
q-53 0 -94.5 42t-41.5 96z" />
    <glyph glyph-name="Zcaron" unicode="&#x17d;" horiz-adv-x="1134" 
d="M61 0v223l607 750h-586v256h979v-234l-596 -739h598v-256h-1002zM471 1591l86 -129l86 129h195l-131 -223h-301l-132 223h197z" />
    <glyph glyph-name="zcaron" unicode="&#x17e;" horiz-adv-x="884" 
d="M817 0h-751v166l372 459h-368v235h747v-149l-364 -475h364v-236zM348 1241l86 -129l86 129h195l-131 -223h-301l-131 223h196z" />
    <glyph glyph-name="florin" unicode="&#x192;" horiz-adv-x="1167" 
d="M373 319l65 314h-116v227h163l7 25q37 173 142.5 263.5t274.5 90.5q64 0 123 -11.5t86 -23.5l27 -12l-117 -244q-51 29 -123 29q-103 0 -119 -90l-6 -27h234v-227h-279l-71 -354q-33 -159 -113 -229t-236 -70q-64 0 -121.5 15t-83.5 29l-26 15l92 231q46 -28 109 -28
q39 0 59 17.5t29 59.5z" />
    <glyph glyph-name="circumflex" unicode="&#x2c6;" horiz-adv-x="759" 
d="M479 1300l-86 130l-86 -130h-194l170 291h225l168 -291h-197z" />
    <glyph glyph-name="caron" unicode="&#x2c7;" horiz-adv-x="665" 
d="M242 1591l86 -129l86 129h194l-131 -223h-301l-131 223h197z" />
    <glyph glyph-name="breve" unicode="&#x2d8;" horiz-adv-x="811" 
d="M522 1683h232q0 -64 -19 -121t-58 -105.5t-107.5 -77.5t-157.5 -29t-158 29t-108.5 77.5t-59.5 106t-20 120.5h229q0 -137 115 -137q53 0 82.5 34.5t29.5 102.5z" />
    <glyph glyph-name="dotaccent" unicode="&#x2d9;" horiz-adv-x="677" 
d="M340 1126q-69 0 -116.5 47.5t-47.5 116.5t47.5 117.5t116.5 48.5t117.5 -48.5t48.5 -117.5t-48.5 -116.5t-117.5 -47.5z" />
    <glyph glyph-name="ring" unicode="&#x2da;" horiz-adv-x="589" 
d="M55 1446q0 85 60.5 136.5t179.5 51.5t179.5 -51.5t60.5 -136.5q0 -84 -61 -135t-179 -51t-179 51t-61 135zM383 1446q0 67 -88 67q-41 0 -63.5 -17.5t-22.5 -49.5q0 -66 86 -66q88 0 88 66z" />
    <glyph glyph-name="ogonek" unicode="&#x2db;" horiz-adv-x="409" 
d="M322 -117l75 -98q-2 -3 -6.5 -8t-20 -18.5t-33.5 -23.5t-48.5 -18t-63.5 -8q-89 0 -138.5 46t-49.5 120q0 140 203 205l26 -80q-67 -43 -67 -92q0 -24 15 -37.5t42 -13.5q33 0 66 26z" />
    <glyph glyph-name="tilde" unicode="&#x2dc;" horiz-adv-x="993" 
d="M639 1311q-53 0 -101.5 18.5t-86 36.5t-64.5 18q-44 0 -57 -51l-8 -33l-207 19l12 76q15 98 71.5 153.5t149.5 55.5q53 0 101.5 -18.5t86 -37t64.5 -18.5q44 0 57 51l9 33l206 -19l-12 -75q-15 -98 -71.5 -153.5t-149.5 -55.5z" />
    <glyph glyph-name="hungarumlaut" unicode="&#x2dd;" horiz-adv-x="808" 
d="M758 1182l-162 -322h-188l57 322h293zM393 1182l-162 -322h-188l57 322h293z" />
    <glyph glyph-name="pi" unicode="&#x3c0;" horiz-adv-x="1208" 
d="M47 860h1114v-231h-141v-629h-295v629h-242v-629h-295v629h-141v231z" />
    <glyph glyph-name="endash" unicode="&#x2013;" horiz-adv-x="915" 
d="M115 469v238h686v-238h-686z" />
    <glyph glyph-name="emdash" unicode="&#x2014;" horiz-adv-x="1433" 
d="M115 469v238h1204v-238h-1204z" />
    <glyph glyph-name="quoteleft" unicode="&#x2018;" horiz-adv-x="468" 
d="M399 1077q-109 -24 -131 -86q55 -14 89 -56.5t34 -100.5q0 -69 -47.5 -117.5t-116.5 -48.5t-117.5 48.5t-48.5 117.5v10q0 65 18 126.5t53.5 114t93 91t130.5 53.5z" />
    <glyph glyph-name="quoteright" unicode="&#x2019;" horiz-adv-x="468" 
d="M80 819q109 21 129 84q-53 14 -87 58t-34 102q0 69 47.5 117.5t116.5 48.5t117.5 -48.5t48.5 -117.5v-10q0 -65 -18 -126.5t-53.5 -114t-93 -91t-130.5 -53.5z" />
    <glyph glyph-name="quotesinglbase" unicode="&#x201a;" horiz-adv-x="471" 
d="M59 -100q110 24 129 86q-53 12 -86.5 55.5t-33.5 101.5q0 69 47 117.5t116 48.5t117.5 -48.5t48.5 -117.5v-10q0 -65 -18 -126.5t-53.5 -114t-93 -91t-130.5 -53.5z" />
    <glyph glyph-name="quotedblleft" unicode="&#x201c;" horiz-adv-x="876" 
d="M807 1077q-109 -24 -131 -86q55 -14 89 -56.5t34 -100.5q0 -69 -47.5 -117.5t-116.5 -48.5t-117.5 48.5t-48.5 117.5v10q0 65 18 126.5t53.5 114t93 91t130.5 53.5zM61 834v10q0 65 18 126.5t53.5 114t93 91t130.5 53.5l43 -152q-109 -24 -131 -86q55 -14 89 -56.5
t34 -100.5q0 -69 -47.5 -117.5t-116.5 -48.5t-117.5 48.5t-48.5 117.5z" />
    <glyph glyph-name="quotedblright" unicode="&#x201d;" horiz-adv-x="847" 
d="M418 1063v-10q0 -65 -18 -126.5t-53.5 -114t-93 -91t-130.5 -53.5l-43 151q109 21 129 84q-53 14 -87 58t-34 102q0 69 47.5 117.5t116.5 48.5t117.5 -48.5t48.5 -117.5zM459 819q109 21 129 84q-53 14 -87 58t-34 102q0 69 47.5 117.5t116.5 48.5t117.5 -48.5
t48.5 -117.5v-10q0 -65 -18 -126.5t-53.5 -114t-93 -91t-130.5 -53.5z" />
    <glyph glyph-name="quotedblbase" unicode="&#x201e;" horiz-adv-x="995" 
d="M59 -100q110 24 129 86q-53 12 -86.5 55.5t-33.5 101.5q0 69 47 117.5t116 48.5t117.5 -48.5t48.5 -117.5v-10q0 -65 -18 -126.5t-53.5 -114t-93 -91t-130.5 -53.5zM584 -100q110 24 129 86q-53 12 -87 55.5t-34 101.5q0 69 47.5 117.5t116.5 48.5t117.5 -48.5
t48.5 -117.5v-10q0 -65 -18 -126.5t-53.5 -114t-93 -91t-130.5 -53.5z" />
    <glyph glyph-name="dagger" unicode="&#x2020;" horiz-adv-x="903" 
d="M63 799v237h271v264h241v-264h265v-237h-265l-20 -498h-201l-20 498h-271z" />
    <glyph glyph-name="daggerdbl" unicode="&#x2021;" horiz-adv-x="958" 
d="M98 866v238h271v264h241v-264h264v-238h-264l-12 -182l12 -182h264v-238h-264v-264h-241v264h-271v238h271l12 182l-12 182h-271z" />
    <glyph glyph-name="bullet" unicode="&#x2022;" horiz-adv-x="677" 
d="M338 670q88 0 150.5 -62.5t62.5 -150.5t-62.5 -149.5t-150.5 -61.5t-149.5 61.5t-61.5 149.5t61.5 150.5t149.5 62.5z" />
    <glyph glyph-name="ellipsis" unicode="&#x2026;" horiz-adv-x="1579" 
d="M72 156q0 72 50 123t122 51t123 -51t51 -123t-51 -122t-123 -50t-122 50t-50 122zM616 156q0 72 50 123t122 51t123.5 -51t51.5 -123t-51.5 -122t-123.5 -50t-122 50t-50 122zM1161 156q0 72 50 123t122 51t123 -51t51 -123t-51 -122t-123 -50t-122 50t-50 122z" />
    <glyph glyph-name="perthousand" unicode="&#x2030;" horiz-adv-x="2045" 
d="M354 1255q132 0 210.5 -88t78.5 -213q0 -124 -79 -212.5t-210 -88.5q-130 0 -209 88.5t-79 212.5q0 125 79 213t209 88zM354 811q97 0 97 143q0 146 -97 146q-96 0 -96 -146q0 -143 96 -143zM1069 1229h229l-976 -1229h-234zM1042 586q132 0 210.5 -88t78.5 -213
q0 -124 -79 -212.5t-210 -88.5q-130 0 -209 88.5t-79 212.5q0 125 79 213t209 88zM1042 430q-96 0 -96 -145q0 -144 96 -144q97 0 97 144q0 145 -97 145zM1700 430q-96 0 -96 -145q0 -144 96 -144t96 144q0 145 -96 145zM1700 586q132 0 210.5 -88t78.5 -213
q0 -124 -79 -212.5t-210 -88.5q-130 0 -209.5 88.5t-79.5 212.5q0 125 79 213t210 88z" />
    <glyph glyph-name="guilsinglleft" unicode="&#x2039;" horiz-adv-x="620" 
d="M55 403v43l267 390h243v-19l-256 -381v-18l256 -383v-19h-243z" />
    <glyph glyph-name="guilsinglright" unicode="&#x203a;" horiz-adv-x="620" 
d="M565 446v-43l-266 -387h-244v19l256 383v18l-256 381v19h244z" />
    <glyph glyph-name="fraction" unicode="&#x2044;" horiz-adv-x="1161" 
d="M209 0h-234l981 1229h230z" />
    <glyph glyph-name="Euro" unicode="&#x20ac;" horiz-adv-x="1228" 
d="M840 578v-197h-277q72 -117 230 -117q35 0 68.5 9.5t57 22.5t41.5 26t26 22l9 10l170 -227q-5 -6 -14.5 -16t-44.5 -36t-75 -46t-105.5 -36t-137.5 -16q-217 0 -356.5 110t-195.5 294h-168v197h135v79h-135v197h170q56 182 195 291.5t355 109.5q72 0 137 -15.5t107 -37.5
t73.5 -43.5t45.5 -36.5l14 -16l-170 -227q-3 4 -9 10t-26 21.5t-42 27.5t-56 21.5t-69 9.5q-154 0 -226 -115h273v-197h-330v-79h330z" />
    <glyph glyph-name="trademark" unicode="&#x2122;" horiz-adv-x="1511" 
d="M891 575h-184v654h122l218 -281l219 281h123v-654h-185v297l-117 -151h-79l-117 151v-297zM606 1229v-162h-178v-492h-184v492h-178v162h540z" />
    <glyph glyph-name="Omega" unicode="&#x2126;" horiz-adv-x="1486" 
d="M92 0v256h193q-95 73 -144 178.5t-49 222.5q0 123 44.5 231t126 190t205.5 129.5t275 47.5t275.5 -47.5t206 -129.5t126 -190t44.5 -231q0 -117 -49.5 -222.5t-145.5 -178.5h195v-256h-578v266q122 23 200.5 123.5t78.5 237.5q0 150 -101 246t-252 96t-251.5 -95.5
t-100.5 -246.5q0 -137 78.5 -237.5t200.5 -123.5v-266h-578z" />
    <glyph glyph-name="partialdiff" unicode="&#x2202;" horiz-adv-x="1048" 
d="M522 -23q-209 0 -340 121.5t-131 327.5q0 198 132 324.5t339 126.5h17v8q-35 43 -66 96l-276 487v23h282l387 -660q67 -123 95.5 -205t31.5 -184v-16q0 -207 -129 -328t-342 -121zM696 430q0 95 -47 151t-127 56q-78 0 -126 -58t-48 -149q0 -93 48.5 -153t125.5 -60
q80 0 127 59.5t47 153.5z" />
    <glyph glyph-name="Delta" unicode="&#x2206;" horiz-adv-x="1384" 
d="M51 0v49l617 1180h49l618 -1180v-49h-1284zM905 256q-1 2 -205 453h-18l-207 -453h430z" />
    <glyph glyph-name="product" unicode="&#x220f;" horiz-adv-x="1325" 
d="M1210 1229v-1229h-297v973h-501v-973h-297v1229h1095z" />
    <glyph glyph-name="summation" unicode="&#x2211;" horiz-adv-x="942" 
d="M98 1229h758v-256h-385l229 -287v-151l-219 -279h375v-256h-758v256l289 338v29l-289 350v256z" />
    <glyph glyph-name="minus" unicode="&#x2212;" horiz-adv-x="1097" 
d="M104 492v237h889v-237h-889z" />
    <glyph glyph-name="radical" unicode="&#x221a;" horiz-adv-x="1306" 
d="M1339 1229l-850 -1622h-53l-442 817h332l39 -92l77 -199h43l78 199l438 897h338z" />
    <glyph glyph-name="infinity" unicode="&#x221e;" horiz-adv-x="1560" 
d="M428 227q-152 0 -253 105.5t-101 249.5q0 143 101 249.5t253 106.5q100 0 184 -53t170 -146q84 93 167 146t184 53q68 0 132 -26t113.5 -71.5t79 -113t29.5 -145.5q0 -92 -43.5 -173t-126 -131.5t-184.5 -50.5q-103 0 -187.5 52.5t-169.5 144.5q-81 -92 -164 -144.5
t-184 -52.5zM1114 711q-51 0 -98 -31.5t-101 -91.5q60 -67 105.5 -101t93.5 -34q57 0 93 38t36 91t-37 91t-92 38zM446 453q90 0 199 125q-59 66 -105 99.5t-94 33.5q-57 0 -93 -40.5t-36 -88.5q0 -50 36 -89.5t93 -39.5z" />
    <glyph glyph-name="integral" unicode="&#x222b;" horiz-adv-x="716" 
d="M211 88v954q0 130 70.5 208.5t210.5 78.5q55 0 103.5 -12.5t69.5 -24.5l21 -12l-74 -219q-28 12 -57 12q-47 0 -47 -65v-955q0 -130 -70.5 -208t-210.5 -78q-55 0 -103.5 12.5t-69.5 24.5l-21 12l73 219q29 -12 58 -12q47 0 47 65z" />
    <glyph glyph-name="approxequal" unicode="&#x2248;" horiz-adv-x="1155" 
d="M758 297q-65 0 -125.5 18t-107.5 36t-79 18q-54 0 -71 -50l-10 -32l-256 18l18 107q21 97 90 150.5t184 53.5q65 0 125.5 -18t107.5 -35.5t79 -17.5q54 0 71 49l11 33l256 -19l-19 -106q-21 -97 -90 -151t-184 -54zM758 707q-65 0 -125.5 17.5t-107.5 35.5t-79 18
q-54 0 -71 -49l-10 -33l-256 19l18 106q21 97 90 151t184 54q65 0 125.5 -18t107.5 -36t79 -18q54 0 71 50l11 32l256 -18l-19 -107q-21 -97 -90 -150.5t-184 -53.5z" />
    <glyph glyph-name="notequal" unicode="&#x2260;" horiz-adv-x="1024" 
d="M92 659v238h420l86 223l195 -67l-60 -156h199v-238h-291l-57 -151h348v-238h-438l-84 -221l-195 68l57 153h-180v238h273l57 151h-330z" />
    <glyph glyph-name="lessequal" unicode="&#x2264;" horiz-adv-x="806" 
d="M676 559l-170 -176l-416 395v49l418 402l170 -176l-270 -252zM729 309v-237h-643v237h643z" />
    <glyph glyph-name="greaterequal" unicode="&#x2265;" horiz-adv-x="806" 
d="M301 383l-170 176l268 242l-270 252l170 176l418 -402v-49zM78 72v237h643v-237h-643z" />
    <glyph glyph-name="lozenge" unicode="&#x25ca;" horiz-adv-x="1067" 
d="M637 1229l371 -615l-371 -614h-207l-369 614l369 615h207zM387 614l127 -233h39l127 233l-127 234h-39z" />
    </font>
</defs>
</svg>
