<?xml version="1.0" standalone="no"?>
<!DOCTYPE svg PUBLIC "-//W3C//DTD SVG 1.1//EN" "http://www.w3.org/Graphics/SVG/1.1/DTD/svg11.dtd" >
<svg xmlns="http://www.w3.org/2000/svg" xmlns:xlink="http://www.w3.org/1999/xlink" version="1.1">
<metadata>
Created by FontForge 20170731 at Sat Feb 11 11:56:34 2023
 By Aleksey,,,
Copyright 2021-2022 Indian Type Foundry. All rights reserved.
</metadata>
<defs>
<font id="ElevanceSansCondensed-Regular" horiz-adv-x="819" >
  <font-face 
    font-family="Elevance Sans Condensed"
    font-weight="400"
    font-stretch="normal"
    units-per-em="2048"
    panose-1="0 0 0 0 0 0 0 0 0 0"
    ascent="1638"
    descent="-410"
    x-height="981"
    cap-height="1313"
    bbox="-299 -422 3043 1804"
    underline-thickness="102"
    underline-position="-307"
    unicode-range="U+0020-FB02"
  />
<missing-glyph horiz-adv-x="882" 
d="M745 0h-608v1313h608v-1313zM236 1221v-1129h411v1129h-411z" />
    <glyph glyph-name="fi" unicode="fi" horiz-adv-x="829" 
d="M254 0h-100v891h-105v90h105v123q0 146 81 232.5t216 86.5q142 0 231 -69l-45 -82q-77 61 -180 61q-95 0 -149 -61.5t-54 -169.5v-121h444v-981h-100v891h-344v-891z" />
    <glyph glyph-name="fl" unicode="fl" horiz-adv-x="841" 
d="M254 0h-100v891h-105v90h105v133q0 145 73 227t201 82q109 0 195 -47h71v-1212q0 -86 68 -86q22 0 43 8l12 -86q-28 -14 -74 -14q-68 0 -109.5 48t-41.5 130v1130q-69 41 -154 41q-91 0 -137.5 -57t-46.5 -160v-137h164v-90h-164v-891z" />
    <glyph glyph-name=".notdef" horiz-adv-x="882" 
d="M745 0h-608v1313h608v-1313zM236 1221v-1129h411v1129h-411z" />
    <glyph glyph-name=".null" horiz-adv-x="0" 
 />
    <glyph glyph-name="nonmarkingreturn" horiz-adv-x="682" 
 />
    <glyph glyph-name="space" unicode=" " horiz-adv-x="339" 
 />
    <glyph glyph-name="exclam" unicode="!" horiz-adv-x="473" 
d="M279 367h-84l-15 946h113zM238 -16q-36 0 -59 24.5t-23 61.5t22.5 60.5t59.5 23.5q35 0 58 -23.5t23 -60.5t-23 -61.5t-58 -24.5z" />
    <glyph glyph-name="quotedbl" unicode="&#x22;" horiz-adv-x="436" 
d="M172 1409l-16 -395h-72l-16 395h104zM371 1409l-17 -395h-71l-17 395h105z" />
    <glyph glyph-name="numbersign" unicode="#" horiz-adv-x="827" 
d="M117 0l57 397h-162l15 84h159l52 357h-164l12 82h162l57 393h88l-55 -393h231l56 393h90l-58 -393h160l-14 -82h-156l-51 -357h160l-13 -84h-159l-58 -397h-86l56 397h-232l-57 -397h-90zM274 481h234l49 357h-231z" />
    <glyph glyph-name="dollar" unicode="$" horiz-adv-x="782" 
d="M438 -166h-90v166q-160 9 -287 115l45 86q120 -109 277 -109q102 0 168.5 61.5t66.5 157.5q0 38 -8 71t-26 61t-36 48.5t-50.5 43.5t-55.5 37.5t-63 37.5q-55 33 -89 55.5t-77 60.5t-67 75t-41 90t-17 115q0 120 75.5 204t198.5 101v168h91v-164q128 -9 229 -82l-51 -82
q-84 70 -211 70q-101 0 -165.5 -61.5t-64.5 -153.5q0 -48 14.5 -89t33.5 -69t58 -60t66 -49.5t78 -48.5q42 -25 62.5 -38t56 -38.5t54 -44t43 -48t36 -58.5t20.5 -67t9 -81q0 -126 -78.5 -212t-204.5 -101v-168z" />
    <glyph glyph-name="percent" unicode="%" horiz-adv-x="1110" 
d="M270 688q-105 0 -168 87t-63 233q0 147 62.5 233t168.5 86t169 -86t63 -233q0 -146 -63.5 -233t-168.5 -87zM283 0h-90l634 1313h88zM270 762q68 0 109 65t41 181q0 114 -41 179.5t-109 65.5t-109.5 -65.5t-41.5 -179.5q0 -115 41 -180.5t110 -65.5zM840 -14
q-106 0 -169 86t-63 233q0 146 63 233t169 87q104 0 166.5 -87t62.5 -233q0 -148 -61.5 -233.5t-167.5 -85.5zM840 57q67 0 108 67t41 181q0 115 -41 180.5t-108 65.5q-70 0 -111 -65t-41 -181q0 -114 42 -181t110 -67z" />
    <glyph glyph-name="ampersand" unicode="&#x26;" horiz-adv-x="899" 
d="M389 -14q-147 0 -237.5 90t-90.5 246q0 117 57 206t175 170l-33 47q-100 145 -100 283q0 132 71.5 215.5t186.5 83.5q112 0 180 -80t68 -211q0 -104 -65 -197t-181 -163l254 -381q40 93 55 227l8 72l86 -16l-8 -70q-21 -174 -86 -295l119 -178l-80 -49l-94 141
q-113 -141 -285 -141zM334 803l41 -62q100 63 147 134.5t47 160.5q0 95 -41 150t-110 55q-71 0 -115.5 -57.5t-44.5 -149.5q0 -118 76 -231zM160 324q0 -120 63 -185t170 -65q141 0 232 127l-287 428q-178 -118 -178 -305z" />
    <glyph glyph-name="quotesingle" unicode="'" horiz-adv-x="237" 
d="M172 1409l-16 -395h-72l-16 395h104z" />
    <glyph glyph-name="parenleft" unicode="(" horiz-adv-x="475" 
d="M457 -240l-72 -55q-303 363 -303 864q0 499 303 865l72 -56q-132 -162 -202.5 -372.5t-70.5 -436.5q0 -228 70.5 -438t202.5 -371z" />
    <glyph glyph-name="parenright" unicode=")" horiz-adv-x="473" 
d="M88 -295l-70 55q130 162 201.5 372.5t71.5 436.5q0 224 -71.5 434.5t-201.5 374.5l70 56q301 -367 301 -865q0 -500 -301 -864z" />
    <glyph glyph-name="asterisk" unicode="*" horiz-adv-x="559" 
d="M371 924l-92 172l-93 -172l-69 49l110 166l-164 55l29 84l156 -74l-12 205h86l-9 -205l154 74l29 -84l-166 -55l110 -166z" />
    <glyph glyph-name="plus" unicode="+" horiz-adv-x="755" 
d="M90 614v93h240v290h96v-290h240v-93h-240v-290h-96v290h-240z" />
    <glyph glyph-name="comma" unicode="," horiz-adv-x="352" 
d="M176 154q35 0 57.5 -24t22.5 -60t-20 -84l-89 -219h-71l82 223q-30 8 -47 29t-17 51q0 36 23 60t59 24z" />
    <glyph glyph-name="hyphen" unicode="-" horiz-adv-x="534" 
d="M70 575h395v-92h-395v92z" />
    <glyph glyph-name="period" unicode="." horiz-adv-x="350" 
d="M174 -16q-35 0 -58.5 24.5t-23.5 61.5t23.5 60.5t58.5 23.5q37 0 59.5 -23.5t22.5 -60.5t-23 -61.5t-59 -24.5z" />
    <glyph glyph-name="slash" unicode="/" horiz-adv-x="671" 
d="M35 0l502 1313h100l-502 -1313h-100z" />
    <glyph glyph-name="zero" unicode="0" horiz-adv-x="851" 
d="M426 -14q-166 0 -251 170t-85 501t85 500.5t249 169.5q166 0 252 -170t86 -500q0 -331 -85.5 -501t-250.5 -170zM426 78q116 0 176 147.5t60 431.5q0 285 -60.5 431.5t-177.5 146.5q-116 0 -176 -146.5t-60 -431.5t61 -432t177 -147z" />
    <glyph glyph-name="one" unicode="1" horiz-adv-x="540" 
d="M391 0h-100v1178l-176 -189l-64 72l240 252h100v-1313z" />
    <glyph glyph-name="two" unicode="2" horiz-adv-x="714" 
d="M647 0h-600v84l356 522q148 215 148 398q0 101 -56 166t-155 65q-78 0 -129.5 -40.5t-91.5 -117.5l-74 60q106 190 299 190q138 0 221.5 -89t83.5 -234q0 -117 -44.5 -226.5t-125.5 -228.5l-313 -457h481v-92z" />
    <glyph glyph-name="three" unicode="3" horiz-adv-x="731" 
d="M332 -14q-197 0 -291 176l78 53q73 -137 211 -137q109 0 167 87.5t58 219.5q0 309 -264 309h-53v66l290 461h-448v92h555v-92l-283 -445q82 -7 142 -40.5t94.5 -87t50.5 -119t16 -144.5q0 -173 -86 -286t-237 -113z" />
    <glyph glyph-name="four" unicode="4" horiz-adv-x="774" 
d="M489 309h-452v88l450 916h101v-916h135v-88h-135v-309h-99v309zM489 397v733l-358 -733h358z" />
    <glyph glyph-name="five" unicode="5" horiz-adv-x="776" 
d="M371 -14q-199 0 -289 176l78 53q70 -137 209 -137q105 0 161 89t56 226q0 93 -21 165.5t-73.5 120.5t-131.5 48q-101 0 -192 -94l-55 29l80 651h444v-94h-363l-57 -461q72 57 162 57q150 0 228.5 -118.5t78.5 -305.5q0 -114 -35.5 -204.5t-108 -145.5t-171.5 -55z" />
    <glyph glyph-name="six" unicode="6" horiz-adv-x="815" 
d="M410 -14q-145 0 -232.5 121t-87.5 319q0 105 25 194t90 216l244 477h104l-248 -490q54 33 109 33q147 0 230 -115.5t83 -314.5q0 -201 -85.5 -320.5t-231.5 -119.5zM414 768q-100 0 -162 -95.5t-62 -246.5q0 -163 58.5 -255.5t161.5 -92.5q102 0 160.5 93t58.5 255
t-56.5 252t-158.5 90z" />
    <glyph glyph-name="seven" unicode="7" horiz-adv-x="649" 
d="M236 0h-103l373 1221h-477v92h579v-88z" />
    <glyph glyph-name="eight" unicode="8" horiz-adv-x="790" 
d="M395 -14q-147 0 -232 105.5t-85 281.5q0 126 49 218t137 132q-68 35 -105.5 109t-37.5 172q0 147 73.5 235t200.5 88t202 -88t75 -235q0 -98 -38 -172t-106 -111q87 -40 136 -131.5t49 -216.5q0 -176 -85.5 -281.5t-232.5 -105.5zM397 762q81 0 129.5 64.5t48.5 172.5
q0 110 -47.5 175t-130.5 65q-85 0 -131.5 -64.5t-46.5 -175.5q0 -107 48 -172t130 -65zM397 74q102 0 159.5 81t57.5 220q0 141 -57.5 221t-159.5 80q-104 0 -161.5 -79.5t-57.5 -221.5q0 -140 57.5 -220.5t161.5 -80.5z" />
    <glyph glyph-name="nine" unicode="9" horiz-adv-x="815" 
d="M406 1327q145 0 233 -121t88 -319q0 -106 -26 -194.5t-91 -215.5l-243 -477h-105l250 492q-53 -35 -109 -35q-149 0 -232 114.5t-83 315.5t86 320.5t232 119.5zM401 543q100 0 163 96.5t63 247.5q0 163 -58.5 254.5t-162.5 91.5q-102 0 -160 -92t-58 -254q0 -164 56 -254
t157 -90z" />
    <glyph glyph-name="colon" unicode=":" horiz-adv-x="352" 
d="M174 770q-35 0 -58.5 23.5t-23.5 60.5t23.5 61.5t58.5 24.5q36 0 59 -24.5t23 -61.5t-22.5 -60.5t-59.5 -23.5zM174 -16q-35 0 -58.5 24.5t-23.5 61.5t23.5 60.5t58.5 23.5q37 0 59.5 -23.5t22.5 -60.5t-23 -61.5t-59 -24.5z" />
    <glyph glyph-name="semicolon" unicode=";" horiz-adv-x="352" 
d="M174 770q-35 0 -58.5 23.5t-23.5 60.5t23.5 61.5t58.5 24.5q36 0 59 -24.5t23 -61.5t-22.5 -60.5t-59.5 -23.5zM176 154q35 0 57.5 -24t22.5 -60t-20 -84l-89 -219h-71l82 223q-30 8 -47 29t-17 51q0 36 23 60t59 24z" />
    <glyph glyph-name="less" unicode="&#x3c;" horiz-adv-x="761" 
d="M670 383v-107l-576 342v89l576 340v-107l-469 -278z" />
    <glyph glyph-name="equal" unicode="=" horiz-adv-x="755" 
d="M90 772v92h576v-92h-576zM90 455v94h576v-94h-576z" />
    <glyph glyph-name="greater" unicode="&#x3e;" horiz-adv-x="763" 
d="M670 618l-576 -342v107l467 279l-467 278v107l576 -342v-87z" />
    <glyph glyph-name="question" unicode="?" horiz-adv-x="688" 
d="M348 360h-82l-8 306l29 2q117 0 181 77.5t64 215.5q0 126 -57.5 200t-152.5 74q-74 0 -127.5 -36t-96.5 -114l-69 62q105 180 297 180q137 0 221 -99t84 -265q0 -154 -73 -254t-200 -119zM311 -16q-35 0 -58.5 24.5t-23.5 61.5t23.5 60.5t58.5 23.5q37 0 59.5 -23.5
t22.5 -60.5t-23 -61.5t-59 -24.5z" />
    <glyph glyph-name="at" unicode="@" horiz-adv-x="1216" 
d="M559 176q-97 0 -154 84.5t-57 231.5q0 203 75 329.5t195 126.5q118 0 156 -141l10 121h84l-41 -430q-21 -242 78 -242q71 0 114.5 129.5t43.5 335.5q0 252 -108.5 394t-301.5 142q-147 0 -261 -96.5t-177 -272.5t-63 -405q0 -277 123 -440.5t329 -163.5q126 0 217 58
l27 -74q-103 -64 -248 -64q-240 0 -386 188t-146 498q0 249 75 443t209.5 300.5t306.5 106.5q225 0 356.5 -167.5t131.5 -452.5q0 -246 -67 -391.5t-183 -145.5q-132 0 -152 158q-66 -160 -186 -160zM569 258q79 0 131 108t52 267q0 106 -35.5 169.5t-95.5 63.5
q-82 0 -134.5 -104t-52.5 -264q0 -110 36.5 -175t98.5 -65z" />
    <glyph glyph-name="A" unicode="A" horiz-adv-x="921" 
d="M788 0l-106 383h-451l-104 -383h-100l364 1313h139l367 -1313h-109zM258 475h399l-200 727z" />
    <glyph glyph-name="B" unicode="B" horiz-adv-x="905" 
d="M498 0h-361v1313h334q150 0 240 -93t90 -245q0 -102 -49 -180.5t-131 -112.5q99 -25 158 -112t59 -212q0 -161 -93 -259.5t-247 -98.5zM238 1221v-500h233q97 0 162 72t65 178q0 115 -64.5 182.5t-176.5 67.5h-219zM238 631v-539h239q118 0 188 73.5t70 196.5
q0 121 -67 195t-176 74h-254z" />
    <glyph glyph-name="C" unicode="C" horiz-adv-x="835" 
d="M518 -14q-204 0 -320 177t-116 492t115.5 493.5t318.5 178.5q88 0 152.5 -24.5t126.5 -77.5l-52 -82q-53 46 -104.5 68t-118.5 22q-158 0 -246 -151.5t-88 -426.5t88.5 -425t249.5 -150q64 0 115 22t104 68l52 -82q-63 -54 -127 -78t-150 -24z" />
    <glyph glyph-name="D" unicode="D" horiz-adv-x="976" 
d="M137 0v1313h264q243 0 367.5 -176.5t124.5 -481.5q0 -303 -123 -479t-362 -176h-271zM408 1219h-170v-1125h170q195 0 289 149t94 412q0 173 -38.5 296.5t-126 195.5t-218.5 72z" />
    <glyph glyph-name="E" unicode="E" horiz-adv-x="786" 
d="M137 0v1313h592v-94h-491v-514h434v-95h-434v-516h491v-94h-592z" />
    <glyph glyph-name="F" unicode="F" horiz-adv-x="755" 
d="M238 0h-101v1313h572v-94h-471v-529h413v-96h-413v-594z" />
    <glyph glyph-name="G" unicode="G" horiz-adv-x="944" 
d="M543 -14q-222 0 -341.5 173.5t-119.5 495.5q0 319 121.5 495.5t335.5 176.5q89 0 156 -24t132 -78l-51 -82q-56 48 -110.5 69t-124.5 21q-171 0 -263 -149.5t-92 -428.5q0 -282 91.5 -428.5t273.5 -146.5q115 0 194 53v445h-245v92h342v-582q-117 -102 -299 -102z" />
    <glyph glyph-name="H" unicode="H" horiz-adv-x="1011" 
d="M774 0v612h-536v-612h-101v1313h101v-606h536v606h100v-1313h-100z" />
    <glyph glyph-name="I" unicode="I" horiz-adv-x="374" 
d="M137 0v1313h101v-1313h-101z" />
    <glyph glyph-name="J" unicode="J" horiz-adv-x="608" 
d="M25 61l45 84q77 -65 161 -65q74 0 115 46.5t41 133.5v1053h100v-1051q0 -134 -67.5 -205t-181.5 -71q-126 0 -213 75z" />
    <glyph glyph-name="K" unicode="K" horiz-adv-x="833" 
d="M238 0h-101v1313h101v-651l446 651h111l-453 -660l469 -653h-117l-456 633v-633z" />
    <glyph glyph-name="L" unicode="L" horiz-adv-x="747" 
d="M137 0v1313h101v-1219h475v-94h-576z" />
    <glyph glyph-name="M" unicode="M" horiz-adv-x="1159" 
d="M580 403l-344 732v-1135h-99v1313h119l328 -711l329 711h109v-1313h-100v1126z" />
    <glyph glyph-name="N" unicode="N" horiz-adv-x="1011" 
d="M741 0l-505 1157v-1157h-99v1313h133l506 -1159v1159h98v-1313h-133z" />
    <glyph glyph-name="O" unicode="O" horiz-adv-x="997" 
d="M500 1327q200 0 307.5 -177t107.5 -497q0 -318 -107.5 -492.5t-307.5 -174.5t-309 175.5t-109 491.5q0 319 109 496.5t309 177.5zM500 80q151 0 231 149t80 424q0 277 -80 428.5t-231 151.5q-153 0 -233.5 -150t-80.5 -430q0 -275 80.5 -424t233.5 -149z" />
    <glyph glyph-name="P" unicode="P" horiz-adv-x="872" 
d="M137 0v1313h312q164 0 264 -108t100 -285q0 -175 -102 -284.5t-269 -109.5h-204v-526h-101zM453 1219h-215v-598h215q117 0 187.5 81.5t70.5 217.5t-70.5 217.5t-187.5 81.5z" />
    <glyph glyph-name="Q" unicode="Q" horiz-adv-x="997" 
d="M500 -14q-200 0 -309 175.5t-109 491.5q0 319 109 496.5t309 177.5t307.5 -177t107.5 -497q0 -370 -145 -544l117 -154l-68 -55l-112 149q-88 -63 -207 -63zM500 80q82 0 147 47l-166 217l66 57l160 -211q104 143 104 463q0 277 -80 428.5t-231 151.5q-153 0 -233.5 -150
t-80.5 -430q0 -275 80.5 -424t233.5 -149z" />
    <glyph glyph-name="R" unicode="R" horiz-adv-x="874" 
d="M137 0v1313h316q157 0 253.5 -103t96.5 -268q0 -142 -72 -241.5t-194 -125.5l256 -575h-109l-252 565h-194v-565h-101zM451 1219h-213v-560h213q113 0 180 78t67 205q0 126 -66.5 201.5t-180.5 75.5z" />
    <glyph glyph-name="S" unicode="S" horiz-adv-x="782" 
d="M385 -14q-191 0 -324 116l45 86q119 -108 277 -108q102 0 168.5 62.5t66.5 160.5q0 46 -13.5 86t-31.5 67t-54.5 57.5t-62 47.5t-75.5 47q-56 34 -90 57t-77.5 61.5t-67.5 76t-41 92.5t-17 119q0 136 92.5 224.5t237.5 88.5q152 0 264 -82l-51 -82q-84 70 -211 70
q-102 0 -166 -62t-64 -157q0 -49 14.5 -92t34 -72t58 -61.5t66.5 -51t79 -49.5q42 -26 62 -39t56 -39t54 -44.5t42 -49t36 -59.5t20.5 -68.5t8.5 -83.5q0 -145 -93.5 -232t-242.5 -87z" />
    <glyph glyph-name="T" unicode="T" horiz-adv-x="720" 
d="M700 1219h-290v-1219h-101v1219h-289v94h680v-94z" />
    <glyph glyph-name="U" unicode="U" horiz-adv-x="950" 
d="M119 395v918h102v-928q0 -148 67 -226.5t187 -78.5t186 78t66 227v928h102v-918q0 -197 -94 -303t-260 -106q-167 0 -261.5 106t-94.5 303z" />
    <glyph glyph-name="V" unicode="V" horiz-adv-x="860" 
d="M131 1313l303 -1200l303 1200h99l-336 -1313h-140l-335 1313h106z" />
    <glyph glyph-name="W" unicode="W" horiz-adv-x="1368" 
d="M1229 1313h100l-272 -1313h-131l-242 1174l-238 -1174h-137l-270 1313h104l240 -1204l238 1204h129l245 -1202z" />
    <glyph glyph-name="X" unicode="X" horiz-adv-x="813" 
d="M770 1313l-305 -631l321 -682h-110l-275 580l-272 -580h-104l321 672l-305 641h111l258 -541l256 541h104z" />
    <glyph glyph-name="Y" unicode="Y" horiz-adv-x="806" 
d="M352 0v463l-338 850h109l278 -723l287 723h105l-340 -846v-467h-101z" />
    <glyph glyph-name="Z" unicode="Z" horiz-adv-x="780" 
d="M53 96l557 1123h-553v94h666v-96l-557 -1123h559v-94h-672v96z" />
    <glyph glyph-name="bracketleft" unicode="[" horiz-adv-x="466" 
d="M137 -266v1675h291v-90h-192v-1495h192v-90h-291z" />
    <glyph glyph-name="backslash" unicode="\" horiz-adv-x="671" 
d="M637 0h-100l-502 1313h100z" />
    <glyph glyph-name="bracketright" unicode="]" horiz-adv-x="466" 
d="M330 -266h-291v90h190v1495h-190v90h291v-1675z" />
    <glyph glyph-name="asciicircum" unicode="^" horiz-adv-x="739" 
d="M195 657h-97l221 656h109l213 -656h-96l-170 541z" />
    <glyph glyph-name="underscore" unicode="_" horiz-adv-x="585" 
d="M-12 -43h610v-82h-610v82z" />
    <glyph glyph-name="grave" unicode="`" horiz-adv-x="550" 
d="M244 1409l137 -319h-90l-164 319h117z" />
    <glyph glyph-name="a" unicode="a" horiz-adv-x="878" 
d="M397 -14q-151 0 -240 137.5t-89 368.5q0 230 89 366.5t240 136.5q172 0 248 -192v178h103v-981h-103v178q-76 -192 -248 -192zM408 80q112 0 174.5 110t62.5 304q0 191 -62.5 299t-174.5 108q-113 0 -176.5 -108.5t-63.5 -298.5q0 -191 64 -302.5t176 -111.5z" />
    <glyph glyph-name="b" unicode="b" horiz-adv-x="876" 
d="M231 0h-100v1409h100v-614q74 200 252 200q150 0 238 -136t88 -367t-88 -368.5t-238 -137.5q-178 0 -252 200v-186zM469 80q113 0 176.5 110t63.5 302q0 191 -63.5 300t-176.5 109q-112 0 -175 -109t-63 -300q0 -192 63 -302t175 -110z" />
    <glyph glyph-name="c" unicode="c" horiz-adv-x="679" 
d="M408 -14q-155 0 -247.5 138t-92.5 368t92.5 366.5t249.5 136.5q140 0 231 -98l-51 -80q-75 84 -178 84q-115 0 -179.5 -109t-64.5 -300t65 -301.5t177 -110.5q108 0 180 84l51 -80q-48 -51 -103 -74.5t-130 -23.5z" />
    <glyph glyph-name="d" unicode="d" horiz-adv-x="876" 
d="M393 -14q-150 0 -237.5 137.5t-87.5 368.5t87.5 367t237.5 136q178 0 252 -200v614h100v-1409h-100v186q-74 -200 -252 -200zM408 80q112 0 174.5 110t62.5 302q0 191 -62.5 300t-174.5 109q-113 0 -176.5 -109t-63.5 -300q0 -192 63.5 -302t176.5 -110z" />
    <glyph glyph-name="e" unicode="e" horiz-adv-x="786" 
d="M432 -14q-170 0 -267 135t-97 371q0 228 90 365.5t243 137.5q145 0 231.5 -125t86.5 -325q0 -37 -2 -53h-549q0 -201 69.5 -308.5t198.5 -107.5q111 0 187 88l51 -76q-102 -102 -242 -102zM399 905q-97 0 -157 -89.5t-72 -246.5h448q-8 156 -65.5 246t-153.5 90z" />
    <glyph glyph-name="f" unicode="f" horiz-adv-x="466" 
d="M252 0h-98v891h-105v90h105v207q0 109 52 172t144 63q85 0 144 -53l-45 -78q-41 41 -93 41q-50 0 -77 -36t-27 -105v-211h176v-90h-176v-891z" />
    <glyph glyph-name="g" unicode="g" horiz-adv-x="876" 
d="M391 -6q-149 0 -236 136t-87 366q0 229 87 364t236 135q180 0 254 -200v186h100v-1018q0 -182 -91 -280.5t-253 -98.5q-174 0 -290 113l53 78q101 -101 235 -101q121 0 183.5 71t62.5 206v246q-74 -203 -254 -203zM408 90q112 0 174.5 108.5t62.5 297.5
q0 190 -62.5 298.5t-174.5 108.5t-176 -109t-64 -298t64 -297.5t176 -108.5z" />
    <glyph glyph-name="h" unicode="h" horiz-adv-x="839" 
d="M231 0h-100v1409h100v-561q36 70 97.5 108.5t138.5 38.5q130 0 201 -85.5t71 -239.5v-670h-98v651q0 124 -50 188t-147 64q-98 0 -155.5 -73t-57.5 -199v-631z" />
    <glyph glyph-name="i" unicode="i" horiz-adv-x="364" 
d="M180 1196q-30 0 -50.5 21.5t-20.5 52.5q0 30 20.5 50.5t50.5 20.5q32 0 54 -20t22 -51t-22.5 -52.5t-53.5 -21.5zM231 0h-100v981h100v-981z" />
    <glyph glyph-name="j" unicode="j" horiz-adv-x="364" 
d="M182 1196q-30 0 -50.5 21.5t-20.5 52.5q0 30 20.5 50.5t50.5 20.5q31 0 52.5 -20.5t21.5 -50.5q0 -31 -21.5 -52.5t-52.5 -21.5zM45 -416q-79 0 -135 47l49 78q37 -37 82 -37q90 0 90 148v1161h100v-1147q0 -122 -47.5 -186t-138.5 -64z" />
    <glyph glyph-name="k" unicode="k" horiz-adv-x="739" 
d="M231 0h-100v1409h100v-877l365 449h113l-377 -467l391 -514h-121l-371 485v-485z" />
    <glyph glyph-name="l" unicode="l" horiz-adv-x="380" 
d="M281 -14q-65 0 -107.5 46t-42.5 132v1245h100v-1245q0 -43 18 -65.5t48 -22.5q26 0 45 8l14 -84q-32 -14 -75 -14z" />
    <glyph glyph-name="m" unicode="m" horiz-adv-x="1306" 
d="M231 0h-100v981h100v-133q35 71 94 109t132 38q89 0 150 -45.5t89 -130.5q34 84 97.5 130t146.5 46q125 0 195.5 -85.5t70.5 -239.5v-670h-100v651q0 124 -47 188t-137 64q-92 0 -147.5 -74t-55.5 -198v-631h-101v651q0 124 -47 188t-137 64q-93 0 -148 -73.5t-55 -198.5
v-631z" />
    <glyph glyph-name="n" unicode="n" horiz-adv-x="839" 
d="M231 0h-100v981h100v-133q36 70 97.5 108.5t138.5 38.5q129 0 200.5 -85.5t71.5 -239.5v-670h-98v651q0 124 -50 188t-147 64q-98 0 -155.5 -73t-57.5 -199v-631z" />
    <glyph glyph-name="o" unicode="o" horiz-adv-x="813" 
d="M408 -14q-158 0 -249 138t-91 368q0 229 91 366t249 137q157 0 247 -137t90 -366q0 -231 -90 -368.5t-247 -137.5zM408 80q112 0 174.5 109.5t62.5 302.5t-62.5 301t-174.5 108t-176 -109t-64 -300q0 -192 64 -302t176 -110z" />
    <glyph glyph-name="p" unicode="p" horiz-adv-x="876" 
d="M231 -401h-100v1382h100v-186q74 200 252 200q150 0 238 -137.5t88 -368.5t-88 -367t-238 -136q-178 0 -252 200v-587zM469 80q113 0 176.5 109t63.5 300q0 192 -63.5 302t-176.5 110q-112 0 -175 -110t-63 -302q0 -191 63 -300t175 -109z" />
    <glyph glyph-name="q" unicode="q" horiz-adv-x="876" 
d="M393 -14q-150 0 -237.5 136t-87.5 367t87.5 368.5t237.5 137.5q178 0 252 -200v186h100v-1382h-100v587q-74 -200 -252 -200zM408 80q112 0 174.5 109t62.5 300q0 192 -62.5 302t-174.5 110q-113 0 -176.5 -110t-63.5 -302q0 -191 63.5 -300t176.5 -109z" />
    <glyph glyph-name="r" unicode="r" horiz-adv-x="522" 
d="M131 0v981h100v-111q61 125 172 125q52 0 93 -20l-21 -96q-35 16 -80 16q-75 0 -119.5 -67.5t-44.5 -178.5v-649h-100z" />
    <glyph glyph-name="s" unicode="s" horiz-adv-x="649" 
d="M309 -14q-149 0 -260 82l41 82q111 -76 221 -76q79 0 128.5 47t49.5 123q0 83 -46.5 129.5t-143.5 93.5q-50 24 -84 45.5t-68.5 54.5t-51.5 77.5t-17 100.5q0 109 76.5 179.5t197.5 70.5q136 0 230 -59l-39 -82q-81 53 -187 53q-78 0 -129 -44t-51 -113
q0 -71 43.5 -114.5t138.5 -90.5q51 -25 87.5 -48t72 -58t54 -82.5t18.5 -106.5q0 -118 -78 -191t-203 -73z" />
    <glyph glyph-name="t" unicode="t" horiz-adv-x="528" 
d="M47 891v90h107v233h98v-233h209v-90h-209v-694q0 -59 28 -90t78 -31q60 0 111 39l37 -82q-74 -47 -154 -47q-92 0 -145 53t-53 151v701h-107z" />
    <glyph glyph-name="u" unicode="u" horiz-adv-x="798" 
d="M199 981v-639q0 -128 50 -196t146 -68q100 0 152.5 67.5t52.5 196.5v639h98v-633q0 -174 -78 -268t-225 -94q-144 0 -220.5 94t-76.5 268v633h101z" />
    <glyph glyph-name="v" unicode="v" horiz-adv-x="702" 
d="M416 0h-129l-262 981h102l225 -872l230 872h96z" />
    <glyph glyph-name="w" unicode="w" horiz-adv-x="1128" 
d="M373 0h-117l-215 981h102l179 -856l194 856h100l195 -854l178 854h98l-213 -981h-118l-193 825z" />
    <glyph glyph-name="x" unicode="x" horiz-adv-x="696" 
d="M25 0l268 506l-256 475h108l207 -387l205 387h105l-263 -473l273 -508h-109l-223 414l-213 -414h-102z" />
    <glyph glyph-name="y" unicode="y" horiz-adv-x="706" 
d="M127 981l235 -834l224 834h96l-324 -1178q-33 -116 -80 -167.5t-124 -51.5q-70 0 -123 39l39 84q41 -33 88 -33q40 0 63.5 32t46.5 108l51 186l-296 981h104z" />
    <glyph glyph-name="z" unicode="z" horiz-adv-x="681" 
d="M61 92l441 799h-434v90h544v-92l-440 -799h451v-90h-562v92z" />
    <glyph glyph-name="braceleft" unicode="{" horiz-adv-x="507" 
d="M469 -266h-74q-101 0 -151.5 64.5t-50.5 185.5v370q0 97 -27 132.5t-103 35.5v99q76 0 103 35t27 132v386q0 235 202 235h74v-90h-59q-63 0 -90 -33t-27 -112v-408q0 -179 -121 -195q121 -16 121 -194v-393q0 -84 28 -122t89 -38h59v-90z" />
    <glyph glyph-name="bar" unicode="|" horiz-adv-x="370" 
d="M233 -401h-96v1810h96v-1810z" />
    <glyph glyph-name="braceright" unicode="}" horiz-adv-x="507" 
d="M113 -266h-74v90h59q62 0 89.5 37.5t27.5 122.5v393q0 178 121 194q-121 16 -121 195v408q0 79 -27.5 112t-89.5 33h-59v90h74q104 0 152 -59t48 -176v-386q0 -97 27.5 -132t103.5 -35v-99q-76 0 -103.5 -35.5t-27.5 -132.5v-370q0 -250 -200 -250z" />
    <glyph glyph-name="asciitilde" unicode="~" horiz-adv-x="724" 
d="M496 567q-49 0 -97 24.5t-91.5 49.5t-82.5 25q-70 0 -135 -62v101q63 53 139 53q49 0 97 -25t91.5 -49.5t82.5 -24.5q68 0 135 58v-101q-61 -49 -139 -49z" />
    <glyph glyph-name="nbspace" unicode="&#xa0;" horiz-adv-x="339" 
 />
    <glyph glyph-name="exclamdown" unicode="&#xa1;" horiz-adv-x="473" 
d="M236 823q-35 0 -59.5 25.5t-24.5 60.5t24.5 60.5t59.5 25.5t59 -25t24 -61t-24 -61t-59 -25zM293 -324h-115l15 936h86z" />
    <glyph glyph-name="cent" unicode="&#xa2;" horiz-adv-x="679" 
d="M446 -23h-90v170q-134 23 -211 157.5t-77 344.5t77 343.5t211 156.5v170h90v-168q113 -8 195 -96l-51 -82q-78 88 -178 88q-115 0 -179.5 -110t-64.5 -300q0 -191 65 -302t177 -111q108 0 180 84l51 -80q-83 -86 -195 -97v-168z" />
    <glyph glyph-name="sterling" unicode="&#xa3;" horiz-adv-x="784" 
d="M242 92h489v-92h-665v92h49q84 0 84 150v331h-105v86h105v334q0 154 75 244t207 90q77 0 132.5 -24.5t105.5 -79.5l-53 -80q-40 47 -81.5 68.5t-95.5 21.5q-90 0 -140 -64t-50 -178v-332h338v-86h-338v-333q0 -120 -57 -148z" />
    <glyph glyph-name="currency" unicode="&#xa4;" horiz-adv-x="804" 
d="M401 213q-108 0 -186 84l-94 -117l-64 64l105 129q-58 110 -58 256q0 145 58 252l-105 131l64 61l94 -117q78 84 186 84q111 0 189 -84l92 117l66 -61l-107 -133q55 -107 55 -250q0 -147 -55 -254l107 -131l-64 -64l-94 119q-77 -86 -189 -86zM401 301q92 0 147.5 89.5
t55.5 238.5q0 148 -55.5 236.5t-147.5 88.5t-148 -88.5t-56 -236.5q0 -149 56 -238.5t148 -89.5z" />
    <glyph glyph-name="yen" unicode="&#xa5;" horiz-adv-x="806" 
d="M453 0h-101v430h-258v82h238l-90 229h-148v80h115l-195 492h109l280 -725l283 725h107l-199 -492h119v-80h-150l-92 -229h242v-82h-260v-430z" />
    <glyph glyph-name="brokenbar" unicode="&#xa6;" horiz-adv-x="370" 
d="M233 1409v-747h-96v747h96zM233 346v-747h-96v747h96z" />
    <glyph glyph-name="section" unicode="&#xa7;" horiz-adv-x="925" 
d="M444 -416q-167 0 -278 97l51 81q87 -84 225 -84q99 0 164.5 59.5t65.5 153.5q0 42 -9 76.5t-29 61.5t-41 47t-55.5 39t-61 30.5t-68.5 28.5q-59 24 -97.5 43t-84 50t-72 65t-44.5 84.5t-18 111.5q0 85 39 154t102 113q-91 91 -88 225q1 138 87.5 222.5t224.5 84.5
q157 0 266 -92l-51 -82q-86 80 -213 80q-95 0 -154 -57.5t-59 -151.5q0 -49 16 -89.5t37.5 -66t63 -51t70.5 -38.5t83 -34q60 -25 98.5 -43t85 -50t73 -66t45 -84.5t18.5 -112.5q0 -86 -40 -155t-102 -115q80 -83 80 -221q-3 -141 -95.5 -227.5t-234.5 -86.5zM467 258
q110 -48 158 -80q108 84 108 207q0 35 -8 65.5t-19.5 52.5t-35 43.5t-41.5 34.5t-52.5 30t-56 25.5t-63.5 25.5q-107 45 -154 75q-110 -82 -110 -207q0 -34 8 -63.5t19 -51.5t34.5 -43t41 -34t52.5 -29.5t56 -25z" />
    <glyph glyph-name="dieresis" unicode="&#xa8;" 
d="M217 1260q0 31 19.5 51t48.5 20t49 -20t20 -51q0 -30 -19.5 -50t-49.5 -20q-29 0 -48.5 19.5t-19.5 50.5zM463 1260q0 31 20 51t49 20q30 0 50 -20.5t20 -50.5t-20 -50t-50 -20q-29 0 -49 20.5t-20 49.5z" />
    <glyph glyph-name="copyright" unicode="&#xa9;" horiz-adv-x="1196" 
d="M600 -72q-235 0 -375.5 200.5t-140.5 533.5q0 332 140.5 530.5t375.5 198.5q232 0 372 -199t140 -530q0 -219 -63 -385.5t-179.5 -257.5t-269.5 -91zM600 2q201 0 318.5 178.5t117.5 481.5q0 301 -117.5 479t-318.5 178q-203 0 -321.5 -177.5t-118.5 -479.5
q0 -305 118 -482.5t322 -177.5zM612 217q-143 0 -231 123t-88 322q0 198 88.5 321t230.5 123q71 0 121.5 -22t97.5 -74l-47 -70q-39 45 -78.5 64.5t-93.5 19.5q-104 0 -167.5 -99t-63.5 -263q0 -163 64.5 -263t170.5 -100q97 0 168 80l47 -68q-47 -51 -98 -72.5t-121 -21.5z
" />
    <glyph glyph-name="ordfeminine" unicode="&#xaa;" horiz-adv-x="753" 
d="M340 684q-117 0 -186.5 90.5t-69.5 233.5q0 146 69.5 235.5t186.5 89.5q123 0 186 -119v103h90v-617h-90v101q-62 -117 -186 -117zM350 768q82 0 129 64.5t47 175.5q0 112 -47 176.5t-129 64.5q-80 0 -128 -65.5t-48 -175.5q0 -107 49 -173.5t127 -66.5z" />
    <glyph glyph-name="guillemotleft" unicode="&#xab;" horiz-adv-x="727" 
d="M55 498l260 368l68 -59l-215 -309l215 -310l-68 -59zM342 498l260 368l70 -59l-217 -309l217 -310l-70 -59z" />
    <glyph glyph-name="logicalnot" unicode="&#xac;" horiz-adv-x="755" 
d="M666 317h-97v297h-479v91h576v-388z" />
    <glyph glyph-name="softhyphen" unicode="&#xad;" horiz-adv-x="534" 
d="M70 575h395v-92h-395v92z" />
    <glyph glyph-name="registered" unicode="&#xae;" horiz-adv-x="735" 
d="M369 524q-146 0 -236 122t-90 321q0 201 89.5 322.5t236.5 121.5q146 0 233.5 -121.5t87.5 -322.5q0 -204 -86 -323.5t-235 -119.5zM369 592q120 0 186 97.5t66 277.5q0 175 -67.5 277t-184.5 102t-185.5 -101.5t-68.5 -277.5q0 -175 68 -275t186 -100zM319 733h-75v475
h141q59 0 95 -35t36 -100q0 -102 -86 -129l98 -211h-82l-92 205h-35v-205zM319 1145v-146h62q61 0 61 74q0 72 -61 72h-62z" />
    <glyph glyph-name="macron" unicode="&#xaf;" 
d="M506 1227h-389v86h389v-86z" />
    <glyph glyph-name="degree" unicode="&#xb0;" horiz-adv-x="505" 
d="M254 717q-104 0 -169 86t-65 219t64.5 219t169.5 86q107 0 169 -83.5t62 -221.5q0 -137 -62.5 -221t-168.5 -84zM254 793q68 0 108.5 61.5t40.5 167.5q0 107 -40 167t-109 60q-67 0 -109.5 -62t-42.5 -165t43 -166t109 -63z" />
    <glyph glyph-name="plusminus" unicode="&#xb1;" horiz-adv-x="724" 
d="M426 346h-96v289h-240v92h240v289h96v-289h240v-92h-240v-289zM666 0h-576v92h576v-92z" />
    <glyph glyph-name="twosuperior" unicode="&#xb2;" horiz-adv-x="436" 
d="M383 657h-326v68l172 240q72 101 72 184q0 50 -23.5 78t-64.5 28q-55 0 -98 -69l-56 43q55 96 158 96q73 0 118.5 -47.5t45.5 -124.5q0 -50 -22 -103.5t-74 -129.5l-133 -193h231v-70z" />
    <glyph glyph-name="threesuperior" unicode="&#xb3;" horiz-adv-x="438" 
d="M211 645q-110 0 -160 90l53 43q40 -61 103 -61q50 0 73 37.5t23 99.5q0 131 -123 131h-24v51l135 207h-217v70h299v-68l-135 -201q70 -12 107.5 -63t37.5 -127q0 -89 -46.5 -149t-125.5 -60z" />
    <glyph glyph-name="acute" unicode="&#xb4;" 
d="M578 1376h120l-192 -286h-90z" />
    <glyph glyph-name="paragraph" unicode="&#xb6;" horiz-adv-x="765" 
d="M385 1313h244v-1714h-78v1618h-76v-1618h-104v878q-145 10 -228.5 128.5t-83.5 297.5q0 185 87.5 297.5t238.5 112.5z" />
    <glyph glyph-name="periodcentered" unicode="&#xb7;" horiz-adv-x="817" 
d="M365 602q-15 17 -12 40.5t20 37.5q19 15 42 12.5t38 -20.5q15 -19 12 -41t-21 -37q-19 -15 -41.5 -13t-37.5 21z" />
    <glyph glyph-name="cedilla" unicode="&#xb8;" 
d="M393 0h80l-106 -332l-101 35z" />
    <glyph glyph-name="onesuperior" unicode="&#xb9;" horiz-adv-x="387" 
d="M272 657h-77v549l-99 -106l-43 55l140 158h79v-656z" />
    <glyph glyph-name="ordmasculine" unicode="&#xba;" horiz-adv-x="700" 
d="M350 684q-118 0 -192 91t-74 233q0 144 74.5 234.5t191.5 90.5t191.5 -90.5t74.5 -234.5q0 -143 -74 -233.5t-192 -90.5zM350 768q82 0 129 64.5t47 175.5q0 112 -47 176.5t-129 64.5q-80 0 -128 -65.5t-48 -175.5q0 -107 49 -173.5t127 -66.5z" />
    <glyph glyph-name="guillemotright" unicode="&#xbb;" horiz-adv-x="724" 
d="M383 498l-258 -369l-70 59l217 310l-217 309l70 59zM668 498l-260 -369l-68 59l217 310l-217 309l68 59z" />
    <glyph glyph-name="onequarter" unicode="&#xbc;" horiz-adv-x="974" 
d="M272 657h-77v549l-99 -106l-43 55l140 158h79v-656zM98 0l645 1313h93l-643 -1313h-95zM563 211l223 444h78v-444h68v-68h-68v-143h-78v143h-223v68zM631 211h155v309z" />
    <glyph glyph-name="onehalf" unicode="&#xbd;" horiz-adv-x="974" 
d="M272 657h-77v549l-99 -106l-43 55l140 158h79v-656zM98 0l645 1313h93l-643 -1313h-95zM920 0h-326v68l172 239q72 101 72 185q0 50 -23.5 78t-66.5 28q-56 0 -97 -70l-57 43q59 97 160 97q72 0 118 -48t46 -124q0 -93 -97 -234l-133 -192h232v-70z" />
    <glyph glyph-name="threequarters" unicode="&#xbe;" horiz-adv-x="983" 
d="M211 645q-110 0 -160 90l53 43q40 -61 103 -61q50 0 73 37.5t23 99.5q0 131 -123 131h-24v51l135 207h-217v70h299v-68l-135 -201q70 -12 107.5 -63t37.5 -127q0 -89 -46.5 -149t-125.5 -60zM137 0l645 1313h92l-643 -1313h-94zM569 211l224 444h77v-444h68v-68h-68v-143
h-77v143h-224v68zM637 211h156v309z" />
    <glyph glyph-name="questiondown" unicode="&#xbf;" horiz-adv-x="688" 
d="M377 1004q35 0 58.5 -24.5t23.5 -61.5t-23.5 -60.5t-58.5 -23.5q-37 0 -59.5 23.5t-22.5 60.5t23 61.5t59 24.5zM340 627h82l8 -305l-29 -3q-118 0 -181.5 -77t-63.5 -215q0 -126 58 -200.5t153 -74.5q73 0 126.5 36t96.5 114l69 -62q-105 -180 -297 -180
q-137 0 -221 99.5t-84 265.5q0 154 73 253.5t200 118.5z" />
    <glyph glyph-name="Agrave" unicode="&#xc0;" horiz-adv-x="921" 
d="M344 1708l162 -287h-92l-193 287h123zM788 0l-106 383h-451l-104 -383h-100l364 1313h139l367 -1313h-109zM258 475h399l-200 727z" />
    <glyph glyph-name="Aacute" unicode="&#xc1;" horiz-adv-x="921" 
d="M582 1708h120l-192 -287h-90zM788 0l-106 383h-451l-104 -383h-100l364 1313h139l367 -1313h-109zM258 475h399l-200 727z" />
    <glyph glyph-name="Acircumflex" unicode="&#xc2;" horiz-adv-x="921" 
d="M324 1421h-91l179 287h102l178 -287h-90l-139 211zM788 0l-106 383h-451l-104 -383h-100l364 1313h139l367 -1313h-109zM258 475h399l-200 727z" />
    <glyph glyph-name="Atilde" unicode="&#xc3;" horiz-adv-x="921" 
d="M285 1503l-64 41q54 125 141 125q46 0 102 -36t91 -36q26 0 45 19.5t39 60.5l63 -41q-55 -125 -141 -125q-45 0 -101.5 36t-92.5 36q-24 0 -41.5 -18.5t-40.5 -61.5zM788 0l-106 383h-451l-104 -383h-100l364 1313h139l367 -1313h-109zM258 475h399l-200 727z" />
    <glyph glyph-name="Adieresis" unicode="&#xc4;" horiz-adv-x="921" 
d="M270 1591q0 31 19.5 51.5t48.5 20.5t49.5 -20.5t20.5 -51.5q0 -29 -20 -49t-50 -20t-49 19t-19 50zM516 1591q0 31 20.5 51.5t49.5 20.5t49 -20.5t20 -51.5q0 -30 -19.5 -49.5t-49.5 -19.5q-29 0 -49.5 20t-20.5 49zM788 0l-106 383h-451l-104 -383h-100l364 1313h139
l367 -1313h-109zM258 475h399l-200 727z" />
    <glyph glyph-name="Aring" unicode="&#xc5;" horiz-adv-x="921" 
d="M463 1401q-89 0 -138 58t-49 140t49 140.5t138 58.5q90 0 138 -58t48 -141t-48 -140.5t-138 -57.5zM465 1475q52 0 78 35t26 89t-26 89.5t-78 35.5q-53 0 -81 -36t-28 -89t28 -88.5t81 -35.5zM788 0l-106 383h-451l-104 -383h-100l364 1313h139l367 -1313h-109zM258 475
h399l-200 727z" />
    <glyph glyph-name="AE" unicode="&#xc6;" horiz-adv-x="1230" 
d="M109 0h-101l451 1313h712v-94h-491v-514h434v-95h-434v-516h491v-94h-591v383h-338zM530 1219l-258 -744h308v744h-50z" />
    <glyph glyph-name="Ccedilla" unicode="&#xc7;" horiz-adv-x="835" 
d="M795 88q-112 -92 -240 -100l-102 -320l-101 35l121 285q-185 20 -288 195t-103 472q0 315 115.5 493.5t318.5 178.5q88 0 152.5 -24.5t126.5 -77.5l-52 -82q-53 46 -104.5 68t-118.5 22q-158 0 -246 -151.5t-88 -426.5t88.5 -425t249.5 -150q64 0 115 22t104 68z" />
    <glyph glyph-name="Egrave" unicode="&#xc8;" horiz-adv-x="786" 
d="M313 1708l162 -287h-92l-193 287h123zM137 0v1313h592v-94h-491v-514h434v-95h-434v-516h491v-94h-592z" />
    <glyph glyph-name="Eacute" unicode="&#xc9;" horiz-adv-x="786" 
d="M551 1708h121l-193 -287h-90zM137 0v1313h592v-94h-491v-514h434v-95h-434v-516h491v-94h-592z" />
    <glyph glyph-name="Ecircumflex" unicode="&#xca;" horiz-adv-x="786" 
d="M291 1421h-90l178 287h102l178 -287h-90l-139 211zM137 0v1313h592v-94h-491v-514h434v-95h-434v-516h491v-94h-592z" />
    <glyph glyph-name="Edieresis" unicode="&#xcb;" horiz-adv-x="786" 
d="M238 1591q0 31 19 51.5t48 20.5t49.5 -20.5t20.5 -51.5q0 -29 -19.5 -49t-50.5 -20q-29 0 -48 19t-19 50zM483 1591q0 31 20.5 51.5t49.5 20.5t49.5 -20.5t20.5 -51.5q0 -29 -19.5 -49t-50.5 -20q-29 0 -49.5 20t-20.5 49zM137 0v1313h592v-94h-491v-514h434v-95h-434
v-516h491v-94h-592z" />
    <glyph glyph-name="Igrave" unicode="&#xcc;" horiz-adv-x="374" 
d="M70 1708l161 -287h-92l-192 287h123zM137 0v1313h101v-1313h-101z" />
    <glyph glyph-name="Iacute" unicode="&#xcd;" horiz-adv-x="374" 
d="M309 1708h121l-192 -287h-91zM137 0v1313h101v-1313h-101z" />
    <glyph glyph-name="Icircumflex" unicode="&#xce;" horiz-adv-x="374" 
d="M49 1421h-90l178 287h103l178 -287h-90l-140 211zM137 0v1313h101v-1313h-101z" />
    <glyph glyph-name="Idieresis" unicode="&#xcf;" horiz-adv-x="374" 
d="M-4 1591q0 31 19 51.5t48 20.5t49.5 -20.5t20.5 -51.5q0 -29 -19.5 -49t-50.5 -20q-29 0 -48 19t-19 50zM242 1591q0 31 20 51.5t49 20.5t49.5 -20.5t20.5 -51.5q0 -29 -19.5 -49t-50.5 -20q-29 0 -49 20t-20 49zM137 0v1313h101v-1313h-101z" />
    <glyph glyph-name="Eth" unicode="&#xd0;" horiz-adv-x="976" 
d="M408 0h-271v610h-98v90h98v613h264q243 0 367.5 -176.5t124.5 -481.5q0 -303 -123 -479t-362 -176zM459 610h-221v-516h170q195 0 289 149t94 412q0 173 -38.5 296.5t-126 195.5t-218.5 72h-170v-519h221v-90z" />
    <glyph glyph-name="Ntilde" unicode="&#xd1;" horiz-adv-x="1011" 
d="M334 1503l-64 41q54 125 142 125q46 0 101.5 -36t90.5 -36q26 0 45 19.5t39 60.5l64 -41q-55 -125 -142 -125q-44 0 -101 36t-93 36q-24 0 -41.5 -18.5t-40.5 -61.5zM741 0l-505 1157v-1157h-99v1313h133l506 -1159v1159h98v-1313h-133z" />
    <glyph glyph-name="Ograve" unicode="&#xd2;" horiz-adv-x="997" 
d="M381 1708l162 -287h-92l-193 287h123zM500 1327q200 0 307.5 -177t107.5 -497q0 -318 -107.5 -492.5t-307.5 -174.5t-309 175.5t-109 491.5q0 319 109 496.5t309 177.5zM500 80q151 0 231 149t80 424q0 277 -80 428.5t-231 151.5q-153 0 -233.5 -150t-80.5 -430
q0 -275 80.5 -424t233.5 -149z" />
    <glyph glyph-name="Oacute" unicode="&#xd3;" horiz-adv-x="997" 
d="M618 1708h121l-192 -287h-90zM500 1327q200 0 307.5 -177t107.5 -497q0 -318 -107.5 -492.5t-307.5 -174.5t-309 175.5t-109 491.5q0 319 109 496.5t309 177.5zM500 80q151 0 231 149t80 424q0 277 -80 428.5t-231 151.5q-153 0 -233.5 -150t-80.5 -430q0 -275 80.5 -424
t233.5 -149z" />
    <glyph glyph-name="Ocircumflex" unicode="&#xd4;" horiz-adv-x="997" 
d="M360 1421h-90l179 287h102l178 -287h-90l-139 211zM500 1327q200 0 307.5 -177t107.5 -497q0 -318 -107.5 -492.5t-307.5 -174.5t-309 175.5t-109 491.5q0 319 109 496.5t309 177.5zM500 80q151 0 231 149t80 424q0 277 -80 428.5t-231 151.5q-153 0 -233.5 -150
t-80.5 -430q0 -275 80.5 -424t233.5 -149z" />
    <glyph glyph-name="Otilde" unicode="&#xd5;" horiz-adv-x="997" 
d="M322 1503l-64 41q54 125 141 125q46 0 102 -36t91 -36q26 0 45 19.5t39 60.5l63 -41q-55 -125 -141 -125q-44 0 -102 36t-93 36q-24 0 -41 -18.5t-40 -61.5zM500 1327q200 0 307.5 -177t107.5 -497q0 -318 -107.5 -492.5t-307.5 -174.5t-309 175.5t-109 491.5
q0 319 109 496.5t309 177.5zM500 80q151 0 231 149t80 424q0 277 -80 428.5t-231 151.5q-153 0 -233.5 -150t-80.5 -430q0 -275 80.5 -424t233.5 -149z" />
    <glyph glyph-name="Odieresis" unicode="&#xd6;" horiz-adv-x="997" 
d="M307 1591q0 31 19.5 51.5t48.5 20.5t49 -20.5t20 -51.5q0 -30 -19.5 -49.5t-49.5 -19.5q-29 0 -48.5 19t-19.5 50zM553 1591q0 31 20.5 51.5t49.5 20.5t49 -20.5t20 -51.5q0 -30 -19.5 -49.5t-49.5 -19.5q-29 0 -49.5 20t-20.5 49zM500 1327q200 0 307.5 -177t107.5 -497
q0 -318 -107.5 -492.5t-307.5 -174.5t-309 175.5t-109 491.5q0 319 109 496.5t309 177.5zM500 80q151 0 231 149t80 424q0 277 -80 428.5t-231 151.5q-153 0 -233.5 -150t-80.5 -430q0 -275 80.5 -424t233.5 -149z" />
    <glyph glyph-name="multiply" unicode="&#xd7;" horiz-adv-x="724" 
d="M176 334l-70 59l199 266l-196 263l69 59l184 -246l185 246l71 -59l-198 -265l196 -262l-69 -59l-185 246z" />
    <glyph glyph-name="Oslash" unicode="&#xd8;" horiz-adv-x="997" 
d="M500 -14q-138 0 -234 84l-78 -166l-75 35l94 198q-125 175 -125 516q0 319 109 496.5t309 177.5q138 0 231 -84l80 166l74 -35l-94 -198q124 -174 124 -523q0 -318 -107.5 -492.5t-307.5 -174.5zM186 653q0 -260 72 -407l428 901q-74 86 -186 86q-153 0 -233.5 -150
t-80.5 -430zM500 80q151 0 231 149t80 424q0 262 -72 412l-428 -901q75 -84 189 -84z" />
    <glyph glyph-name="Ugrave" unicode="&#xd9;" horiz-adv-x="950" 
d="M356 1708l162 -287h-92l-193 287h123zM119 395v918h102v-928q0 -148 67 -226.5t187 -78.5t186 78t66 227v928h102v-918q0 -197 -94 -303t-260 -106q-167 0 -261.5 106t-94.5 303z" />
    <glyph glyph-name="Uacute" unicode="&#xda;" horiz-adv-x="950" 
d="M596 1708h121l-193 -287h-90zM119 395v918h102v-928q0 -148 67 -226.5t187 -78.5t186 78t66 227v928h102v-918q0 -197 -94 -303t-260 -106q-167 0 -261.5 106t-94.5 303z" />
    <glyph glyph-name="Ucircumflex" unicode="&#xdb;" horiz-adv-x="950" 
d="M336 1421h-90l178 287h102l179 -287h-91l-139 211zM119 395v918h102v-928q0 -148 67 -226.5t187 -78.5t186 78t66 227v928h102v-918q0 -197 -94 -303t-260 -106q-167 0 -261.5 106t-94.5 303z" />
    <glyph glyph-name="Udieresis" unicode="&#xdc;" horiz-adv-x="950" 
d="M283 1591q0 31 19 51.5t48 20.5t49.5 -20.5t20.5 -51.5q0 -29 -20 -49t-50 -20q-29 0 -48 19t-19 50zM528 1591q0 31 20.5 51.5t49.5 20.5t49.5 -20.5t20.5 -51.5q0 -29 -20 -49t-50 -20q-29 0 -49.5 20t-20.5 49zM119 395v918h102v-928q0 -148 67 -226.5t187 -78.5
t186 78t66 227v928h102v-918q0 -197 -94 -303t-260 -106q-167 0 -261.5 106t-94.5 303z" />
    <glyph glyph-name="Yacute" unicode="&#xdd;" horiz-adv-x="806" 
d="M524 1708h121l-192 -287h-91zM352 0v463l-338 850h109l278 -723l287 723h105l-340 -846v-467h-101z" />
    <glyph glyph-name="Thorn" unicode="&#xde;" horiz-adv-x="872" 
d="M238 0h-101v1313h101v-232h211q164 0 264 -108t100 -285t-102 -285t-269 -108h-204v-295zM238 987v-598h215q117 0 187.5 81.5t70.5 217.5t-70.5 217.5t-187.5 81.5h-215z" />
    <glyph glyph-name="germandbls" unicode="&#xdf;" horiz-adv-x="886" 
d="M514 -14q-112 0 -174 39l18 84q57 -35 148 -35q107 0 169 83t62 226q0 145 -67 229t-181 84h-100v84h92q83 0 139 78.5t56 196.5q0 133 -60.5 206.5t-169.5 73.5q-101 0 -158 -68.5t-57 -189.5v-1077h-100v1069q0 162 86 259t229 97q151 0 240.5 -99.5t89.5 -268.5
q0 -101 -43 -183t-115 -124q103 -34 161.5 -131t58.5 -236q0 -179 -89 -288t-235 -109z" />
    <glyph glyph-name="agrave" unicode="&#xe0;" horiz-adv-x="878" 
d="M322 1376l161 -286h-92l-192 286h123zM397 -14q-151 0 -240 137.5t-89 368.5q0 230 89 366.5t240 136.5q172 0 248 -192v178h103v-981h-103v178q-76 -192 -248 -192zM408 80q112 0 174.5 110t62.5 304q0 191 -62.5 299t-174.5 108q-113 0 -176.5 -108.5t-63.5 -298.5
q0 -191 64 -302.5t176 -111.5z" />
    <glyph glyph-name="aacute" unicode="&#xe1;" horiz-adv-x="878" 
d="M561 1376h121l-193 -286h-90zM397 -14q-151 0 -240 137.5t-89 368.5q0 230 89 366.5t240 136.5q172 0 248 -192v178h103v-981h-103v178q-76 -192 -248 -192zM408 80q112 0 174.5 110t62.5 304q0 191 -62.5 299t-174.5 108q-113 0 -176.5 -108.5t-63.5 -298.5
q0 -191 64 -302.5t176 -111.5z" />
    <glyph glyph-name="acircumflex" unicode="&#xe2;" horiz-adv-x="878" 
d="M301 1090h-90l178 286h103l178 -286h-90l-140 210zM397 -14q-151 0 -240 137.5t-89 368.5q0 230 89 366.5t240 136.5q172 0 248 -192v178h103v-981h-103v178q-76 -192 -248 -192zM408 80q112 0 174.5 110t62.5 304q0 191 -62.5 299t-174.5 108q-113 0 -176.5 -108.5
t-63.5 -298.5q0 -191 64 -302.5t176 -111.5z" />
    <glyph glyph-name="atilde" unicode="&#xe3;" horiz-adv-x="878" 
d="M262 1171l-63 41q54 125 141 125q46 0 101.5 -35.5t90.5 -35.5q26 0 45 19.5t39 60.5l64 -41q-55 -125 -141 -125q-45 0 -102 35.5t-93 35.5q-24 0 -41.5 -18.5t-40.5 -61.5zM397 -14q-151 0 -240 137.5t-89 368.5q0 230 89 366.5t240 136.5q172 0 248 -192v178h103v-981
h-103v178q-76 -192 -248 -192zM408 80q112 0 174.5 110t62.5 304q0 191 -62.5 299t-174.5 108q-113 0 -176.5 -108.5t-63.5 -298.5q0 -191 64 -302.5t176 -111.5z" />
    <glyph glyph-name="adieresis" unicode="&#xe4;" horiz-adv-x="878" 
d="M248 1260q0 31 19 51t48 20t49.5 -20.5t20.5 -50.5t-20 -50t-50 -20q-29 0 -48 19.5t-19 50.5zM494 1260q0 31 20 51t49 20t49.5 -20.5t20.5 -50.5t-20 -50t-50 -20q-29 0 -49 20.5t-20 49.5zM397 -14q-151 0 -240 137.5t-89 368.5q0 230 89 366.5t240 136.5
q172 0 248 -192v178h103v-981h-103v178q-76 -192 -248 -192zM408 80q112 0 174.5 110t62.5 304q0 191 -62.5 299t-174.5 108q-113 0 -176.5 -108.5t-63.5 -298.5q0 -191 64 -302.5t176 -111.5z" />
    <glyph glyph-name="aring" unicode="&#xe5;" horiz-adv-x="878" 
d="M440 1069q-89 0 -137.5 58.5t-48.5 140.5t48.5 140t137.5 58q90 0 138.5 -57.5t48.5 -140.5t-48.5 -141t-138.5 -58zM442 1143q52 0 78.5 35.5t26.5 89.5t-26.5 89.5t-78.5 35.5q-53 0 -80.5 -36t-27.5 -89t27.5 -89t80.5 -36zM397 -14q-151 0 -240 137.5t-89 368.5
q0 230 89 366.5t240 136.5q172 0 248 -192v178h103v-981h-103v178q-76 -192 -248 -192zM408 80q112 0 174.5 110t62.5 304q0 191 -62.5 299t-174.5 108q-113 0 -176.5 -108.5t-63.5 -298.5q0 -191 64 -302.5t176 -111.5z" />
    <glyph glyph-name="ae" unicode="&#xe6;" horiz-adv-x="1366" 
d="M397 -14q-151 0 -240 137.5t-89 368.5q0 230 89 366.5t240 136.5q172 0 248 -192v178h103v-184q74 198 251 198q138 0 218.5 -124.5t80.5 -325.5q0 -37 -2 -53h-548q0 -199 69.5 -306.5t198.5 -107.5q112 0 186 86l51 -76q-102 -102 -233 -102q-193 0 -272 200v-186h-103
v178q-76 -192 -248 -192zM979 905q-97 0 -157 -89.5t-72 -246.5h446q-6 156 -63.5 246t-153.5 90zM408 80q112 0 174.5 110t62.5 304q0 191 -62.5 299t-174.5 108q-113 0 -176.5 -108.5t-63.5 -298.5q0 -191 64 -302.5t176 -111.5z" />
    <glyph glyph-name="ccedilla" unicode="&#xe7;" horiz-adv-x="679" 
d="M641 84q-82 -85 -190 -96l-103 -320l-100 35l121 285q-138 17 -219.5 152.5t-81.5 351.5q0 230 92.5 366.5t249.5 136.5q140 0 231 -98l-51 -80q-75 84 -178 84q-115 0 -179.5 -109t-64.5 -300t65 -301.5t177 -110.5q108 0 180 84z" />
    <glyph glyph-name="egrave" unicode="&#xe8;" horiz-adv-x="786" 
d="M285 1376l161 -286h-92l-192 286h123zM432 -14q-170 0 -267 135t-97 371q0 228 90 365.5t243 137.5q145 0 231.5 -125t86.5 -325q0 -37 -2 -53h-549q0 -201 69.5 -308.5t198.5 -107.5q111 0 187 88l51 -76q-102 -102 -242 -102zM399 905q-97 0 -157 -89.5t-72 -246.5h448
q-8 156 -65.5 246t-153.5 90z" />
    <glyph glyph-name="eacute" unicode="&#xe9;" horiz-adv-x="786" 
d="M522 1376h121l-192 -286h-91zM432 -14q-170 0 -267 135t-97 371q0 228 90 365.5t243 137.5q145 0 231.5 -125t86.5 -325q0 -37 -2 -53h-549q0 -201 69.5 -308.5t198.5 -107.5q111 0 187 88l51 -76q-102 -102 -242 -102zM399 905q-97 0 -157 -89.5t-72 -246.5h448
q-8 156 -65.5 246t-153.5 90z" />
    <glyph glyph-name="ecircumflex" unicode="&#xea;" horiz-adv-x="786" 
d="M262 1090h-90l178 286h103l178 -286h-90l-140 210zM432 -14q-170 0 -267 135t-97 371q0 228 90 365.5t243 137.5q145 0 231.5 -125t86.5 -325q0 -37 -2 -53h-549q0 -201 69.5 -308.5t198.5 -107.5q111 0 187 88l51 -76q-102 -102 -242 -102zM399 905q-97 0 -157 -89.5
t-72 -246.5h448q-8 156 -65.5 246t-153.5 90z" />
    <glyph glyph-name="edieresis" unicode="&#xeb;" horiz-adv-x="786" 
d="M209 1260q0 31 19 51t48 20q30 0 50 -20.5t20 -50.5t-20 -50t-50 -20q-29 0 -48 19.5t-19 50.5zM455 1260q0 31 20 51t49 20q30 0 50 -20.5t20 -50.5t-20 -50t-50 -20q-29 0 -49 20.5t-20 49.5zM432 -14q-170 0 -267 135t-97 371q0 228 90 365.5t243 137.5
q145 0 231.5 -125t86.5 -325q0 -37 -2 -53h-549q0 -201 69.5 -308.5t198.5 -107.5q111 0 187 88l51 -76q-102 -102 -242 -102zM399 905q-97 0 -157 -89.5t-72 -246.5h448q-8 156 -65.5 246t-153.5 90z" />
    <glyph glyph-name="igrave" unicode="&#xec;" horiz-adv-x="362" 
d="M63 1376l162 -286h-92l-192 286h122zM231 981v-981h-100v981h100z" />
    <glyph glyph-name="iacute" unicode="&#xed;" horiz-adv-x="362" 
d="M301 1376h121l-193 -286h-90zM231 981v-981h-100v981h100z" />
    <glyph glyph-name="icircumflex" unicode="&#xee;" horiz-adv-x="362" 
d="M41 1090h-90l178 286h102l179 -286h-91l-139 210zM231 981v-981h-100v981h100z" />
    <glyph glyph-name="idieresis" unicode="&#xef;" horiz-adv-x="362" 
d="M-12 1260q0 31 19 51t48 20t49.5 -20.5t20.5 -50.5t-20 -50t-50 -20q-29 0 -48 19.5t-19 50.5zM233 1260q0 30 20.5 50.5t49.5 20.5t49.5 -20.5t20.5 -50.5t-20 -50t-50 -20q-29 0 -49.5 20.5t-20.5 49.5zM231 981v-981h-100v981h100z" />
    <glyph glyph-name="eth" unicode="&#xf0;" horiz-adv-x="813" 
d="M408 -14q-157 0 -248.5 129.5t-91.5 357.5q0 225 89.5 356.5t241.5 131.5q75 0 135.5 -45.5t94.5 -118.5q-50 238 -189 417l-112 -86l-41 64l104 80q-54 57 -115 100l58 68q75 -52 129 -111l94 72l43 -64l-88 -67q233 -294 233 -785q0 -234 -90 -366.5t-247 -132.5z
M408 80q113 0 175 102.5t62 290.5q0 171 -63.5 282t-173.5 111q-113 0 -176.5 -103t-63.5 -290q0 -188 63.5 -290.5t176.5 -102.5z" />
    <glyph glyph-name="ntilde" unicode="&#xf1;" horiz-adv-x="839" 
d="M268 1171l-63 41q54 125 141 125q46 0 102 -35.5t91 -35.5q26 0 45 19.5t39 60.5l63 -41q-55 -125 -141 -125q-45 0 -102.5 35.5t-92.5 35.5q-24 0 -41.5 -18.5t-40.5 -61.5zM231 0h-100v981h100v-133q36 70 97.5 108.5t138.5 38.5q129 0 200.5 -85.5t71.5 -239.5v-670
h-98v651q0 124 -50 188t-147 64q-98 0 -155.5 -73t-57.5 -199v-631z" />
    <glyph glyph-name="ograve" unicode="&#xf2;" horiz-adv-x="813" 
d="M289 1376l162 -286h-93l-192 286h123zM408 -14q-158 0 -249 138t-91 368q0 229 91 366t249 137q157 0 247 -137t90 -366q0 -231 -90 -368.5t-247 -137.5zM408 80q112 0 174.5 109.5t62.5 302.5t-62.5 301t-174.5 108t-176 -109t-64 -300q0 -192 64 -302t176 -110z" />
    <glyph glyph-name="oacute" unicode="&#xf3;" horiz-adv-x="813" 
d="M526 1376h121l-192 -286h-90zM408 -14q-158 0 -249 138t-91 368q0 229 91 366t249 137q157 0 247 -137t90 -366q0 -231 -90 -368.5t-247 -137.5zM408 80q112 0 174.5 109.5t62.5 302.5t-62.5 301t-174.5 108t-176 -109t-64 -300q0 -192 64 -302t176 -110z" />
    <glyph glyph-name="ocircumflex" unicode="&#xf4;" horiz-adv-x="813" 
d="M268 1090h-90l178 286h103l178 -286h-90l-139 210zM408 -14q-158 0 -249 138t-91 368q0 229 91 366t249 137q157 0 247 -137t90 -366q0 -231 -90 -368.5t-247 -137.5zM408 80q112 0 174.5 109.5t62.5 302.5t-62.5 301t-174.5 108t-176 -109t-64 -300q0 -192 64 -302
t176 -110z" />
    <glyph glyph-name="otilde" unicode="&#xf5;" horiz-adv-x="813" 
d="M229 1171l-63 41q54 125 141 125q46 0 102 -35.5t91 -35.5q26 0 45 19.5t39 60.5l63 -41q-55 -125 -141 -125q-44 0 -102 35.5t-93 35.5q-24 0 -41.5 -18.5t-40.5 -61.5zM408 -14q-158 0 -249 138t-91 368q0 229 91 366t249 137q157 0 247 -137t90 -366
q0 -231 -90 -368.5t-247 -137.5zM408 80q112 0 174.5 109.5t62.5 302.5t-62.5 301t-174.5 108t-176 -109t-64 -300q0 -192 64 -302t176 -110z" />
    <glyph glyph-name="odieresis" unicode="&#xf6;" horiz-adv-x="813" 
d="M215 1260q0 31 19.5 51t48.5 20t49 -20t20 -51q0 -30 -19.5 -50t-49.5 -20q-29 0 -48.5 19.5t-19.5 50.5zM461 1260q0 31 20 51t49 20q30 0 50 -20.5t20 -50.5t-20 -50t-50 -20q-29 0 -49 20.5t-20 49.5zM408 -14q-158 0 -249 138t-91 368q0 229 91 366t249 137
q157 0 247 -137t90 -366q0 -231 -90 -368.5t-247 -137.5zM408 80q112 0 174.5 109.5t62.5 302.5t-62.5 301t-174.5 108t-176 -109t-64 -300q0 -192 64 -302t176 -110z" />
    <glyph glyph-name="divide" unicode="&#xf7;" horiz-adv-x="755" 
d="M375 909q-31 0 -52.5 23t-21.5 55t21.5 55t52.5 23q33 0 55.5 -22.5t22.5 -55.5t-22.5 -55.5t-55.5 -22.5zM666 614h-576v93h576v-93zM375 256q-31 0 -52.5 22.5t-21.5 53.5q0 33 21.5 55.5t52.5 22.5q34 0 56 -22t22 -56q0 -31 -22.5 -53.5t-55.5 -22.5z" />
    <glyph glyph-name="oslash" unicode="&#xf8;" horiz-adv-x="813" 
d="M408 -14q-108 0 -187 67l-74 -139l-63 37l84 160q-100 136 -100 381q0 230 91 367.5t249 137.5q110 0 188 -69l72 139l63 -37l-84 -160q98 -137 98 -378q0 -230 -90 -368t-247 -138zM164 492q0 -178 55 -285l332 635q-58 61 -143 61q-116 0 -180 -109t-64 -302zM408 80
q115 0 179 109.5t64 302.5q0 176 -53 282l-332 -635q56 -59 142 -59z" />
    <glyph glyph-name="ugrave" unicode="&#xf9;" horiz-adv-x="798" 
d="M281 1376l161 -286h-92l-192 286h123zM199 981v-639q0 -128 50 -196t146 -68q100 0 152.5 67.5t52.5 196.5v639h98v-633q0 -174 -78 -268t-225 -94q-144 0 -220.5 94t-76.5 268v633h101z" />
    <glyph glyph-name="uacute" unicode="&#xfa;" horiz-adv-x="798" 
d="M520 1376h121l-192 -286h-91zM199 981v-639q0 -128 50 -196t146 -68q100 0 152.5 67.5t52.5 196.5v639h98v-633q0 -174 -78 -268t-225 -94q-144 0 -220.5 94t-76.5 268v633h101z" />
    <glyph glyph-name="ucircumflex" unicode="&#xfb;" horiz-adv-x="798" 
d="M260 1090h-90l178 286h103l178 -286h-90l-140 210zM199 981v-639q0 -128 50 -196t146 -68q100 0 152.5 67.5t52.5 196.5v639h98v-633q0 -174 -78 -268t-225 -94q-144 0 -220.5 94t-76.5 268v633h101z" />
    <glyph glyph-name="udieresis" unicode="&#xfc;" horiz-adv-x="798" 
d="M207 1260q0 31 19 51t48 20q30 0 50 -20.5t20 -50.5t-20 -50t-50 -20q-29 0 -48 19.5t-19 50.5zM453 1260q0 31 20 51t49 20q30 0 50 -20.5t20 -50.5t-20 -50t-50 -20q-29 0 -49 20.5t-20 49.5zM199 981v-639q0 -128 50 -196t146 -68q100 0 152.5 67.5t52.5 196.5v639h98
v-633q0 -174 -78 -268t-225 -94q-144 0 -220.5 94t-76.5 268v633h101z" />
    <glyph glyph-name="yacute" unicode="&#xfd;" horiz-adv-x="706" 
d="M477 1376h121l-192 -286h-91zM127 981l235 -834l224 834h96l-324 -1178q-33 -116 -80 -167.5t-124 -51.5q-70 0 -123 39l39 84q41 -33 88 -33q40 0 63.5 32t46.5 108l51 186l-296 981h104z" />
    <glyph glyph-name="thorn" unicode="&#xfe;" horiz-adv-x="876" 
d="M231 -401h-100v1810h100v-614q74 200 252 200q150 0 238 -137.5t88 -368.5t-88 -367t-238 -136q-178 0 -252 200v-587zM469 80q113 0 176.5 109t63.5 300q0 192 -63.5 302t-176.5 110q-112 0 -175 -110t-63 -302q0 -191 63 -300t175 -109z" />
    <glyph glyph-name="ydieresis" unicode="&#xff;" horiz-adv-x="706" 
d="M164 1260q0 31 19 51t48 20t49.5 -20.5t20.5 -50.5t-20 -50t-50 -20q-29 0 -48 19.5t-19 50.5zM410 1260q0 31 20 51t49 20t49.5 -20.5t20.5 -50.5t-20 -50t-50 -20q-29 0 -49 20.5t-20 49.5zM127 981l235 -834l224 834h96l-324 -1178q-33 -116 -80 -167.5t-124 -51.5
q-70 0 -123 39l39 84q41 -33 88 -33q40 0 63.5 32t46.5 108l51 186l-296 981h104z" />
    <glyph glyph-name="Amacron" unicode="&#x100;" horiz-adv-x="921" 
d="M655 1559h-389v86h389v-86zM788 0l-106 383h-451l-104 -383h-100l364 1313h139l367 -1313h-109zM258 475h399l-200 727z" />
    <glyph glyph-name="amacron" unicode="&#x101;" horiz-adv-x="878" 
d="M633 1227h-389v86h389v-86zM397 -14q-151 0 -240 137.5t-89 368.5q0 230 89 366.5t240 136.5q172 0 248 -192v178h103v-981h-103v178q-76 -192 -248 -192zM408 80q112 0 174.5 110t62.5 304q0 191 -62.5 299t-174.5 108q-113 0 -176.5 -108.5t-63.5 -298.5
q0 -191 64 -302.5t176 -111.5z" />
    <glyph glyph-name="Abreve" unicode="&#x102;" horiz-adv-x="921" 
d="M463 1401q-107 0 -164 72.5t-57 201.5h82q0 -92 35.5 -142t103.5 -50q139 0 139 192h82q0 -130 -56.5 -202t-164.5 -72zM788 0l-106 383h-451l-104 -383h-100l364 1313h139l367 -1313h-109zM258 475h399l-200 727z" />
    <glyph glyph-name="abreve" unicode="&#x103;" horiz-adv-x="878" 
d="M440 1069q-107 0 -164 72.5t-57 201.5h82q0 -92 35.5 -142t103.5 -50q140 0 140 192h82q0 -130 -56.5 -202t-165.5 -72zM397 -14q-151 0 -240 137.5t-89 368.5q0 230 89 366.5t240 136.5q172 0 248 -192v178h103v-981h-103v178q-76 -192 -248 -192zM408 80
q112 0 174.5 110t62.5 304q0 191 -62.5 299t-174.5 108q-113 0 -176.5 -108.5t-63.5 -298.5q0 -191 64 -302.5t176 -111.5z" />
    <glyph glyph-name="Aogonek" unicode="&#x104;" horiz-adv-x="921" 
d="M788 0l-106 383h-451l-104 -383h-100l364 1313h139l367 -1313h-2q-154 -127 -154 -240q0 -37 20 -58t54 -21q41 0 80 34l41 -57q-50 -59 -133 -59q-65 0 -108.5 42t-43.5 105q0 132 144 254h-7zM258 475h399l-200 727z" />
    <glyph glyph-name="aogonek" unicode="&#x105;" horiz-adv-x="878" 
d="M397 -14q-151 0 -240 137.5t-89 368.5q0 230 89 366.5t240 136.5q172 0 248 -192v178h103v-981h-3q-153 -126 -153 -240q0 -37 20 -58t54 -21q40 0 79 34l41 -57q-50 -59 -133 -59q-65 0 -108 42t-43 105q0 133 143 254v178q-76 -192 -248 -192zM408 80q112 0 174.5 110
t62.5 304q0 191 -62.5 299t-174.5 108q-113 0 -176.5 -108.5t-63.5 -298.5q0 -191 64 -302.5t176 -111.5z" />
    <glyph glyph-name="Cacute" unicode="&#x106;" horiz-adv-x="835" 
d="M637 1708h121l-193 -287h-90zM518 -14q-204 0 -320 177t-116 492t115.5 493.5t318.5 178.5q88 0 152.5 -24.5t126.5 -77.5l-52 -82q-53 46 -104.5 68t-118.5 22q-158 0 -246 -151.5t-88 -426.5t88.5 -425t249.5 -150q64 0 115 22t104 68l52 -82q-63 -54 -127 -78
t-150 -24z" />
    <glyph glyph-name="cacute" unicode="&#x107;" horiz-adv-x="679" 
d="M530 1376h121l-192 -286h-90zM408 -14q-155 0 -247.5 138t-92.5 368t92.5 366.5t249.5 136.5q140 0 231 -98l-51 -80q-75 84 -178 84q-115 0 -179.5 -109t-64.5 -300t65 -301.5t177 -110.5q108 0 180 84l51 -80q-48 -51 -103 -74.5t-130 -23.5z" />
    <glyph glyph-name="Ccircumflex" unicode="&#x108;" horiz-adv-x="835" 
d="M377 1421h-90l178 287h102l178 -287h-90l-139 211zM518 -14q-204 0 -320 177t-116 492t115.5 493.5t318.5 178.5q88 0 152.5 -24.5t126.5 -77.5l-52 -82q-53 46 -104.5 68t-118.5 22q-158 0 -246 -151.5t-88 -426.5t88.5 -425t249.5 -150q64 0 115 22t104 68l52 -82
q-63 -54 -127 -78t-150 -24z" />
    <glyph glyph-name="ccircumflex" unicode="&#x109;" horiz-adv-x="679" 
d="M272 1090h-90l178 286h103l178 -286h-90l-139 210zM408 -14q-155 0 -247.5 138t-92.5 368t92.5 366.5t249.5 136.5q140 0 231 -98l-51 -80q-75 84 -178 84q-115 0 -179.5 -109t-64.5 -300t65 -301.5t177 -110.5q108 0 180 84l51 -80q-48 -51 -103 -74.5t-130 -23.5z" />
    <glyph glyph-name="Cdotaccent" unicode="&#x10a;" horiz-adv-x="835" 
d="M516 1520q-31 0 -51.5 21t-20.5 52q0 30 21 51t51 21q31 0 52.5 -20.5t21.5 -51.5t-21.5 -52t-52.5 -21zM518 -14q-204 0 -320 177t-116 492t115.5 493.5t318.5 178.5q88 0 152.5 -24.5t126.5 -77.5l-52 -82q-53 46 -104.5 68t-118.5 22q-158 0 -246 -151.5t-88 -426.5
t88.5 -425t249.5 -150q64 0 115 22t104 68l52 -82q-63 -54 -127 -78t-150 -24z" />
    <glyph glyph-name="cdotaccent" unicode="&#x10b;" horiz-adv-x="679" 
d="M412 1188q-31 0 -51.5 21.5t-20.5 52.5q0 30 21 50.5t51 20.5q31 0 52 -20t21 -51t-21 -52.5t-52 -21.5zM408 -14q-155 0 -247.5 138t-92.5 368t92.5 366.5t249.5 136.5q140 0 231 -98l-51 -80q-75 84 -178 84q-115 0 -179.5 -109t-64.5 -300t65 -301.5t177 -110.5
q108 0 180 84l51 -80q-48 -51 -103 -74.5t-130 -23.5z" />
    <glyph glyph-name="Ccaron" unicode="&#x10c;" horiz-adv-x="835" 
d="M567 1421h-102l-178 287h90l139 -211l139 211h90zM518 -14q-204 0 -320 177t-116 492t115.5 493.5t318.5 178.5q88 0 152.5 -24.5t126.5 -77.5l-52 -82q-53 46 -104.5 68t-118.5 22q-158 0 -246 -151.5t-88 -426.5t88.5 -425t249.5 -150q64 0 115 22t104 68l52 -82
q-63 -54 -127 -78t-150 -24z" />
    <glyph glyph-name="ccaron" unicode="&#x10d;" horiz-adv-x="679" 
d="M463 1090h-103l-178 286h90l140 -211l139 211h90zM408 -14q-155 0 -247.5 138t-92.5 368t92.5 366.5t249.5 136.5q140 0 231 -98l-51 -80q-75 84 -178 84q-115 0 -179.5 -109t-64.5 -300t65 -301.5t177 -110.5q108 0 180 84l51 -80q-48 -51 -103 -74.5t-130 -23.5z" />
    <glyph glyph-name="Dcaron" unicode="&#x10e;" horiz-adv-x="976" 
d="M498 1421h-103l-178 287h90l139 -211l140 211h90zM137 0v1313h264q243 0 367.5 -176.5t124.5 -481.5q0 -303 -123 -479t-362 -176h-271zM408 1219h-170v-1125h170q195 0 289 149t94 412q0 173 -38.5 296.5t-126 195.5t-218.5 72z" />
    <glyph glyph-name="dcaron" unicode="&#x10f;" horiz-adv-x="876" 
d="M393 -14q-150 0 -237.5 137.5t-87.5 368.5t87.5 367t237.5 136q178 0 252 -200v614h100v-1409h-100v186q-74 -200 -252 -200zM952 1409l-67 -319h-78l41 319h104zM408 80q112 0 174.5 110t62.5 302q0 191 -62.5 300t-174.5 109q-113 0 -176.5 -109t-63.5 -300
q0 -192 63.5 -302t176.5 -110z" />
    <glyph glyph-name="Dcroat" unicode="&#x110;" horiz-adv-x="976" 
d="M408 0h-271v610h-98v90h98v613h264q243 0 367.5 -176.5t124.5 -481.5q0 -303 -123 -479t-362 -176zM459 610h-221v-516h170q195 0 289 149t94 412q0 173 -38.5 296.5t-126 195.5t-218.5 72h-170v-519h221v-90z" />
    <glyph glyph-name="dcroat" unicode="&#x111;" horiz-adv-x="876" 
d="M393 -14q-150 0 -237.5 137.5t-87.5 368.5t87.5 367t237.5 136q178 0 252 -200v395h-178v84h178v135h100v-135h117v-84h-117v-1190h-100v186q-74 -200 -252 -200zM408 80q112 0 174.5 110t62.5 302q0 191 -62.5 300t-174.5 109q-113 0 -176.5 -109t-63.5 -300
q0 -192 63.5 -302t176.5 -110z" />
    <glyph glyph-name="Emacron" unicode="&#x112;" horiz-adv-x="786" 
d="M625 1559h-389v86h389v-86zM137 0v1313h592v-94h-491v-514h434v-95h-434v-516h491v-94h-592z" />
    <glyph glyph-name="emacron" unicode="&#x113;" horiz-adv-x="786" 
d="M596 1227h-389v86h389v-86zM432 -14q-170 0 -267 135t-97 371q0 228 90 365.5t243 137.5q145 0 231.5 -125t86.5 -325q0 -37 -2 -53h-549q0 -201 69.5 -308.5t198.5 -107.5q111 0 187 88l51 -76q-102 -102 -242 -102zM399 905q-97 0 -157 -89.5t-72 -246.5h448
q-8 156 -65.5 246t-153.5 90z" />
    <glyph glyph-name="Ebreve" unicode="&#x114;" horiz-adv-x="786" 
d="M430 1401q-107 0 -164 72.5t-57 201.5h82q0 -92 35.5 -142t103.5 -50q139 0 139 192h82q0 -130 -56.5 -202t-164.5 -72zM137 0v1313h592v-94h-491v-514h434v-95h-434v-516h491v-94h-592z" />
    <glyph glyph-name="ebreve" unicode="&#x115;" horiz-adv-x="786" 
d="M401 1069q-107 0 -164 72.5t-57 201.5h82q0 -92 35.5 -142t103.5 -50q140 0 140 192h82q0 -130 -56.5 -202t-165.5 -72zM432 -14q-170 0 -267 135t-97 371q0 228 90 365.5t243 137.5q145 0 231.5 -125t86.5 -325q0 -37 -2 -53h-549q0 -201 69.5 -308.5t198.5 -107.5
q111 0 187 88l51 -76q-102 -102 -242 -102zM399 905q-97 0 -157 -89.5t-72 -246.5h448q-8 156 -65.5 246t-153.5 90z" />
    <glyph glyph-name="Edotaccent" unicode="&#x116;" horiz-adv-x="786" 
d="M430 1520q-31 0 -51.5 21t-20.5 52q0 30 21 51t51 21q31 0 52.5 -20.5t21.5 -51.5t-21.5 -52t-52.5 -21zM137 0v1313h592v-94h-491v-514h434v-95h-434v-516h491v-94h-592z" />
    <glyph glyph-name="edotaccent" unicode="&#x117;" horiz-adv-x="786" 
d="M401 1188q-30 0 -50.5 21.5t-20.5 52.5q0 30 20.5 50.5t50.5 20.5q31 0 52.5 -20.5t21.5 -50.5q0 -31 -21.5 -52.5t-52.5 -21.5zM432 -14q-170 0 -267 135t-97 371q0 228 90 365.5t243 137.5q145 0 231.5 -125t86.5 -325q0 -37 -2 -53h-549q0 -201 69.5 -308.5
t198.5 -107.5q111 0 187 88l51 -76q-102 -102 -242 -102zM399 905q-97 0 -157 -89.5t-72 -246.5h448q-8 156 -65.5 246t-153.5 90z" />
    <glyph glyph-name="Eogonek" unicode="&#x118;" horiz-adv-x="786" 
d="M137 0v1313h592v-94h-491v-514h434v-95h-434v-516h491v-94h-2q-154 -127 -154 -240q0 -37 20 -58t54 -21q41 0 80 34l41 -57q-50 -59 -133 -59q-65 0 -108.5 42t-43.5 105q0 132 144 254h-490z" />
    <glyph glyph-name="eogonek" unicode="&#x119;" horiz-adv-x="786" 
d="M438 -401q-65 0 -108 42t-43 105q0 125 127 240q-162 8 -254 142t-92 364q0 228 90 365.5t243 137.5q145 0 231.5 -125t86.5 -325q0 -37 -2 -53h-549q0 -201 69.5 -308.5t198.5 -107.5q111 0 187 88l51 -76q-64 -64 -144 -88q-153 -126 -153 -240q0 -37 20 -58t54 -21
q40 0 79 34l41 -57q-50 -59 -133 -59zM399 905q-97 0 -157 -89.5t-72 -246.5h448q-8 156 -65.5 246t-153.5 90z" />
    <glyph glyph-name="Ecaron" unicode="&#x11a;" horiz-adv-x="786" 
d="M481 1421h-102l-178 287h90l139 -211l139 211h90zM137 0v1313h592v-94h-491v-514h434v-95h-434v-516h491v-94h-592z" />
    <glyph glyph-name="ecaron" unicode="&#x11b;" horiz-adv-x="786" 
d="M453 1090h-103l-178 286h90l139 -211l140 211h90zM432 -14q-170 0 -267 135t-97 371q0 228 90 365.5t243 137.5q145 0 231.5 -125t86.5 -325q0 -37 -2 -53h-549q0 -201 69.5 -308.5t198.5 -107.5q111 0 187 88l51 -76q-102 -102 -242 -102zM399 905q-97 0 -157 -89.5
t-72 -246.5h448q-8 156 -65.5 246t-153.5 90z" />
    <glyph glyph-name="Gcircumflex" unicode="&#x11c;" horiz-adv-x="944" 
d="M397 1421h-90l178 287h103l178 -287h-90l-139 211zM543 -14q-222 0 -341.5 173.5t-119.5 495.5q0 319 121.5 495.5t335.5 176.5q89 0 156 -24t132 -78l-51 -82q-56 48 -110.5 69t-124.5 21q-171 0 -263 -149.5t-92 -428.5q0 -282 91.5 -428.5t273.5 -146.5q115 0 194 53
v445h-245v92h342v-582q-117 -102 -299 -102z" />
    <glyph glyph-name="gcircumflex" unicode="&#x11d;" horiz-adv-x="876" 
d="M299 1090h-90l178 286h102l179 -286h-90l-140 210zM391 -6q-149 0 -236 136t-87 366q0 229 87 364t236 135q180 0 254 -200v186h100v-1018q0 -182 -91 -280.5t-253 -98.5q-174 0 -290 113l53 78q101 -101 235 -101q121 0 183.5 71t62.5 206v246q-74 -203 -254 -203z
M408 90q112 0 174.5 108.5t62.5 297.5q0 190 -62.5 298.5t-174.5 108.5t-176 -109t-64 -298t64 -297.5t176 -108.5z" />
    <glyph glyph-name="Gbreve" unicode="&#x11e;" horiz-adv-x="944" 
d="M537 1401q-107 0 -164.5 72.5t-57.5 201.5h82q0 -92 36 -142t104 -50q139 0 139 192h82q0 -130 -56.5 -202t-164.5 -72zM543 -14q-222 0 -341.5 173.5t-119.5 495.5q0 319 121.5 495.5t335.5 176.5q89 0 156 -24t132 -78l-51 -82q-56 48 -110.5 69t-124.5 21
q-171 0 -263 -149.5t-92 -428.5q0 -282 91.5 -428.5t273.5 -146.5q115 0 194 53v445h-245v92h342v-582q-117 -102 -299 -102z" />
    <glyph glyph-name="gbreve" unicode="&#x11f;" horiz-adv-x="876" 
d="M438 1069q-107 0 -164 72.5t-57 201.5h82q0 -92 35.5 -142t103.5 -50q140 0 140 192h81q0 -130 -56.5 -202t-164.5 -72zM391 -6q-149 0 -236 136t-87 366q0 229 87 364t236 135q180 0 254 -200v186h100v-1018q0 -182 -91 -280.5t-253 -98.5q-174 0 -290 113l53 78
q101 -101 235 -101q121 0 183.5 71t62.5 206v246q-74 -203 -254 -203zM408 90q112 0 174.5 108.5t62.5 297.5q0 190 -62.5 298.5t-174.5 108.5t-176 -109t-64 -298t64 -297.5t176 -108.5z" />
    <glyph glyph-name="Gdotaccent" unicode="&#x120;" horiz-adv-x="944" 
d="M537 1520q-31 0 -51.5 21t-20.5 52q0 30 21 51t51 21q31 0 52 -20.5t21 -51.5t-21 -52t-52 -21zM543 -14q-222 0 -341.5 173.5t-119.5 495.5q0 319 121.5 495.5t335.5 176.5q89 0 156 -24t132 -78l-51 -82q-56 48 -110.5 69t-124.5 21q-171 0 -263 -149.5t-92 -428.5
q0 -282 91.5 -428.5t273.5 -146.5q115 0 194 53v445h-245v92h342v-582q-117 -102 -299 -102z" />
    <glyph glyph-name="gdotaccent" unicode="&#x121;" horiz-adv-x="876" 
d="M438 1188q-30 0 -50.5 21.5t-20.5 52.5q0 30 20.5 50.5t50.5 20.5q31 0 52.5 -20.5t21.5 -50.5q0 -31 -21.5 -52.5t-52.5 -21.5zM391 -6q-149 0 -236 136t-87 366q0 229 87 364t236 135q180 0 254 -200v186h100v-1018q0 -182 -91 -280.5t-253 -98.5q-174 0 -290 113
l53 78q101 -101 235 -101q121 0 183.5 71t62.5 206v246q-74 -203 -254 -203zM408 90q112 0 174.5 108.5t62.5 297.5q0 190 -62.5 298.5t-174.5 108.5t-176 -109t-64 -298t64 -297.5t176 -108.5z" />
    <glyph glyph-name="Gcommaaccent" unicode="&#x122;" horiz-adv-x="944" 
d="M543 -14q-222 0 -341.5 173.5t-119.5 495.5q0 319 121.5 495.5t335.5 176.5q89 0 156 -24t132 -78l-51 -82q-56 48 -110.5 69t-124.5 21q-171 0 -263 -149.5t-92 -428.5q0 -282 91.5 -428.5t273.5 -146.5q115 0 194 53v445h-245v92h342v-582q-117 -102 -299 -102z
M590 -104l-107 -275h-82l74 275h115z" />
    <glyph glyph-name="gcommaaccent" unicode="&#x123;" horiz-adv-x="876" 
d="M379 1102l106 274h80l-73 -274h-113zM391 -6q-149 0 -236 136t-87 366q0 229 87 364t236 135q180 0 254 -200v186h100v-1018q0 -182 -91 -280.5t-253 -98.5q-174 0 -290 113l53 78q101 -101 235 -101q121 0 183.5 71t62.5 206v246q-74 -203 -254 -203zM408 90
q112 0 174.5 108.5t62.5 297.5q0 190 -62.5 298.5t-174.5 108.5t-176 -109t-64 -298t64 -297.5t176 -108.5z" />
    <glyph glyph-name="Hcircumflex" unicode="&#x124;" horiz-adv-x="1011" 
d="M369 1421h-90l178 287h102l178 -287h-90l-139 211zM774 0v612h-536v-612h-101v1313h101v-606h536v606h100v-1313h-100z" />
    <glyph glyph-name="hcircumflex" unicode="&#x125;" horiz-adv-x="839" 
d="M39 1518h-90l178 286h102l179 -286h-91l-139 211zM231 0h-100v1409h100v-561q36 70 97.5 108.5t138.5 38.5q130 0 201 -85.5t71 -239.5v-670h-98v651q0 124 -50 188t-147 64q-98 0 -155.5 -73t-57.5 -199v-631z" />
    <glyph glyph-name="Hbar" unicode="&#x126;" horiz-adv-x="1011" 
d="M774 0v608h-536v-608h-101v995h-98v86h98v232h101v-232h536v232h100v-232h99v-86h-99v-995h-100zM238 702h536v293h-536v-293z" />
    <glyph glyph-name="hbar" unicode="&#x127;" horiz-adv-x="839" 
d="M231 0h-100v1190h-117v84h117v135h100v-135h179v-84h-179v-342q36 70 97.5 108.5t138.5 38.5q130 0 201 -85.5t71 -239.5v-670h-98v651q0 124 -50 188t-147 64q-98 0 -155.5 -73t-57.5 -199v-631z" />
    <glyph glyph-name="Itilde" unicode="&#x128;" horiz-adv-x="374" 
d="M10 1503l-63 41q54 125 141 125q46 0 102 -36t91 -36q26 0 45 19.5t39 60.5l63 -41q-55 -125 -141 -125q-45 0 -102 36t-93 36q-24 0 -41.5 -18.5t-40.5 -61.5zM137 0v1313h101v-1313h-101z" />
    <glyph glyph-name="itilde" unicode="&#x129;" horiz-adv-x="362" 
d="M4 1171l-63 41q54 125 141 125q46 0 101.5 -35.5t90.5 -35.5q26 0 45 19.5t39 60.5l64 -41q-55 -125 -141 -125q-45 0 -102 35.5t-93 35.5q-24 0 -41.5 -18.5t-40.5 -61.5zM231 981v-981h-100v981h100z" />
    <glyph glyph-name="Imacron" unicode="&#x12a;" horiz-adv-x="374" 
d="M381 1559h-389v86h389v-86zM137 0v1313h101v-1313h-101z" />
    <glyph glyph-name="imacron" unicode="&#x12b;" horiz-adv-x="362" 
d="M375 1227h-389v86h389v-86zM231 981v-981h-100v981h100z" />
    <glyph glyph-name="Ibreve" unicode="&#x12c;" horiz-adv-x="374" 
d="M188 1401q-107 0 -164 72.5t-57 201.5h82q0 -92 35.5 -142t103.5 -50q140 0 140 192h82q0 -130 -56.5 -202t-165.5 -72zM137 0v1313h101v-1313h-101z" />
    <glyph glyph-name="ibreve" unicode="&#x12d;" horiz-adv-x="362" 
d="M180 1069q-107 0 -164 72.5t-57 201.5h82q0 -92 35.5 -142t103.5 -50q139 0 139 192h82q0 -130 -56.5 -202t-164.5 -72zM231 981v-981h-100v981h100z" />
    <glyph glyph-name="Iogonek" unicode="&#x12e;" horiz-adv-x="374" 
d="M137 0v1313h101v-1313q-154 -127 -154 -240q0 -37 20 -58t54 -21q41 0 80 34l41 -57q-50 -59 -134 -59q-65 0 -108 42t-43 105q0 133 143 254z" />
    <glyph glyph-name="iogonek" unicode="&#x12f;" horiz-adv-x="362" 
d="M180 1188q-30 0 -50.5 21.5t-20.5 52.5q0 30 20.5 50.5t50.5 20.5q31 0 52.5 -20.5t21.5 -50.5q0 -31 -21.5 -52.5t-52.5 -21.5zM137 -401q-65 0 -108 42t-43 105q0 130 145 256v979h100v-981h-2q-153 -126 -153 -240q0 -37 20 -58t54 -21q40 0 79 34l41 -57
q-50 -59 -133 -59z" />
    <glyph glyph-name="Idotaccent" unicode="&#x130;" horiz-adv-x="374" 
d="M188 1520q-31 0 -51 21t-20 52t20.5 51.5t50.5 20.5q31 0 52.5 -20.5t21.5 -51.5t-21.5 -52t-52.5 -21zM137 0v1313h101v-1313h-101z" />
    <glyph glyph-name="idotless" unicode="&#x131;" horiz-adv-x="362" 
d="M231 981v-981h-100v981h100z" />
    <glyph glyph-name="IJ" unicode="&#x132;" horiz-adv-x="983" 
d="M137 0v1313h101v-1313h-101zM399 61l45 84q77 -65 162 -65q74 0 115 46.5t41 133.5v1053h100v-1051q0 -134 -68 -205t-182 -71q-126 0 -213 75z" />
    <glyph glyph-name="ij" unicode="&#x133;" horiz-adv-x="729" 
d="M180 1196q-30 0 -50.5 21.5t-20.5 52.5q0 30 20.5 50.5t50.5 20.5q32 0 54 -20t22 -51t-22.5 -52.5t-53.5 -21.5zM547 1196q-31 0 -51.5 21.5t-20.5 52.5q0 30 21 50.5t51 20.5q31 0 52.5 -20.5t21.5 -50.5q0 -31 -21.5 -52.5t-52.5 -21.5zM231 0h-100v981h100v-981z
M410 -416q-80 0 -136 47l50 78q37 -37 82 -37q90 0 90 148v1161h100v-1147q0 -122 -47.5 -186t-138.5 -64z" />
    <glyph glyph-name="Jcircumflex" unicode="&#x134;" horiz-adv-x="608" 
d="M297 1421h-90l178 287h102l179 -287h-91l-139 211zM25 61l45 84q77 -65 161 -65q74 0 115 46.5t41 133.5v1053h100v-1051q0 -134 -67.5 -205t-181.5 -71q-126 0 -213 75z" />
    <glyph glyph-name="jcircumflex" unicode="&#x135;" horiz-adv-x="364" 
d="M47 1090h-90l178 286h103l178 -286h-90l-140 210zM47 -416q-73 0 -127 45l43 76q39 -33 82 -33t66.5 38t23.5 110v1161h98v-1147q0 -122 -47.5 -186t-138.5 -64z" />
    <glyph glyph-name="Kcommaaccent" unicode="&#x136;" horiz-adv-x="833" 
d="M238 0h-101v1313h101v-651l446 651h111l-453 -660l469 -653h-117l-456 633v-633zM512 -104l-106 -275h-82l73 275h115z" />
    <glyph glyph-name="kcommaaccent" unicode="&#x137;" horiz-adv-x="739" 
d="M231 0h-100v1409h100v-877l365 449h113l-377 -467l391 -514h-121l-371 485v-485zM465 -104l-107 -275h-82l74 275h115z" />
    <glyph glyph-name="Lacute" unicode="&#x139;" horiz-adv-x="747" 
d="M307 1708h121l-192 -287h-91zM137 0v1313h101v-1219h475v-94h-576z" />
    <glyph glyph-name="lacute" unicode="&#x13a;" horiz-adv-x="380" 
d="M305 1804h121l-193 -286h-90zM281 -14q-65 0 -107.5 46t-42.5 132v1245h100v-1245q0 -43 18 -65.5t48 -22.5q26 0 45 8l14 -84q-32 -14 -75 -14z" />
    <glyph glyph-name="Lcommaaccent" unicode="&#x13b;" horiz-adv-x="747" 
d="M137 0v1313h101v-1219h475v-94h-576zM487 -104l-106 -275h-82l74 275h114z" />
    <glyph glyph-name="lcommaaccent" unicode="&#x13c;" horiz-adv-x="380" 
d="M281 -14q-65 0 -107.5 46t-42.5 132v1245h100v-1245q0 -43 18 -65.5t48 -22.5q26 0 45 8l14 -84q-32 -14 -75 -14zM328 -104l-107 -275h-82l74 275h115z" />
    <glyph glyph-name="Lcaron" unicode="&#x13d;" horiz-adv-x="747" 
d="M137 0v1313h101v-1219h475v-94h-576zM477 1313l-67 -320h-78l41 320h104z" />
    <glyph glyph-name="lcaron" unicode="&#x13e;" horiz-adv-x="380" 
d="M281 -14q-65 0 -107.5 46t-42.5 132v1245h100v-1245q0 -43 18 -65.5t48 -22.5q26 0 45 8l14 -84q-32 -14 -75 -14zM438 1409l-67 -319h-78l41 319h104z" />
    <glyph glyph-name="Ldot" unicode="&#x13f;" horiz-adv-x="757" 
d="M137 0v1313h101v-1219h475v-94h-576zM524 627q-15 17 -12 40.5t20 37.5q19 15 42 12t38 -21q15 -19 12.5 -41t-20.5 -37q-19 -15 -42 -12.5t-38 21.5z" />
    <glyph glyph-name="ldot" unicode="&#x140;" horiz-adv-x="436" 
d="M281 -14q-65 0 -107.5 46t-42.5 132v1245h100v-1245q0 -43 18 -65.5t48 -22.5q26 0 45 8l14 -84q-32 -14 -75 -14zM358 602q-15 18 -12 41t21 37q19 15 41.5 12.5t37.5 -20.5q15 -19 12.5 -41t-20.5 -37q-19 -15 -42 -13t-38 21z" />
    <glyph glyph-name="Lslash" unicode="&#x141;" horiz-adv-x="747" 
d="M137 0v571l-98 -30v92l98 31v649h101v-617l184 58v-92l-184 -58v-510h475v-94h-576z" />
    <glyph glyph-name="lslash" unicode="&#x142;" horiz-adv-x="380" 
d="M281 -14q-65 0 -107.5 46t-42.5 132v518l-90 -39v94l90 41v631h100v-588l109 49v-96l-109 -47v-563q0 -43 18 -65.5t48 -22.5q26 0 45 8l14 -84q-32 -14 -75 -14z" />
    <glyph glyph-name="Nacute" unicode="&#x143;" horiz-adv-x="1011" 
d="M631 1708h121l-193 -287h-90zM741 0l-505 1157v-1157h-99v1313h133l506 -1159v1159h98v-1313h-133z" />
    <glyph glyph-name="nacute" unicode="&#x144;" horiz-adv-x="839" 
d="M567 1376h121l-192 -286h-90zM231 0h-100v981h100v-133q36 70 97.5 108.5t138.5 38.5q129 0 200.5 -85.5t71.5 -239.5v-670h-98v651q0 124 -50 188t-147 64q-98 0 -155.5 -73t-57.5 -199v-631z" />
    <glyph glyph-name="Ncommaaccent" unicode="&#x145;" horiz-adv-x="1011" 
d="M741 0l-505 1157v-1157h-99v1313h133l506 -1159v1159h98v-1313h-133zM569 -104l-106 -275h-82l74 275h114z" />
    <glyph glyph-name="ncommaaccent" unicode="&#x146;" horiz-adv-x="839" 
d="M231 0h-100v981h100v-133q36 70 97.5 108.5t138.5 38.5q129 0 200.5 -85.5t71.5 -239.5v-670h-98v651q0 124 -50 188t-147 64q-98 0 -155.5 -73t-57.5 -199v-631zM500 -104l-107 -275h-82l74 275h115z" />
    <glyph glyph-name="Ncaron" unicode="&#x147;" horiz-adv-x="1011" 
d="M563 1421h-102l-178 287h90l139 -211l139 211h90zM741 0l-505 1157v-1157h-99v1313h133l506 -1159v1159h98v-1313h-133z" />
    <glyph glyph-name="ncaron" unicode="&#x148;" horiz-adv-x="839" 
d="M498 1090h-103l-178 286h90l139 -211l140 211h90zM231 0h-100v981h100v-133q36 70 97.5 108.5t138.5 38.5q129 0 200.5 -85.5t71.5 -239.5v-670h-98v651q0 124 -50 188t-147 64q-98 0 -155.5 -73t-57.5 -199v-631z" />
    <glyph glyph-name="Omacron" unicode="&#x14c;" horiz-adv-x="997" 
d="M692 1559h-389v86h389v-86zM500 1327q200 0 307.5 -177t107.5 -497q0 -318 -107.5 -492.5t-307.5 -174.5t-309 175.5t-109 491.5q0 319 109 496.5t309 177.5zM500 80q151 0 231 149t80 424q0 277 -80 428.5t-231 151.5q-153 0 -233.5 -150t-80.5 -430q0 -275 80.5 -424
t233.5 -149z" />
    <glyph glyph-name="omacron" unicode="&#x14d;" horiz-adv-x="813" 
d="M600 1227h-389v86h389v-86zM408 -14q-158 0 -249 138t-91 368q0 229 91 366t249 137q157 0 247 -137t90 -366q0 -231 -90 -368.5t-247 -137.5zM408 80q112 0 174.5 109.5t62.5 302.5t-62.5 301t-174.5 108t-176 -109t-64 -300q0 -192 64 -302t176 -110z" />
    <glyph glyph-name="Obreve" unicode="&#x14e;" horiz-adv-x="997" 
d="M498 1401q-107 0 -164.5 72.5t-57.5 201.5h82q0 -92 36 -142t104 -50q139 0 139 192h82q0 -130 -56.5 -202t-164.5 -72zM500 1327q200 0 307.5 -177t107.5 -497q0 -318 -107.5 -492.5t-307.5 -174.5t-309 175.5t-109 491.5q0 319 109 496.5t309 177.5zM500 80
q151 0 231 149t80 424q0 277 -80 428.5t-231 151.5q-153 0 -233.5 -150t-80.5 -430q0 -275 80.5 -424t233.5 -149z" />
    <glyph glyph-name="obreve" unicode="&#x14f;" horiz-adv-x="813" 
d="M408 1069q-107 0 -164.5 72.5t-57.5 201.5h82q0 -92 36 -142t104 -50q139 0 139 192h82q0 -130 -56.5 -202t-164.5 -72zM408 -14q-158 0 -249 138t-91 368q0 229 91 366t249 137q157 0 247 -137t90 -366q0 -231 -90 -368.5t-247 -137.5zM408 80q112 0 174.5 109.5
t62.5 302.5t-62.5 301t-174.5 108t-176 -109t-64 -300q0 -192 64 -302t176 -110z" />
    <glyph glyph-name="Ohungarumlaut" unicode="&#x150;" horiz-adv-x="997" 
d="M453 1708h110l-180 -287h-80zM713 1708h114l-184 -287h-80zM500 1327q200 0 307.5 -177t107.5 -497q0 -318 -107.5 -492.5t-307.5 -174.5t-309 175.5t-109 491.5q0 319 109 496.5t309 177.5zM500 80q151 0 231 149t80 424q0 277 -80 428.5t-231 151.5q-153 0 -233.5 -150
t-80.5 -430q0 -275 80.5 -424t233.5 -149z" />
    <glyph glyph-name="ohungarumlaut" unicode="&#x151;" horiz-adv-x="813" 
d="M360 1376h111l-180 -286h-80zM621 1376h114l-184 -286h-80zM408 -14q-158 0 -249 138t-91 368q0 229 91 366t249 137q157 0 247 -137t90 -366q0 -231 -90 -368.5t-247 -137.5zM408 80q112 0 174.5 109.5t62.5 302.5t-62.5 301t-174.5 108t-176 -109t-64 -300
q0 -192 64 -302t176 -110z" />
    <glyph glyph-name="OE" unicode="&#x152;" horiz-adv-x="1462" 
d="M496 -14q-198 0 -306 176t-108 491q0 319 108 496.5t306 177.5q218 0 315 -233v219h592v-94h-490v-514h433v-95h-433v-516h490v-94h-592v217q-97 -231 -315 -231zM500 80q152 0 231.5 149.5t79.5 423.5q0 277 -79.5 428.5t-231.5 151.5q-153 0 -233.5 -150.5
t-80.5 -429.5q0 -275 80.5 -424t233.5 -149z" />
    <glyph glyph-name="oe" unicode="&#x153;" horiz-adv-x="1353" 
d="M408 -14q-158 0 -249 138t-91 368q0 229 91 366t249 137q100 0 171.5 -61.5t110.5 -175.5q37 114 108.5 175.5t172.5 61.5q144 0 229.5 -124.5t85.5 -325.5v-53h-551q0 -201 70 -308.5t199 -107.5q113 0 186 88l53 -76q-105 -102 -242 -102q-229 0 -311 239
q-37 -114 -109.5 -176.5t-172.5 -62.5zM969 905q-98 0 -159 -90t-73 -246h449q-8 156 -65 246t-152 90zM408 80q112 0 174.5 109.5t62.5 302.5t-62.5 301t-174.5 108t-176 -109t-64 -300q0 -192 64 -302t176 -110z" />
    <glyph glyph-name="Racute" unicode="&#x154;" horiz-adv-x="874" 
d="M557 1708h121l-193 -287h-90zM137 0v1313h316q157 0 253.5 -103t96.5 -268q0 -142 -72 -241.5t-194 -125.5l256 -575h-109l-252 565h-194v-565h-101zM451 1219h-213v-560h213q113 0 180 78t67 205q0 126 -66.5 201.5t-180.5 75.5z" />
    <glyph glyph-name="racute" unicode="&#x155;" horiz-adv-x="522" 
d="M420 1376h121l-193 -286h-90zM131 0v981h100v-111q61 125 172 125q52 0 93 -20l-21 -96q-35 16 -80 16q-75 0 -119.5 -67.5t-44.5 -178.5v-649h-100z" />
    <glyph glyph-name="Rcommaaccent" unicode="&#x156;" horiz-adv-x="874" 
d="M137 0v1313h316q157 0 253.5 -103t96.5 -268q0 -142 -72 -241.5t-194 -125.5l256 -575h-109l-252 565h-194v-565h-101zM451 1219h-213v-560h213q113 0 180 78t67 205q0 126 -66.5 201.5t-180.5 75.5zM500 -104l-107 -275h-82l74 275h115z" />
    <glyph glyph-name="rcommaaccent" unicode="&#x157;" horiz-adv-x="522" 
d="M131 0v981h100v-111q61 125 172 125q52 0 93 -20l-21 -96q-35 16 -80 16q-75 0 -119.5 -67.5t-44.5 -178.5v-649h-100zM240 -104l-107 -275h-82l74 275h115z" />
    <glyph glyph-name="Rcaron" unicode="&#x158;" horiz-adv-x="874" 
d="M487 1421h-102l-178 287h90l139 -211l139 211h91zM137 0v1313h316q157 0 253.5 -103t96.5 -268q0 -142 -72 -241.5t-194 -125.5l256 -575h-109l-252 565h-194v-565h-101zM451 1219h-213v-560h213q113 0 180 78t67 205q0 126 -66.5 201.5t-180.5 75.5z" />
    <glyph glyph-name="rcaron" unicode="&#x159;" horiz-adv-x="522" 
d="M352 1090h-102l-178 286h90l139 -211l139 211h90zM131 0v981h100v-111q61 125 172 125q52 0 93 -20l-21 -96q-35 16 -80 16q-75 0 -119.5 -67.5t-44.5 -178.5v-649h-100z" />
    <glyph glyph-name="Sacute" unicode="&#x15a;" horiz-adv-x="782" 
d="M530 1708h121l-192 -287h-90zM385 -14q-191 0 -324 116l45 86q119 -108 277 -108q102 0 168.5 62.5t66.5 160.5q0 46 -13.5 86t-31.5 67t-54.5 57.5t-62 47.5t-75.5 47q-56 34 -90 57t-77.5 61.5t-67.5 76t-41 92.5t-17 119q0 136 92.5 224.5t237.5 88.5q152 0 264 -82
l-51 -82q-84 70 -211 70q-102 0 -166 -62t-64 -157q0 -49 14.5 -92t34 -72t58 -61.5t66.5 -51t79 -49.5q42 -26 62 -39t56 -39t54 -44.5t42 -49t36 -59.5t20.5 -68.5t8.5 -83.5q0 -145 -93.5 -232t-242.5 -87z" />
    <glyph glyph-name="sacute" unicode="&#x15b;" horiz-adv-x="649" 
d="M475 1376h121l-193 -286h-90zM309 -14q-149 0 -260 82l41 82q111 -76 221 -76q79 0 128.5 47t49.5 123q0 83 -46.5 129.5t-143.5 93.5q-50 24 -84 45.5t-68.5 54.5t-51.5 77.5t-17 100.5q0 109 76.5 179.5t197.5 70.5q136 0 230 -59l-39 -82q-81 53 -187 53
q-78 0 -129 -44t-51 -113q0 -71 43.5 -114.5t138.5 -90.5q51 -25 87.5 -48t72 -58t54 -82.5t18.5 -106.5q0 -118 -78 -191t-203 -73z" />
    <glyph glyph-name="Scircumflex" unicode="&#x15c;" horiz-adv-x="782" 
d="M270 1421h-90l178 287h103l178 -287h-90l-139 211zM385 -14q-191 0 -324 116l45 86q119 -108 277 -108q102 0 168.5 62.5t66.5 160.5q0 46 -13.5 86t-31.5 67t-54.5 57.5t-62 47.5t-75.5 47q-56 34 -90 57t-77.5 61.5t-67.5 76t-41 92.5t-17 119q0 136 92.5 224.5
t237.5 88.5q152 0 264 -82l-51 -82q-84 70 -211 70q-102 0 -166 -62t-64 -157q0 -49 14.5 -92t34 -72t58 -61.5t66.5 -51t79 -49.5q42 -26 62 -39t56 -39t54 -44.5t42 -49t36 -59.5t20.5 -68.5t8.5 -83.5q0 -145 -93.5 -232t-242.5 -87z" />
    <glyph glyph-name="scircumflex" unicode="&#x15d;" horiz-adv-x="649" 
d="M217 1090h-90l178 286h103l178 -286h-90l-140 210zM309 -14q-149 0 -260 82l41 82q111 -76 221 -76q79 0 128.5 47t49.5 123q0 83 -46.5 129.5t-143.5 93.5q-50 24 -84 45.5t-68.5 54.5t-51.5 77.5t-17 100.5q0 109 76.5 179.5t197.5 70.5q136 0 230 -59l-39 -82
q-81 53 -187 53q-78 0 -129 -44t-51 -113q0 -71 43.5 -114.5t138.5 -90.5q51 -25 87.5 -48t72 -58t54 -82.5t18.5 -106.5q0 -118 -78 -191t-203 -73z" />
    <glyph glyph-name="Scedilla" unicode="&#x15e;" horiz-adv-x="782" 
d="M721 305q0 -135 -82 -220.5t-215 -96.5l-102 -320l-101 35l121 285q-162 9 -281 114l45 86q119 -108 277 -108q102 0 168.5 62.5t66.5 160.5q0 46 -13.5 86t-31.5 67t-54.5 57.5t-62 47.5t-75.5 47q-56 34 -90 57t-77.5 61.5t-67.5 76t-41 92.5t-17 119q0 136 92.5 224.5
t237.5 88.5q152 0 264 -82l-51 -82q-84 70 -211 70q-102 0 -166 -62t-64 -157q0 -49 14.5 -92t34 -72t58 -61.5t66.5 -51t79 -49.5q42 -26 62 -39t56 -39t54 -44.5t42 -49t36 -59.5t20.5 -68.5t8.5 -83.5z" />
    <glyph glyph-name="scedilla" unicode="&#x15f;" horiz-adv-x="649" 
d="M590 250q0 -107 -65 -177.5t-173 -84.5l-102 -320l-100 35l120 285q-123 6 -221 80l41 82q111 -76 221 -76q79 0 128.5 47t49.5 123q0 83 -46.5 129.5t-143.5 93.5q-50 24 -84 45.5t-68.5 54.5t-51.5 77.5t-17 100.5q0 109 76.5 179.5t197.5 70.5q136 0 230 -59l-39 -82
q-81 53 -187 53q-78 0 -129 -44t-51 -113q0 -71 43.5 -114.5t138.5 -90.5q51 -25 87.5 -48t72 -58t54 -82.5t18.5 -106.5z" />
    <glyph glyph-name="Scaron" unicode="&#x160;" horiz-adv-x="782" 
d="M461 1421h-103l-178 287h90l140 -211l139 211h90zM385 -14q-191 0 -324 116l45 86q119 -108 277 -108q102 0 168.5 62.5t66.5 160.5q0 46 -13.5 86t-31.5 67t-54.5 57.5t-62 47.5t-75.5 47q-56 34 -90 57t-77.5 61.5t-67.5 76t-41 92.5t-17 119q0 136 92.5 224.5
t237.5 88.5q152 0 264 -82l-51 -82q-84 70 -211 70q-102 0 -166 -62t-64 -157q0 -49 14.5 -92t34 -72t58 -61.5t66.5 -51t79 -49.5q42 -26 62 -39t56 -39t54 -44.5t42 -49t36 -59.5t20.5 -68.5t8.5 -83.5q0 -145 -93.5 -232t-242.5 -87z" />
    <glyph glyph-name="scaron" unicode="&#x161;" horiz-adv-x="649" 
d="M408 1090h-103l-178 286h90l139 -211l140 211h90zM309 -14q-149 0 -260 82l41 82q111 -76 221 -76q79 0 128.5 47t49.5 123q0 83 -46.5 129.5t-143.5 93.5q-50 24 -84 45.5t-68.5 54.5t-51.5 77.5t-17 100.5q0 109 76.5 179.5t197.5 70.5q136 0 230 -59l-39 -82
q-81 53 -187 53q-78 0 -129 -44t-51 -113q0 -71 43.5 -114.5t138.5 -90.5q51 -25 87.5 -48t72 -58t54 -82.5t18.5 -106.5q0 -118 -78 -191t-203 -73z" />
    <glyph glyph-name="Tcedilla" unicode="&#x162;" horiz-adv-x="720" 
d="M324 0h-15v1219h-289v94h680v-94h-290v-1219h-7l-106 -332l-100 35z" />
    <glyph glyph-name="tcedilla" unicode="&#x163;" horiz-adv-x="528" 
d="M47 891v90h107v233h98v-233h209v-90h-209v-694q0 -59 28 -90t78 -31q60 0 111 39l37 -82q-58 -37 -115 -45l-102 -320l-101 35l123 287q-75 11 -116 62t-41 138v701h-107z" />
    <glyph glyph-name="Tcaron" unicode="&#x164;" horiz-adv-x="720" 
d="M412 1421h-103l-178 287h90l139 -211l140 211h90zM700 1219h-290v-1219h-101v1219h-289v94h680v-94z" />
    <glyph glyph-name="tcaron" unicode="&#x165;" horiz-adv-x="528" 
d="M461 1409l-68 -319h-78l41 319h105zM47 891v90h107v233h98v-233h209v-90h-209v-694q0 -59 28 -90t78 -31q60 0 111 39l37 -82q-74 -47 -154 -47q-92 0 -145 53t-53 151v701h-107z" />
    <glyph glyph-name="Tbar" unicode="&#x166;" horiz-adv-x="720" 
d="M139 692h170v527h-289v94h680v-94h-290v-527h172v-88h-172v-604h-101v604h-170v88z" />
    <glyph glyph-name="tbar" unicode="&#x167;" horiz-adv-x="528" 
d="M57 537h97v354h-107v90h107v233h98v-233h209v-90h-209v-354h170v-88h-170v-252q0 -59 28 -90t78 -31q60 0 111 39l37 -82q-74 -47 -154 -47q-92 0 -145 53t-53 151v259h-97v88z" />
    <glyph glyph-name="Utilde" unicode="&#x168;" horiz-adv-x="950" 
d="M297 1503l-64 41q54 125 142 125q46 0 101.5 -36t90.5 -36q26 0 45 19.5t39 60.5l64 -41q-55 -125 -142 -125q-36 0 -69 18t-64 36t-61 18q-24 0 -41.5 -18.5t-40.5 -61.5zM119 395v918h102v-928q0 -148 67 -226.5t187 -78.5t186 78t66 227v928h102v-918q0 -197 -94 -303
t-260 -106q-167 0 -261.5 106t-94.5 303z" />
    <glyph glyph-name="utilde" unicode="&#x169;" horiz-adv-x="798" 
d="M221 1171l-63 41q54 125 141 125q46 0 102 -35.5t91 -35.5q26 0 44 19t39 61l64 -41q-55 -125 -141 -125q-45 0 -102.5 35.5t-92.5 35.5q-24 0 -41.5 -18.5t-40.5 -61.5zM199 981v-639q0 -128 50 -196t146 -68q100 0 152.5 67.5t52.5 196.5v639h98v-633q0 -174 -78 -268
t-225 -94q-144 0 -220.5 94t-76.5 268v633h101z" />
    <glyph glyph-name="Umacron" unicode="&#x16a;" horiz-adv-x="950" 
d="M668 1559h-389v86h389v-86zM119 395v918h102v-928q0 -148 67 -226.5t187 -78.5t186 78t66 227v928h102v-918q0 -197 -94 -303t-260 -106q-167 0 -261.5 106t-94.5 303z" />
    <glyph glyph-name="umacron" unicode="&#x16b;" horiz-adv-x="798" 
d="M592 1227h-389v86h389v-86zM199 981v-639q0 -128 50 -196t146 -68q100 0 152.5 67.5t52.5 196.5v639h98v-633q0 -174 -78 -268t-225 -94q-144 0 -220.5 94t-76.5 268v633h101z" />
    <glyph glyph-name="Ubreve" unicode="&#x16c;" horiz-adv-x="950" 
d="M475 1401q-107 0 -164 72.5t-57 201.5h82q0 -92 35.5 -142t103.5 -50q139 0 139 192h82q0 -130 -56.5 -202t-164.5 -72zM119 395v918h102v-928q0 -148 67 -226.5t187 -78.5t186 78t66 227v928h102v-918q0 -197 -94 -303t-260 -106q-167 0 -261.5 106t-94.5 303z" />
    <glyph glyph-name="ubreve" unicode="&#x16d;" horiz-adv-x="798" 
d="M399 1069q-107 0 -164 72.5t-57 201.5h82q0 -92 35.5 -142t103.5 -50q140 0 140 192h82q0 -130 -56.5 -202t-165.5 -72zM199 981v-639q0 -128 50 -196t146 -68q100 0 152.5 67.5t52.5 196.5v639h98v-633q0 -174 -78 -268t-225 -94q-144 0 -220.5 94t-76.5 268v633h101z
" />
    <glyph glyph-name="Uring" unicode="&#x16e;" horiz-adv-x="950" 
d="M475 1401q-89 0 -137.5 58t-48.5 140t48.5 140.5t137.5 58.5q90 0 138.5 -58t48.5 -141t-48.5 -140.5t-138.5 -57.5zM477 1475q52 0 78.5 35t26.5 89t-26.5 89.5t-78.5 35.5q-53 0 -80.5 -36t-27.5 -89t27.5 -88.5t80.5 -35.5zM119 395v918h102v-928q0 -148 67 -226.5
t187 -78.5t186 78t66 227v928h102v-918q0 -197 -94 -303t-260 -106q-167 0 -261.5 106t-94.5 303z" />
    <glyph glyph-name="uring" unicode="&#x16f;" horiz-adv-x="798" 
d="M399 1069q-89 0 -137.5 58.5t-48.5 140.5t48.5 140t137.5 58q90 0 138.5 -57.5t48.5 -140.5t-48.5 -141t-138.5 -58zM401 1143q52 0 78.5 35.5t26.5 89.5t-26.5 89.5t-78.5 35.5q-53 0 -80.5 -36t-27.5 -89t27.5 -89t80.5 -36zM199 981v-639q0 -128 50 -196t146 -68
q100 0 152.5 67.5t52.5 196.5v639h98v-633q0 -174 -78 -268t-225 -94q-144 0 -220.5 94t-76.5 268v633h101z" />
    <glyph glyph-name="Uhungarumlaut" unicode="&#x170;" horiz-adv-x="950" 
d="M430 1708h111l-181 -287h-79zM690 1708h115l-184 -287h-80zM119 395v918h102v-928q0 -148 67 -226.5t187 -78.5t186 78t66 227v928h102v-918q0 -197 -94 -303t-260 -106q-167 0 -261.5 106t-94.5 303z" />
    <glyph glyph-name="uhungarumlaut" unicode="&#x171;" horiz-adv-x="798" 
d="M354 1376h111l-180 -286h-80zM614 1376h115l-184 -286h-80zM199 981v-639q0 -128 50 -196t146 -68q100 0 152.5 67.5t52.5 196.5v639h98v-633q0 -174 -78 -268t-225 -94q-144 0 -220.5 94t-76.5 268v633h101z" />
    <glyph glyph-name="Uogonek" unicode="&#x172;" horiz-adv-x="950" 
d="M119 395v918h102v-928q0 -148 67 -226.5t187 -78.5t186 78t66 227v928h102v-918q0 -161 -62.5 -261.5t-178.5 -133.5q-154 -127 -154 -240q0 -37 20 -58t54 -21q41 0 80 34l41 -57q-50 -59 -133 -59q-65 0 -108.5 42t-43.5 105q0 125 127 240q-165 2 -258.5 108
t-93.5 301z" />
    <glyph glyph-name="uogonek" unicode="&#x173;" horiz-adv-x="798" 
d="M399 -401q-65 0 -108 42t-43 105q0 125 127 240q-133 6 -205 100t-72 262v633h101v-639q0 -128 50 -196t146 -68q100 0 152.5 67.5t52.5 196.5v639h98v-633q0 -145 -54 -234.5t-157 -115.5q-149 -125 -149 -238q0 -37 20 -58t54 -21q41 0 80 34l40 -57q-50 -59 -133 -59z
" />
    <glyph glyph-name="Wcircumflex" unicode="&#x174;" horiz-adv-x="1368" 
d="M547 1421h-90l178 287h102l178 -287h-90l-139 211zM1229 1313h100l-272 -1313h-131l-242 1174l-238 -1174h-137l-270 1313h104l240 -1204l238 1204h129l245 -1202z" />
    <glyph glyph-name="wcircumflex" unicode="&#x175;" horiz-adv-x="1128" 
d="M426 1090h-90l178 286h102l179 -286h-90l-140 210zM373 0h-117l-215 981h102l179 -856l194 856h100l195 -854l178 854h98l-213 -981h-118l-193 825z" />
    <glyph glyph-name="Ycircumflex" unicode="&#x176;" horiz-adv-x="806" 
d="M264 1421h-90l178 287h103l178 -287h-90l-140 211zM352 0v463l-338 850h109l278 -723l287 723h105l-340 -846v-467h-101z" />
    <glyph glyph-name="ycircumflex" unicode="&#x177;" horiz-adv-x="706" 
d="M217 1090h-90l178 286h103l178 -286h-90l-140 210zM127 981l235 -834l224 834h96l-324 -1178q-33 -116 -80 -167.5t-124 -51.5q-70 0 -123 39l39 84q41 -33 88 -33q40 0 63.5 32t46.5 108l51 186l-296 981h104z" />
    <glyph glyph-name="Ydieresis" unicode="&#x178;" horiz-adv-x="806" 
d="M211 1591q0 31 19.5 51.5t48.5 20.5t49 -20.5t20 -51.5q0 -30 -19.5 -49.5t-49.5 -19.5q-29 0 -48.5 19t-19.5 50zM457 1591q0 31 20 51.5t49 20.5t49.5 -20.5t20.5 -51.5q0 -29 -20 -49t-50 -20q-29 0 -49 20t-20 49zM352 0v463l-338 850h109l278 -723l287 723h105
l-340 -846v-467h-101z" />
    <glyph glyph-name="Zacute" unicode="&#x179;" horiz-adv-x="780" 
d="M510 1708h121l-193 -287h-90zM53 96l557 1123h-553v94h666v-96l-557 -1123h559v-94h-672v96z" />
    <glyph glyph-name="zacute" unicode="&#x17a;" horiz-adv-x="681" 
d="M463 1376h121l-193 -286h-90zM61 92l441 799h-434v90h544v-92l-440 -799h451v-90h-562v92z" />
    <glyph glyph-name="Zdotaccent" unicode="&#x17b;" horiz-adv-x="780" 
d="M391 1520q-31 0 -51.5 21t-20.5 52q0 30 21 51t51 21q31 0 52.5 -20.5t21.5 -51.5t-21.5 -52t-52.5 -21zM53 96l557 1123h-553v94h666v-96l-557 -1123h559v-94h-672v96z" />
    <glyph glyph-name="zdotaccent" unicode="&#x17c;" horiz-adv-x="681" 
d="M342 1188q-31 0 -51.5 21.5t-20.5 52.5q0 30 21 50.5t51 20.5q31 0 52.5 -20.5t21.5 -50.5q0 -31 -21.5 -52.5t-52.5 -21.5zM61 92l441 799h-434v90h544v-92l-440 -799h451v-90h-562v92z" />
    <glyph glyph-name="Zcaron" unicode="&#x17d;" horiz-adv-x="780" 
d="M442 1421h-102l-178 287h90l139 -211l139 211h91zM53 96l557 1123h-553v94h666v-96l-557 -1123h559v-94h-672v96z" />
    <glyph glyph-name="zcaron" unicode="&#x17e;" horiz-adv-x="681" 
d="M393 1090h-102l-178 286h90l139 -211l139 211h90zM61 92l441 799h-434v90h544v-92l-440 -799h451v-90h-562v92z" />
    <glyph glyph-name="florin" unicode="&#x192;" horiz-adv-x="534" 
d="M115 -406q-84 0 -144 54l45 80q41 -41 93 -41q50 0 77 36t27 105v831h-139v89h139v440q0 109 52.5 172t144.5 63q86 0 145 -53l-45 -80q-44 41 -92 41q-50 0 -77.5 -36.5t-27.5 -104.5v-442h176v-89h-176v-829q0 -109 -53 -172.5t-145 -63.5z" />
    <glyph glyph-name="Scommaaccent" unicode="&#x218;" horiz-adv-x="782" 
d="M385 -14q-191 0 -324 116l45 86q119 -108 277 -108q102 0 168.5 62.5t66.5 160.5q0 46 -13.5 86t-31.5 67t-54.5 57.5t-62 47.5t-75.5 47q-56 34 -90 57t-77.5 61.5t-67.5 76t-41 92.5t-17 119q0 136 92.5 224.5t237.5 88.5q152 0 264 -82l-51 -82q-84 70 -211 70
q-102 0 -166 -62t-64 -157q0 -49 14.5 -92t34 -72t58 -61.5t66.5 -51t79 -49.5q42 -26 62 -39t56 -39t54 -44.5t42 -49t36 -59.5t20.5 -68.5t8.5 -83.5q0 -145 -93.5 -232t-242.5 -87zM442 -104l-106 -275h-82l74 275h114z" />
    <glyph glyph-name="scommaaccent" unicode="&#x219;" horiz-adv-x="649" 
d="M309 -14q-149 0 -260 82l41 82q111 -76 221 -76q79 0 128.5 47t49.5 123q0 83 -46.5 129.5t-143.5 93.5q-50 24 -84 45.5t-68.5 54.5t-51.5 77.5t-17 100.5q0 109 76.5 179.5t197.5 70.5q136 0 230 -59l-39 -82q-81 53 -187 53q-78 0 -129 -44t-51 -113
q0 -71 43.5 -114.5t138.5 -90.5q51 -25 87.5 -48t72 -58t54 -82.5t18.5 -106.5q0 -118 -78 -191t-203 -73zM371 -104l-107 -275h-82l74 275h115z" />
    <glyph glyph-name="Tcommaaccent" unicode="&#x21a;" horiz-adv-x="720" 
d="M700 1219h-290v-1219h-101v1219h-289v94h680v-94zM420 -104l-107 -275h-82l74 275h115z" />
    <glyph glyph-name="tcommaaccent" unicode="&#x21b;" horiz-adv-x="528" 
d="M47 891v90h107v233h98v-233h209v-90h-209v-694q0 -59 28 -90t78 -31q60 0 111 39l37 -82q-74 -47 -154 -47q-92 0 -145 53t-53 151v701h-107zM410 -104l-107 -275h-82l74 275h115z" />
    <glyph glyph-name="jdotless" unicode="&#x237;" horiz-adv-x="364" 
d="M47 -416q-73 0 -127 45l43 76q39 -33 82 -33t66.5 38t23.5 110v1161h98v-1147q0 -122 -47.5 -186t-138.5 -64z" />
    <glyph glyph-name="circumflex" unicode="&#x2c6;" 
d="M270 1090h-90l178 286h103l178 -286h-90l-139 210z" />
    <glyph glyph-name="caron" unicode="&#x2c7;" 
d="M461 1090h-103l-178 286h90l140 -211l139 211h90z" />
    <glyph glyph-name="breve" unicode="&#x2d8;" 
d="M410 1069q-107 0 -164.5 72.5t-57.5 201.5h82q0 -92 36 -142t104 -50q139 0 139 192h82q0 -130 -56.5 -202t-164.5 -72z" />
    <glyph glyph-name="dotaccent" unicode="&#x2d9;" 
d="M410 1188q-31 0 -51.5 21.5t-20.5 52.5q0 30 21 50.5t51 20.5q31 0 52 -20t21 -51t-21 -52.5t-52 -21.5z" />
    <glyph glyph-name="ring" unicode="&#x2da;" 
d="M410 1069q-89 0 -138 58.5t-49 140.5t49 140t138 58q90 0 138 -57.5t48 -140.5t-48 -141t-138 -58zM412 1143q52 0 78 35.5t26 89.5t-26 89.5t-78 35.5q-53 0 -81 -36t-28 -89t28 -89t81 -36z" />
    <glyph glyph-name="ogonek" unicode="&#x2db;" 
d="M461 -401q-65 0 -108.5 42t-43.5 105q0 153 201 299l43 -45q-154 -127 -154 -240q0 -37 20 -58t54 -21q41 0 80 34l41 -57q-50 -59 -133 -59z" />
    <glyph glyph-name="tilde" unicode="&#x2dc;" 
d="M135 1171l-63 41q54 125 141 125q46 0 102 -35.5t91 -35.5q26 0 44 19t39 61l64 -41q-55 -125 -141 -125q-44 0 -101.5 35.5t-93.5 35.5q-24 0 -41.5 -18.5t-40.5 -61.5z" />
    <glyph glyph-name="hungarumlaut" unicode="&#x2dd;" 
d="M358 1376h111l-180 -286h-80zM618 1376h115l-184 -286h-80z" />
    <glyph glyph-name="gravecomb" unicode="&#x300;" horiz-adv-x="784" 
d="M227 1376l162 -286h-92l-193 286h123z" />
    <glyph glyph-name="acutecomb" unicode="&#x301;" 
d="M578 1376h120l-192 -286h-90z" />
    <glyph glyph-name="circumflexcomb" unicode="&#x302;" 
d="M270 1090h-90l178 286h103l178 -286h-90l-139 210z" />
    <glyph glyph-name="tildecomb" unicode="&#x303;" horiz-adv-x="624" 
d="M135 1171l-63 41q54 125 141 125q46 0 102 -35.5t91 -35.5q26 0 44 19t39 61l64 -41q-55 -125 -141 -125q-44 0 -101.5 35.5t-93.5 35.5q-24 0 -41.5 -18.5t-40.5 -61.5z" />
    <glyph glyph-name="macroncomb" unicode="&#x304;" horiz-adv-x="624" 
d="M506 1227h-389v86h389v-86z" />
    <glyph glyph-name="brevecomb" unicode="&#x306;" 
d="M410 1069q-107 0 -164.5 72.5t-57.5 201.5h82q0 -92 36 -142t104 -50q139 0 139 192h82q0 -130 -56.5 -202t-164.5 -72z" />
    <glyph glyph-name="dotaccentcomb" unicode="&#x307;" 
d="M410 1188q-31 0 -51.5 21.5t-20.5 52.5q0 30 21 50.5t51 20.5q31 0 52 -20t21 -51t-21 -52.5t-52 -21.5z" />
    <glyph glyph-name="dieresiscomb" unicode="&#x308;" 
d="M217 1260q0 31 19.5 51t48.5 20t49 -20t20 -51q0 -30 -19.5 -50t-49.5 -20q-29 0 -48.5 19.5t-19.5 50.5zM463 1260q0 31 20 51t49 20q30 0 50 -20.5t20 -50.5t-20 -50t-50 -20q-29 0 -49 20.5t-20 49.5z" />
    <glyph glyph-name="ringcomb" unicode="&#x30a;" 
d="M410 1069q-89 0 -138 58.5t-49 140.5t49 140t138 58q90 0 138 -57.5t48 -140.5t-48 -141t-138 -58zM412 1143q52 0 78 35.5t26 89.5t-26 89.5t-78 35.5q-53 0 -81 -36t-28 -89t28 -89t81 -36z" />
    <glyph glyph-name="hungarumlautcomb" unicode="&#x30b;" 
d="M358 1376h111l-180 -286h-80zM618 1376h115l-184 -286h-80z" />
    <glyph glyph-name="caroncomb" unicode="&#x30c;" 
d="M461 1090h-103l-178 286h90l140 -211l139 211h90z" />
    <glyph glyph-name="commaaccentcomb" unicode="&#x326;" 
d="M469 -104l-107 -275h-81l73 275h115z" />
    <glyph glyph-name="cedillacomb" unicode="&#x327;" 
d="M393 0h80l-106 -332l-101 35z" />
    <glyph glyph-name="ogonekcomb" unicode="&#x328;" 
d="M461 -401q-65 0 -108.5 42t-43.5 105q0 153 201 299l43 -45q-154 -127 -154 -240q0 -37 20 -58t54 -21q41 0 80 34l41 -57q-50 -59 -133 -59z" />
    <glyph glyph-name="strokeshortcomb" unicode="&#x335;" horiz-adv-x="763" 
d="M174 575h365v-88h-365v88z" />
    <glyph glyph-name="Delta" unicode="&#x394;" horiz-adv-x="921" 
d="M897 0h-870l364 1313h139zM459 1198l-307 -1106h612z" />
    <glyph glyph-name="Omega" unicode="&#x3a9;" horiz-adv-x="966" 
d="M401 0h-338v92h207q-98 100 -151 265t-53 372q0 280 112 442t305 162q192 0 304 -161.5t112 -442.5q0 -206 -53 -371.5t-150 -265.5h207v-92h-338v82q111 82 170.5 247.5t59.5 393.5q0 245 -81.5 379.5t-230.5 134.5t-231 -135t-82 -379q0 -228 59.5 -394t171.5 -247v-82
z" />
    <glyph glyph-name="mu" unicode="&#x3bc;" horiz-adv-x="829" 
d="M231 -385h-100v1366h100v-639q0 -129 50 -196.5t147 -67.5q100 0 151.5 67.5t51.5 196.5v639h100v-633q0 -174 -78.5 -268t-224.5 -94q-131 0 -197 94v-465z" />
    <glyph glyph-name="pi" unicode="&#x3c0;" horiz-adv-x="874" 
d="M55 891v90h766v-90h-131v-690q0 -59 19 -85t63 -26h49v-90h-61q-168 0 -168 199v692h-328v-889h-98v889h-111z" />
    <glyph glyph-name="Wgrave" unicode="&#x1e80;" horiz-adv-x="1368" 
d="M567 1708l162 -287h-92l-193 287h123zM1229 1313h100l-272 -1313h-131l-242 1174l-238 -1174h-137l-270 1313h104l240 -1204l238 1204h129l245 -1202z" />
    <glyph glyph-name="wgrave" unicode="&#x1e81;" horiz-adv-x="1128" 
d="M446 1376l162 -286h-92l-192 286h122zM373 0h-117l-215 981h102l179 -856l194 856h100l195 -854l178 854h98l-213 -981h-118l-193 825z" />
    <glyph glyph-name="Wacute" unicode="&#x1e82;" horiz-adv-x="1368" 
d="M805 1708h121l-193 -287h-90zM1229 1313h100l-272 -1313h-131l-242 1174l-238 -1174h-137l-270 1313h104l240 -1204l238 1204h129l245 -1202z" />
    <glyph glyph-name="wacute" unicode="&#x1e83;" horiz-adv-x="1128" 
d="M684 1376h121l-193 -286h-90zM373 0h-117l-215 981h102l179 -856l194 856h100l195 -854l178 854h98l-213 -981h-118l-193 825z" />
    <glyph glyph-name="Wdieresis" unicode="&#x1e84;" horiz-adv-x="1368" 
d="M494 1591q0 31 19 51.5t48 20.5t49.5 -20.5t20.5 -51.5q0 -29 -19.5 -49t-50.5 -20q-29 0 -48 19t-19 50zM739 1591q0 31 20.5 51.5t49.5 20.5t49.5 -20.5t20.5 -51.5q0 -29 -19.5 -49t-50.5 -20q-29 0 -49.5 20t-20.5 49zM1229 1313h100l-272 -1313h-131l-242 1174
l-238 -1174h-137l-270 1313h104l240 -1204l238 1204h129l245 -1202z" />
    <glyph glyph-name="wdieresis" unicode="&#x1e85;" horiz-adv-x="1128" 
d="M373 1260q0 31 19 51t48 20q30 0 50 -20.5t20 -50.5t-20 -50t-50 -20q-29 0 -48 19.5t-19 50.5zM618 1260q0 30 20 50.5t50 20.5t50 -20.5t20 -50.5t-20 -50t-50 -20q-29 0 -49.5 20.5t-20.5 49.5zM373 0h-117l-215 981h102l179 -856l194 856h100l195 -854l178 854h98
l-213 -981h-118l-193 825z" />
    <glyph glyph-name="Ygrave" unicode="&#x1ef2;" horiz-adv-x="806" 
d="M287 1708l162 -287h-93l-192 287h123zM352 0v463l-338 850h109l278 -723l287 723h105l-340 -846v-467h-101z" />
    <glyph glyph-name="ygrave" unicode="&#x1ef3;" horiz-adv-x="706" 
d="M238 1376l161 -286h-92l-192 286h123zM127 981l235 -834l224 834h96l-324 -1178q-33 -116 -80 -167.5t-124 -51.5q-70 0 -123 39l39 84q41 -33 88 -33q40 0 63.5 32t46.5 108l51 186l-296 981h104z" />
    <glyph glyph-name="endash" unicode="&#x2013;" horiz-adv-x="747" 
d="M53 573h639v-90h-639v90z" />
    <glyph glyph-name="emdash" unicode="&#x2014;" horiz-adv-x="1339" 
d="M53 573h1231v-90h-1231v90z" />
    <glyph glyph-name="quoteleft" unicode="&#x2018;" horiz-adv-x="290" 
d="M137 1042q-33 0 -54.5 23t-21.5 57q0 31 21 78l86 209h63l-75 -211q27 -7 43 -28t16 -48q0 -34 -21.5 -57t-56.5 -23z" />
    <glyph glyph-name="quoteright" unicode="&#x2019;" horiz-adv-x="290" 
d="M152 1411q35 0 56 -22t21 -56q0 -33 -20 -78l-86 -208h-66l78 210q-27 7 -43 28t-16 48q0 34 21 56t55 22z" />
    <glyph glyph-name="quotesinglbase" unicode="&#x201a;" horiz-adv-x="319" 
d="M172 150q34 0 55 -22t21 -56q0 -37 -19 -80l-88 -209h-63l76 211q-26 7 -42 29t-16 47q0 34 21.5 57t54.5 23z" />
    <glyph glyph-name="quotedblleft" unicode="&#x201c;" horiz-adv-x="526" 
d="M137 1042q-33 0 -54.5 23t-21.5 57q0 31 21 78l86 209h63l-75 -211q27 -7 43 -28t16 -48q0 -34 -21.5 -57t-56.5 -23zM375 1042q-34 0 -56 23t-22 57q0 33 20 78l86 209h66l-76 -211q26 -7 42 -28.5t16 -47.5q0 -34 -21.5 -57t-54.5 -23z" />
    <glyph glyph-name="quotedblright" unicode="&#x201d;" horiz-adv-x="524" 
d="M152 1411q35 0 56 -22t21 -56q0 -33 -20 -78l-86 -208h-66l78 210q-27 7 -43 28t-16 48q0 34 21 56t55 22zM385 1411q35 0 56.5 -22t21.5 -56q0 -31 -21 -78l-86 -208h-65l78 210q-27 7 -43.5 28t-16.5 48q0 34 21 56t55 22z" />
    <glyph glyph-name="quotedblbase" unicode="&#x201e;" horiz-adv-x="563" 
d="M172 150q34 0 55 -22t21 -56q0 -37 -19 -80l-88 -209h-63l76 211q-26 7 -42 29t-16 47q0 34 21.5 57t54.5 23zM416 150q34 0 55 -22t21 -56q0 -37 -19 -80l-88 -209h-63l75 211q-26 7 -41.5 29t-15.5 47q0 34 21.5 57t54.5 23z" />
    <glyph glyph-name="dagger" unicode="&#x2020;" horiz-adv-x="655" 
d="M279 -401v1278h-226v90h226v442h98v-442h225v-90h-225v-1278h-98z" />
    <glyph glyph-name="daggerdbl" unicode="&#x2021;" horiz-adv-x="655" 
d="M53 41v90h226v746h-226v90h226v442h98v-442h225v-90h-225v-746h225v-90h-225v-442h-98v442h-226z" />
    <glyph glyph-name="bullet" unicode="&#x2022;" horiz-adv-x="571" 
d="M285 285q-78 0 -128.5 63.5t-50.5 163.5t50.5 163.5t128.5 63.5t129 -64t51 -163t-51 -163t-129 -64z" />
    <glyph glyph-name="ellipsis" unicode="&#x2026;" horiz-adv-x="950" 
d="M174 -16q-35 0 -58.5 24.5t-23.5 61.5t23.5 60.5t58.5 23.5q37 0 59.5 -23.5t22.5 -60.5t-23 -61.5t-59 -24.5zM475 -16q-35 0 -58.5 24.5t-23.5 61.5t23.5 60.5t58.5 23.5q37 0 59.5 -23.5t22.5 -60.5t-23 -61.5t-59 -24.5zM774 -16q-35 0 -58.5 24.5t-23.5 61.5
t23.5 60.5t58.5 23.5t58.5 -23.5t23.5 -60.5t-23.5 -61.5t-58.5 -24.5z" />
    <glyph glyph-name="perthousand" unicode="&#x2030;" horiz-adv-x="1636" 
d="M270 688q-105 0 -168 87t-63 233q0 147 62.5 233t168.5 86t169 -86t63 -233q0 -146 -63.5 -233t-168.5 -87zM283 0h-90l634 1313h88zM270 762q68 0 109 65t41 181q0 114 -41 179.5t-109 65.5t-109.5 -65.5t-41.5 -179.5q0 -115 41 -180.5t110 -65.5zM840 -14
q-106 0 -169 86t-63 233q0 146 63 233t169 87q104 0 166.5 -87t62.5 -233q0 -148 -61.5 -233.5t-167.5 -85.5zM1366 -14q-105 0 -167 86t-62 233q0 146 62.5 233t166.5 87q105 0 168 -87t63 -233q0 -147 -62.5 -233t-168.5 -86zM840 57q67 0 108 67t41 181q0 115 -41 180.5
t-108 65.5q-70 0 -111 -65t-41 -181q0 -114 42 -181t110 -67zM1366 57q68 0 110 67t42 181q0 115 -41.5 180.5t-110.5 65.5q-68 0 -108.5 -65t-40.5 -181q0 -115 40.5 -181.5t108.5 -66.5z" />
    <glyph glyph-name="guilsinglleft" unicode="&#x2039;" horiz-adv-x="440" 
d="M55 498l260 368l68 -59l-215 -309l215 -310l-68 -59z" />
    <glyph glyph-name="guilsinglright" unicode="&#x203a;" horiz-adv-x="440" 
d="M383 498l-258 -369l-70 59l217 310l-217 309l70 59z" />
    <glyph glyph-name="fraction" unicode="&#x2044;" horiz-adv-x="139" 
d="M-299 0l645 1313h92l-643 -1313h-94z" />
    <glyph glyph-name="zero.superior" unicode="&#x2070;" horiz-adv-x="440" 
d="M221 645q-90 0 -137 86t-47 254q0 167 46.5 253.5t137.5 86.5q180 0 180 -340t-180 -340zM221 717q53 0 78 64t25 204t-25 205t-78 65t-78.5 -65t-25.5 -205t25.5 -204t78.5 -64z" />
    <glyph glyph-name="four.superior" unicode="&#x2074;" horiz-adv-x="446" 
d="M256 657v144h-223v67l223 445h78v-445h67v-67h-67v-144h-78zM100 868h156v310z" />
    <glyph glyph-name="Euro" unicode="&#x20ac;" horiz-adv-x="886" 
d="M571 -14q-170 0 -281 125.5t-143 353.5h-127l19 80h100q-4 70 -4 110q0 41 4 115h-119l19 80h108q34 227 144 352t278 125q86 0 149.5 -24.5t127.5 -77.5l-51 -82q-104 90 -222 90q-128 0 -210.5 -99t-110.5 -284h414l-19 -80h-405q-4 -74 -4 -115q0 -40 4 -110h366
l-16 -80h-342q28 -186 111 -284.5t212 -98.5q121 0 222 88l51 -82q-63 -54 -126.5 -78t-148.5 -24z" />
    <glyph glyph-name="litre" unicode="&#x2113;" horiz-adv-x="587" 
d="M328 -14q-185 0 -185 256v118l-98 -77v120l98 74v647q0 306 191 306q95 0 144.5 -77.5t49.5 -228.5q0 -182 -69 -343t-215 -322v-213q0 -90 21.5 -129t70.5 -39q37 0 66 26t57 84l63 -55q-40 -76 -86 -111.5t-108 -35.5zM244 1135v-549q192 247 192 540q0 211 -100 211
q-92 0 -92 -202z" />
    <glyph glyph-name="trademark" unicode="&#x2122;" horiz-adv-x="1196" 
d="M174 596v641h-154v76h392v-76h-154v-641h-84zM774 778l-207 402l2 -584h-82v717h95l194 -385l193 385h90v-717h-82l2 584z" />
    <glyph glyph-name="partialdiff" unicode="&#x2202;" horiz-adv-x="813" 
d="M408 -14q-157 0 -248.5 129.5t-91.5 357.5q0 225 89.5 356.5t241.5 131.5q74 0 134 -45t94 -117q-42 191 -132.5 336.5t-218.5 236.5l58 68q188 -129 299.5 -370.5t111.5 -584.5q0 -234 -90 -366.5t-247 -132.5zM408 80q113 0 175 102.5t62 290.5q0 171 -63.5 282
t-173.5 111q-113 0 -176.5 -103t-63.5 -290q0 -188 63.5 -290.5t176.5 -102.5z" />
    <glyph glyph-name="product" unicode="&#x220f;" horiz-adv-x="919" 
d="M659 1221h-399v-1622h-100v1622h-123v92h846v-92h-123v-1622h-101v1622z" />
    <glyph glyph-name="summation" unicode="&#x2211;" horiz-adv-x="751" 
d="M715 -422h-678v96l381 791l-381 754v94h678v-96h-568l361 -709v-88l-358 -748h565v-94z" />
    <glyph glyph-name="minus" unicode="&#x2212;" horiz-adv-x="755" 
d="M666 614h-576v93h576v-93z" />
    <glyph glyph-name="divisionslash" unicode="&#x2215;" horiz-adv-x="151" 
d="M-297 0l651 1313h92l-647 -1313h-96z" />
    <glyph glyph-name="radical" unicode="&#x221a;" horiz-adv-x="817" 
d="M502 0h-142l-202 887h-138v94h222l190 -868l260 1296h101z" />
    <glyph glyph-name="infinity" unicode="&#x221e;" horiz-adv-x="1032" 
d="M950 659q0 -114 -61.5 -183.5t-161.5 -69.5q-82 0 -130.5 37t-80.5 102q-31 -64 -87 -101.5t-122 -37.5q-100 0 -162.5 68.5t-62.5 180.5q0 114 59 184t154 70q83 0 132.5 -37.5t80.5 -103.5q31 66 88.5 103.5t128.5 37.5q101 0 163 -68.5t62 -181.5zM166 655
q0 -170 147 -170q103 0 174 129q-4 10 -13 35t-13.5 35.5t-14 32t-16 31.5t-17.5 26t-22 23.5t-25 16t-31 12t-36 3.5q-64 0 -98.5 -45t-34.5 -129zM719 829q-125 0 -182 -127q2 -6 11 -31t12 -32.5t12 -29.5t14 -29.5t15 -25t18 -24t20 -18t24.5 -15.5t28 -8t33.5 -4
q63 0 103 48t40 122q0 79 -40.5 126.5t-108.5 47.5z" />
    <glyph glyph-name="integral" unicode="&#x222b;" horiz-adv-x="518" 
d="M100 -406q-83 0 -143 54l45 78q41 -41 92 -41q50 0 77.5 36.5t27.5 104.5v1362q0 109 52 172t144 63q85 0 144 -53l-45 -78q-41 41 -93 41q-50 0 -77 -36t-27 -105v-1362q0 -109 -52.5 -172.5t-144.5 -63.5z" />
    <glyph glyph-name="approxequal" unicode="&#x2248;" horiz-adv-x="724" 
d="M496 715q-49 0 -97 24.5t-91.5 49t-82.5 24.5q-69 0 -135 -63v98q58 55 139 55q39 0 78 -15t65.5 -33t61 -33t66.5 -15q69 0 135 57v-100q-61 -49 -139 -49zM496 412q-49 0 -97 24.5t-91.5 49t-82.5 24.5q-71 0 -135 -61v100q59 53 139 53q39 0 78 -15.5t65.5 -33.5
t61 -33.5t66.5 -15.5q69 0 135 57v-100q-61 -49 -139 -49z" />
    <glyph glyph-name="notequal" unicode="&#x2260;" horiz-adv-x="753" 
d="M172 248l82 207h-164v94h201l90 223h-291v92h328l82 209h88l-82 -209h160v-92h-197l-90 -223h287v-94h-324l-82 -207h-88z" />
    <glyph glyph-name="lessequal" unicode="&#x2264;" horiz-adv-x="755" 
d="M666 397v-106l-576 342v88l576 340v-107l-469 -276zM666 0h-576v92h576v-92z" />
    <glyph glyph-name="greaterequal" unicode="&#x2265;" horiz-adv-x="755" 
d="M666 633l-576 -342v106l469 281l-469 276v107l576 -340v-88zM666 0h-576v92h576v-92z" />
    <glyph glyph-name="lozenge" unicode="&#x25ca;" horiz-adv-x="849" 
d="M492 0h-134l-280 655l280 658h134l280 -658zM182 655l242 -567l240 567l-240 572z" />
    <glyph glyph-name="ITF" unicode="&#xf8ff;" horiz-adv-x="3237" 
d="M195 0v1313h405v-1313h-405zM684 930v383h406v-383h-406zM1171 0v1313h406v-1313h-406zM1663 930v383h403v-383h-403zM2150 0v1313h404v-1313h-404zM2640 930v383h403v-383h-403zM2640 465v381h403v-381h-403z" />
    <glyph glyph-name="G.alt" horiz-adv-x="999" 
d="M524 -14q-213 0 -327.5 173t-114.5 496q0 319 124.5 495.5t344.5 176.5q96 0 165 -24t134 -80l-51 -84q-54 50 -111 72t-133 22q-178 0 -273.5 -149t-95.5 -429q0 -283 86 -429t252 -146q232 0 273 244v297h-303v92h403v-402q-27 -156 -120.5 -240.5t-252.5 -84.5z" />
    <glyph glyph-name="a.alt" horiz-adv-x="892" 
d="M393 -14q-151 0 -238 135.5t-87 367.5q0 231 87.5 368.5t237.5 137.5q178 0 252 -200v186h100v-819q0 -41 18.5 -63.5t47.5 -22.5q22 0 43 8l14 -84q-32 -14 -71 -14q-69 0 -110.5 46t-41.5 132v10q-35 -91 -100 -139.5t-152 -48.5zM408 80q112 0 174.5 109t62.5 300
q0 192 -62.5 302t-174.5 110q-113 0 -176.5 -110t-63.5 -302q0 -191 63.5 -300t176.5 -109z" />
    <glyph glyph-name="j.alt" horiz-adv-x="364" 
d="M182 1196q-30 0 -50.5 21.5t-20.5 52.5q0 30 20.5 50.5t50.5 20.5q31 0 52.5 -20.5t21.5 -50.5q0 -31 -21.5 -52.5t-52.5 -21.5zM27 -416h-31v90h27q55 0 81.5 32t26.5 101v1174h100v-1165q0 -113 -52.5 -172.5t-151.5 -59.5z" />
    <glyph glyph-name="l.alt" horiz-adv-x="362" 
d="M131 0v1409h100v-1409h-100z" />
    <glyph glyph-name="y.alt" horiz-adv-x="696" 
d="M299 -401h-94l114 401l-296 981h104l235 -831l224 831h96z" />
    <glyph glyph-name="fl.alt" horiz-adv-x="825" 
d="M254 0h-100v891h-105v90h105v133q0 143 73 226t201 83q106 0 195 -47h71v-1376h-102v1294q-69 41 -154 41q-91 0 -137.5 -57t-46.5 -160v-137h164v-90h-164v-891z" />
    <glyph glyph-name="quoteleft.alt02" horiz-adv-x="241" 
d="M72 1333l75 76h23v-397h-98v321z" />
    <glyph glyph-name="quoteright.alt02" horiz-adv-x="256" 
d="M176 1085l-76 -73h-20v397h96v-324z" />
    <glyph glyph-name="ampersand.alt" horiz-adv-x="913" 
d="M379 -14q-146 0 -232 89.5t-86 243.5q0 115 58 208t174 175l-19 29q-108 160 -108 301q0 132 77.5 213.5t200.5 81.5q73 0 127.5 -22.5t108.5 -73.5l-51 -80q-42 44 -83.5 64t-94.5 20q-79 0 -131 -56t-52 -147q0 -65 18.5 -118.5t61.5 -120.5l307 -463q1 3 3.5 8t3.5 8
l116 281l78 -35l-119 -285q-10 -25 -28 -61l139 -209l-80 -51l-111 168q-115 -168 -278 -168zM160 322q0 -115 59 -181.5t164 -66.5q130 0 223 157l-264 400q-182 -124 -182 -309z" />
    <glyph glyph-name="Gbreve.alt" horiz-adv-x="999" 
d="M547 1401q-107 0 -164 72.5t-57 201.5h82q0 -92 35.5 -142t103.5 -50q139 0 139 192h82q0 -130 -56.5 -202t-164.5 -72zM524 -14q-213 0 -327.5 173t-114.5 496q0 319 124.5 495.5t344.5 176.5q96 0 165 -24t134 -80l-51 -84q-54 50 -111 72t-133 22q-178 0 -273.5 -149
t-95.5 -429q0 -283 86 -429t252 -146q232 0 273 244v297h-303v92h403v-402q-27 -156 -120.5 -240.5t-252.5 -84.5z" />
    <glyph glyph-name="Gcircumflex.alt" horiz-adv-x="999" 
d="M408 1421h-91l179 287h102l178 -287h-90l-139 211zM524 -14q-213 0 -327.5 173t-114.5 496q0 319 124.5 495.5t344.5 176.5q96 0 165 -24t134 -80l-51 -84q-54 50 -111 72t-133 22q-178 0 -273.5 -149t-95.5 -429q0 -283 86 -429t252 -146q232 0 273 244v297h-303v92h403
v-402q-27 -156 -120.5 -240.5t-252.5 -84.5z" />
    <glyph glyph-name="Gcommaaccent.alt" horiz-adv-x="999" 
d="M524 -14q-213 0 -327.5 173t-114.5 496q0 319 124.5 495.5t344.5 176.5q96 0 165 -24t134 -80l-51 -84q-54 50 -111 72t-133 22q-178 0 -273.5 -149t-95.5 -429q0 -283 86 -429t252 -146q232 0 273 244v297h-303v92h403v-402q-27 -156 -120.5 -240.5t-252.5 -84.5z
M586 -104l-107 -275h-82l74 275h115z" />
    <glyph glyph-name="Gdotaccent.alt" horiz-adv-x="999" 
d="M547 1520q-31 0 -51.5 21t-20.5 52q0 30 21 51t51 21q31 0 52.5 -20.5t21.5 -51.5t-21.5 -52t-52.5 -21zM524 -14q-213 0 -327.5 173t-114.5 496q0 319 124.5 495.5t344.5 176.5q96 0 165 -24t134 -80l-51 -84q-54 50 -111 72t-133 22q-178 0 -273.5 -149t-95.5 -429
q0 -283 86 -429t252 -146q232 0 273 244v297h-303v92h403v-402q-27 -156 -120.5 -240.5t-252.5 -84.5z" />
    <glyph glyph-name="aacute.alt" horiz-adv-x="892" 
d="M567 1376h121l-192 -286h-90zM393 -14q-151 0 -238 135.5t-87 367.5q0 231 87.5 368.5t237.5 137.5q178 0 252 -200v186h100v-819q0 -41 18.5 -63.5t47.5 -22.5q22 0 43 8l14 -84q-32 -14 -71 -14q-69 0 -110.5 46t-41.5 132v10q-35 -91 -100 -139.5t-152 -48.5zM408 80
q112 0 174.5 109t62.5 300q0 192 -62.5 302t-174.5 110q-113 0 -176.5 -110t-63.5 -302q0 -191 63.5 -300t176.5 -109z" />
    <glyph glyph-name="abreve.alt" horiz-adv-x="892" 
d="M446 1069q-107 0 -164 72.5t-57 201.5h82q0 -92 35.5 -142t103.5 -50q140 0 140 192h82q0 -130 -56.5 -202t-165.5 -72zM393 -14q-151 0 -238 135.5t-87 367.5q0 231 87.5 368.5t237.5 137.5q178 0 252 -200v186h100v-819q0 -41 18.5 -63.5t47.5 -22.5q22 0 43 8l14 -84
q-32 -14 -71 -14q-69 0 -110.5 46t-41.5 132v10q-35 -91 -100 -139.5t-152 -48.5zM408 80q112 0 174.5 109t62.5 300q0 192 -62.5 302t-174.5 110q-113 0 -176.5 -110t-63.5 -302q0 -191 63.5 -300t176.5 -109z" />
    <glyph glyph-name="acircumflex.alt" horiz-adv-x="892" 
d="M309 1090h-90l178 286h103l178 -286h-90l-139 210zM393 -14q-151 0 -238 135.5t-87 367.5q0 231 87.5 368.5t237.5 137.5q178 0 252 -200v186h100v-819q0 -41 18.5 -63.5t47.5 -22.5q22 0 43 8l14 -84q-32 -14 -71 -14q-69 0 -110.5 46t-41.5 132v10q-35 -91 -100 -139.5
t-152 -48.5zM408 80q112 0 174.5 109t62.5 300q0 192 -62.5 302t-174.5 110q-113 0 -176.5 -110t-63.5 -302q0 -191 63.5 -300t176.5 -109z" />
    <glyph glyph-name="adieresis.alt" horiz-adv-x="892" 
d="M256 1260q0 31 19.5 51t48.5 20t49 -20t20 -51q0 -30 -19.5 -50t-49.5 -20q-29 0 -48.5 19.5t-19.5 50.5zM502 1260q0 31 20 51t49 20t49.5 -20.5t20.5 -50.5t-20 -50t-50 -20q-29 0 -49 20.5t-20 49.5zM393 -14q-151 0 -238 135.5t-87 367.5q0 231 87.5 368.5
t237.5 137.5q178 0 252 -200v186h100v-819q0 -41 18.5 -63.5t47.5 -22.5q22 0 43 8l14 -84q-32 -14 -71 -14q-69 0 -110.5 46t-41.5 132v10q-35 -91 -100 -139.5t-152 -48.5zM408 80q112 0 174.5 109t62.5 300q0 192 -62.5 302t-174.5 110q-113 0 -176.5 -110t-63.5 -302
q0 -191 63.5 -300t176.5 -109z" />
    <glyph glyph-name="agrave.alt" horiz-adv-x="892" 
d="M330 1376l162 -286h-93l-192 286h123zM393 -14q-151 0 -238 135.5t-87 367.5q0 231 87.5 368.5t237.5 137.5q178 0 252 -200v186h100v-819q0 -41 18.5 -63.5t47.5 -22.5q22 0 43 8l14 -84q-32 -14 -71 -14q-69 0 -110.5 46t-41.5 132v10q-35 -91 -100 -139.5t-152 -48.5z
M408 80q112 0 174.5 109t62.5 300q0 192 -62.5 302t-174.5 110q-113 0 -176.5 -110t-63.5 -302q0 -191 63.5 -300t176.5 -109z" />
    <glyph glyph-name="amacron.alt" horiz-adv-x="892" 
d="M641 1227h-389v86h389v-86zM393 -14q-151 0 -238 135.5t-87 367.5q0 231 87.5 368.5t237.5 137.5q178 0 252 -200v186h100v-819q0 -41 18.5 -63.5t47.5 -22.5q22 0 43 8l14 -84q-32 -14 -71 -14q-69 0 -110.5 46t-41.5 132v10q-35 -91 -100 -139.5t-152 -48.5zM408 80
q112 0 174.5 109t62.5 300q0 192 -62.5 302t-174.5 110q-113 0 -176.5 -110t-63.5 -302q0 -191 63.5 -300t176.5 -109z" />
    <glyph glyph-name="aogonek.alt" horiz-adv-x="892" 
d="M393 -14q-151 0 -238 135.5t-87 367.5q0 231 87.5 368.5t237.5 137.5q178 0 252 -200v186h100v-819q0 -41 18.5 -63.5t47.5 -22.5q22 0 43 8l14 -84l-4 -2q-151 -124 -151 -238q0 -37 19.5 -58t53.5 -21q41 0 80 34l41 -57q-50 -59 -133 -59q-65 0 -108 42t-43 105
q0 126 133 244q-51 12 -81 57t-30 117v10q-35 -91 -100 -139.5t-152 -48.5zM408 80q112 0 174.5 109t62.5 300q0 192 -62.5 302t-174.5 110q-113 0 -176.5 -110t-63.5 -302q0 -191 63.5 -300t176.5 -109z" />
    <glyph glyph-name="aring.alt" horiz-adv-x="892" 
d="M449 1069q-89 0 -138 58.5t-49 140.5t49 140t138 58q90 0 138 -57.5t48 -140.5t-48 -141t-138 -58zM451 1143q52 0 78 35.5t26 89.5t-26 89.5t-78 35.5q-53 0 -81 -36t-28 -89t28 -89t81 -36zM393 -14q-151 0 -238 135.5t-87 367.5q0 231 87.5 368.5t237.5 137.5
q178 0 252 -200v186h100v-819q0 -41 18.5 -63.5t47.5 -22.5q22 0 43 8l14 -84q-32 -14 -71 -14q-69 0 -110.5 46t-41.5 132v10q-35 -91 -100 -139.5t-152 -48.5zM408 80q112 0 174.5 109t62.5 300q0 192 -62.5 302t-174.5 110q-113 0 -176.5 -110t-63.5 -302
q0 -191 63.5 -300t176.5 -109z" />
    <glyph glyph-name="atilde.alt" horiz-adv-x="892" 
d="M270 1171l-63 41q54 125 141 125q46 0 102 -35.5t91 -35.5q26 0 45 19.5t39 60.5l63 -41q-55 -125 -141 -125q-44 0 -101.5 35.5t-93.5 35.5q-24 0 -41.5 -18.5t-40.5 -61.5zM393 -14q-151 0 -238 135.5t-87 367.5q0 231 87.5 368.5t237.5 137.5q178 0 252 -200v186h100
v-819q0 -41 18.5 -63.5t47.5 -22.5q22 0 43 8l14 -84q-32 -14 -71 -14q-69 0 -110.5 46t-41.5 132v10q-35 -91 -100 -139.5t-152 -48.5zM408 80q112 0 174.5 109t62.5 300q0 192 -62.5 302t-174.5 110q-113 0 -176.5 -110t-63.5 -302q0 -191 63.5 -300t176.5 -109z" />
    <glyph glyph-name="jdotless.alt" horiz-adv-x="364" 
d="M27 -416h-31v90h27q55 0 81.5 32t26.5 101v1174h100v-1165q0 -113 -52.5 -172.5t-151.5 -59.5z" />
    <glyph glyph-name="jcircumflex.alt" horiz-adv-x="364" 
d="M41 1090h-90l178 286h102l179 -286h-91l-139 210zM27 -416h-31v90h27q55 0 81.5 32t26.5 101v1174h100v-1165q0 -113 -52.5 -172.5t-151.5 -59.5z" />
    <glyph glyph-name="lacute.alt" horiz-adv-x="362" 
d="M301 1804h121l-193 -286h-90zM131 0v1409h100v-1409h-100z" />
    <glyph glyph-name="lcaron.alt" horiz-adv-x="362" 
d="M131 0v1409h100v-1409h-100zM438 1409l-67 -319h-78l41 319h104z" />
    <glyph glyph-name="lcommaaccent.alt" horiz-adv-x="362" 
d="M131 0v1409h100v-1409h-100zM240 -104l-107 -275h-82l74 275h115z" />
    <glyph glyph-name="ldot.alt" horiz-adv-x="436" 
d="M131 0v1409h100v-1409h-100zM358 602q-15 18 -12 41t21 37q19 15 41.5 12.5t37.5 -20.5q15 -19 12.5 -41t-20.5 -37q-19 -15 -42 -13t-38 21z" />
    <glyph glyph-name="lslash.alt" horiz-adv-x="362" 
d="M131 0v684l-90 -43v96l90 43v629h100v-582l91 43v-96l-91 -43v-731h-100z" />
    <glyph glyph-name="yacute.alt" horiz-adv-x="696" 
d="M473 1376h121l-193 -286h-90zM299 -401h-94l114 401l-296 981h104l235 -831l224 831h96z" />
    <glyph glyph-name="ycircumflex.alt" horiz-adv-x="696" 
d="M213 1090h-90l178 286h102l179 -286h-90l-140 210zM299 -401h-94l114 401l-296 981h104l235 -831l224 831h96z" />
    <glyph glyph-name="ydieresis.alt" horiz-adv-x="696" 
d="M160 1260q0 31 19 51t48 20t49.5 -20.5t20.5 -50.5t-20 -50t-50 -20q-29 0 -48 19.5t-19 50.5zM406 1260q0 31 20 51t49 20t49.5 -20.5t20.5 -50.5t-20 -50t-50 -20q-29 0 -49 20.5t-20 49.5zM299 -401h-94l114 401l-296 981h104l235 -831l224 831h96z" />
    <glyph glyph-name="ygrave.alt" horiz-adv-x="696" 
d="M233 1376l162 -286h-92l-192 286h122zM299 -401h-94l114 401l-296 981h104l235 -831l224 831h96z" />
    <glyph glyph-name="i.loclTRK" horiz-adv-x="364" 
d="M180 1196q-30 0 -50.5 21.5t-20.5 52.5q0 30 20.5 50.5t50.5 20.5q32 0 54 -20t22 -51t-22.5 -52.5t-53.5 -21.5zM231 0h-100v981h100v-981z" />
    <glyph glyph-name="commaaccent.alt" 
d="M358 1102l107 274h80l-74 -274h-113z" />
    <glyph glyph-name="caroncomb.alt" 
d="M473 1409l-67 -319h-78l41 319h104z" />
    <glyph glyph-name="commaaccent" 
d="M465 -104l-107 -275h-75l75 275h107z" />
    </font>
</defs>
</svg>
