<?xml version="1.0" standalone="no"?>
<!DOCTYPE svg PUBLIC "-//W3C//DTD SVG 1.1//EN" "http://www.w3.org/Graphics/SVG/1.1/DTD/svg11.dtd" >
<svg xmlns="http://www.w3.org/2000/svg" xmlns:xlink="http://www.w3.org/1999/xlink" version="1.1">
<metadata>
Created by FontForge 20170731 at Sat Feb 11 11:56:34 2023
 By Aleksey,,,
Copyright 2021-2022 Indian Type Foundry. All rights reserved.
</metadata>
<defs>
<font id="ElevanceSansCondensed-Medium" horiz-adv-x="819" >
  <font-face 
    font-family="Elevance Sans Condensed Medium"
    font-weight="500"
    font-stretch="normal"
    units-per-em="2048"
    panose-1="0 0 0 0 0 0 0 0 0 0"
    ascent="1638"
    descent="-410"
    x-height="981"
    cap-height="1313"
    bbox="-309 -444 3023 1829"
    underline-thickness="102"
    underline-position="-307"
    unicode-range="U+0020-FB02"
  />
<missing-glyph horiz-adv-x="878" 
d="M756 0h-631v1313h631v-1313zM264 1182v-1051h352v1051h-352z" />
    <glyph glyph-name="fi" unicode="fi" horiz-adv-x="862" 
d="M297 0h-147v852h-107v129h107v94q0 160 89 255t238 95q153 0 256 -75l-65 -119q-77 61 -181 61q-90 0 -140 -57.5t-50 -159.5v-94h446v-981h-145v852h-301v-852z" />
    <glyph glyph-name="fl" unicode="fl" horiz-adv-x="886" 
d="M297 0h-147v852h-107v129h107v123q0 149 78 235t210 86q105 0 193 -45h110v-1183q0 -80 64 -80q24 0 43 8l16 -123q-32 -16 -92 -16q-81 0 -129.5 56.5t-48.5 156.5v1065q-61 34 -137 34q-78 0 -119 -49.5t-41 -140.5v-127h149v-129h-149v-852z" />
    <glyph glyph-name=".notdef" horiz-adv-x="878" 
d="M756 0h-631v1313h631v-1313zM264 1182v-1051h352v1051h-352z" />
    <glyph glyph-name=".null" horiz-adv-x="0" 
 />
    <glyph glyph-name="nonmarkingreturn" horiz-adv-x="682" 
 />
    <glyph glyph-name="space" unicode=" " horiz-adv-x="321" 
 />
    <glyph glyph-name="exclam" unicode="!" horiz-adv-x="489" 
d="M307 395h-123l-20 918h164zM244 -18q-44 0 -74.5 31t-30.5 77q0 47 30.5 79t74.5 32q47 0 77.5 -31.5t30.5 -79.5q0 -46 -30.5 -77t-77.5 -31z" />
    <glyph glyph-name="quotedbl" unicode="&#x22;" horiz-adv-x="507" 
d="M211 1409l-21 -414h-108l-19 414h148zM444 1409l-20 -414h-107l-18 414h145z" />
    <glyph glyph-name="numbersign" unicode="#" horiz-adv-x="858" 
d="M111 0l53 381h-154l21 115h149l47 329h-151l18 115h150l53 373h125l-53 -373h202l54 373h125l-54 -373h152l-21 -115h-147l-47 -329h149l-16 -115h-150l-55 -381h-123l54 381h-203l-53 -381h-125zM305 496h203l47 329h-203z" />
    <glyph glyph-name="dollar" unicode="$" horiz-adv-x="786" 
d="M455 -174h-127v174q-157 12 -277 111l55 131q127 -107 271 -107q89 0 146 52.5t57 136.5q0 48 -14.5 86.5t-47.5 71t-65 55t-88 55.5q-57 35 -92 59.5t-77 62.5t-65 75t-39 89t-16 113q0 124 74 210t196 108v178h127v-174q126 -9 225 -80l-65 -125q-81 70 -205 70
q-90 0 -145.5 -53t-55.5 -134q0 -40 12 -74.5t28.5 -59t51 -53t59.5 -45.5t75 -48q58 -36 90 -58.5t73.5 -59.5t62.5 -71t36.5 -83.5t15.5 -108.5q0 -127 -75.5 -214.5t-200.5 -111.5v-178z" />
    <glyph glyph-name="percent" unicode="%" horiz-adv-x="1122" 
d="M270 682q-106 0 -170.5 87.5t-64.5 234.5q0 149 64 237t171 88q109 0 173.5 -88t64.5 -237q0 -146 -65.5 -234t-172.5 -88zM307 0h-119l625 1313h119zM272 778q61 0 96 60t35 166q0 108 -35 168.5t-96 60.5t-97 -61t-36 -168q0 -106 36 -166t97 -60zM850 -16
q-108 0 -172 87t-64 236q0 148 64.5 236t171.5 88t171 -88t64 -236t-63.5 -235.5t-171.5 -87.5zM850 80q60 0 96.5 60.5t36.5 166.5q0 107 -36 167.5t-97 60.5t-96 -60t-35 -168q0 -106 35.5 -166.5t95.5 -60.5z" />
    <glyph glyph-name="ampersand" unicode="&#x26;" horiz-adv-x="925" 
d="M401 -16q-153 0 -248.5 94t-95.5 252q0 221 219 370l-12 19q-110 157 -110 295q0 140 76.5 227.5t201.5 87.5q121 0 194.5 -83.5t73.5 -217.5q0 -102 -63 -193.5t-176 -162.5l221 -322q26 75 41 180l10 76l121 -24l-12 -74q-19 -147 -80 -275l121 -174l-111 -75l-90 129
q-114 -129 -281 -129zM369 805l30 -43q162 105 162 264q0 85 -34.5 132.5t-94.5 47.5q-62 0 -99.5 -49.5t-37.5 -132.5q0 -112 74 -219zM203 334q0 -106 57 -164.5t152 -58.5q124 0 200 104l-268 389q-141 -104 -141 -270z" />
    <glyph glyph-name="quotesingle" unicode="'" horiz-adv-x="274" 
d="M211 1409l-21 -414h-108l-19 414h148z" />
    <glyph glyph-name="parenleft" unicode="(" horiz-adv-x="491" 
d="M475 -229l-104 -76q-299 368 -299 870t299 873l104 -76q-123 -158 -189.5 -365.5t-66.5 -431.5t66.5 -430.5t189.5 -363.5z" />
    <glyph glyph-name="parenright" unicode=")" horiz-adv-x="489" 
d="M119 -305l-103 76q122 157 189 364t67 430t-67 430.5t-189 366.5l103 76q299 -371 299 -873t-299 -870z" />
    <glyph glyph-name="asterisk" unicode="*" horiz-adv-x="598" 
d="M391 874l-92 175l-92 -175l-94 72l110 164l-164 53l37 117l158 -76l-14 205h116l-10 -205l156 76l37 -117l-166 -53l114 -164z" />
    <glyph glyph-name="plus" unicode="+" horiz-adv-x="755" 
d="M80 592v133h229v283h140v-283h229v-133h-229v-283h-140v283h-229z" />
    <glyph glyph-name="comma" unicode="," horiz-adv-x="385" 
d="M193 199q45 0 75.5 -31t30.5 -76q0 -37 -31 -104l-96 -217h-96l86 221q-74 23 -74 100q0 45 30 76t75 31z" />
    <glyph glyph-name="hyphen" unicode="-" horiz-adv-x="552" 
d="M68 596h417v-131h-417v131z" />
    <glyph glyph-name="period" unicode="." horiz-adv-x="382" 
d="M190 -18q-44 0 -74 31t-30 77q0 47 30 79t74 32q47 0 78 -32t31 -79q0 -46 -31 -77t-78 -31z" />
    <glyph glyph-name="slash" unicode="/" horiz-adv-x="681" 
d="M31 0l475 1313h145l-475 -1313h-145z" />
    <glyph glyph-name="zero" unicode="0" horiz-adv-x="868" 
d="M436 -16q-356 0 -356 673q0 332 88.5 502t261.5 170q177 0 267.5 -170t90.5 -502q0 -331 -90 -502t-262 -171zM434 121q209 0 209 536q0 535 -211 535q-207 0 -207 -535q0 -536 209 -536z" />
    <glyph glyph-name="one" unicode="1" horiz-adv-x="579" 
d="M442 0h-145v1118l-166 -174l-92 103l256 266h147v-1313z" />
    <glyph glyph-name="two" unicode="2" horiz-adv-x="731" 
d="M666 0h-619v121l340 506q66 99 100.5 184.5t34.5 177.5q0 90 -48 146.5t-134 56.5q-69 0 -117 -38t-90 -112l-98 97q110 190 313 190q145 0 233.5 -93t88.5 -245q0 -114 -44.5 -220.5t-127.5 -229.5l-275 -406h443v-135z" />
    <glyph glyph-name="three" unicode="3" horiz-adv-x="741" 
d="M336 -16q-213 0 -305 186l110 82q67 -131 191 -131q96 0 146 76t50 196q0 277 -233 277h-68v92l265 416h-416v135h575v-127l-260 -402q145 -22 214 -127t69 -264q0 -181 -90.5 -295t-247.5 -114z" />
    <glyph glyph-name="four" unicode="4" horiz-adv-x="796" 
d="M473 291h-440v127l426 895h157v-895h129v-127h-129v-291h-143v291zM473 418v653l-309 -653h309z" />
    <glyph glyph-name="five" unicode="5" horiz-adv-x="782" 
d="M369 -16q-214 0 -303 186l108 82q67 -131 191 -131q91 0 139.5 76.5t48.5 205.5q0 135 -48 216t-149 81q-94 0 -174 -86l-76 43l78 656h463v-137h-342l-47 -394q52 45 137 45q146 0 225.5 -117.5t79.5 -308.5q0 -185 -88.5 -301t-242.5 -116z" />
    <glyph glyph-name="six" unicode="6" horiz-adv-x="825" 
d="M414 -16q-151 0 -242.5 123t-91.5 325q0 113 27.5 208.5t95.5 229.5l225 443h154l-234 -465q32 14 70 14q155 0 242.5 -115t87.5 -315q0 -205 -90.5 -326.5t-243.5 -121.5zM418 741q-87 0 -139 -85t-52 -224q0 -147 49 -229t138 -82q88 0 137 81t49 230t-47.5 229
t-134.5 80z" />
    <glyph glyph-name="seven" unicode="7" horiz-adv-x="657" 
d="M262 0h-151l354 1178h-440v135h593v-125z" />
    <glyph glyph-name="eight" unicode="8" horiz-adv-x="806" 
d="M403 -16q-154 0 -242.5 105.5t-88.5 285.5q0 120 45 209t127 133q-62 42 -96.5 115t-34.5 167q0 152 77 241t213 89t214.5 -89.5t78.5 -240.5q0 -95 -33.5 -168t-95.5 -114q79 -45 123.5 -134t44.5 -208q0 -179 -89.5 -285t-242.5 -106zM406 774q70 0 109.5 57t39.5 156
q0 101 -39 158t-110 57q-73 0 -112.5 -57.5t-39.5 -157.5q0 -98 40.5 -155.5t111.5 -57.5zM406 111q87 0 135.5 72t48.5 200t-48 199t-136 71q-89 0 -138 -71t-49 -199t49 -200t138 -72z" />
    <glyph glyph-name="nine" unicode="9" horiz-adv-x="825" 
d="M410 1327q152 0 243.5 -122.5t91.5 -325.5q0 -117 -27 -212.5t-95 -226.5l-226 -442h-153l233 465q-32 -14 -69 -14q-155 0 -241.5 115t-86.5 315q0 206 89 327t241 121zM408 571q86 0 139 85t53 223q0 148 -49.5 229.5t-138.5 81.5q-88 0 -137.5 -82t-49.5 -229
q0 -148 48 -228t135 -80z" />
    <glyph glyph-name="colon" unicode=":" horiz-adv-x="385" 
d="M190 739q-44 0 -74 31.5t-30 77.5q0 47 29.5 77.5t74.5 30.5q47 0 78 -30.5t31 -77.5q0 -46 -31 -77.5t-78 -31.5zM190 -18q-44 0 -74 31t-30 77q0 47 30 79t74 32q47 0 78 -32t31 -79q0 -46 -31 -77t-78 -31z" />
    <glyph glyph-name="semicolon" unicode=";" horiz-adv-x="385" 
d="M190 739q-44 0 -74 31.5t-30 77.5q0 47 29.5 77.5t74.5 30.5q47 0 78 -30.5t31 -77.5q0 -46 -31 -77.5t-78 -31.5zM193 199q45 0 75.5 -31t30.5 -76q0 -37 -31 -104l-96 -217h-96l86 221q-74 23 -74 100q0 45 30 76t75 31z" />
    <glyph glyph-name="less" unicode="&#x3c;" horiz-adv-x="761" 
d="M680 418v-154l-598 334v131l598 332v-154l-444 -243z" />
    <glyph glyph-name="equal" unicode="=" horiz-adv-x="755" 
d="M80 764v133h598v-133h-598zM80 420v135h598v-135h-598z" />
    <glyph glyph-name="greater" unicode="&#x3e;" horiz-adv-x="761" 
d="M680 596l-598 -332v154l446 246l-446 243v154l598 -332v-133z" />
    <glyph glyph-name="question" unicode="?" horiz-adv-x="704" 
d="M373 381h-119l-14 319l39 2q108 0 166.5 67.5t58.5 188.5q0 108 -50 171t-132 63q-67 0 -116 -32.5t-93 -106.5l-90 98q107 178 309 178q144 0 231.5 -99t87.5 -267q0 -145 -73 -244t-195 -121zM319 -18q-46 0 -76 31t-30 77q0 47 30 79t76 32t76.5 -32t30.5 -79
q0 -46 -30.5 -77t-76.5 -31z" />
    <glyph glyph-name="at" unicode="@" horiz-adv-x="1214" 
d="M551 176q-98 0 -155.5 86.5t-57.5 235.5q0 200 75 325t195 125q110 0 150 -125l8 105h111l-37 -432q-18 -211 67 -211q63 0 101.5 120t38.5 314q0 246 -104.5 384t-289.5 138q-143 0 -253.5 -94.5t-171 -267t-60.5 -396.5q0 -269 117 -428t315 -159q124 0 209 53l39 -99
q-113 -63 -252 -63q-244 0 -392.5 192t-148.5 506q0 253 77 450t214.5 305t312.5 108q230 0 365 -171t135 -462q0 -252 -68.5 -394.5t-193.5 -142.5q-134 0 -164 146q-63 -148 -182 -148zM573 293q70 0 115 95t45 241q0 95 -31.5 148.5t-85.5 53.5q-72 0 -117.5 -91
t-45.5 -234q0 -99 32 -156t88 -57z" />
    <glyph glyph-name="A" unicode="A" horiz-adv-x="952" 
d="M768 0l-92 352h-412l-90 -352h-147l348 1313h203l350 -1313h-160zM299 487h342l-170 660z" />
    <glyph glyph-name="B" unicode="B" horiz-adv-x="911" 
d="M508 0h-383v1313h358q152 0 244 -96t92 -250q0 -98 -45.5 -175.5t-120.5 -113.5q90 -27 143.5 -110.5t53.5 -205.5q0 -165 -92 -263.5t-250 -98.5zM272 1178v-441h195q89 0 145 62t56 157q0 102 -56 162t-155 60h-185zM272 606v-471h203q104 0 163.5 64.5t59.5 173.5
q0 106 -57.5 169.5t-155.5 63.5h-213z" />
    <glyph glyph-name="C" unicode="C" horiz-adv-x="833" 
d="M522 -16q-212 0 -331 178t-119 493t119.5 494.5t328.5 179.5q87 0 152 -24t129 -76l-70 -125q-47 43 -94.5 62.5t-108.5 19.5q-146 0 -224.5 -138.5t-78.5 -392.5t79 -391t226 -137q110 0 201 82l70 -125q-63 -52 -128 -76t-151 -24z" />
    <glyph glyph-name="D" unicode="D" horiz-adv-x="983" 
d="M125 0v1313h289q160 0 272.5 -83.5t167.5 -230t55 -344.5q0 -299 -127.5 -477t-363.5 -178h-293zM416 1171h-144v-1030h146q170 0 254 136t84 378q0 243 -84 379.5t-256 136.5z" />
    <glyph glyph-name="E" unicode="E" horiz-adv-x="782" 
d="M125 0v1313h604v-142h-457v-442h400v-141h-400v-447h457v-141h-604z" />
    <glyph glyph-name="F" unicode="F" horiz-adv-x="753" 
d="M272 0h-147v1313h584v-142h-437v-462h379v-142h-379v-567z" />
    <glyph glyph-name="G" unicode="G" horiz-adv-x="950" 
d="M541 -16q-222 0 -345.5 175.5t-123.5 495.5q0 318 127 496t344 178q93 0 162.5 -23.5t134.5 -76.5l-68 -125q-53 45 -103.5 64.5t-117.5 19.5q-157 0 -241.5 -137t-84.5 -396q0 -261 83 -395.5t247 -134.5q90 0 162 35v393h-219v135h358v-596q-123 -108 -315 -108z" />
    <glyph glyph-name="H" unicode="H" horiz-adv-x="1015" 
d="M743 0v592h-471v-592h-147v1313h147v-580h471v580h148v-1313h-148z" />
    <glyph glyph-name="I" unicode="I" horiz-adv-x="397" 
d="M125 0v1313h147v-1313h-147z" />
    <glyph glyph-name="J" unicode="J" horiz-adv-x="630" 
d="M20 63l62 125q74 -65 158 -65q66 0 101.5 42.5t35.5 125.5v1022h147v-1020q0 -154 -74 -231.5t-200 -77.5q-129 0 -230 79z" />
    <glyph glyph-name="K" unicode="K" horiz-adv-x="872" 
d="M272 0h-147v1313h147v-643l402 643h162l-412 -656l428 -657h-170l-410 625v-625z" />
    <glyph glyph-name="L" unicode="L" horiz-adv-x="751" 
d="M125 0v1313h147v-1172h445v-141h-592z" />
    <glyph glyph-name="M" unicode="M" horiz-adv-x="1163" 
d="M580 373l-312 678v-1051h-143v1313h172l291 -664l295 664h155v-1313h-143v1047z" />
    <glyph glyph-name="N" unicode="N" horiz-adv-x="1017" 
d="M705 0l-439 1077v-1077h-141v1313h188l439 -1080v1080h141v-1313h-188z" />
    <glyph glyph-name="O" unicode="O" horiz-adv-x="1001" 
d="M500 1329q206 0 317 -177t111 -499q0 -320 -111 -494.5t-317 -174.5q-204 0 -316 175.5t-112 495.5t112 497t316 177zM500 127q134 0 204 135t70 391q0 259 -70 396t-204 137t-204.5 -136.5t-70.5 -394.5t70.5 -393t204.5 -135z" />
    <glyph glyph-name="P" unicode="P" horiz-adv-x="884" 
d="M125 0v1313h328q170 0 275.5 -113t105.5 -293q0 -183 -106.5 -296t-278.5 -113h-177v-498h-147zM457 1174h-185v-537h185q102 0 162.5 73t60.5 197q0 123 -60.5 195t-162.5 72z" />
    <glyph glyph-name="Q" unicode="Q" horiz-adv-x="1001" 
d="M500 -16q-204 0 -316 175.5t-112 495.5t112 497t316 177q206 0 317 -177t111 -499q0 -343 -125 -518l115 -143l-93 -82l-110 139q-89 -65 -215 -65zM500 127q71 0 123 37l-158 196l90 84l147 -184q72 135 72 393q0 259 -70 396t-204 137t-204.5 -136.5t-70.5 -394.5
t70.5 -393t204.5 -135z" />
    <glyph glyph-name="R" unicode="R" horiz-adv-x="888" 
d="M125 0v1313h330q165 0 265.5 -106.5t100.5 -278.5q0 -138 -64 -236t-177 -135l241 -557h-162l-229 537h-158v-537h-147zM455 1174h-183v-496h183q97 0 155 68.5t58 181.5t-57.5 179.5t-155.5 66.5z" />
    <glyph glyph-name="S" unicode="S" horiz-adv-x="786" 
d="M377 -16q-193 0 -326 116l55 131q125 -108 271 -108q89 0 146 53.5t57 138.5q0 39 -11.5 73.5t-27 58t-48 51.5t-56 45t-70.5 47q-58 36 -93 60.5t-77.5 63.5t-65.5 76.5t-39 91.5t-16 117q0 145 97 237.5t249 92.5q158 0 276 -84l-65 -125q-81 70 -205 70
q-89 0 -145 -53.5t-56 -137.5q0 -51 15 -91t51.5 -76t68 -59t93.5 -62q49 -32 75 -50t64 -48.5t58 -57t41 -62.5t29.5 -78.5t8.5 -92.5q0 -152 -98.5 -245t-255.5 -93z" />
    <glyph glyph-name="T" unicode="T" horiz-adv-x="737" 
d="M719 1171h-277v-1171h-147v1171h-277v142h701v-142z" />
    <glyph glyph-name="U" unicode="U" horiz-adv-x="954" 
d="M104 418v895h150v-910q0 -136 59 -206t166 -70q105 0 163 69.5t58 206.5v910h150v-895q0 -210 -99.5 -322t-273.5 -112t-273.5 112t-99.5 322z" />
    <glyph glyph-name="V" unicode="V" horiz-adv-x="892" 
d="M182 1313l271 -1145l270 1145h147l-321 -1313h-203l-323 1313h159z" />
    <glyph glyph-name="W" unicode="W" horiz-adv-x="1386" 
d="M1202 1313h152l-260 -1313h-193l-207 1106l-200 -1106h-201l-258 1313h155l211 -1163l203 1163h187l213 -1170z" />
    <glyph glyph-name="X" unicode="X" horiz-adv-x="860" 
d="M819 1313l-301 -629l320 -684h-166l-250 537l-246 -537h-151l313 672l-297 641h166l229 -496l232 496h151z" />
    <glyph glyph-name="Y" unicode="Y" horiz-adv-x="849" 
d="M350 0v463l-336 850h160l252 -674l256 674h154l-338 -850v-463h-148z" />
    <glyph glyph-name="Z" unicode="Z" horiz-adv-x="792" 
d="M53 141l514 1030h-508v142h674v-142l-514 -1030h520v-141h-686v141z" />
    <glyph glyph-name="bracketleft" unicode="[" horiz-adv-x="479" 
d="M125 -266v1675h319v-131h-176v-1413h176v-131h-319z" />
    <glyph glyph-name="backslash" unicode="\" horiz-adv-x="681" 
d="M651 0h-145l-475 1313h145z" />
    <glyph glyph-name="bracketright" unicode="]" horiz-adv-x="481" 
d="M356 -266h-321v131h176v1413h-176v131h321v-1675z" />
    <glyph glyph-name="asciicircum" unicode="^" horiz-adv-x="765" 
d="M225 657h-139l219 656h164l213 -656h-141l-154 510z" />
    <glyph glyph-name="underscore" unicode="_" horiz-adv-x="610" 
d="M-8 -43h624v-115h-624v115z" />
    <glyph glyph-name="grave" unicode="`" horiz-adv-x="559" 
d="M272 1409l140 -319h-133l-177 319h170z" />
    <glyph glyph-name="a" unicode="a" horiz-adv-x="882" 
d="M387 -16q-149 0 -237.5 137.5t-88.5 370.5t88 369t238 136q161 0 231 -176v160h146v-981h-146v162q-70 -178 -231 -178zM414 121q98 0 151 97.5t53 273.5q0 174 -53 271t-151 97t-151.5 -97.5t-53.5 -270.5t54 -272t151 -99z" />
    <glyph glyph-name="b" unicode="b" horiz-adv-x="880" 
d="M264 0h-145v1409h145v-590q71 178 232 178q150 0 236.5 -135.5t86.5 -369.5t-86.5 -371t-236.5 -137q-162 0 -232 180v-164zM469 121q98 0 151.5 98.5t53.5 272.5q0 173 -53.5 270.5t-151.5 97.5t-151.5 -97t-53.5 -271t53.5 -272.5t151.5 -98.5z" />
    <glyph glyph-name="c" unicode="c" horiz-adv-x="684" 
d="M418 -16q-161 0 -259 139t-98 369q0 229 97 367t260 138q142 0 235 -96l-69 -121q-72 78 -162 78q-101 0 -157 -97t-56 -269q0 -171 56.5 -270t154.5 -99q53 0 91.5 18.5t74.5 59.5l67 -121q-101 -96 -235 -96z" />
    <glyph glyph-name="d" unicode="d" horiz-adv-x="880" 
d="M385 -16q-149 0 -236.5 137.5t-87.5 370.5t87.5 369t236.5 136q163 0 233 -180v592h146v-1409h-146v166q-70 -182 -233 -182zM414 121q98 0 151 98t53 273q0 174 -53 271t-151 97t-151.5 -97.5t-53.5 -270.5q0 -174 53.5 -272.5t151.5 -98.5z" />
    <glyph glyph-name="e" unicode="e" horiz-adv-x="798" 
d="M442 -16q-180 0 -280.5 135t-100.5 373q0 229 93 367t252 138q149 0 239 -128.5t90 -333.5q0 -37 -2 -66h-526q5 -172 66 -262t173 -90q106 0 177 84l69 -113q-101 -104 -250 -104zM401 864q-81 0 -130 -76t-60 -215h377q-8 140 -56 215.5t-131 75.5z" />
    <glyph glyph-name="f" unicode="f" horiz-adv-x="512" 
d="M295 0h-145v852h-107v129h107v176q0 121 62 194.5t169 73.5q92 0 158 -51l-54 -119q-45 39 -92 39q-45 0 -71.5 -34t-26.5 -97v-182h176v-129h-176v-852z" />
    <glyph glyph-name="g" unicode="g" horiz-adv-x="880" 
d="M381 4q-148 0 -234 133.5t-86 362.5q0 230 86 363.5t234 133.5q164 0 237 -182v166h146v-1006q0 -187 -96.5 -290t-261.5 -103q-181 0 -295 111l71 117q98 -95 221 -95q103 0 159 62t56 178v231q-73 -182 -237 -182zM414 141q96 0 150 95.5t54 263.5q0 170 -53.5 265
t-150.5 95t-151 -94.5t-54 -265.5q0 -169 54 -264t151 -95z" />
    <glyph glyph-name="h" unicode="h" horiz-adv-x="854" 
d="M264 0h-145v1409h145v-555q34 69 93 106t135 37q129 0 198.5 -88.5t69.5 -251.5v-657h-146v639q0 221 -168 221q-86 0 -134 -63t-48 -174v-623z" />
    <glyph glyph-name="i" unicode="i" horiz-adv-x="382" 
d="M190 1171q-41 0 -68.5 27.5t-27.5 67.5q0 42 28 70t68 28q41 0 70 -28.5t29 -69.5q0 -40 -29 -67.5t-70 -27.5zM264 0h-145v981h145v-981z" />
    <glyph glyph-name="j" unicode="j" horiz-adv-x="385" 
d="M193 1171q-41 0 -69 27.5t-28 67.5q0 42 28.5 70t68.5 28q41 0 68.5 -28.5t27.5 -69.5q0 -40 -28 -67.5t-68 -27.5zM41 -418q-94 0 -154 51l64 115q35 -35 82 -35q86 0 86 135v1133h145v-1108q0 -140 -58 -215.5t-165 -75.5z" />
    <glyph glyph-name="k" unicode="k" horiz-adv-x="774" 
d="M264 0h-145v1409h145v-860l320 432h159l-337 -457l354 -524h-170l-326 485v-485z" />
    <glyph glyph-name="l" unicode="l" horiz-adv-x="411" 
d="M297 -14q-76 0 -127 53t-51 160v1210h145v-1212q0 -41 17.5 -61.5t46.5 -20.5q28 0 45 10l16 -123q-37 -16 -92 -16z" />
    <glyph glyph-name="m" unicode="m" horiz-adv-x="1310" 
d="M264 0h-145v981h145v-129q34 69 91.5 107t127.5 38q172 0 232 -170q32 82 92.5 126t142.5 44q126 0 196.5 -89t70.5 -251v-657h-146v639q0 108 -41 164.5t-117 56.5q-80 0 -127 -63.5t-47 -173.5v-623h-145v639q0 108 -40.5 164.5t-117.5 56.5q-80 0 -126 -63.5
t-46 -173.5v-623z" />
    <glyph glyph-name="n" unicode="n" horiz-adv-x="854" 
d="M264 0h-145v981h145v-127q34 69 93 106t135 37q129 0 198.5 -88.5t69.5 -251.5v-657h-146v639q0 221 -168 221q-86 0 -134 -63t-48 -174v-623z" />
    <glyph glyph-name="o" unicode="o" horiz-adv-x="825" 
d="M414 -16q-165 0 -259 138.5t-94 369.5q0 229 94 367t259 138q164 0 257 -137.5t93 -367.5t-93 -369t-257 -139zM414 121q97 0 150.5 97t53.5 274q0 175 -53.5 271.5t-150.5 96.5q-98 0 -151.5 -96.5t-53.5 -271.5t53.5 -273t151.5 -98z" />
    <glyph glyph-name="p" unicode="p" horiz-adv-x="880" 
d="M264 -401h-145v1382h145v-164q70 180 232 180q150 0 236.5 -137t86.5 -371t-86.5 -369.5t-236.5 -135.5q-161 0 -232 178v-563zM469 121q98 0 151.5 97.5t53.5 270.5q0 174 -53.5 272.5t-151.5 98.5t-151.5 -98.5t-53.5 -272.5t53.5 -271t151.5 -97z" />
    <glyph glyph-name="q" unicode="q" horiz-adv-x="880" 
d="M385 -16q-149 0 -236.5 136t-87.5 369t87.5 370.5t236.5 137.5q163 0 233 -182v166h146v-1382h-146v565q-70 -180 -233 -180zM414 121q98 0 151 97t53 271q0 175 -53 273t-151 98t-151.5 -98.5t-53.5 -272.5q0 -173 53.5 -270.5t151.5 -97.5z" />
    <glyph glyph-name="r" unicode="r" horiz-adv-x="546" 
d="M119 0v981h145v-115q55 129 168 129q55 0 94 -24l-26 -142q-41 21 -86 21q-68 0 -109 -60t-41 -161v-629h-145z" />
    <glyph glyph-name="s" unicode="s" horiz-adv-x="665" 
d="M313 -16q-158 0 -268 82l49 118q110 -73 221 -73q68 0 110 39t42 102q0 70 -41 111t-131 83q-110 49 -168.5 113.5t-58.5 173.5q0 116 80 190t208 74q141 0 246 -65l-55 -119q-79 57 -180 57q-68 0 -111 -37.5t-43 -95.5q0 -61 39 -99t129 -79q112 -51 172.5 -118.5
t60.5 -180.5q0 -123 -83.5 -199.5t-217.5 -76.5z" />
    <glyph glyph-name="t" unicode="t" horiz-adv-x="565" 
d="M35 852v129h115v240h145v-240h203v-129h-203v-629q0 -53 25 -79.5t69 -26.5q57 0 109 37l47 -117q-77 -53 -172 -53q-103 0 -163 60t-60 171v637h-115z" />
    <glyph glyph-name="u" unicode="u" horiz-adv-x="811" 
d="M233 981v-635q0 -109 42.5 -169t127.5 -60q84 0 128 59t44 170v635h148v-614q0 -185 -82.5 -283t-237.5 -98q-153 0 -234 98t-81 283v614h145z" />
    <glyph glyph-name="v" unicode="v" horiz-adv-x="727" 
d="M461 0h-193l-248 981h152l195 -831l198 831h142z" />
    <glyph glyph-name="w" unicode="w" horiz-adv-x="1144" 
d="M408 0h-168l-199 981h149l148 -801l166 801h145l164 -799l148 799h143l-199 -981h-168l-166 770z" />
    <glyph glyph-name="x" unicode="x" horiz-adv-x="739" 
d="M20 0l269 500l-256 481h160l184 -344l180 344h152l-263 -471l273 -510h-164l-197 369l-186 -369h-152z" />
    <glyph glyph-name="y" unicode="y" horiz-adv-x="735" 
d="M174 981l207 -766l190 766h144l-312 -1151q-34 -128 -90.5 -188t-146.5 -60q-77 0 -141 43l53 121q44 -33 90 -33q39 0 62 29t42 96l45 160l-297 983h154z" />
    <glyph glyph-name="z" unicode="z" horiz-adv-x="692" 
d="M57 133l404 717h-393v131h557v-133l-404 -717h414v-131h-578v133z" />
    <glyph glyph-name="braceleft" unicode="{" horiz-adv-x="514" 
d="M481 -266h-90q-109 0 -163 69t-54 193v346q0 90 -26.5 126t-96.5 36v135q70 0 96.5 36t26.5 126v356q0 252 217 252h90v-131h-61q-54 0 -77.5 -28.5t-23.5 -96.5v-379q0 -186 -126 -203q126 -17 126 -202v-369q0 -72 24 -103.5t77 -31.5h61v-131z" />
    <glyph glyph-name="bar" unicode="|" horiz-adv-x="387" 
d="M264 -401h-139v1810h139v-1810z" />
    <glyph glyph-name="braceright" unicode="}" horiz-adv-x="514" 
d="M125 -266h-90v131h61q53 0 77 31.5t24 103.5v369q0 186 127 202q-127 16 -127 203v379q0 68 -24 96.5t-77 28.5h-61v131h90q217 0 217 -252v-356q0 -90 26.5 -126t96.5 -36v-135q-70 0 -96.5 -36t-26.5 -126v-346q0 -123 -54.5 -192.5t-162.5 -69.5z" />
    <glyph glyph-name="asciitilde" unicode="~" horiz-adv-x="735" 
d="M508 551q-52 0 -103 24t-97.5 48t-88.5 24q-76 0 -139 -63v139q65 59 147 59q52 0 103 -24t97.5 -48t88.5 -24q76 0 139 55v-139q-63 -51 -147 -51z" />
    <glyph glyph-name="nbspace" unicode="&#xa0;" horiz-adv-x="321" 
 />
    <glyph glyph-name="exclamdown" unicode="&#xa1;" horiz-adv-x="489" 
d="M244 778q-45 0 -77 32t-32 77t32.5 77.5t76.5 32.5q47 0 77.5 -32t30.5 -78t-30.5 -77.5t-77.5 -31.5zM328 -326h-166l20 912h125z" />
    <glyph glyph-name="cent" unicode="&#xa2;" horiz-adv-x="684" 
d="M473 -25h-127v177q-131 31 -208 164.5t-77 334.5q0 202 76.5 335.5t208.5 162.5v176h127v-172q105 -14 180 -92l-69 -123q-71 80 -162 80q-101 0 -158 -97.5t-57 -269.5q0 -169 57.5 -268.5t155.5 -99.5q53 0 91.5 18.5t74.5 58.5l67 -120q-83 -79 -180 -93v-172z" />
    <glyph glyph-name="sterling" unicode="&#xa3;" horiz-adv-x="813" 
d="M287 135h465v-135h-674v135h43q82 0 82 148v286h-103v121h103v295q0 154 78.5 249t218.5 95q79 0 135.5 -23.5t112.5 -76.5l-70 -123q-41 44 -78.5 63t-87.5 19q-76 0 -119 -54t-43 -151v-293h303v-121h-303v-288q0 -120 -63 -146z" />
    <glyph glyph-name="currency" unicode="&#xa4;" horiz-adv-x="833" 
d="M416 199q-100 0 -180 71l-91 -112l-92 84l105 133q-58 110 -58 252q0 140 56 252l-103 133l92 84l91 -113q78 72 180 72t180 -72l90 113l94 -84l-104 -135q53 -112 53 -250q0 -140 -55 -250l106 -135l-94 -84l-90 114q-76 -73 -180 -73zM416 324q83 0 132.5 82.5
t49.5 220.5t-49.5 220.5t-132.5 82.5q-85 0 -135 -82.5t-50 -220.5t50 -220.5t135 -82.5z" />
    <glyph glyph-name="yen" unicode="&#xa5;" horiz-adv-x="849" 
d="M498 0h-148v397h-250v111h232l-80 205h-152v110h107l-193 490h160l252 -674l256 674h154l-195 -490h107v-110h-152l-80 -205h232v-111h-250v-397z" />
    <glyph glyph-name="brokenbar" unicode="&#xa6;" horiz-adv-x="387" 
d="M264 1409v-747h-139v747h139zM264 346v-747h-139v747h139z" />
    <glyph glyph-name="section" unicode="&#xa7;" horiz-adv-x="942" 
d="M449 -418q-175 0 -291 99l71 122q82 -82 213 -82q85 0 141 52t56 133q0 36 -8 65.5t-27 53.5t-37.5 41t-51.5 35t-55 28t-63 27q-57 24 -98 45.5t-83.5 53.5t-68.5 67.5t-42.5 85.5t-16.5 110q0 171 139 268q-80 86 -77 215q1 146 91.5 237t233.5 91q170 0 281 -94
l-70 -125q-83 80 -205 80q-81 0 -131.5 -50t-50.5 -130q0 -35 8.5 -64.5t27.5 -53t37.5 -40.5t52 -35t56.5 -28t64 -27q57 -24 98.5 -46t84 -54.5t69 -68.5t43 -86t16.5 -110q0 -169 -139 -272q71 -84 71 -211q-1 -149 -96 -240.5t-243 -91.5zM487 276q82 -35 129 -65
q91 75 91 182q0 30 -7 55.5t-17 45t-29.5 38t-37 31.5t-48 28.5t-53 25.5t-60.5 26q-62 25 -125 62q-92 -69 -92 -183q0 -34 7.5 -62t25.5 -51t36.5 -40t51 -34.5t59 -29t69.5 -29.5z" />
    <glyph glyph-name="dieresis" unicode="&#xa8;" 
d="M180 1247q0 40 26 67t64 27q37 0 64.5 -28t27.5 -66t-27 -65t-65 -27q-40 0 -65 26t-25 66zM457 1247q0 40 26 67t64 27q40 0 66 -27t26 -67t-25.5 -66t-66.5 -26q-40 0 -65 26t-25 66z" />
    <glyph glyph-name="copyright" unicode="&#xa9;" horiz-adv-x="1189" 
d="M596 -78q-238 0 -380 202t-142 538q0 333 142 533t380 200q237 0 378.5 -200.5t141.5 -532.5q0 -335 -141.5 -537.5t-378.5 -202.5zM596 16q195 0 307.5 174.5t112.5 468.5t-112.5 469t-307.5 175q-197 0 -310.5 -175t-113.5 -469t113.5 -468.5t310.5 -174.5zM614 223
q-142 0 -229.5 120.5t-87.5 315.5q0 197 87.5 318t229.5 121q128 0 213 -88l-59 -101q-35 40 -70.5 57t-81.5 17q-91 0 -144.5 -85.5t-53.5 -235.5q0 -149 54.5 -236.5t145.5 -87.5q89 0 150 72l59 -99q-46 -46 -96 -67t-117 -21z" />
    <glyph glyph-name="ordfeminine" unicode="&#xaa;" horiz-adv-x="755" 
d="M330 672q-121 0 -188.5 90.5t-67.5 238.5q0 150 67.5 241t188.5 91q115 0 174 -108v92h125v-629h-125v90q-58 -106 -174 -106zM352 788q70 0 111 57t41 154q0 101 -40.5 159.5t-111.5 58.5q-70 0 -111.5 -59t-41.5 -159q0 -95 42 -153t111 -58z" />
    <glyph glyph-name="guillemotleft" unicode="&#xab;" horiz-adv-x="776" 
d="M47 502l268 375l99 -86l-203 -289l203 -291l-99 -84zM360 502l267 375l100 -86l-205 -289l205 -291l-100 -84z" />
    <glyph glyph-name="logicalnot" unicode="&#xac;" horiz-adv-x="755" 
d="M678 289h-139v301h-459v135h598v-436z" />
    <glyph glyph-name="softhyphen" unicode="&#xad;" horiz-adv-x="552" 
d="M68 596h417v-131h-417v131z" />
    <glyph glyph-name="registered" unicode="&#xae;" horiz-adv-x="804" 
d="M403 492q-161 0 -259.5 132t-98.5 347q0 217 98.5 350t259.5 133q160 0 258.5 -133t98.5 -350q0 -218 -97 -348.5t-260 -130.5zM403 573q128 0 199.5 104.5t71.5 293.5q0 187 -73 294t-198 107q-126 0 -199 -107t-73 -294q0 -186 73 -292t199 -106zM358 733h-96v496h152
q69 0 110 -38.5t41 -109.5q0 -48 -22 -81.5t-60 -49.5l95 -217h-103l-86 205h-31v-205zM358 1149v-139h56q57 0 57 69q0 70 -57 70h-56z" />
    <glyph glyph-name="macron" unicode="&#xaf;" 
d="M549 1198h-418v125h418v-125z" />
    <glyph glyph-name="degree" unicode="&#xb0;" horiz-adv-x="526" 
d="M264 700q-108 0 -176 88t-68 226q0 139 67 226t177 87q112 0 177 -85.5t65 -227.5q0 -139 -66.5 -226.5t-175.5 -87.5zM264 803q60 0 96.5 56.5t36.5 154.5q0 101 -35.5 157t-97.5 56q-60 0 -96.5 -57.5t-36.5 -155.5q0 -96 37 -153.5t96 -57.5z" />
    <glyph glyph-name="plusminus" unicode="&#xb1;" horiz-adv-x="735" 
d="M449 356h-140v279h-229v135h229v279h140v-279h229v-135h-229v-279zM678 0h-598v135h598v-135z" />
    <glyph glyph-name="twosuperior" unicode="&#xb2;" horiz-adv-x="440" 
d="M391 657h-334v86l162 226q68 92 68 174q0 42 -21 67t-57 25q-52 0 -92 -68l-68 62q64 98 170 98q76 0 124 -49.5t48 -130.5q0 -51 -22 -104.5t-76 -129.5l-113 -163h211v-93z" />
    <glyph glyph-name="threesuperior" unicode="&#xb3;" horiz-adv-x="440" 
d="M207 645q-112 0 -162 86l64 64q37 -58 92 -58q44 0 65 33.5t21 87.5q0 121 -111 121h-31v59l125 183h-200v92h307v-86l-125 -178q66 -15 101.5 -65.5t35.5 -125.5q0 -93 -49 -153t-133 -60z" />
    <glyph glyph-name="acute" unicode="&#xb4;" 
d="M518 1386h172l-201 -296h-127z" />
    <glyph glyph-name="paragraph" unicode="&#xb6;" horiz-adv-x="796" 
d="M379 1313h295v-1714h-107v1575h-75v-1575h-146v876q-137 17 -216 134t-79 290q0 185 88.5 299.5t239.5 114.5z" />
    <glyph glyph-name="periodcentered" unicode="&#xb7;" horiz-adv-x="815" 
d="M377 553q-32 12 -44 42t1 62q12 31 42 42.5t62 0.5q32 -13 43.5 -43.5t-0.5 -62.5q-14 -31 -43 -42.5t-61 1.5z" />
    <glyph glyph-name="cedilla" unicode="&#xb8;" 
d="M377 0h115l-91 -340l-147 45z" />
    <glyph glyph-name="onesuperior" unicode="&#xb9;" horiz-adv-x="393" 
d="M291 657h-103v527l-96 -97l-49 76l143 150h105v-656z" />
    <glyph glyph-name="ordmasculine" unicode="&#xba;" horiz-adv-x="702" 
d="M352 672q-123 0 -200.5 92t-77.5 237q0 146 77.5 239t200.5 93q122 0 199.5 -93t77.5 -239t-77 -237.5t-200 -91.5zM352 788q70 0 111 57t41 154q0 101 -40.5 159.5t-111.5 58.5q-70 0 -111.5 -59t-41.5 -159q0 -95 42 -153t111 -58z" />
    <glyph glyph-name="guillemotright" unicode="&#xbb;" horiz-adv-x="774" 
d="M414 502l-267 -375l-100 84l207 291l-207 289l100 86zM725 502l-266 -375l-101 84l205 291l-205 289l101 86z" />
    <glyph glyph-name="onequarter" unicode="&#xbc;" horiz-adv-x="1011" 
d="M291 657h-103v527l-96 -97l-49 76l143 150h105v-656zM106 0l650 1313h125l-645 -1313h-130zM588 223l217 432h104v-432h64v-88h-64v-135h-98v135h-223v88zM670 223h141v283z" />
    <glyph glyph-name="onehalf" unicode="&#xbd;" horiz-adv-x="1015" 
d="M291 657h-103v527l-96 -97l-49 76l143 150h105v-656zM104 0l650 1313h127l-645 -1313h-132zM963 0h-334v86l162 225q67 91 67 174q0 42 -21 67.5t-57 25.5q-52 0 -92 -68l-67 61q64 99 170 99q76 0 124 -50t48 -131q0 -50 -22 -103t-77 -130l-112 -164h211v-92z" />
    <glyph glyph-name="threequarters" unicode="&#xbe;" horiz-adv-x="1007" 
d="M207 645q-112 0 -162 86l64 64q37 -58 92 -58q44 0 65 33.5t21 87.5q0 121 -111 121h-31v59l125 183h-200v92h307v-86l-125 -178q66 -15 101.5 -65.5t35.5 -125.5q0 -93 -49 -153t-133 -60zM127 0l649 1313h125l-645 -1313h-129zM584 223l217 432h104v-432h64v-88h-64
v-135h-98v135h-223v88zM666 223h141v283z" />
    <glyph glyph-name="questiondown" unicode="&#xbf;" horiz-adv-x="704" 
d="M385 1006q46 0 76.5 -31.5t30.5 -77.5q0 -47 -30.5 -79t-76.5 -32t-76 32t-30 79q0 46 30.5 77.5t75.5 31.5zM332 606h119l14 -319l-39 -2q-108 0 -166.5 -67.5t-58.5 -188.5q0 -108 50 -171t132 -63q67 0 116 32.5t93 106.5l90 -98q-107 -178 -309 -178q-144 0 -232 100
t-88 267q0 144 73.5 243t195.5 121z" />
    <glyph glyph-name="Agrave" unicode="&#xc0;" horiz-adv-x="952" 
d="M387 1718l160 -297h-131l-205 297h176zM768 0l-92 352h-412l-90 -352h-147l348 1313h203l350 -1313h-160zM299 487h342l-170 660z" />
    <glyph glyph-name="Aacute" unicode="&#xc1;" horiz-adv-x="952" 
d="M571 1718h172l-200 -297h-127zM768 0l-92 352h-412l-90 -352h-147l348 1313h203l350 -1313h-160zM299 487h342l-170 660z" />
    <glyph glyph-name="Acircumflex" unicode="&#xc2;" horiz-adv-x="952" 
d="M356 1421h-131l176 297h152l176 -297h-131l-121 199zM768 0l-92 352h-412l-90 -352h-147l348 1313h203l350 -1313h-160zM299 487h342l-170 660z" />
    <glyph glyph-name="Atilde" unicode="&#xc3;" horiz-adv-x="952" 
d="M297 1477l-84 65q59 135 154 135q48 0 108.5 -34.5t95.5 -34.5q48 0 88 78l84 -66q-58 -135 -155 -135q-46 0 -107 34.5t-98 34.5q-47 0 -86 -77zM768 0l-92 352h-412l-90 -352h-147l348 1313h203l350 -1313h-160zM299 487h342l-170 660z" />
    <glyph glyph-name="Adieresis" unicode="&#xc4;" horiz-adv-x="952" 
d="M248 1579q0 40 26 67t64 27q37 0 64.5 -28t27.5 -66t-27 -65t-65 -27q-40 0 -65 26t-25 66zM524 1579q0 40 26 67t64 27q40 0 66.5 -27t26.5 -67t-26 -66t-67 -26q-40 0 -65 26t-25 66zM768 0l-92 352h-412l-90 -352h-147l348 1313h203l350 -1313h-160zM299 487h342
l-170 660z" />
    <glyph glyph-name="Aring" unicode="&#xc5;" horiz-adv-x="952" 
d="M477 1401q-94 0 -148.5 62t-54.5 153q0 89 54.5 151t148.5 62q95 0 149 -61.5t54 -151.5q0 -91 -53.5 -153t-149.5 -62zM479 1497q49 0 74 33.5t25 85.5q0 51 -25.5 84t-73.5 33q-49 0 -74.5 -33.5t-25.5 -83.5q0 -52 25.5 -85.5t74.5 -33.5zM768 0l-92 352h-412
l-90 -352h-147l348 1313h203l350 -1313h-160zM299 487h342l-170 660z" />
    <glyph glyph-name="AE" unicode="&#xc6;" horiz-adv-x="1245" 
d="M156 0h-150l424 1313h762v-142h-459v-442h402v-141h-402v-447h459v-141h-608v352h-314zM535 1171l-222 -684h271v684h-49z" />
    <glyph glyph-name="Ccedilla" unicode="&#xc7;" horiz-adv-x="833" 
d="M801 84q-105 -85 -223 -98l-86 -326l-148 45l117 283q-185 26 -287 201t-102 466q0 315 119.5 494.5t328.5 179.5q87 0 152 -24t129 -76l-70 -125q-47 43 -94.5 62.5t-108.5 19.5q-146 0 -224.5 -138.5t-78.5 -392.5t79 -391t226 -137q110 0 201 82z" />
    <glyph glyph-name="Egrave" unicode="&#xc8;" horiz-adv-x="782" 
d="M336 1718l160 -297h-131l-205 297h176zM125 0v1313h604v-142h-457v-442h400v-141h-400v-447h457v-141h-604z" />
    <glyph glyph-name="Eacute" unicode="&#xc9;" horiz-adv-x="782" 
d="M520 1718h172l-200 -297h-127zM125 0v1313h604v-142h-457v-442h400v-141h-400v-447h457v-141h-604z" />
    <glyph glyph-name="Ecircumflex" unicode="&#xca;" horiz-adv-x="782" 
d="M305 1421h-131l176 297h152l176 -297h-131l-121 199zM125 0v1313h604v-142h-457v-442h400v-141h-400v-447h457v-141h-604z" />
    <glyph glyph-name="Edieresis" unicode="&#xcb;" horiz-adv-x="782" 
d="M197 1579q0 40 26 67t64 27q37 0 64.5 -28t27.5 -66t-27 -65t-65 -27q-40 0 -65 26t-25 66zM473 1579q0 40 26 67t64 27q40 0 66 -27t26 -67t-25.5 -66t-66.5 -26q-40 0 -65 26t-25 66zM125 0v1313h604v-142h-457v-442h400v-141h-400v-447h457v-141h-604z" />
    <glyph glyph-name="Igrave" unicode="&#xcc;" horiz-adv-x="397" 
d="M109 1718l159 -297h-131l-205 297h177zM125 0v1313h147v-1313h-147z" />
    <glyph glyph-name="Iacute" unicode="&#xcd;" horiz-adv-x="397" 
d="M293 1718h172l-201 -297h-127zM125 0v1313h147v-1313h-147z" />
    <glyph glyph-name="Icircumflex" unicode="&#xce;" horiz-adv-x="397" 
d="M78 1421h-131l176 297h151l177 -297h-132l-120 199zM125 0v1313h147v-1313h-147z" />
    <glyph glyph-name="Idieresis" unicode="&#xcf;" horiz-adv-x="397" 
d="M-31 1579q0 40 26 67t64 27q37 0 65 -28t28 -66t-27.5 -65t-65.5 -27q-40 0 -65 26t-25 66zM246 1579q0 40 26 67t64 27q40 0 66 -27t26 -67t-25.5 -66t-66.5 -26q-40 0 -65 26t-25 66zM125 0v1313h147v-1313h-147z" />
    <glyph glyph-name="Eth" unicode="&#xd0;" horiz-adv-x="983" 
d="M418 0h-293v592h-94v129h94v592h289q160 0 272.5 -83.5t167.5 -230t55 -344.5q0 -299 -127.5 -477t-363.5 -178zM475 592h-203v-451h146q170 0 254 136t84 378q0 243 -84 379.5t-256 136.5h-144v-450h203v-129z" />
    <glyph glyph-name="Ntilde" unicode="&#xd1;" horiz-adv-x="1017" 
d="M338 1477l-84 65q59 135 154 135q48 0 108.5 -34.5t95.5 -34.5q48 0 88 78l84 -66q-58 -135 -155 -135q-45 0 -106.5 34.5t-98.5 34.5q-47 0 -86 -77zM705 0l-439 1077v-1077h-141v1313h188l439 -1080v1080h141v-1313h-188z" />
    <glyph glyph-name="Ograve" unicode="&#xd2;" horiz-adv-x="1001" 
d="M410 1718l159 -297h-131l-205 297h177zM500 1329q206 0 317 -177t111 -499q0 -320 -111 -494.5t-317 -174.5q-204 0 -316 175.5t-112 495.5t112 497t316 177zM500 127q134 0 204 135t70 391q0 259 -70 396t-204 137t-204.5 -136.5t-70.5 -394.5t70.5 -393t204.5 -135z
" />
    <glyph glyph-name="Oacute" unicode="&#xd3;" horiz-adv-x="1001" 
d="M594 1718h172l-201 -297h-127zM500 1329q206 0 317 -177t111 -499q0 -320 -111 -494.5t-317 -174.5q-204 0 -316 175.5t-112 495.5t112 497t316 177zM500 127q134 0 204 135t70 391q0 259 -70 396t-204 137t-204.5 -136.5t-70.5 -394.5t70.5 -393t204.5 -135z" />
    <glyph glyph-name="Ocircumflex" unicode="&#xd4;" horiz-adv-x="1001" 
d="M379 1421h-131l176 297h151l177 -297h-131l-121 199zM500 1329q206 0 317 -177t111 -499q0 -320 -111 -494.5t-317 -174.5q-204 0 -316 175.5t-112 495.5t112 497t316 177zM500 127q134 0 204 135t70 391q0 259 -70 396t-204 137t-204.5 -136.5t-70.5 -394.5t70.5 -393
t204.5 -135z" />
    <glyph glyph-name="Otilde" unicode="&#xd5;" horiz-adv-x="1001" 
d="M319 1477l-83 65q59 135 153 135q48 0 109 -34.5t96 -34.5q48 0 88 78l84 -66q-58 -135 -156 -135q-46 0 -107 34.5t-97 34.5q-48 0 -87 -77zM500 1329q206 0 317 -177t111 -499q0 -320 -111 -494.5t-317 -174.5q-204 0 -316 175.5t-112 495.5t112 497t316 177zM500 127
q134 0 204 135t70 391q0 259 -70 396t-204 137t-204.5 -136.5t-70.5 -394.5t70.5 -393t204.5 -135z" />
    <glyph glyph-name="Odieresis" unicode="&#xd6;" horiz-adv-x="1001" 
d="M270 1579q0 40 26 67t64 27q37 0 65 -28t28 -66t-27.5 -65t-65.5 -27q-40 0 -65 26t-25 66zM547 1579q0 40 26 67t64 27q40 0 66 -27t26 -67t-25.5 -66t-66.5 -26q-40 0 -65 26t-25 66zM500 1329q206 0 317 -177t111 -499q0 -320 -111 -494.5t-317 -174.5
q-204 0 -316 175.5t-112 495.5t112 497t316 177zM500 127q134 0 204 135t70 391q0 259 -70 396t-204 137t-204.5 -136.5t-70.5 -394.5t70.5 -393t204.5 -135z" />
    <glyph glyph-name="multiply" unicode="&#xd7;" horiz-adv-x="735" 
d="M184 315l-100 86l199 256l-197 254l98 86l183 -233l184 235l100 -86l-200 -256l198 -254l-100 -88l-182 234z" />
    <glyph glyph-name="Oslash" unicode="&#xd8;" horiz-adv-x="1001" 
d="M500 -16q-133 0 -224 73l-73 -153l-105 47l95 196q-121 178 -121 508q0 320 112 497t316 177q133 0 225 -74l74 154l102 -47l-94 -195q121 -177 121 -514q0 -320 -111 -494.5t-317 -174.5zM225 655q0 -212 47 -342l385 803q-61 70 -157 70q-134 0 -204.5 -136.5
t-70.5 -394.5zM500 127q134 0 204 135t70 391q0 214 -47 344l-385 -802q65 -68 158 -68z" />
    <glyph glyph-name="Ugrave" unicode="&#xd9;" horiz-adv-x="954" 
d="M387 1718l160 -297h-131l-205 297h176zM104 418v895h150v-910q0 -136 59 -206t166 -70q105 0 163 69.5t58 206.5v910h150v-895q0 -210 -99.5 -322t-273.5 -112t-273.5 112t-99.5 322z" />
    <glyph glyph-name="Uacute" unicode="&#xda;" horiz-adv-x="954" 
d="M571 1718h172l-200 -297h-127zM104 418v895h150v-910q0 -136 59 -206t166 -70q105 0 163 69.5t58 206.5v910h150v-895q0 -210 -99.5 -322t-273.5 -112t-273.5 112t-99.5 322z" />
    <glyph glyph-name="Ucircumflex" unicode="&#xdb;" horiz-adv-x="954" 
d="M356 1421h-131l176 297h152l176 -297h-131l-121 199zM104 418v895h150v-910q0 -136 59 -206t166 -70q105 0 163 69.5t58 206.5v910h150v-895q0 -210 -99.5 -322t-273.5 -112t-273.5 112t-99.5 322z" />
    <glyph glyph-name="Udieresis" unicode="&#xdc;" horiz-adv-x="954" 
d="M248 1579q0 40 26 67t64 27q37 0 64.5 -28t27.5 -66t-27 -65t-65 -27q-40 0 -65 26t-25 66zM524 1579q0 40 26 67t64 27q40 0 66.5 -27t26.5 -67t-26 -66t-67 -26q-40 0 -65 26t-25 66zM104 418v895h150v-910q0 -136 59 -206t166 -70q105 0 163 69.5t58 206.5v910h150
v-895q0 -210 -99.5 -322t-273.5 -112t-273.5 112t-99.5 322z" />
    <glyph glyph-name="Yacute" unicode="&#xdd;" horiz-adv-x="849" 
d="M520 1718h172l-200 -297h-127zM350 0v463l-336 850h160l252 -674l256 674h154l-338 -850v-463h-148z" />
    <glyph glyph-name="Thorn" unicode="&#xde;" horiz-adv-x="884" 
d="M272 0h-147v1313h147v-226h181q170 0 275.5 -112t105.5 -293q0 -183 -106.5 -296.5t-278.5 -113.5h-177v-272zM272 948v-536h185q101 0 162 73.5t61 196.5q0 122 -60.5 194t-162.5 72h-185z" />
    <glyph glyph-name="germandbls" unicode="&#xdf;" horiz-adv-x="894" 
d="M524 -16q-107 0 -168 34l25 121q52 -28 123 -28q95 0 149 74t54 206q0 134 -59.5 211.5t-162.5 77.5h-86v119h78q74 0 122 70t48 180q0 118 -51 182.5t-143 64.5q-89 0 -139 -62.5t-50 -172.5v-1061h-145v1040q0 180 90 285t242 105q157 0 249.5 -103t92.5 -276
q0 -99 -38.5 -176.5t-107.5 -122.5q100 -38 153.5 -131.5t53.5 -231.5q0 -179 -92 -292t-238 -113z" />
    <glyph glyph-name="agrave" unicode="&#xe0;" horiz-adv-x="882" 
d="M352 1386l160 -296h-131l-205 296h176zM387 -16q-149 0 -237.5 137.5t-88.5 370.5t88 369t238 136q161 0 231 -176v160h146v-981h-146v162q-70 -178 -231 -178zM414 121q98 0 151 97.5t53 273.5q0 174 -53 271t-151 97t-151.5 -97.5t-53.5 -270.5t54 -272t151 -99z" />
    <glyph glyph-name="aacute" unicode="&#xe1;" horiz-adv-x="882" 
d="M537 1386h172l-201 -296h-127zM387 -16q-149 0 -237.5 137.5t-88.5 370.5t88 369t238 136q161 0 231 -176v160h146v-981h-146v162q-70 -178 -231 -178zM414 121q98 0 151 97.5t53 273.5q0 174 -53 271t-151 97t-151.5 -97.5t-53.5 -270.5t54 -272t151 -99z" />
    <glyph glyph-name="acircumflex" unicode="&#xe2;" horiz-adv-x="882" 
d="M322 1090h-132l177 296h151l176 -296h-131l-121 198zM387 -16q-149 0 -237.5 137.5t-88.5 370.5t88 369t238 136q161 0 231 -176v160h146v-981h-146v162q-70 -178 -231 -178zM414 121q98 0 151 97.5t53 273.5q0 174 -53 271t-151 97t-151.5 -97.5t-53.5 -270.5t54 -272
t151 -99z" />
    <glyph glyph-name="atilde" unicode="&#xe3;" horiz-adv-x="882" 
d="M260 1145l-84 65q60 136 154 136q48 0 109 -35t96 -35q48 0 88 78l84 -66q-58 -135 -156 -135q-45 0 -107 35t-98 35q-27 0 -46.5 -20t-39.5 -58zM387 -16q-149 0 -237.5 137.5t-88.5 370.5t88 369t238 136q161 0 231 -176v160h146v-981h-146v162q-70 -178 -231 -178z
M414 121q98 0 151 97.5t53 273.5q0 174 -53 271t-151 97t-151.5 -97.5t-53.5 -270.5t54 -272t151 -99z" />
    <glyph glyph-name="adieresis" unicode="&#xe4;" horiz-adv-x="882" 
d="M213 1247q0 40 26 67t64 27q37 0 64.5 -28t27.5 -66t-27 -65t-65 -27q-40 0 -65 26t-25 66zM489 1247q0 40 26.5 67t64.5 27q40 0 66 -27t26 -67t-25.5 -66t-66.5 -26q-40 0 -65.5 26t-25.5 66zM387 -16q-149 0 -237.5 137.5t-88.5 370.5t88 369t238 136q161 0 231 -176
v160h146v-981h-146v162q-70 -178 -231 -178zM414 121q98 0 151 97.5t53 273.5q0 174 -53 271t-151 97t-151.5 -97.5t-53.5 -270.5t54 -272t151 -99z" />
    <glyph glyph-name="aring" unicode="&#xe5;" horiz-adv-x="882" 
d="M442 1069q-94 0 -148 62t-54 153q0 89 54 151t148 62q95 0 149 -61.5t54 -151.5q0 -91 -53.5 -153t-149.5 -62zM444 1165q49 0 74 33.5t25 85.5q0 51 -25.5 84t-73.5 33q-49 0 -74.5 -33.5t-25.5 -83.5q0 -52 25.5 -85.5t74.5 -33.5zM387 -16q-149 0 -237.5 137.5
t-88.5 370.5t88 369t238 136q161 0 231 -176v160h146v-981h-146v162q-70 -178 -231 -178zM414 121q98 0 151 97.5t53 273.5q0 174 -53 271t-151 97t-151.5 -97.5t-53.5 -270.5t54 -272t151 -99z" />
    <glyph glyph-name="ae" unicode="&#xe6;" horiz-adv-x="1353" 
d="M387 -16q-149 0 -237.5 137.5t-88.5 370.5t88 369t238 136q161 0 231 -176v160h146v-166q71 182 235 182q135 0 214 -128t79 -334q0 -37 -2 -66h-526q4 -171 65.5 -259.5t174.5 -88.5q49 0 96 20.5t80 59.5l69 -113q-101 -104 -233 -104q-180 0 -252 186v-170h-146v162
q-70 -178 -231 -178zM958 864q-81 0 -130 -76t-60 -215h377q-8 140 -56 215.5t-131 75.5zM414 121q98 0 151 97.5t53 273.5q0 174 -53 271t-151 97t-151.5 -97.5t-53.5 -270.5t54 -272t151 -99z" />
    <glyph glyph-name="ccedilla" unicode="&#xe7;" horiz-adv-x="684" 
d="M653 80q-78 -75 -176 -92l-86 -328l-147 45l118 283q-139 25 -220 159.5t-81 344.5q0 229 97 367t260 138q142 0 235 -96l-69 -121q-72 78 -162 78q-101 0 -157 -97t-56 -269q0 -171 56.5 -270t154.5 -99q53 0 91.5 18.5t74.5 59.5z" />
    <glyph glyph-name="egrave" unicode="&#xe8;" horiz-adv-x="798" 
d="M315 1386l160 -296h-131l-205 296h176zM442 -16q-180 0 -280.5 135t-100.5 373q0 229 93 367t252 138q149 0 239 -128.5t90 -333.5q0 -37 -2 -66h-526q5 -172 66 -262t173 -90q106 0 177 84l69 -113q-101 -104 -250 -104zM401 864q-81 0 -130 -76t-60 -215h377
q-8 140 -56 215.5t-131 75.5z" />
    <glyph glyph-name="eacute" unicode="&#xe9;" horiz-adv-x="798" 
d="M500 1386h172l-201 -296h-127zM442 -16q-180 0 -280.5 135t-100.5 373q0 229 93 367t252 138q149 0 239 -128.5t90 -333.5q0 -37 -2 -66h-526q5 -172 66 -262t173 -90q106 0 177 84l69 -113q-101 -104 -250 -104zM401 864q-81 0 -130 -76t-60 -215h377q-8 140 -56 215.5
t-131 75.5z" />
    <glyph glyph-name="ecircumflex" unicode="&#xea;" horiz-adv-x="798" 
d="M285 1090h-131l176 296h151l176 -296h-131l-120 198zM442 -16q-180 0 -280.5 135t-100.5 373q0 229 93 367t252 138q149 0 239 -128.5t90 -333.5q0 -37 -2 -66h-526q5 -172 66 -262t173 -90q106 0 177 84l69 -113q-101 -104 -250 -104zM401 864q-81 0 -130 -76t-60 -215
h377q-8 140 -56 215.5t-131 75.5z" />
    <glyph glyph-name="edieresis" unicode="&#xeb;" horiz-adv-x="798" 
d="M176 1247q0 40 26 67t64 27q37 0 64.5 -28t27.5 -66t-27 -65t-65 -27q-40 0 -65 26t-25 66zM453 1247q0 40 26 67t64 27q40 0 66 -27t26 -67t-25.5 -66t-66.5 -26q-40 0 -65 26t-25 66zM442 -16q-180 0 -280.5 135t-100.5 373q0 229 93 367t252 138q149 0 239 -128.5
t90 -333.5q0 -37 -2 -66h-526q5 -172 66 -262t173 -90q106 0 177 84l69 -113q-101 -104 -250 -104zM401 864q-81 0 -130 -76t-60 -215h377q-8 140 -56 215.5t-131 75.5z" />
    <glyph glyph-name="igrave" unicode="&#xec;" horiz-adv-x="380" 
d="M100 1386l160 -296h-131l-205 296h176zM264 981v-981h-145v981h145z" />
    <glyph glyph-name="iacute" unicode="&#xed;" horiz-adv-x="380" 
d="M285 1386h172l-201 -296h-127zM264 981v-981h-145v981h145z" />
    <glyph glyph-name="icircumflex" unicode="&#xee;" horiz-adv-x="380" 
d="M70 1090h-131l176 296h151l176 -296h-131l-121 198zM264 981v-981h-145v981h145z" />
    <glyph glyph-name="idieresis" unicode="&#xef;" horiz-adv-x="380" 
d="M-39 1247q0 40 26 67t64 27q37 0 64.5 -28t27.5 -66t-27 -65t-65 -27q-40 0 -65 26t-25 66zM238 1247q0 40 26 67t64 27q40 0 66 -27t26 -67t-25.5 -66t-66.5 -26q-40 0 -65 26t-25 66zM264 981v-981h-145v981h145z" />
    <glyph glyph-name="eth" unicode="&#xf0;" horiz-adv-x="825" 
d="M414 -16q-162 0 -257.5 131t-95.5 356q0 224 91 357t243 133q66 0 122 -40t91 -106q-49 211 -168 369l-116 -88l-60 86l109 82q-51 50 -109 94l86 92q71 -49 129 -107l86 66l62 -86l-80 -59q217 -282 217 -766q0 -239 -93.5 -376.5t-256.5 -137.5zM414 121q97 0 150.5 91
t53.5 259q0 157 -54.5 254.5t-149.5 97.5q-97 0 -151 -92t-54 -260t54 -259t151 -91z" />
    <glyph glyph-name="ntilde" unicode="&#xf1;" horiz-adv-x="854" 
d="M272 1145l-84 65q60 136 154 136q48 0 109 -35t96 -35q48 0 88 78l84 -66q-58 -135 -156 -135q-45 0 -107 35t-98 35q-27 0 -46.5 -20t-39.5 -58zM264 0h-145v981h145v-127q34 69 93 106t135 37q129 0 198.5 -88.5t69.5 -251.5v-657h-146v639q0 221 -168 221
q-86 0 -134 -63t-48 -174v-623z" />
    <glyph glyph-name="ograve" unicode="&#xf2;" horiz-adv-x="825" 
d="M324 1386l159 -296h-131l-205 296h177zM414 -16q-165 0 -259 138.5t-94 369.5q0 229 94 367t259 138q164 0 257 -137.5t93 -367.5t-93 -369t-257 -139zM414 121q97 0 150.5 97t53.5 274q0 175 -53.5 271.5t-150.5 96.5q-98 0 -151.5 -96.5t-53.5 -271.5t53.5 -273
t151.5 -98z" />
    <glyph glyph-name="oacute" unicode="&#xf3;" horiz-adv-x="825" 
d="M508 1386h172l-201 -296h-127zM414 -16q-165 0 -259 138.5t-94 369.5q0 229 94 367t259 138q164 0 257 -137.5t93 -367.5t-93 -369t-257 -139zM414 121q97 0 150.5 97t53.5 274q0 175 -53.5 271.5t-150.5 96.5q-98 0 -151.5 -96.5t-53.5 -271.5t53.5 -273t151.5 -98z" />
    <glyph glyph-name="ocircumflex" unicode="&#xf4;" horiz-adv-x="825" 
d="M293 1090h-131l176 296h151l177 -296h-131l-121 198zM414 -16q-165 0 -259 138.5t-94 369.5q0 229 94 367t259 138q164 0 257 -137.5t93 -367.5t-93 -369t-257 -139zM414 121q97 0 150.5 97t53.5 274q0 175 -53.5 271.5t-150.5 96.5q-98 0 -151.5 -96.5t-53.5 -271.5
t53.5 -273t151.5 -98z" />
    <glyph glyph-name="otilde" unicode="&#xf5;" horiz-adv-x="825" 
d="M231 1145l-84 65q60 136 154 136q48 0 109 -35t96 -35q48 0 88 78l84 -66q-58 -135 -156 -135q-46 0 -107 35t-98 35q-27 0 -46.5 -20t-39.5 -58zM414 -16q-165 0 -259 138.5t-94 369.5q0 229 94 367t259 138q164 0 257 -137.5t93 -367.5t-93 -369t-257 -139zM414 121
q97 0 150.5 97t53.5 274q0 175 -53.5 271.5t-150.5 96.5q-98 0 -151.5 -96.5t-53.5 -271.5t53.5 -273t151.5 -98z" />
    <glyph glyph-name="odieresis" unicode="&#xf6;" horiz-adv-x="825" 
d="M184 1247q0 40 26 67t64 27q37 0 65 -28t28 -66t-27.5 -65t-65.5 -27q-40 0 -65 26t-25 66zM461 1247q0 40 26 67t64 27q40 0 66 -27t26 -67t-25.5 -66t-66.5 -26q-40 0 -65 26t-25 66zM414 -16q-165 0 -259 138.5t-94 369.5q0 229 94 367t259 138q164 0 257 -137.5
t93 -367.5t-93 -369t-257 -139zM414 121q97 0 150.5 97t53.5 274q0 175 -53.5 271.5t-150.5 96.5q-98 0 -151.5 -96.5t-53.5 -271.5t53.5 -273t151.5 -98z" />
    <glyph glyph-name="divide" unicode="&#xf7;" horiz-adv-x="755" 
d="M377 897q-41 0 -68.5 28.5t-27.5 69.5q0 40 27.5 68.5t68.5 28.5q42 0 70 -28.5t28 -68.5q0 -42 -28 -70t-70 -28zM678 592h-598v133h598v-133zM377 225q-41 0 -67.5 27.5t-26.5 69.5t26.5 70t67.5 28q42 0 70 -28t28 -70t-27.5 -69.5t-70.5 -27.5z" />
    <glyph glyph-name="oslash" unicode="&#xf8;" horiz-adv-x="825" 
d="M414 -16q-102 0 -181 57l-65 -127l-84 49l78 150q-101 138 -101 379q0 230 94 367.5t259 137.5q101 0 178 -55l67 127l84 -51l-77 -150q98 -140 98 -376q0 -230 -93 -369t-257 -139zM199 492q0 -149 37 -236l292 563q-47 41 -114 41q-104 0 -159.5 -96t-55.5 -272z
M414 123q103 0 158 96.5t55 272.5q0 143 -35 233l-293 -561q47 -41 115 -41z" />
    <glyph glyph-name="ugrave" unicode="&#xf9;" horiz-adv-x="811" 
d="M315 1386l160 -296h-131l-205 296h176zM233 981v-635q0 -109 42.5 -169t127.5 -60q84 0 128 59t44 170v635h148v-614q0 -185 -82.5 -283t-237.5 -98q-153 0 -234 98t-81 283v614h145z" />
    <glyph glyph-name="uacute" unicode="&#xfa;" horiz-adv-x="811" 
d="M500 1386h172l-201 -296h-127zM233 981v-635q0 -109 42.5 -169t127.5 -60q84 0 128 59t44 170v635h148v-614q0 -185 -82.5 -283t-237.5 -98q-153 0 -234 98t-81 283v614h145z" />
    <glyph glyph-name="ucircumflex" unicode="&#xfb;" horiz-adv-x="811" 
d="M285 1090h-131l176 296h151l176 -296h-131l-120 198zM233 981v-635q0 -109 42.5 -169t127.5 -60q84 0 128 59t44 170v635h148v-614q0 -185 -82.5 -283t-237.5 -98q-153 0 -234 98t-81 283v614h145z" />
    <glyph glyph-name="udieresis" unicode="&#xfc;" horiz-adv-x="811" 
d="M176 1247q0 40 26 67t64 27q37 0 64.5 -28t27.5 -66t-27 -65t-65 -27q-40 0 -65 26t-25 66zM453 1247q0 40 26 67t64 27q40 0 66 -27t26 -67t-25.5 -66t-66.5 -26q-40 0 -65 26t-25 66zM233 981v-635q0 -109 42.5 -169t127.5 -60q84 0 128 59t44 170v635h148v-614
q0 -185 -82.5 -283t-237.5 -98q-153 0 -234 98t-81 283v614h145z" />
    <glyph glyph-name="yacute" unicode="&#xfd;" horiz-adv-x="735" 
d="M469 1386h172l-201 -296h-127zM174 981l207 -766l190 766h144l-312 -1151q-34 -128 -90.5 -188t-146.5 -60q-77 0 -141 43l53 121q44 -33 90 -33q39 0 62 29t42 96l45 160l-297 983h154z" />
    <glyph glyph-name="thorn" unicode="&#xfe;" horiz-adv-x="880" 
d="M264 -401h-145v1810h145v-592q70 180 232 180q150 0 236.5 -137t86.5 -371t-86.5 -369.5t-236.5 -135.5q-161 0 -232 178v-563zM469 121q98 0 151.5 97.5t53.5 270.5q0 174 -53.5 272.5t-151.5 98.5t-151.5 -98.5t-53.5 -272.5t53.5 -271t151.5 -97z" />
    <glyph glyph-name="ydieresis" unicode="&#xff;" horiz-adv-x="735" 
d="M145 1247q0 40 26.5 67t64.5 27q37 0 64.5 -28t27.5 -66t-27 -65t-65 -27q-40 0 -65.5 26t-25.5 66zM422 1247q0 40 26 67t64 27q40 0 66 -27t26 -67t-25.5 -66t-66.5 -26q-40 0 -65 26t-25 66zM174 981l207 -766l190 766h144l-312 -1151q-34 -128 -90.5 -188t-146.5 -60
q-77 0 -141 43l53 121q44 -33 90 -33q39 0 62 29t42 96l45 160l-297 983h154z" />
    <glyph glyph-name="Amacron" unicode="&#x100;" horiz-adv-x="952" 
d="M686 1530h-418v125h418v-125zM768 0l-92 352h-412l-90 -352h-147l348 1313h203l350 -1313h-160zM299 487h342l-170 660z" />
    <glyph glyph-name="amacron" unicode="&#x101;" horiz-adv-x="882" 
d="M649 1198h-418v125h418v-125zM387 -16q-149 0 -237.5 137.5t-88.5 370.5t88 369t238 136q161 0 231 -176v160h146v-981h-146v162q-70 -178 -231 -178zM414 121q98 0 151 97.5t53 273.5q0 174 -53 271t-151 97t-151.5 -97.5t-53.5 -270.5t54 -272t151 -99z" />
    <glyph glyph-name="Abreve" unicode="&#x102;" horiz-adv-x="952" 
d="M477 1401q-117 0 -180.5 78.5t-63.5 216.5h117q0 -89 32.5 -136t94.5 -47q127 0 127 183h117q0 -140 -62.5 -217.5t-181.5 -77.5zM768 0l-92 352h-412l-90 -352h-147l348 1313h203l350 -1313h-160zM299 487h342l-170 660z" />
    <glyph glyph-name="abreve" unicode="&#x103;" horiz-adv-x="882" 
d="M440 1069q-117 0 -180 78.5t-63 216.5h116q0 -89 32.5 -135.5t94.5 -46.5q127 0 127 182h117q0 -140 -62.5 -217.5t-181.5 -77.5zM387 -16q-149 0 -237.5 137.5t-88.5 370.5t88 369t238 136q161 0 231 -176v160h146v-981h-146v162q-70 -178 -231 -178zM414 121
q98 0 151 97.5t53 273.5q0 174 -53 271t-151 97t-151.5 -97.5t-53.5 -270.5t54 -272t151 -99z" />
    <glyph glyph-name="Aogonek" unicode="&#x104;" horiz-adv-x="952" 
d="M768 0l-92 352h-412l-90 -352h-147l348 1313h203l350 -1313h-2q-78 -61 -115 -114t-37 -107q0 -34 19 -54t51 -20q41 0 76 35l57 -76q-58 -74 -156 -74q-74 0 -124 46.5t-50 115.5q0 129 146 248h-25zM299 487h342l-170 660z" />
    <glyph glyph-name="aogonek" unicode="&#x105;" horiz-adv-x="882" 
d="M387 -16q-149 0 -237.5 137.5t-88.5 370.5t88 369t238 136q161 0 231 -176v160h146v-981q-78 -61 -115 -114t-37 -107q0 -34 19 -54t51 -20q41 0 76 35l57 -76q-58 -74 -156 -74q-74 0 -124 46.5t-50 115.5q0 129 146 248h-13v162q-70 -178 -231 -178zM414 121
q98 0 151 97.5t53 273.5q0 174 -53 271t-151 97t-151.5 -97.5t-53.5 -270.5t54 -272t151 -99z" />
    <glyph glyph-name="Cacute" unicode="&#x106;" horiz-adv-x="833" 
d="M614 1718h172l-200 -297h-127zM522 -16q-212 0 -331 178t-119 493t119.5 494.5t328.5 179.5q87 0 152 -24t129 -76l-70 -125q-47 43 -94.5 62.5t-108.5 19.5q-146 0 -224.5 -138.5t-78.5 -392.5t79 -391t226 -137q110 0 201 82l70 -125q-63 -52 -128 -76t-151 -24z" />
    <glyph glyph-name="cacute" unicode="&#x107;" horiz-adv-x="684" 
d="M514 1386h172l-201 -296h-127zM418 -16q-161 0 -259 139t-98 369q0 229 97 367t260 138q142 0 235 -96l-69 -121q-72 78 -162 78q-101 0 -157 -97t-56 -269q0 -171 56.5 -270t154.5 -99q53 0 91.5 18.5t74.5 59.5l67 -121q-101 -96 -235 -96z" />
    <glyph glyph-name="Ccircumflex" unicode="&#x108;" horiz-adv-x="833" 
d="M399 1421h-131l176 297h152l176 -297h-131l-121 199zM522 -16q-212 0 -331 178t-119 493t119.5 494.5t328.5 179.5q87 0 152 -24t129 -76l-70 -125q-47 43 -94.5 62.5t-108.5 19.5q-146 0 -224.5 -138.5t-78.5 -392.5t79 -391t226 -137q110 0 201 82l70 -125
q-63 -52 -128 -76t-151 -24z" />
    <glyph glyph-name="ccircumflex" unicode="&#x109;" horiz-adv-x="684" 
d="M299 1090h-131l176 296h152l176 -296h-131l-121 198zM418 -16q-161 0 -259 139t-98 369q0 229 97 367t260 138q142 0 235 -96l-69 -121q-72 78 -162 78q-101 0 -157 -97t-56 -269q0 -171 56.5 -270t154.5 -99q53 0 91.5 18.5t74.5 59.5l67 -121q-101 -96 -235 -96z" />
    <glyph glyph-name="Cdotaccent" unicode="&#x10a;" horiz-adv-x="833" 
d="M520 1485q-41 0 -68.5 27.5t-27.5 68.5t28 68.5t68 27.5q41 0 69.5 -27.5t28.5 -68.5t-29 -68.5t-69 -27.5zM522 -16q-212 0 -331 178t-119 493t119.5 494.5t328.5 179.5q87 0 152 -24t129 -76l-70 -125q-47 43 -94.5 62.5t-108.5 19.5q-146 0 -224.5 -138.5
t-78.5 -392.5t79 -391t226 -137q110 0 201 82l70 -125q-63 -52 -128 -76t-151 -24z" />
    <glyph glyph-name="cdotaccent" unicode="&#x10b;" horiz-adv-x="684" 
d="M420 1153q-41 0 -68.5 27.5t-27.5 68.5t28 69t68 28q41 0 69.5 -28t28.5 -69t-29 -68.5t-69 -27.5zM418 -16q-161 0 -259 139t-98 369q0 229 97 367t260 138q142 0 235 -96l-69 -121q-72 78 -162 78q-101 0 -157 -97t-56 -269q0 -171 56.5 -270t154.5 -99q53 0 91.5 18.5
t74.5 59.5l67 -121q-101 -96 -235 -96z" />
    <glyph glyph-name="Ccaron" unicode="&#x10c;" horiz-adv-x="833" 
d="M596 1421h-152l-176 297h131l121 -198l121 198h131zM522 -16q-212 0 -331 178t-119 493t119.5 494.5t328.5 179.5q87 0 152 -24t129 -76l-70 -125q-47 43 -94.5 62.5t-108.5 19.5q-146 0 -224.5 -138.5t-78.5 -392.5t79 -391t226 -137q110 0 201 82l70 -125
q-63 -52 -128 -76t-151 -24z" />
    <glyph glyph-name="ccaron" unicode="&#x10d;" horiz-adv-x="684" 
d="M496 1090h-152l-176 296h131l121 -198l121 198h131zM418 -16q-161 0 -259 139t-98 369q0 229 97 367t260 138q142 0 235 -96l-69 -121q-72 78 -162 78q-101 0 -157 -97t-56 -269q0 -171 56.5 -270t154.5 -99q53 0 91.5 18.5t74.5 59.5l67 -121q-101 -96 -235 -96z" />
    <glyph glyph-name="Dcaron" unicode="&#x10e;" horiz-adv-x="983" 
d="M526 1421h-151l-176 297h131l121 -198l120 198h131zM125 0v1313h289q160 0 272.5 -83.5t167.5 -230t55 -344.5q0 -299 -127.5 -477t-363.5 -178h-293zM416 1171h-144v-1030h146q170 0 254 136t84 378q0 243 -84 379.5t-256 136.5z" />
    <glyph glyph-name="dcaron" unicode="&#x10f;" horiz-adv-x="880" 
d="M385 -16q-149 0 -236.5 137.5t-87.5 370.5t87.5 369t236.5 136q163 0 233 -180v592h146v-1409h-146v166q-70 -182 -233 -182zM1014 1409l-78 -319h-111l41 319h148zM414 121q98 0 151 98t53 273q0 174 -53 271t-151 97t-151.5 -97.5t-53.5 -270.5q0 -174 53.5 -272.5
t151.5 -98.5z" />
    <glyph glyph-name="Dcroat" unicode="&#x110;" horiz-adv-x="983" 
d="M418 0h-293v592h-94v129h94v592h289q160 0 272.5 -83.5t167.5 -230t55 -344.5q0 -299 -127.5 -477t-363.5 -178zM475 592h-203v-451h146q170 0 254 136t84 378q0 243 -84 379.5t-256 136.5h-144v-450h203v-129z" />
    <glyph glyph-name="dcroat" unicode="&#x111;" horiz-adv-x="880" 
d="M385 -16q-149 0 -236.5 137.5t-87.5 370.5t87.5 369t236.5 136q163 0 233 -180v348h-182v121h182v123h146v-123h108v-121h-108v-1165h-146v166q-70 -182 -233 -182zM414 121q98 0 151 98t53 273q0 174 -53 271t-151 97t-151.5 -97.5t-53.5 -270.5q0 -174 53.5 -272.5
t151.5 -98.5z" />
    <glyph glyph-name="Emacron" unicode="&#x112;" horiz-adv-x="782" 
d="M633 1530h-418v125h418v-125zM125 0v1313h604v-142h-457v-442h400v-141h-400v-447h457v-141h-604z" />
    <glyph glyph-name="emacron" unicode="&#x113;" horiz-adv-x="798" 
d="M614 1198h-417v125h417v-125zM442 -16q-180 0 -280.5 135t-100.5 373q0 229 93 367t252 138q149 0 239 -128.5t90 -333.5q0 -37 -2 -66h-526q5 -172 66 -262t173 -90q106 0 177 84l69 -113q-101 -104 -250 -104zM401 864q-81 0 -130 -76t-60 -215h377q-8 140 -56 215.5
t-131 75.5z" />
    <glyph glyph-name="Ebreve" unicode="&#x114;" horiz-adv-x="782" 
d="M424 1401q-117 0 -180.5 78.5t-63.5 216.5h117q0 -89 32.5 -136t94.5 -47q127 0 127 183h117q0 -140 -62.5 -217.5t-181.5 -77.5zM125 0v1313h604v-142h-457v-442h400v-141h-400v-447h457v-141h-604z" />
    <glyph glyph-name="ebreve" unicode="&#x115;" horiz-adv-x="798" 
d="M406 1069q-117 0 -180.5 78.5t-63.5 216.5h117q0 -89 32.5 -135.5t94.5 -46.5q126 0 126 182h117q0 -140 -62.5 -217.5t-180.5 -77.5zM442 -16q-180 0 -280.5 135t-100.5 373q0 229 93 367t252 138q149 0 239 -128.5t90 -333.5q0 -37 -2 -66h-526q5 -172 66 -262t173 -90
q106 0 177 84l69 -113q-101 -104 -250 -104zM401 864q-81 0 -130 -76t-60 -215h377q-8 140 -56 215.5t-131 75.5z" />
    <glyph glyph-name="Edotaccent" unicode="&#x116;" horiz-adv-x="782" 
d="M426 1485q-41 0 -68.5 27.5t-27.5 68.5t28 68.5t68 27.5q41 0 69.5 -27.5t28.5 -68.5t-29 -68.5t-69 -27.5zM125 0v1313h604v-142h-457v-442h400v-141h-400v-447h457v-141h-604z" />
    <glyph glyph-name="edotaccent" unicode="&#x117;" horiz-adv-x="798" 
d="M406 1153q-41 0 -69 27.5t-28 68.5t28.5 69t68.5 28q41 0 69.5 -28t28.5 -69t-29 -68.5t-69 -27.5zM442 -16q-180 0 -280.5 135t-100.5 373q0 229 93 367t252 138q149 0 239 -128.5t90 -333.5q0 -37 -2 -66h-526q5 -172 66 -262t173 -90q106 0 177 84l69 -113
q-101 -104 -250 -104zM401 864q-81 0 -130 -76t-60 -215h377q-8 140 -56 215.5t-131 75.5z" />
    <glyph glyph-name="Eogonek" unicode="&#x118;" horiz-adv-x="782" 
d="M125 0v1313h604v-142h-457v-442h400v-141h-400v-447h457v-141q-78 -61 -114.5 -113.5t-36.5 -107.5q0 -34 18.5 -54t50.5 -20q41 0 76 35l57 -76q-58 -74 -155 -74q-74 0 -124 46.5t-50 115.5q0 129 145 248h-471z" />
    <glyph glyph-name="eogonek" unicode="&#x119;" horiz-adv-x="798" 
d="M444 -410q-74 0 -124 46.5t-50 115.5q0 124 129 234q-160 17 -249 150t-89 356q0 229 93 367t252 138q149 0 239 -128.5t90 -333.5q0 -37 -2 -66h-526q5 -172 66 -262t173 -90q106 0 177 84l69 -113q-63 -66 -145 -90q-77 -62 -113.5 -113.5t-36.5 -105.5q0 -34 19 -54
t51 -20q41 0 76 35l57 -76q-58 -74 -156 -74zM401 864q-81 0 -130 -76t-60 -215h377q-8 140 -56 215.5t-131 75.5z" />
    <glyph glyph-name="Ecaron" unicode="&#x11a;" horiz-adv-x="782" 
d="M502 1421h-152l-176 297h131l121 -198l121 198h131zM125 0v1313h604v-142h-457v-442h400v-141h-400v-447h457v-141h-604z" />
    <glyph glyph-name="ecaron" unicode="&#x11b;" horiz-adv-x="798" 
d="M481 1090h-151l-176 296h131l121 -198l120 198h131zM442 -16q-180 0 -280.5 135t-100.5 373q0 229 93 367t252 138q149 0 239 -128.5t90 -333.5q0 -37 -2 -66h-526q5 -172 66 -262t173 -90q106 0 177 84l69 -113q-101 -104 -250 -104zM401 864q-81 0 -130 -76t-60 -215
h377q-8 140 -56 215.5t-131 75.5z" />
    <glyph glyph-name="Gcircumflex" unicode="&#x11c;" horiz-adv-x="950" 
d="M422 1421h-131l176 297h151l177 -297h-131l-121 199zM541 -16q-222 0 -345.5 175.5t-123.5 495.5q0 318 127 496t344 178q93 0 162.5 -23.5t134.5 -76.5l-68 -125q-53 45 -103.5 64.5t-117.5 19.5q-157 0 -241.5 -137t-84.5 -396q0 -261 83 -395.5t247 -134.5
q90 0 162 35v393h-219v135h358v-596q-123 -108 -315 -108z" />
    <glyph glyph-name="gcircumflex" unicode="&#x11d;" horiz-adv-x="880" 
d="M319 1090h-131l177 296h151l176 -296h-131l-121 198zM381 4q-148 0 -234 133.5t-86 362.5q0 230 86 363.5t234 133.5q164 0 237 -182v166h146v-1006q0 -187 -96.5 -290t-261.5 -103q-181 0 -295 111l71 117q98 -95 221 -95q103 0 159 62t56 178v231q-73 -182 -237 -182z
M414 141q96 0 150 95.5t54 263.5q0 170 -53.5 265t-150.5 95t-151 -94.5t-54 -265.5q0 -169 54 -264t151 -95z" />
    <glyph glyph-name="Gbreve" unicode="&#x11e;" horiz-adv-x="950" 
d="M543 1401q-117 0 -180.5 78.5t-63.5 216.5h117q0 -89 32.5 -136t94.5 -47q127 0 127 183h116q0 -140 -62.5 -217.5t-180.5 -77.5zM541 -16q-222 0 -345.5 175.5t-123.5 495.5q0 318 127 496t344 178q93 0 162.5 -23.5t134.5 -76.5l-68 -125q-53 45 -103.5 64.5
t-117.5 19.5q-157 0 -241.5 -137t-84.5 -396q0 -261 83 -395.5t247 -134.5q90 0 162 35v393h-219v135h358v-596q-123 -108 -315 -108z" />
    <glyph glyph-name="gbreve" unicode="&#x11f;" horiz-adv-x="880" 
d="M440 1069q-117 0 -180 78.5t-63 216.5h116q0 -89 32.5 -135.5t94.5 -46.5q127 0 127 182h117q0 -140 -62.5 -217.5t-181.5 -77.5zM381 4q-148 0 -234 133.5t-86 362.5q0 230 86 363.5t234 133.5q164 0 237 -182v166h146v-1006q0 -187 -96.5 -290t-261.5 -103
q-181 0 -295 111l71 117q98 -95 221 -95q103 0 159 62t56 178v231q-73 -182 -237 -182zM414 141q96 0 150 95.5t54 263.5q0 170 -53.5 265t-150.5 95t-151 -94.5t-54 -265.5q0 -169 54 -264t151 -95z" />
    <glyph glyph-name="Gdotaccent" unicode="&#x120;" horiz-adv-x="950" 
d="M543 1485q-41 0 -69 27.5t-28 68.5t28.5 68.5t68.5 27.5q41 0 69.5 -27.5t28.5 -68.5t-29 -68.5t-69 -27.5zM541 -16q-222 0 -345.5 175.5t-123.5 495.5q0 318 127 496t344 178q93 0 162.5 -23.5t134.5 -76.5l-68 -125q-53 45 -103.5 64.5t-117.5 19.5
q-157 0 -241.5 -137t-84.5 -396q0 -261 83 -395.5t247 -134.5q90 0 162 35v393h-219v135h358v-596q-123 -108 -315 -108z" />
    <glyph glyph-name="gdotaccent" unicode="&#x121;" horiz-adv-x="880" 
d="M440 1153q-41 0 -68.5 27.5t-27.5 68.5t28 69t68 28q41 0 70 -28t29 -69t-29.5 -68.5t-69.5 -27.5zM381 4q-148 0 -234 133.5t-86 362.5q0 230 86 363.5t234 133.5q164 0 237 -182v166h146v-1006q0 -187 -96.5 -290t-261.5 -103q-181 0 -295 111l71 117q98 -95 221 -95
q103 0 159 62t56 178v231q-73 -182 -237 -182zM414 141q96 0 150 95.5t54 263.5q0 170 -53.5 265t-150.5 95t-151 -94.5t-54 -265.5q0 -169 54 -264t151 -95z" />
    <glyph glyph-name="Gcommaaccent" unicode="&#x122;" horiz-adv-x="950" 
d="M541 -16q-222 0 -345.5 175.5t-123.5 495.5q0 318 127 496t344 178q93 0 162.5 -23.5t134.5 -76.5l-68 -125q-53 45 -103.5 64.5t-117.5 19.5q-157 0 -241.5 -137t-84.5 -396q0 -261 83 -395.5t247 -134.5q90 0 162 35v393h-219v135h358v-596q-123 -108 -315 -108z
M616 -104l-112 -291h-121l72 291h161z" />
    <glyph glyph-name="gcommaaccent" unicode="&#x123;" horiz-adv-x="880" 
d="M360 1102l113 291h107l-70 -291h-150zM381 4q-148 0 -234 133.5t-86 362.5q0 230 86 363.5t234 133.5q164 0 237 -182v166h146v-1006q0 -187 -96.5 -290t-261.5 -103q-181 0 -295 111l71 117q98 -95 221 -95q103 0 159 62t56 178v231q-73 -182 -237 -182zM414 141
q96 0 150 95.5t54 263.5q0 170 -53.5 265t-150.5 95t-151 -94.5t-54 -265.5q0 -169 54 -264t151 -95z" />
    <glyph glyph-name="Hcircumflex" unicode="&#x124;" horiz-adv-x="1015" 
d="M387 1421h-131l176 297h152l176 -297h-131l-121 199zM743 0v592h-471v-592h-147v1313h147v-580h471v580h148v-1313h-148z" />
    <glyph glyph-name="hcircumflex" unicode="&#x125;" horiz-adv-x="854" 
d="M68 1518h-131l176 297h151l176 -297h-131l-121 198zM264 0h-145v1409h145v-555q34 69 93 106t135 37q129 0 198.5 -88.5t69.5 -251.5v-657h-146v639q0 221 -168 221q-86 0 -134 -63t-48 -174v-623z" />
    <glyph glyph-name="Hbar" unicode="&#x126;" horiz-adv-x="1015" 
d="M743 0v584h-471v-584h-147v979h-94v123h94v211h147v-211h471v211h148v-211h94v-123h-94v-979h-148zM272 725h471v254h-471v-254z" />
    <glyph glyph-name="hbar" unicode="&#x127;" horiz-adv-x="854" 
d="M264 0h-145v1165h-111v121h111v123h145v-123h180v-121h-180v-311q34 69 93 106t135 37q129 0 198.5 -88.5t69.5 -251.5v-657h-146v639q0 221 -168 221q-86 0 -134 -63t-48 -174v-623z" />
    <glyph glyph-name="Itilde" unicode="&#x128;" horiz-adv-x="397" 
d="M18 1477l-84 65q59 135 154 135q48 0 109 -34.5t96 -34.5q48 0 88 78l84 -66q-58 -135 -156 -135q-46 0 -107.5 34.5t-97.5 34.5q-47 0 -86 -77zM125 0v1313h147v-1313h-147z" />
    <glyph glyph-name="itilde" unicode="&#x129;" horiz-adv-x="380" 
d="M10 1145l-84 65q60 136 154 136q48 0 109 -35t96 -35q48 0 88 78l84 -66q-58 -135 -156 -135q-45 0 -107 35t-98 35q-27 0 -46.5 -20t-39.5 -58zM264 981v-981h-145v981h145z" />
    <glyph glyph-name="Imacron" unicode="&#x12a;" horiz-adv-x="397" 
d="M408 1530h-418v125h418v-125zM125 0v1313h147v-1313h-147z" />
    <glyph glyph-name="imacron" unicode="&#x12b;" horiz-adv-x="380" 
d="M399 1198h-417v125h417v-125zM264 981v-981h-145v981h145z" />
    <glyph glyph-name="Ibreve" unicode="&#x12c;" horiz-adv-x="397" 
d="M199 1401q-117 0 -180.5 78.5t-63.5 216.5h117q0 -89 32.5 -136t94.5 -47q127 0 127 183h116q0 -140 -62.5 -217.5t-180.5 -77.5zM125 0v1313h147v-1313h-147z" />
    <glyph glyph-name="ibreve" unicode="&#x12d;" horiz-adv-x="380" 
d="M190 1069q-117 0 -180 78.5t-63 216.5h116q0 -89 32.5 -135.5t94.5 -46.5q127 0 127 182h117q0 -140 -62.5 -217.5t-181.5 -77.5zM264 981v-981h-145v981h145z" />
    <glyph glyph-name="Iogonek" unicode="&#x12e;" horiz-adv-x="397" 
d="M125 0v1313h147v-1313q-78 -61 -114.5 -113.5t-36.5 -107.5q0 -34 18.5 -54t50.5 -20q41 0 76 35l58 -76q-58 -74 -156 -74q-74 0 -124 46.5t-50 115.5q0 129 145 248h-14z" />
    <glyph glyph-name="iogonek" unicode="&#x12f;" horiz-adv-x="380" 
d="M190 1153q-41 0 -68.5 27.5t-27.5 68.5t28 69t68 28q41 0 70 -28t29 -69t-29.5 -68.5t-69.5 -27.5zM160 -410q-74 0 -124 46.5t-50 115.5q0 129 145 248h-12v981h145v-981q-78 -61 -114.5 -113.5t-36.5 -107.5q0 -34 18.5 -54t50.5 -20q41 0 76 35l57 -76
q-58 -74 -155 -74z" />
    <glyph glyph-name="Idotaccent" unicode="&#x130;" horiz-adv-x="397" 
d="M199 1485q-41 0 -69 27.5t-28 68.5t28.5 68.5t68.5 27.5q41 0 69.5 -27.5t28.5 -68.5t-29 -68.5t-69 -27.5zM125 0v1313h147v-1313h-147z" />
    <glyph glyph-name="idotless" unicode="&#x131;" horiz-adv-x="380" 
d="M264 981v-981h-145v981h145z" />
    <glyph glyph-name="IJ" unicode="&#x132;" horiz-adv-x="1026" 
d="M125 0v1313h147v-1313h-147zM418 63l61 125q74 -65 158 -65q66 0 101.5 42.5t35.5 125.5v1022h148v-1020q0 -154 -74.5 -231.5t-200.5 -77.5q-128 0 -229 79z" />
    <glyph glyph-name="ij" unicode="&#x133;" horiz-adv-x="768" 
d="M190 1171q-41 0 -68.5 27.5t-27.5 67.5q0 42 28 70t68 28q41 0 70 -28.5t29 -69.5q0 -40 -29 -67.5t-70 -27.5zM575 1171q-41 0 -68.5 27.5t-27.5 67.5q0 42 28 70t68 28q41 0 69 -28.5t28 -69.5q0 -40 -28.5 -67.5t-68.5 -27.5zM264 0h-145v981h145v-981zM424 -418
q-94 0 -154 51l64 115q35 -35 82 -35q86 0 86 135v1133h145v-1108q0 -140 -58 -215.5t-165 -75.5z" />
    <glyph glyph-name="Jcircumflex" unicode="&#x134;" horiz-adv-x="630" 
d="M328 1421h-131l176 297h151l176 -297h-131l-120 199zM20 63l62 125q74 -65 158 -65q66 0 101.5 42.5t35.5 125.5v1022h147v-1020q0 -154 -74 -231.5t-200 -77.5q-129 0 -230 79z" />
    <glyph glyph-name="jcircumflex" unicode="&#x135;" horiz-adv-x="385" 
d="M74 1090h-131l176 296h151l176 -296h-131l-120 198zM43 -418q-73 0 -137 45l51 113q38 -27 78 -27q86 0 86 135v1133h145v-1108q0 -140 -57.5 -215.5t-165.5 -75.5z" />
    <glyph glyph-name="Kcommaaccent" unicode="&#x136;" horiz-adv-x="872" 
d="M272 0h-147v1313h147v-643l402 643h162l-412 -656l428 -657h-170l-410 625v-625zM549 -104l-113 -291h-121l72 291h162z" />
    <glyph glyph-name="kcommaaccent" unicode="&#x137;" horiz-adv-x="774" 
d="M264 0h-145v1409h145v-860l320 432h159l-337 -457l354 -524h-170l-326 485v-485zM500 -104l-113 -291h-121l72 291h162z" />
    <glyph glyph-name="Lacute" unicode="&#x139;" horiz-adv-x="751" 
d="M291 1718h172l-201 -297h-127zM125 0v1313h147v-1172h445v-141h-592z" />
    <glyph glyph-name="lacute" unicode="&#x13a;" horiz-adv-x="411" 
d="M289 1815h172l-201 -297h-127zM297 -14q-76 0 -127 53t-51 160v1210h145v-1212q0 -41 17.5 -61.5t46.5 -20.5q28 0 45 10l16 -123q-37 -16 -92 -16z" />
    <glyph glyph-name="Lcommaaccent" unicode="&#x13b;" horiz-adv-x="751" 
d="M125 0v1313h147v-1172h445v-141h-592zM504 -104l-113 -291h-121l72 291h162z" />
    <glyph glyph-name="lcommaaccent" unicode="&#x13c;" horiz-adv-x="411" 
d="M297 -14q-76 0 -127 53t-51 160v1210h145v-1212q0 -41 17.5 -61.5t46.5 -20.5q28 0 45 10l16 -123q-37 -16 -92 -16zM360 -104l-112 -291h-121l72 291h161z" />
    <glyph glyph-name="Lcaron" unicode="&#x13d;" horiz-adv-x="751" 
d="M125 0v1313h147v-1172h445v-141h-592zM547 1313l-78 -320h-111l41 320h148z" />
    <glyph glyph-name="lcaron" unicode="&#x13e;" horiz-adv-x="411" 
d="M297 -14q-76 0 -127 53t-51 160v1210h145v-1212q0 -41 17.5 -61.5t46.5 -20.5q28 0 45 10l16 -123q-37 -16 -92 -16zM514 1409l-78 -319h-110l41 319h147z" />
    <glyph glyph-name="Ldot" unicode="&#x13f;" horiz-adv-x="774" 
d="M125 0v1313h147v-1172h445v-141h-592zM555 602q-32 12 -44 42.5t1 62.5q12 31 42 42.5t62 0.5q32 -13 44 -44t-1 -63q-14 -31 -43 -42.5t-61 1.5z" />
    <glyph glyph-name="ldot" unicode="&#x140;" horiz-adv-x="530" 
d="M297 -14q-76 0 -127 53t-51 160v1210h145v-1212q0 -41 17.5 -61.5t46.5 -20.5q28 0 45 10l16 -123q-37 -16 -92 -16zM426 553q-32 12 -44 42t1 62q12 31 42 42.5t62 0.5q32 -13 43.5 -43.5t-0.5 -62.5q-14 -31 -43 -42.5t-61 1.5z" />
    <glyph glyph-name="Lslash" unicode="&#x141;" horiz-adv-x="751" 
d="M125 0v559l-98 -31v131l98 31v623h147v-576l174 56v-131l-174 -56v-465h445v-141h-592z" />
    <glyph glyph-name="lslash" unicode="&#x142;" horiz-adv-x="411" 
d="M297 -14q-76 0 -127 53t-51 160v440l-88 -39v135l88 39v635h145v-567l107 47v-135l-107 -47v-510q0 -41 17.5 -61.5t46.5 -20.5q28 0 45 10l16 -123q-37 -16 -92 -16z" />
    <glyph glyph-name="Nacute" unicode="&#x143;" horiz-adv-x="1017" 
d="M612 1718h172l-200 -297h-127zM705 0l-439 1077v-1077h-141v1313h188l439 -1080v1080h141v-1313h-188z" />
    <glyph glyph-name="nacute" unicode="&#x144;" horiz-adv-x="854" 
d="M547 1386h172l-201 -296h-127zM264 0h-145v981h145v-127q34 69 93 106t135 37q129 0 198.5 -88.5t69.5 -251.5v-657h-146v639q0 221 -168 221q-86 0 -134 -63t-48 -174v-623z" />
    <glyph glyph-name="Ncommaaccent" unicode="&#x145;" horiz-adv-x="1017" 
d="M705 0l-439 1077v-1077h-141v1313h188l439 -1080v1080h141v-1313h-188zM600 -104l-113 -291h-120l71 291h162z" />
    <glyph glyph-name="ncommaaccent" unicode="&#x146;" horiz-adv-x="854" 
d="M264 0h-145v981h145v-127q34 69 93 106t135 37q129 0 198.5 -88.5t69.5 -251.5v-657h-146v639q0 221 -168 221q-86 0 -134 -63t-48 -174v-623zM524 -104l-112 -291h-121l71 291h162z" />
    <glyph glyph-name="Ncaron" unicode="&#x147;" horiz-adv-x="1017" 
d="M594 1421h-152l-176 297h131l121 -198l121 198h131zM705 0l-439 1077v-1077h-141v1313h188l439 -1080v1080h141v-1313h-188z" />
    <glyph glyph-name="ncaron" unicode="&#x148;" horiz-adv-x="854" 
d="M528 1090h-151l-176 296h131l121 -198l120 198h132zM264 0h-145v981h145v-127q34 69 93 106t135 37q129 0 198.5 -88.5t69.5 -251.5v-657h-146v639q0 221 -168 221q-86 0 -134 -63t-48 -174v-623z" />
    <glyph glyph-name="Omacron" unicode="&#x14c;" horiz-adv-x="1001" 
d="M709 1530h-418v125h418v-125zM500 1329q206 0 317 -177t111 -499q0 -320 -111 -494.5t-317 -174.5q-204 0 -316 175.5t-112 495.5t112 497t316 177zM500 127q134 0 204 135t70 391q0 259 -70 396t-204 137t-204.5 -136.5t-70.5 -394.5t70.5 -393t204.5 -135z" />
    <glyph glyph-name="omacron" unicode="&#x14d;" horiz-adv-x="825" 
d="M621 1198h-418v125h418v-125zM414 -16q-165 0 -259 138.5t-94 369.5q0 229 94 367t259 138q164 0 257 -137.5t93 -367.5t-93 -369t-257 -139zM414 121q97 0 150.5 97t53.5 274q0 175 -53.5 271.5t-150.5 96.5q-98 0 -151.5 -96.5t-53.5 -271.5t53.5 -273t151.5 -98z" />
    <glyph glyph-name="Obreve" unicode="&#x14e;" horiz-adv-x="1001" 
d="M500 1401q-117 0 -180.5 78.5t-63.5 216.5h117q0 -89 32.5 -136t94.5 -47q127 0 127 183h116q0 -140 -62.5 -217.5t-180.5 -77.5zM500 1329q206 0 317 -177t111 -499q0 -320 -111 -494.5t-317 -174.5q-204 0 -316 175.5t-112 495.5t112 497t316 177zM500 127
q134 0 204 135t70 391q0 259 -70 396t-204 137t-204.5 -136.5t-70.5 -394.5t70.5 -393t204.5 -135z" />
    <glyph glyph-name="obreve" unicode="&#x14f;" horiz-adv-x="825" 
d="M412 1069q-117 0 -180.5 78.5t-63.5 216.5h117q0 -89 32.5 -135.5t94.5 -46.5q127 0 127 182h116q0 -140 -62.5 -217.5t-180.5 -77.5zM414 -16q-165 0 -259 138.5t-94 369.5q0 229 94 367t259 138q164 0 257 -137.5t93 -367.5t-93 -369t-257 -139zM414 121q97 0 150.5 97
t53.5 274q0 175 -53.5 271.5t-150.5 96.5q-98 0 -151.5 -96.5t-53.5 -271.5t53.5 -273t151.5 -98z" />
    <glyph glyph-name="Ohungarumlaut" unicode="&#x150;" horiz-adv-x="1001" 
d="M420 1718h151l-176 -297h-112zM700 1718h162l-186 -297h-113zM500 1329q206 0 317 -177t111 -499q0 -320 -111 -494.5t-317 -174.5q-204 0 -316 175.5t-112 495.5t112 497t316 177zM500 127q134 0 204 135t70 391q0 259 -70 396t-204 137t-204.5 -136.5t-70.5 -394.5
t70.5 -393t204.5 -135z" />
    <glyph glyph-name="ohungarumlaut" unicode="&#x151;" horiz-adv-x="825" 
d="M332 1386h151l-176 -296h-112zM612 1386h162l-186 -296h-113zM414 -16q-165 0 -259 138.5t-94 369.5q0 229 94 367t259 138q164 0 257 -137.5t93 -367.5t-93 -369t-257 -139zM414 121q97 0 150.5 97t53.5 274q0 175 -53.5 271.5t-150.5 96.5q-98 0 -151.5 -96.5
t-53.5 -271.5t53.5 -273t151.5 -98z" />
    <glyph glyph-name="OE" unicode="&#x152;" horiz-adv-x="1433" 
d="M492 -16q-200 0 -310 177.5t-110 493.5q0 318 110 496t310 178q188 0 282 -186v170h606v-142h-456v-442h399v-141h-399v-447h456v-141h-606v170q-92 -186 -282 -186zM500 127q134 0 204 135.5t70 390.5q0 258 -70 395.5t-204 137.5t-204.5 -136.5t-70.5 -394.5
q0 -256 70.5 -392t204.5 -136z" />
    <glyph glyph-name="oe" unicode="&#x153;" horiz-adv-x="1339" 
d="M414 -16q-165 0 -259 138.5t-94 369.5q0 229 94 367t259 138q184 0 268 -202q78 202 264 202q151 0 241.5 -128.5t90.5 -333.5q0 -37 -2 -66h-526q5 -172 65 -262t172 -90q104 0 178 84l70 -113q-101 -104 -250 -104q-219 0 -301 206q-41 -99 -109.5 -152.5t-160.5 -53.5
zM944 864q-81 0 -130 -76t-60 -215h376q-8 140 -55.5 215.5t-130.5 75.5zM414 121q97 0 150.5 97t53.5 274q0 175 -53.5 271.5t-150.5 96.5q-98 0 -151.5 -96.5t-53.5 -271.5t53.5 -273t151.5 -98z" />
    <glyph glyph-name="Racute" unicode="&#x154;" horiz-adv-x="888" 
d="M539 1718h172l-201 -297h-127zM125 0v1313h330q165 0 265.5 -106.5t100.5 -278.5q0 -138 -64 -236t-177 -135l241 -557h-162l-229 537h-158v-537h-147zM455 1174h-183v-496h183q97 0 155 68.5t58 181.5t-57.5 179.5t-155.5 66.5z" />
    <glyph glyph-name="racute" unicode="&#x155;" horiz-adv-x="546" 
d="M414 1386h172l-201 -296h-127zM119 0v981h145v-115q55 129 168 129q55 0 94 -24l-26 -142q-41 21 -86 21q-68 0 -109 -60t-41 -161v-629h-145z" />
    <glyph glyph-name="Rcommaaccent" unicode="&#x156;" horiz-adv-x="888" 
d="M125 0v1313h330q165 0 265.5 -106.5t100.5 -278.5q0 -138 -64 -236t-177 -135l241 -557h-162l-229 537h-158v-537h-147zM455 1174h-183v-496h183q97 0 155 68.5t58 181.5t-57.5 179.5t-155.5 66.5zM535 -104l-113 -291h-121l72 291h162z" />
    <glyph glyph-name="rcommaaccent" unicode="&#x157;" horiz-adv-x="546" 
d="M119 0v981h145v-115q55 129 168 129q55 0 94 -24l-26 -142q-41 21 -86 21q-68 0 -109 -60t-41 -161v-629h-145zM272 -104l-112 -291h-121l72 291h161z" />
    <glyph glyph-name="Rcaron" unicode="&#x158;" horiz-adv-x="888" 
d="M520 1421h-151l-176 297h131l120 -198l121 198h131zM125 0v1313h330q165 0 265.5 -106.5t100.5 -278.5q0 -138 -64 -236t-177 -135l241 -557h-162l-229 537h-158v-537h-147zM455 1174h-183v-496h183q97 0 155 68.5t58 181.5t-57.5 179.5t-155.5 66.5z" />
    <glyph glyph-name="rcaron" unicode="&#x159;" horiz-adv-x="546" 
d="M395 1090h-151l-176 296h131l120 -198l121 198h131zM119 0v981h145v-115q55 129 168 129q55 0 94 -24l-26 -142q-41 21 -86 21q-68 0 -109 -60t-41 -161v-629h-145z" />
    <glyph glyph-name="Sacute" unicode="&#x15a;" horiz-adv-x="786" 
d="M510 1718h172l-201 -297h-127zM377 -16q-193 0 -326 116l55 131q125 -108 271 -108q89 0 146 53.5t57 138.5q0 39 -11.5 73.5t-27 58t-48 51.5t-56 45t-70.5 47q-58 36 -93 60.5t-77.5 63.5t-65.5 76.5t-39 91.5t-16 117q0 145 97 237.5t249 92.5q158 0 276 -84l-65 -125
q-81 70 -205 70q-89 0 -145 -53.5t-56 -137.5q0 -51 15 -91t51.5 -76t68 -59t93.5 -62q49 -32 75 -50t64 -48.5t58 -57t41 -62.5t29.5 -78.5t8.5 -92.5q0 -152 -98.5 -245t-255.5 -93z" />
    <glyph glyph-name="sacute" unicode="&#x15b;" horiz-adv-x="665" 
d="M453 1386h172l-201 -296h-127zM313 -16q-158 0 -268 82l49 118q110 -73 221 -73q68 0 110 39t42 102q0 70 -41 111t-131 83q-110 49 -168.5 113.5t-58.5 173.5q0 116 80 190t208 74q141 0 246 -65l-55 -119q-79 57 -180 57q-68 0 -111 -37.5t-43 -95.5q0 -61 39 -99
t129 -79q112 -51 172.5 -118.5t60.5 -180.5q0 -123 -83.5 -199.5t-217.5 -76.5z" />
    <glyph glyph-name="Scircumflex" unicode="&#x15c;" horiz-adv-x="786" 
d="M297 1421h-131l176 297h152l176 -297h-131l-121 199zM377 -16q-193 0 -326 116l55 131q125 -108 271 -108q89 0 146 53.5t57 138.5q0 39 -11.5 73.5t-27 58t-48 51.5t-56 45t-70.5 47q-58 36 -93 60.5t-77.5 63.5t-65.5 76.5t-39 91.5t-16 117q0 145 97 237.5t249 92.5
q158 0 276 -84l-65 -125q-81 70 -205 70q-89 0 -145 -53.5t-56 -137.5q0 -51 15 -91t51.5 -76t68 -59t93.5 -62q49 -32 75 -50t64 -48.5t58 -57t41 -62.5t29.5 -78.5t8.5 -92.5q0 -152 -98.5 -245t-255.5 -93z" />
    <glyph glyph-name="scircumflex" unicode="&#x15d;" horiz-adv-x="665" 
d="M240 1090h-131l176 296h151l176 -296h-131l-121 198zM313 -16q-158 0 -268 82l49 118q110 -73 221 -73q68 0 110 39t42 102q0 70 -41 111t-131 83q-110 49 -168.5 113.5t-58.5 173.5q0 116 80 190t208 74q141 0 246 -65l-55 -119q-79 57 -180 57q-68 0 -111 -37.5
t-43 -95.5q0 -61 39 -99t129 -79q112 -51 172.5 -118.5t60.5 -180.5q0 -123 -83.5 -199.5t-217.5 -76.5z" />
    <glyph glyph-name="Scedilla" unicode="&#x15e;" horiz-adv-x="786" 
d="M731 322q0 -136 -81.5 -226.5t-215.5 -107.5l-86 -328l-147 45l116 281q-153 15 -266 114l55 131q125 -108 271 -108q89 0 146 53.5t57 138.5q0 39 -11.5 73.5t-27 58t-48 51.5t-56 45t-70.5 47q-58 36 -93 60.5t-77.5 63.5t-65.5 76.5t-39 91.5t-16 117q0 145 97 237.5
t249 92.5q158 0 276 -84l-65 -125q-81 70 -205 70q-89 0 -145 -53.5t-56 -137.5q0 -51 15 -91t51.5 -76t68 -59t93.5 -62q49 -32 75 -50t64 -48.5t58 -57t41 -62.5t29.5 -78.5t8.5 -92.5z" />
    <glyph glyph-name="scedilla" unicode="&#x15f;" horiz-adv-x="665" 
d="M614 260q0 -107 -64.5 -180t-170.5 -90l-88 -330l-148 45l117 281q-123 12 -215 80l49 118q110 -73 221 -73q68 0 110 39t42 102q0 70 -41 111t-131 83q-110 49 -168.5 113.5t-58.5 173.5q0 116 80 190t208 74q141 0 246 -65l-55 -119q-79 57 -180 57q-68 0 -111 -37.5
t-43 -95.5q0 -61 39 -99t129 -79q112 -51 172.5 -118.5t60.5 -180.5z" />
    <glyph glyph-name="Scaron" unicode="&#x160;" horiz-adv-x="786" 
d="M494 1421h-152l-176 297h131l121 -198l121 198h131zM377 -16q-193 0 -326 116l55 131q125 -108 271 -108q89 0 146 53.5t57 138.5q0 39 -11.5 73.5t-27 58t-48 51.5t-56 45t-70.5 47q-58 36 -93 60.5t-77.5 63.5t-65.5 76.5t-39 91.5t-16 117q0 145 97 237.5t249 92.5
q158 0 276 -84l-65 -125q-81 70 -205 70q-89 0 -145 -53.5t-56 -137.5q0 -51 15 -91t51.5 -76t68 -59t93.5 -62q49 -32 75 -50t64 -48.5t58 -57t41 -62.5t29.5 -78.5t8.5 -92.5q0 -152 -98.5 -245t-255.5 -93z" />
    <glyph glyph-name="scaron" unicode="&#x161;" horiz-adv-x="665" 
d="M436 1090h-151l-176 296h131l120 -198l121 198h131zM313 -16q-158 0 -268 82l49 118q110 -73 221 -73q68 0 110 39t42 102q0 70 -41 111t-131 83q-110 49 -168.5 113.5t-58.5 173.5q0 116 80 190t208 74q141 0 246 -65l-55 -119q-79 57 -180 57q-68 0 -111 -37.5
t-43 -95.5q0 -61 39 -99t129 -79q112 -51 172.5 -118.5t60.5 -180.5q0 -123 -83.5 -199.5t-217.5 -76.5z" />
    <glyph glyph-name="Tcedilla" unicode="&#x162;" horiz-adv-x="737" 
d="M315 0h-20v1171h-277v142h701v-142h-277v-1171h-12l-90 -340l-147 45z" />
    <glyph glyph-name="tcedilla" unicode="&#x163;" horiz-adv-x="565" 
d="M35 852v129h115v240h145v-240h203v-129h-203v-629q0 -53 25 -79.5t69 -26.5q57 0 109 37l47 -117q-56 -38 -115 -49l-86 -328l-147 45l118 285q-78 15 -121.5 73t-43.5 152v637h-115z" />
    <glyph glyph-name="Tcaron" unicode="&#x164;" horiz-adv-x="737" 
d="M444 1421h-151l-176 297h131l121 -198l120 198h132zM719 1171h-277v-1171h-147v1171h-277v142h701v-142z" />
    <glyph glyph-name="tcaron" unicode="&#x165;" horiz-adv-x="565" 
d="M547 1409l-78 -319h-111l41 319h148zM35 852v129h115v240h145v-240h203v-129h-203v-629q0 -53 25 -79.5t69 -26.5q57 0 109 37l47 -117q-77 -53 -172 -53q-103 0 -163 60t-60 171v637h-115z" />
    <glyph glyph-name="Tbar" unicode="&#x166;" horiz-adv-x="737" 
d="M131 696h164v475h-277v142h701v-142h-277v-475h166v-125h-166v-571h-147v571h-164v125z" />
    <glyph glyph-name="tbar" unicode="&#x167;" horiz-adv-x="565" 
d="M51 555h99v297h-115v129h115v240h145v-240h203v-129h-203v-297h166v-125h-166v-207q0 -53 25 -79.5t69 -26.5q57 0 109 37l47 -117q-77 -53 -172 -53q-103 0 -163 60t-60 171v215h-99v125z" />
    <glyph glyph-name="Utilde" unicode="&#x168;" horiz-adv-x="954" 
d="M297 1477l-84 65q59 135 154 135q48 0 108.5 -34.5t95.5 -34.5q48 0 88 78l84 -66q-58 -135 -155 -135q-46 0 -107 34.5t-98 34.5q-47 0 -86 -77zM104 418v895h150v-910q0 -136 59 -206t166 -70q105 0 163 69.5t58 206.5v910h150v-895q0 -210 -99.5 -322t-273.5 -112
t-273.5 112t-99.5 322z" />
    <glyph glyph-name="utilde" unicode="&#x169;" horiz-adv-x="811" 
d="M225 1145l-84 65q60 136 154 136q48 0 109 -35t96 -35q48 0 88 78l84 -66q-58 -135 -156 -135q-46 0 -107 35t-98 35q-27 0 -46.5 -20t-39.5 -58zM233 981v-635q0 -109 42.5 -169t127.5 -60q84 0 128 59t44 170v635h148v-614q0 -185 -82.5 -283t-237.5 -98
q-153 0 -234 98t-81 283v614h145z" />
    <glyph glyph-name="Umacron" unicode="&#x16a;" horiz-adv-x="954" 
d="M686 1530h-418v125h418v-125zM104 418v895h150v-910q0 -136 59 -206t166 -70q105 0 163 69.5t58 206.5v910h150v-895q0 -210 -99.5 -322t-273.5 -112t-273.5 112t-99.5 322z" />
    <glyph glyph-name="umacron" unicode="&#x16b;" horiz-adv-x="811" 
d="M614 1198h-417v125h417v-125zM233 981v-635q0 -109 42.5 -169t127.5 -60q84 0 128 59t44 170v635h148v-614q0 -185 -82.5 -283t-237.5 -98q-153 0 -234 98t-81 283v614h145z" />
    <glyph glyph-name="Ubreve" unicode="&#x16c;" horiz-adv-x="954" 
d="M477 1401q-117 0 -180.5 78.5t-63.5 216.5h117q0 -89 32.5 -136t94.5 -47q127 0 127 183h117q0 -140 -62.5 -217.5t-181.5 -77.5zM104 418v895h150v-910q0 -136 59 -206t166 -70q105 0 163 69.5t58 206.5v910h150v-895q0 -210 -99.5 -322t-273.5 -112t-273.5 112
t-99.5 322z" />
    <glyph glyph-name="ubreve" unicode="&#x16d;" horiz-adv-x="811" 
d="M406 1069q-117 0 -180.5 78.5t-63.5 216.5h117q0 -89 32.5 -135.5t94.5 -46.5q126 0 126 182h117q0 -140 -62.5 -217.5t-180.5 -77.5zM233 981v-635q0 -109 42.5 -169t127.5 -60q84 0 128 59t44 170v635h148v-614q0 -185 -82.5 -283t-237.5 -98q-153 0 -234 98t-81 283
v614h145z" />
    <glyph glyph-name="Uring" unicode="&#x16e;" horiz-adv-x="954" 
d="M477 1401q-94 0 -148.5 62t-54.5 153q0 89 54.5 151t148.5 62q95 0 149 -61.5t54 -151.5q0 -91 -53.5 -153t-149.5 -62zM479 1497q49 0 74 33.5t25 85.5q0 51 -25.5 84t-73.5 33q-49 0 -74.5 -33.5t-25.5 -83.5q0 -52 25.5 -85.5t74.5 -33.5zM104 418v895h150v-910
q0 -136 59 -206t166 -70q105 0 163 69.5t58 206.5v910h150v-895q0 -210 -99.5 -322t-273.5 -112t-273.5 112t-99.5 322z" />
    <glyph glyph-name="uring" unicode="&#x16f;" horiz-adv-x="811" 
d="M406 1069q-94 0 -148.5 62t-54.5 153q0 89 54.5 151t148.5 62q95 0 148.5 -61.5t53.5 -151.5q0 -91 -53.5 -153t-148.5 -62zM408 1165q49 0 73.5 33t24.5 86q0 51 -25 84t-73 33q-49 0 -75 -33.5t-26 -83.5q0 -52 26 -85.5t75 -33.5zM233 981v-635q0 -109 42.5 -169
t127.5 -60q84 0 128 59t44 170v635h148v-614q0 -185 -82.5 -283t-237.5 -98q-153 0 -234 98t-81 283v614h145z" />
    <glyph glyph-name="Uhungarumlaut" unicode="&#x170;" horiz-adv-x="954" 
d="M395 1718h152l-176 -297h-113zM676 1718h162l-187 -297h-112zM104 418v895h150v-910q0 -136 59 -206t166 -70q105 0 163 69.5t58 206.5v910h150v-895q0 -210 -99.5 -322t-273.5 -112t-273.5 112t-99.5 322z" />
    <glyph glyph-name="uhungarumlaut" unicode="&#x171;" horiz-adv-x="811" 
d="M324 1386h151l-176 -296h-113zM604 1386h162l-186 -296h-113zM233 981v-635q0 -109 42.5 -169t127.5 -60q84 0 128 59t44 170v635h148v-614q0 -185 -82.5 -283t-237.5 -98q-153 0 -234 98t-81 283v614h145z" />
    <glyph glyph-name="Uogonek" unicode="&#x172;" horiz-adv-x="954" 
d="M104 418v895h150v-910q0 -136 59 -206t166 -70q105 0 163 69.5t58 206.5v910h150v-895q0 -171 -67 -278.5t-189 -141.5q-77 -60 -113.5 -112.5t-36.5 -106.5q0 -34 19 -54t51 -20q41 0 76 35l57 -76q-58 -74 -155 -74q-74 0 -124.5 46.5t-50.5 115.5q0 120 127 234
q-159 9 -249.5 120.5t-90.5 311.5z" />
    <glyph glyph-name="uogonek" unicode="&#x173;" horiz-adv-x="811" 
d="M406 -410q-74 0 -124.5 46.5t-50.5 115.5q0 125 131 236q-134 14 -204 110.5t-70 268.5v614h145v-635q0 -109 42.5 -169t127.5 -60q84 0 128 59t44 170v635h148v-614q0 -304 -213 -367q-78 -61 -115 -114t-37 -107q0 -34 19 -54t51 -20q41 0 76 35l57 -76
q-58 -74 -155 -74z" />
    <glyph glyph-name="Wcircumflex" unicode="&#x174;" horiz-adv-x="1386" 
d="M575 1421h-131l177 297h151l176 -297h-131l-121 199zM1202 1313h152l-260 -1313h-193l-207 1106l-200 -1106h-201l-258 1313h155l211 -1163l203 1163h187l213 -1170z" />
    <glyph glyph-name="wcircumflex" unicode="&#x175;" horiz-adv-x="1144" 
d="M453 1090h-131l176 296h151l176 -296h-131l-121 198zM408 0h-168l-199 981h149l148 -801l166 801h145l164 -799l148 799h143l-199 -981h-168l-166 770z" />
    <glyph glyph-name="Ycircumflex" unicode="&#x176;" horiz-adv-x="849" 
d="M305 1421h-131l176 297h152l176 -297h-131l-121 199zM350 0v463l-336 850h160l252 -674l256 674h154l-338 -850v-463h-148z" />
    <glyph glyph-name="ycircumflex" unicode="&#x177;" horiz-adv-x="735" 
d="M254 1090h-131l176 296h152l176 -296h-131l-121 198zM174 981l207 -766l190 766h144l-312 -1151q-34 -128 -90.5 -188t-146.5 -60q-77 0 -141 43l53 121q44 -33 90 -33q39 0 62 29t42 96l45 160l-297 983h154z" />
    <glyph glyph-name="Ydieresis" unicode="&#x178;" horiz-adv-x="849" 
d="M197 1579q0 40 26 67t64 27q37 0 64.5 -28t27.5 -66t-27 -65t-65 -27q-40 0 -65 26t-25 66zM473 1579q0 40 26 67t64 27q40 0 66 -27t26 -67t-25.5 -66t-66.5 -26q-40 0 -65 26t-25 66zM350 0v463l-336 850h160l252 -674l256 674h154l-338 -850v-463h-148z" />
    <glyph glyph-name="Zacute" unicode="&#x179;" horiz-adv-x="792" 
d="M492 1718h172l-201 -297h-127zM53 141l514 1030h-508v142h674v-142l-514 -1030h520v-141h-686v141z" />
    <glyph glyph-name="zacute" unicode="&#x17a;" horiz-adv-x="692" 
d="M440 1386h172l-200 -296h-127zM57 133l404 717h-393v131h557v-133l-404 -717h414v-131h-578v133z" />
    <glyph glyph-name="Zdotaccent" unicode="&#x17b;" horiz-adv-x="792" 
d="M397 1485q-41 0 -68.5 27.5t-27.5 68.5t28 68.5t68 27.5q42 0 70.5 -27.5t28.5 -68.5t-29.5 -68.5t-69.5 -27.5zM53 141l514 1030h-508v142h674v-142l-514 -1030h520v-141h-686v141z" />
    <glyph glyph-name="zdotaccent" unicode="&#x17c;" horiz-adv-x="692" 
d="M346 1153q-41 0 -68.5 27.5t-27.5 68.5t28 69t68 28q41 0 69.5 -28t28.5 -69t-29 -68.5t-69 -27.5zM57 133l404 717h-393v131h557v-133l-404 -717h414v-131h-578v133z" />
    <glyph glyph-name="Zcaron" unicode="&#x17d;" horiz-adv-x="792" 
d="M473 1421h-151l-177 297h131l121 -198l121 198h131zM53 141l514 1030h-508v142h674v-142l-514 -1030h520v-141h-686v141z" />
    <glyph glyph-name="zcaron" unicode="&#x17e;" horiz-adv-x="692" 
d="M422 1090h-152l-176 296h131l121 -198l121 198h131zM57 133l404 717h-393v131h557v-133l-404 -717h414v-131h-578v133z" />
    <glyph glyph-name="florin" unicode="&#x192;" horiz-adv-x="585" 
d="M123 -389q-93 0 -156 51l53 123q42 -39 91 -39q46 0 72 33.5t26 95.5v735h-131v131h131v416q0 121 62.5 194.5t168.5 73.5q96 0 162 -51l-53 -123q-45 39 -92 39q-46 0 -72.5 -33.5t-26.5 -97.5v-418h174v-131h-174v-731q0 -122 -63.5 -195t-171.5 -73z" />
    <glyph glyph-name="Scommaaccent" unicode="&#x218;" horiz-adv-x="786" 
d="M377 -16q-193 0 -326 116l55 131q125 -108 271 -108q89 0 146 53.5t57 138.5q0 39 -11.5 73.5t-27 58t-48 51.5t-56 45t-70.5 47q-58 36 -93 60.5t-77.5 63.5t-65.5 76.5t-39 91.5t-16 117q0 145 97 237.5t249 92.5q158 0 276 -84l-65 -125q-81 70 -205 70
q-89 0 -145 -53.5t-56 -137.5q0 -51 15 -91t51.5 -76t68 -59t93.5 -62q49 -32 75 -50t64 -48.5t58 -57t41 -62.5t29.5 -78.5t8.5 -92.5q0 -152 -98.5 -245t-255.5 -93zM459 -104l-113 -291h-121l72 291h162z" />
    <glyph glyph-name="scommaaccent" unicode="&#x219;" horiz-adv-x="665" 
d="M313 -16q-158 0 -268 82l49 118q110 -73 221 -73q68 0 110 39t42 102q0 70 -41 111t-131 83q-110 49 -168.5 113.5t-58.5 173.5q0 116 80 190t208 74q141 0 246 -65l-55 -119q-79 57 -180 57q-68 0 -111 -37.5t-43 -95.5q0 -61 39 -99t129 -79q112 -51 172.5 -118.5
t60.5 -180.5q0 -123 -83.5 -199.5t-217.5 -76.5zM401 -104l-112 -291h-121l72 291h161z" />
    <glyph glyph-name="Tcommaaccent" unicode="&#x21a;" horiz-adv-x="737" 
d="M719 1171h-277v-1171h-147v1171h-277v142h701v-142zM451 -104l-113 -291h-121l72 291h162z" />
    <glyph glyph-name="tcommaaccent" unicode="&#x21b;" horiz-adv-x="565" 
d="M35 852v129h115v240h145v-240h203v-129h-203v-629q0 -53 25 -79.5t69 -26.5q57 0 109 37l47 -117q-77 -53 -172 -53q-103 0 -163 60t-60 171v637h-115zM455 -104l-113 -291h-121l72 291h162z" />
    <glyph glyph-name="jdotless" unicode="&#x237;" horiz-adv-x="385" 
d="M43 -418q-73 0 -137 45l51 113q38 -27 78 -27q86 0 86 135v1133h145v-1108q0 -140 -57.5 -215.5t-165.5 -75.5z" />
    <glyph glyph-name="circumflex" unicode="&#x2c6;" 
d="M289 1090h-131l176 296h151l177 -296h-132l-120 198z" />
    <glyph glyph-name="caron" unicode="&#x2c7;" 
d="M485 1090h-151l-176 296h131l121 -198l120 198h132z" />
    <glyph glyph-name="breve" unicode="&#x2d8;" 
d="M410 1069q-117 0 -180.5 78.5t-63.5 216.5h117q0 -89 32.5 -135.5t94.5 -46.5q127 0 127 182h116q0 -140 -62.5 -217.5t-180.5 -77.5z" />
    <glyph glyph-name="dotaccent" unicode="&#x2d9;" 
d="M410 1153q-41 0 -69 27.5t-28 68.5t28.5 69t68.5 28q41 0 69.5 -28t28.5 -69t-29 -68.5t-69 -27.5z" />
    <glyph glyph-name="ring" unicode="&#x2da;" 
d="M410 1069q-94 0 -148.5 62t-54.5 153q0 89 54.5 151t148.5 62q95 0 148.5 -61.5t53.5 -151.5q0 -91 -53.5 -153t-148.5 -62zM412 1165q49 0 73.5 33t24.5 86q0 51 -25 84t-73 33q-49 0 -75 -33.5t-26 -83.5q0 -52 26 -85.5t75 -33.5z" />
    <glyph glyph-name="ogonek" unicode="&#x2db;" 
d="M461 -410q-74 0 -124 46.5t-50 115.5q0 157 215 299l63 -51q-78 -61 -114.5 -113.5t-36.5 -107.5q0 -34 18.5 -54t50.5 -20q41 0 76 35l57 -76q-58 -74 -155 -74z" />
    <glyph glyph-name="tilde" unicode="&#x2dc;" 
d="M160 1145l-84 65q60 136 153 136q48 0 109 -35t96 -35q48 0 88 78l84 -66q-58 -135 -155 -135q-45 0 -107 35t-98 35q-27 0 -46.5 -20t-39.5 -58z" />
    <glyph glyph-name="hungarumlaut" unicode="&#x2dd;" 
d="M301 1386h152l-177 -296h-112zM582 1386h161l-186 -296h-113z" />
    <glyph glyph-name="gravecomb" unicode="&#x300;" horiz-adv-x="794" 
d="M293 1386l160 -296h-131l-205 296h176z" />
    <glyph glyph-name="acutecomb" unicode="&#x301;" 
d="M518 1386h172l-201 -296h-127z" />
    <glyph glyph-name="circumflexcomb" unicode="&#x302;" 
d="M289 1090h-131l176 296h151l177 -296h-132l-120 198z" />
    <glyph glyph-name="tildecomb" unicode="&#x303;" horiz-adv-x="681" 
d="M160 1145l-84 65q60 136 153 136q48 0 109 -35t96 -35q48 0 88 78l84 -66q-58 -135 -155 -135q-45 0 -107 35t-98 35q-27 0 -46.5 -20t-39.5 -58z" />
    <glyph glyph-name="macroncomb" unicode="&#x304;" horiz-adv-x="681" 
d="M549 1198h-418v125h418v-125z" />
    <glyph glyph-name="brevecomb" unicode="&#x306;" 
d="M410 1069q-117 0 -180.5 78.5t-63.5 216.5h117q0 -89 32.5 -135.5t94.5 -46.5q127 0 127 182h116q0 -140 -62.5 -217.5t-180.5 -77.5z" />
    <glyph glyph-name="dotaccentcomb" unicode="&#x307;" 
d="M410 1153q-41 0 -69 27.5t-28 68.5t28.5 69t68.5 28q41 0 69.5 -28t28.5 -69t-29 -68.5t-69 -27.5z" />
    <glyph glyph-name="dieresiscomb" unicode="&#x308;" 
d="M180 1247q0 40 26 67t64 27q37 0 64.5 -28t27.5 -66t-27 -65t-65 -27q-40 0 -65 26t-25 66zM457 1247q0 40 26 67t64 27q40 0 66 -27t26 -67t-25.5 -66t-66.5 -26q-40 0 -65 26t-25 66z" />
    <glyph glyph-name="ringcomb" unicode="&#x30a;" 
d="M410 1069q-94 0 -148.5 62t-54.5 153q0 89 54.5 151t148.5 62q95 0 148.5 -61.5t53.5 -151.5q0 -91 -53.5 -153t-148.5 -62zM412 1165q49 0 73.5 33t24.5 86q0 51 -25 84t-73 33q-49 0 -75 -33.5t-26 -83.5q0 -52 26 -85.5t75 -33.5z" />
    <glyph glyph-name="hungarumlautcomb" unicode="&#x30b;" 
d="M301 1386h152l-177 -296h-112zM582 1386h161l-186 -296h-113z" />
    <glyph glyph-name="caroncomb" unicode="&#x30c;" 
d="M485 1090h-151l-176 296h131l121 -198l120 198h132z" />
    <glyph glyph-name="commaaccentcomb" unicode="&#x326;" 
d="M496 -104l-113 -291h-121l72 291h162z" />
    <glyph glyph-name="cedillacomb" unicode="&#x327;" 
d="M377 0h115l-91 -340l-147 45z" />
    <glyph glyph-name="ogonekcomb" unicode="&#x328;" 
d="M461 -410q-74 0 -124 46.5t-50 115.5q0 157 215 299l63 -51q-78 -61 -114.5 -113.5t-36.5 -107.5q0 -34 18.5 -54t50.5 -20q41 0 76 35l57 -76q-58 -74 -155 -74z" />
    <glyph glyph-name="strokeshortcomb" unicode="&#x335;" horiz-adv-x="800" 
d="M166 586h409v-125h-409v125z" />
    <glyph glyph-name="Delta" unicode="&#x394;" horiz-adv-x="952" 
d="M928 0h-901l348 1313h203zM471 1139l-266 -1004h530z" />
    <glyph glyph-name="Omega" unicode="&#x3a9;" horiz-adv-x="991" 
d="M422 0h-361v135l189 -2q-90 97 -137 249.5t-47 346.5q0 278 116 441t314 163t313 -162t115 -442q0 -194 -47.5 -346t-135.5 -250l191 2v-135h-363v129q97 78 148 229t51 357q0 227 -71 351t-201 124q-131 0 -203 -124.5t-72 -350.5q0 -205 51.5 -356.5t149.5 -229.5v-129
z" />
    <glyph glyph-name="mu" unicode="&#x3bc;" horiz-adv-x="839" 
d="M264 -365h-145v1346h145v-635q0 -110 42 -169.5t126 -59.5q86 0 130 59t44 170v635h146v-614q0 -185 -82.5 -283t-237.5 -98q-109 0 -168 71v-422z" />
    <glyph glyph-name="pi" unicode="&#x3c0;" horiz-adv-x="899" 
d="M51 852v129h797v-129h-125v-608q0 -59 17.5 -87t56.5 -28h51v-129h-74q-96 0 -146 56.5t-50 181.5v614h-273v-850h-147v850h-107z" />
    <glyph glyph-name="Wgrave" unicode="&#x1e80;" horiz-adv-x="1386" 
d="M604 1718l160 -297h-131l-205 297h176zM1202 1313h152l-260 -1313h-193l-207 1106l-200 -1106h-201l-258 1313h155l211 -1163l203 1163h187l213 -1170z" />
    <glyph glyph-name="wgrave" unicode="&#x1e81;" horiz-adv-x="1144" 
d="M483 1386l160 -296h-131l-205 296h176zM408 0h-168l-199 981h149l148 -801l166 801h145l164 -799l148 799h143l-199 -981h-168l-166 770z" />
    <glyph glyph-name="Wacute" unicode="&#x1e82;" horiz-adv-x="1386" 
d="M788 1718h173l-201 -297h-127zM1202 1313h152l-260 -1313h-193l-207 1106l-200 -1106h-201l-258 1313h155l211 -1163l203 1163h187l213 -1170z" />
    <glyph glyph-name="wacute" unicode="&#x1e83;" horiz-adv-x="1144" 
d="M668 1386h172l-201 -296h-127zM408 0h-168l-199 981h149l148 -801l166 801h145l164 -799l148 799h143l-199 -981h-168l-166 770z" />
    <glyph glyph-name="Wdieresis" unicode="&#x1e84;" horiz-adv-x="1386" 
d="M467 1579q0 40 26 67t64 27q37 0 64.5 -28t27.5 -66t-27 -65t-65 -27q-40 0 -65 26t-25 66zM743 1579q0 40 26.5 67t64.5 27q40 0 66 -27t26 -67t-25.5 -66t-66.5 -26q-40 0 -65.5 26t-25.5 66zM1202 1313h152l-260 -1313h-193l-207 1106l-200 -1106h-201l-258 1313h155
l211 -1163l203 1163h187l213 -1170z" />
    <glyph glyph-name="wdieresis" unicode="&#x1e85;" horiz-adv-x="1144" 
d="M344 1247q0 40 26 67t64 27q37 0 64.5 -28t27.5 -66t-27 -65t-65 -27q-40 0 -65 26t-25 66zM621 1247q0 40 26 67t64 27q40 0 66 -27t26 -67t-25.5 -66t-66.5 -26q-40 0 -65 26t-25 66zM408 0h-168l-199 981h149l148 -801l166 801h145l164 -799l148 799h143l-199 -981
h-168l-166 770z" />
    <glyph glyph-name="Ygrave" unicode="&#x1ef2;" horiz-adv-x="849" 
d="M336 1718l160 -297h-131l-205 297h176zM350 0v463l-336 850h160l252 -674l256 674h154l-338 -850v-463h-148z" />
    <glyph glyph-name="ygrave" unicode="&#x1ef3;" horiz-adv-x="735" 
d="M285 1386l159 -296h-131l-204 296h176zM174 981l207 -766l190 766h144l-312 -1151q-34 -128 -90.5 -188t-146.5 -60q-77 0 -141 43l53 121q44 -33 90 -33q39 0 62 29t42 96l45 160l-297 983h154z" />
    <glyph glyph-name="endash" unicode="&#x2013;" horiz-adv-x="749" 
d="M55 596h639v-133h-639v133z" />
    <glyph glyph-name="emdash" unicode="&#x2014;" horiz-adv-x="1363" 
d="M55 596h1254v-133h-1254v133z" />
    <glyph glyph-name="quoteleft" unicode="&#x2018;" horiz-adv-x="327" 
d="M158 1022q-43 0 -70 27.5t-27 70.5q0 47 27 94l92 195h84l-80 -197q32 -10 51 -35.5t19 -56.5q0 -42 -27 -70t-69 -28z" />
    <glyph glyph-name="quoteright" unicode="&#x2019;" horiz-adv-x="327" 
d="M172 1415q41 0 68.5 -27.5t27.5 -70.5q0 -45 -28 -94l-93 -195h-84l80 197q-31 11 -50 36t-19 56q0 42 28 70t70 28z" />
    <glyph glyph-name="quotesinglbase" unicode="&#x201a;" horiz-adv-x="348" 
d="M184 193q43 0 70 -28t27 -71q0 -47 -27 -94l-92 -195h-84l80 197q-32 10 -51 35.5t-19 56.5q0 42 27 70.5t69 28.5z" />
    <glyph glyph-name="quotedblleft" unicode="&#x201c;" horiz-adv-x="593" 
d="M158 1022q-43 0 -70 27.5t-27 70.5q0 47 27 94l92 195h84l-80 -197q32 -10 51 -35.5t19 -56.5q0 -42 -27 -70t-69 -28zM422 1022q-41 0 -68.5 27.5t-27.5 70.5t26 94l94 195h84l-79 -197q31 -10 49 -35.5t18 -56.5q0 -42 -27 -70t-69 -28z" />
    <glyph glyph-name="quotedblright" unicode="&#x201d;" horiz-adv-x="589" 
d="M172 1415q41 0 68.5 -27.5t27.5 -70.5q0 -45 -28 -94l-93 -195h-84l80 197q-31 11 -50 36t-19 56q0 42 28 70t70 28zM434 1415q41 0 68.5 -27.5t27.5 -70.5t-26 -94l-94 -195h-84l80 197q-31 10 -49.5 35.5t-18.5 56.5q0 42 27 70t69 28z" />
    <glyph glyph-name="quotedblbase" unicode="&#x201e;" horiz-adv-x="620" 
d="M184 193q43 0 70 -28t27 -71q0 -47 -27 -94l-92 -195h-84l80 197q-32 10 -51 35.5t-19 56.5q0 42 27 70.5t69 28.5zM457 193q42 0 69 -28t27 -71q0 -47 -27 -94l-92 -195h-84l80 197q-32 10 -51 35.5t-19 56.5q0 42 27.5 70.5t69.5 28.5z" />
    <glyph glyph-name="dagger" unicode="&#x2020;" horiz-adv-x="692" 
d="M274 -401v1245h-221v129h221v436h142v-436h223v-129h-223v-1245h-142z" />
    <glyph glyph-name="daggerdbl" unicode="&#x2021;" horiz-adv-x="692" 
d="M53 35v129h221v680h-221v129h221v436h142v-436h223v-129h-223v-680h223v-129h-223v-436h-142v436h-221z" />
    <glyph glyph-name="bullet" unicode="&#x2022;" horiz-adv-x="606" 
d="M303 264q-88 0 -144.5 70.5t-56.5 177.5t56.5 177.5t144.5 70.5q86 0 143.5 -70.5t57.5 -177.5t-57.5 -177.5t-143.5 -70.5z" />
    <glyph glyph-name="ellipsis" unicode="&#x2026;" horiz-adv-x="1062" 
d="M190 -18q-44 0 -74 31t-30 77q0 47 30 79t74 32q47 0 78 -32t31 -79q0 -46 -31 -77t-78 -31zM530 -18q-44 0 -75 31t-31 77q0 47 31 79t75 32q47 0 78 -32t31 -79q0 -46 -31 -77t-78 -31zM868 -18q-44 0 -75 31t-31 77q0 47 31 79t75 32q47 0 78 -32t31 -79
q0 -46 -31 -77t-78 -31z" />
    <glyph glyph-name="perthousand" unicode="&#x2030;" horiz-adv-x="1656" 
d="M270 682q-106 0 -170.5 87.5t-64.5 234.5q0 149 64 237t171 88q109 0 173.5 -88t64.5 -237q0 -146 -65.5 -234t-172.5 -88zM307 0h-119l625 1313h119zM272 778q61 0 96 60t35 166q0 108 -35 168.5t-96 60.5t-97 -61t-36 -168q0 -106 36 -166t97 -60zM850 -16
q-108 0 -172 87t-64 236q0 148 64.5 236t171.5 88t171 -88t64 -236t-63.5 -235.5t-171.5 -87.5zM1384 -16q-108 0 -171.5 87t-63.5 236q0 148 64 236t171 88t171.5 -88t64.5 -236t-63.5 -235.5t-172.5 -87.5zM850 80q60 0 96.5 60.5t36.5 166.5q0 107 -36 167.5t-97 60.5
t-96 -60t-35 -168q0 -106 35.5 -166.5t95.5 -60.5zM1384 80q60 0 97 61t37 166q0 107 -36.5 167.5t-97.5 60.5t-96 -60t-35 -168q0 -106 35.5 -166.5t95.5 -60.5z" />
    <glyph glyph-name="guilsinglleft" unicode="&#x2039;" horiz-adv-x="462" 
d="M47 502l268 375l99 -86l-203 -289l203 -291l-99 -84z" />
    <glyph glyph-name="guilsinglright" unicode="&#x203a;" horiz-adv-x="462" 
d="M414 502l-267 -375l-100 84l207 291l-207 289l100 86z" />
    <glyph glyph-name="fraction" unicode="&#x2044;" horiz-adv-x="155" 
d="M-309 0l649 1313h125l-645 -1313h-129z" />
    <glyph glyph-name="zero.superior" unicode="&#x2070;" horiz-adv-x="452" 
d="M227 645q-94 0 -144 87.5t-50 252.5q0 166 50 254t144 88q93 0 142 -88t49 -254t-48.5 -253t-142.5 -87zM227 737q45 0 66.5 58.5t21.5 189.5q0 133 -21.5 191.5t-66.5 58.5q-92 0 -92 -250q0 -248 92 -248z" />
    <glyph glyph-name="four.superior" unicode="&#x2074;" horiz-adv-x="454" 
d="M252 657v136h-223v88l217 432h104v-432h64v-88h-64v-136h-98zM111 881h141v282z" />
    <glyph glyph-name="Euro" unicode="&#x20ac;" horiz-adv-x="892" 
d="M582 -16q-174 0 -286 121t-149 344h-127l25 110h92q-4 62 -4 96q0 35 4 97h-117l25 110h105q35 222 147 344.5t283 122.5q87 0 150.5 -24t129.5 -76l-69 -125q-93 84 -203 84q-113 0 -186 -83.5t-101 -242.5h367l-25 -110h-354q-4 -62 -4 -97q0 -34 4 -96h323l-24 -110
h-287q28 -158 101 -241t186 -83t203 84l69 -125q-65 -53 -129 -76.5t-149 -23.5z" />
    <glyph glyph-name="litre" unicode="&#x2113;" horiz-adv-x="659" 
d="M369 -14q-108 0 -165 73t-57 215v72l-100 -65v161l100 60v590q0 165 59 251.5t169 86.5q109 0 167 -85t58 -245q0 -181 -75 -337t-230 -304v-183q0 -84 21 -121.5t67 -37.5q36 0 63.5 23t53.5 75l84 -90q-43 -73 -94 -106t-121 -33zM295 1106v-479q83 100 127.5 222.5
t44.5 252.5q0 194 -88 194q-43 0 -63.5 -45.5t-20.5 -144.5z" />
    <glyph glyph-name="trademark" unicode="&#x2122;" horiz-adv-x="1226" 
d="M170 596v616h-152v101h414v-101h-151v-616h-111zM807 766l-193 373l4 -543h-108v717h123l176 -355l176 355h117v-717h-109l4 545z" />
    <glyph glyph-name="partialdiff" unicode="&#x2202;" horiz-adv-x="825" 
d="M414 -16q-162 0 -257.5 131t-95.5 356q0 224 91 357t243 133q66 0 119.5 -39t85.5 -103q-79 349 -336 539l86 92q197 -133 305.5 -370.5t108.5 -581.5q0 -239 -93.5 -376.5t-256.5 -137.5zM414 121q97 0 150.5 91t53.5 259q0 157 -54.5 254.5t-149.5 97.5q-97 0 -151 -92
t-54 -260t54 -259t151 -91z" />
    <glyph glyph-name="product" unicode="&#x220f;" horiz-adv-x="958" 
d="M655 1180h-352v-1581h-147v1581h-123v133h893v-133h-123v-1581h-148v1581z" />
    <glyph glyph-name="summation" unicode="&#x2211;" horiz-adv-x="765" 
d="M733 -444h-700v141l368 752l-368 722v142h700v-142h-538l342 -667v-115l-338 -692h534v-141z" />
    <glyph glyph-name="minus" unicode="&#x2212;" horiz-adv-x="755" 
d="M678 592h-598v133h598v-133z" />
    <glyph glyph-name="divisionslash" unicode="&#x2215;" horiz-adv-x="167" 
d="M-289 0l617 1313h129l-615 -1313h-131z" />
    <glyph glyph-name="radical" unicode="&#x221a;" horiz-adv-x="874" 
d="M555 0h-207l-190 840h-138v141h263l172 -823l247 1251h150z" />
    <glyph glyph-name="infinity" unicode="&#x221e;" horiz-adv-x="1042" 
d="M965 659q0 -118 -64 -190t-168 -72q-82 0 -133 37t-86 103q-29 -65 -84.5 -102.5t-122.5 -37.5q-103 0 -166 71t-63 187q0 118 62 190.5t163 72.5q83 0 133 -37t86 -103q31 64 88 102t125 38q103 0 166.5 -71t63.5 -188zM188 655q0 -149 134 -149q44 0 85 31t70 86
q-14 33 -17 41.5t-16 36.5t-19.5 36.5t-21 27.5t-26.5 25t-30 12.5t-38 6.5q-58 0 -89.5 -40t-31.5 -114zM723 809q-109 0 -164 -117q19 -49 29 -71.5t31 -55t47 -46t61 -13.5q58 0 93.5 41.5t35.5 107.5q0 71 -36 112.5t-97 41.5z" />
    <glyph glyph-name="integral" unicode="&#x222b;" horiz-adv-x="573" 
d="M113 -389q-93 0 -156 51l51 119q44 -39 92 -39q47 0 73 33t26 96v1286q0 121 62.5 194.5t168.5 73.5q95 0 158 -51l-53 -119q-45 39 -91 39q-47 0 -73.5 -34t-26.5 -97v-1284q0 -123 -61.5 -195.5t-169.5 -72.5z" />
    <glyph glyph-name="approxequal" unicode="&#x2248;" horiz-adv-x="735" 
d="M508 711q-52 0 -103 24t-97.5 48t-88.5 24q-75 0 -139 -64v138q62 59 147 59q52 0 103 -23.5t97.5 -47t88.5 -23.5q76 0 139 55v-141q-64 -49 -147 -49zM508 381q-52 0 -103 24t-97.5 48t-88.5 24q-73 0 -139 -63v139q67 57 147 57q52 0 103 -24t97.5 -48t88.5 -24
q73 0 139 57v-141q-64 -49 -147 -49z" />
    <glyph glyph-name="notequal" unicode="&#x2260;" horiz-adv-x="753" 
d="M158 219l73 201h-151v135h203l75 209h-278v133h328l75 203h119l-76 -203h152v-133h-201l-76 -209h277v-135h-328l-74 -201h-118z" />
    <glyph glyph-name="lessequal" unicode="&#x2264;" horiz-adv-x="755" 
d="M678 451v-154l-598 330v133l598 327v-153l-447 -240zM678 0h-598v135h598v-135z" />
    <glyph glyph-name="greaterequal" unicode="&#x2265;" horiz-adv-x="755" 
d="M678 627l-598 -330v154l444 243l-444 240v153l598 -327v-133zM678 0h-598v135h598v-135z" />
    <glyph glyph-name="lozenge" unicode="&#x25ca;" horiz-adv-x="866" 
d="M532 0h-198l-260 655l260 658h198l263 -658zM223 655l207 -530l205 530l-205 535z" />
    <glyph glyph-name="ITF" unicode="&#xf8ff;" horiz-adv-x="3194" 
d="M174 0v1313h406v-1313h-406zM664 930v383h405v-383h-405zM1151 0v1313h405v-1313h-405zM1642 930v383h404v-383h-404zM2130 0v1313h403v-1313h-403zM2619 930v383h404v-383h-404zM2619 465v381h404v-381h-404z" />
    <glyph glyph-name="G.alt" horiz-adv-x="1005" 
d="M522 -16q-219 0 -334.5 174t-115.5 497q0 319 130 496.5t357 177.5q97 0 168.5 -24.5t136.5 -79.5l-69 -129q-100 92 -230 92q-166 0 -253 -136t-87 -397q0 -530 299 -530q199 0 238 211v254h-266v135h415v-410q-29 -156 -126.5 -243.5t-262.5 -87.5z" />
    <glyph glyph-name="a.alt" horiz-adv-x="905" 
d="M385 -16q-150 0 -237 135.5t-87 369.5t87 371t237 137q163 0 231 -178v162h146v-788q0 -38 17 -58t44 -20q23 0 43 10l17 -123q-37 -16 -86 -16q-71 0 -118 39t-58 122q-37 -78 -97.5 -120.5t-138.5 -42.5zM412 121q98 0 151 97t53 271q0 175 -53 273t-151 98
t-151.5 -98.5t-53.5 -272.5q0 -173 53.5 -270.5t151.5 -97.5z" />
    <glyph glyph-name="j.alt" horiz-adv-x="385" 
d="M193 1171q-41 0 -69 27.5t-28 67.5q0 42 28.5 70t68.5 28q41 0 68.5 -28.5t27.5 -69.5q0 -40 -28 -67.5t-68 -27.5zM25 -418h-39v131h32q51 0 76 29t25 94v1145h145v-1131q0 -131 -61.5 -199.5t-177.5 -68.5z" />
    <glyph glyph-name="l.alt" horiz-adv-x="380" 
d="M119 0v1409h145v-1409h-145z" />
    <glyph glyph-name="y.alt" horiz-adv-x="729" 
d="M340 -401h-137l112 405l-295 977h154l205 -764l194 764h142z" />
    <glyph glyph-name="fl.alt" horiz-adv-x="858" 
d="M297 0h-147v852h-107v129h107v123q0 146 77 233.5t211 87.5q110 0 193 -45h110v-1380h-147v1264q-61 34 -137 34q-78 0 -119 -49.5t-41 -140.5v-127h149v-129h-149v-852z" />
    <glyph glyph-name="quoteleft.alt02" horiz-adv-x="286" 
d="M74 1303l106 106h33v-422h-139v316z" />
    <glyph glyph-name="quoteright.alt02" horiz-adv-x="301" 
d="M219 1094l-106 -107h-29v422h135v-315z" />
    <glyph glyph-name="ampersand.alt" horiz-adv-x="940" 
d="M391 -14q-153 0 -243.5 93.5t-90.5 246.5q0 227 226 381q-115 174 -115 311q0 139 83 224t214 85q77 0 134 -21.5t116 -70.5l-66 -121q-44 41 -83 59.5t-87 18.5q-71 0 -117.5 -48t-46.5 -128q0 -61 18.5 -112.5t59.5 -115.5l277 -405l106 250l111 -49l-123 -281
q-3 -6 -8 -18.5t-8 -18.5l141 -207l-117 -75l-102 153q-117 -151 -279 -151zM203 334q0 -100 52 -159.5t144 -59.5q121 0 199 127l-248 366q-147 -110 -147 -274z" />
    <glyph glyph-name="Gbreve.alt" horiz-adv-x="1005" 
d="M551 1401q-117 0 -180.5 78.5t-63.5 216.5h117q0 -89 32.5 -136t94.5 -47q127 0 127 183h117q0 -140 -62.5 -217.5t-181.5 -77.5zM522 -16q-219 0 -334.5 174t-115.5 497q0 319 130 496.5t357 177.5q97 0 168.5 -24.5t136.5 -79.5l-69 -129q-100 92 -230 92
q-166 0 -253 -136t-87 -397q0 -530 299 -530q199 0 238 211v254h-266v135h415v-410q-29 -156 -126.5 -243.5t-262.5 -87.5z" />
    <glyph glyph-name="Gcircumflex.alt" horiz-adv-x="1005" 
d="M430 1421h-131l176 297h152l176 -297h-131l-121 199zM522 -16q-219 0 -334.5 174t-115.5 497q0 319 130 496.5t357 177.5q97 0 168.5 -24.5t136.5 -79.5l-69 -129q-100 92 -230 92q-166 0 -253 -136t-87 -397q0 -530 299 -530q199 0 238 211v254h-266v135h415v-410
q-29 -156 -126.5 -243.5t-262.5 -87.5z" />
    <glyph glyph-name="Gcommaaccent.alt" horiz-adv-x="1005" 
d="M522 -16q-219 0 -334.5 174t-115.5 497q0 319 130 496.5t357 177.5q97 0 168.5 -24.5t136.5 -79.5l-69 -129q-100 92 -230 92q-166 0 -253 -136t-87 -397q0 -530 299 -530q199 0 238 211v254h-266v135h415v-410q-29 -156 -126.5 -243.5t-262.5 -87.5zM606 -104l-112 -291
h-121l71 291h162z" />
    <glyph glyph-name="Gdotaccent.alt" horiz-adv-x="1005" 
d="M551 1485q-41 0 -68.5 27.5t-27.5 68.5t28 68.5t68 27.5q41 0 69.5 -27.5t28.5 -68.5t-29 -68.5t-69 -27.5zM522 -16q-219 0 -334.5 174t-115.5 497q0 319 130 496.5t357 177.5q97 0 168.5 -24.5t136.5 -79.5l-69 -129q-100 92 -230 92q-166 0 -253 -136t-87 -397
q0 -530 299 -530q199 0 238 211v254h-266v135h415v-410q-29 -156 -126.5 -243.5t-262.5 -87.5z" />
    <glyph glyph-name="aacute.alt" horiz-adv-x="905" 
d="M547 1386h172l-201 -296h-127zM385 -16q-150 0 -237 135.5t-87 369.5t87 371t237 137q163 0 231 -178v162h146v-788q0 -38 17 -58t44 -20q23 0 43 10l17 -123q-37 -16 -86 -16q-71 0 -118 39t-58 122q-37 -78 -97.5 -120.5t-138.5 -42.5zM412 121q98 0 151 97t53 271
q0 175 -53 273t-151 98t-151.5 -98.5t-53.5 -272.5q0 -173 53.5 -270.5t151.5 -97.5z" />
    <glyph glyph-name="abreve.alt" horiz-adv-x="905" 
d="M453 1069q-117 0 -180.5 78.5t-63.5 216.5h117q0 -89 32.5 -135.5t94.5 -46.5q127 0 127 182h116q0 -140 -62.5 -217.5t-180.5 -77.5zM385 -16q-150 0 -237 135.5t-87 369.5t87 371t237 137q163 0 231 -178v162h146v-788q0 -38 17 -58t44 -20q23 0 43 10l17 -123
q-37 -16 -86 -16q-71 0 -118 39t-58 122q-37 -78 -97.5 -120.5t-138.5 -42.5zM412 121q98 0 151 97t53 271q0 175 -53 273t-151 98t-151.5 -98.5t-53.5 -272.5q0 -173 53.5 -270.5t151.5 -97.5z" />
    <glyph glyph-name="acircumflex.alt" horiz-adv-x="905" 
d="M332 1090h-131l176 296h151l177 -296h-132l-120 198zM385 -16q-150 0 -237 135.5t-87 369.5t87 371t237 137q163 0 231 -178v162h146v-788q0 -38 17 -58t44 -20q23 0 43 10l17 -123q-37 -16 -86 -16q-71 0 -118 39t-58 122q-37 -78 -97.5 -120.5t-138.5 -42.5zM412 121
q98 0 151 97t53 271q0 175 -53 273t-151 98t-151.5 -98.5t-53.5 -272.5q0 -173 53.5 -270.5t151.5 -97.5z" />
    <glyph glyph-name="adieresis.alt" horiz-adv-x="905" 
d="M223 1247q0 40 26 67t64 27q37 0 65 -28t28 -66t-27.5 -65t-65.5 -27q-40 0 -65 26t-25 66zM500 1247q0 40 26 67t64 27q40 0 66 -27t26 -67t-25.5 -66t-66.5 -26q-40 0 -65 26t-25 66zM385 -16q-150 0 -237 135.5t-87 369.5t87 371t237 137q163 0 231 -178v162h146v-788
q0 -38 17 -58t44 -20q23 0 43 10l17 -123q-37 -16 -86 -16q-71 0 -118 39t-58 122q-37 -78 -97.5 -120.5t-138.5 -42.5zM412 121q98 0 151 97t53 271q0 175 -53 273t-151 98t-151.5 -98.5t-53.5 -272.5q0 -173 53.5 -270.5t151.5 -97.5z" />
    <glyph glyph-name="agrave.alt" horiz-adv-x="905" 
d="M362 1386l160 -296h-131l-205 296h176zM385 -16q-150 0 -237 135.5t-87 369.5t87 371t237 137q163 0 231 -178v162h146v-788q0 -38 17 -58t44 -20q23 0 43 10l17 -123q-37 -16 -86 -16q-71 0 -118 39t-58 122q-37 -78 -97.5 -120.5t-138.5 -42.5zM412 121q98 0 151 97
t53 271q0 175 -53 273t-151 98t-151.5 -98.5t-53.5 -272.5q0 -173 53.5 -270.5t151.5 -97.5z" />
    <glyph glyph-name="amacron.alt" horiz-adv-x="905" 
d="M662 1198h-418v125h418v-125zM385 -16q-150 0 -237 135.5t-87 369.5t87 371t237 137q163 0 231 -178v162h146v-788q0 -38 17 -58t44 -20q23 0 43 10l17 -123q-37 -16 -86 -16q-71 0 -118 39t-58 122q-37 -78 -97.5 -120.5t-138.5 -42.5zM412 121q98 0 151 97t53 271
q0 175 -53 273t-151 98t-151.5 -98.5t-53.5 -272.5q0 -173 53.5 -270.5t151.5 -97.5z" />
    <glyph glyph-name="aogonek.alt" horiz-adv-x="905" 
d="M385 -16q-150 0 -237 135.5t-87 369.5t87 371t237 137q163 0 231 -178v162h146v-788q0 -38 17 -58t44 -20q23 0 43 10l17 -123q-78 -61 -115 -114t-37 -107q0 -34 19 -54t51 -20q41 0 76 35l57 -76q-58 -74 -156 -74q-74 0 -124 46.5t-50 115.5q0 125 135 240
q-101 26 -118 153q-37 -78 -97.5 -120.5t-138.5 -42.5zM412 121q98 0 151 97t53 271q0 175 -53 273t-151 98t-151.5 -98.5t-53.5 -272.5q0 -173 53.5 -270.5t151.5 -97.5z" />
    <glyph glyph-name="aring.alt" horiz-adv-x="905" 
d="M453 1069q-94 0 -148.5 62t-54.5 153q0 89 54.5 151t148.5 62q95 0 148.5 -61.5t53.5 -151.5q0 -91 -53.5 -153t-148.5 -62zM455 1165q49 0 73.5 33t24.5 86q0 51 -25 84t-73 33q-49 0 -75 -33.5t-26 -83.5q0 -52 26 -85.5t75 -33.5zM385 -16q-150 0 -237 135.5
t-87 369.5t87 371t237 137q163 0 231 -178v162h146v-788q0 -38 17 -58t44 -20q23 0 43 10l17 -123q-37 -16 -86 -16q-71 0 -118 39t-58 122q-37 -78 -97.5 -120.5t-138.5 -42.5zM412 121q98 0 151 97t53 271q0 175 -53 273t-151 98t-151.5 -98.5t-53.5 -272.5
q0 -173 53.5 -270.5t151.5 -97.5z" />
    <glyph glyph-name="atilde.alt" horiz-adv-x="905" 
d="M272 1145l-84 65q60 136 154 136q48 0 109 -35t96 -35q48 0 88 78l84 -66q-58 -135 -156 -135q-45 0 -107 35t-98 35q-27 0 -46.5 -20t-39.5 -58zM385 -16q-150 0 -237 135.5t-87 369.5t87 371t237 137q163 0 231 -178v162h146v-788q0 -38 17 -58t44 -20q23 0 43 10
l17 -123q-37 -16 -86 -16q-71 0 -118 39t-58 122q-37 -78 -97.5 -120.5t-138.5 -42.5zM412 121q98 0 151 97t53 271q0 175 -53 273t-151 98t-151.5 -98.5t-53.5 -272.5q0 -173 53.5 -270.5t151.5 -97.5z" />
    <glyph glyph-name="jdotless.alt" horiz-adv-x="385" 
d="M25 -418h-39v131h32q51 0 76 29t25 94v1145h145v-1131q0 -131 -61.5 -199.5t-177.5 -68.5z" />
    <glyph glyph-name="jcircumflex.alt" horiz-adv-x="385" 
d="M70 1090h-131l176 296h151l176 -296h-131l-121 198zM25 -418h-39v131h32q51 0 76 29t25 94v1145h145v-1131q0 -131 -61.5 -199.5t-177.5 -68.5z" />
    <glyph glyph-name="lacute.alt" horiz-adv-x="380" 
d="M285 1815h172l-201 -297h-127zM119 0v1409h145v-1409h-145z" />
    <glyph glyph-name="lcaron.alt" horiz-adv-x="380" 
d="M119 0v1409h145v-1409h-145zM514 1409l-78 -319h-110l41 319h147z" />
    <glyph glyph-name="lcommaaccent.alt" horiz-adv-x="380" 
d="M119 0v1409h145v-1409h-145zM272 -104l-112 -291h-121l72 291h161z" />
    <glyph glyph-name="ldot.alt" horiz-adv-x="530" 
d="M119 0v1409h145v-1409h-145zM426 553q-32 12 -44 42t1 62q12 31 42 42.5t62 0.5q32 -13 43.5 -43.5t-0.5 -62.5q-14 -31 -43 -42.5t-61 1.5z" />
    <glyph glyph-name="lslash.alt" horiz-adv-x="380" 
d="M119 0v641l-88 -43v137l88 43v631h145v-563l88 43v-137l-88 -43v-709h-145z" />
    <glyph glyph-name="yacute.alt" horiz-adv-x="729" 
d="M465 1386h172l-201 -296h-127zM340 -401h-137l112 405l-295 977h154l205 -764l194 764h142z" />
    <glyph glyph-name="ycircumflex.alt" horiz-adv-x="729" 
d="M250 1090h-131l176 296h151l177 -296h-131l-121 198zM340 -401h-137l112 405l-295 977h154l205 -764l194 764h142z" />
    <glyph glyph-name="ydieresis.alt" horiz-adv-x="729" 
d="M141 1247q0 40 26 67t64 27q37 0 65 -28t28 -66t-27.5 -65t-65.5 -27q-40 0 -65 26t-25 66zM418 1247q0 40 26 67t64 27q40 0 66 -27t26 -67t-25.5 -66t-66.5 -26q-40 0 -65 26t-25 66zM340 -401h-137l112 405l-295 977h154l205 -764l194 764h142z" />
    <glyph glyph-name="ygrave.alt" horiz-adv-x="729" 
d="M281 1386l159 -296h-131l-205 296h177zM340 -401h-137l112 405l-295 977h154l205 -764l194 764h142z" />
    <glyph glyph-name="i.loclTRK" horiz-adv-x="382" 
d="M190 1171q-41 0 -68.5 27.5t-27.5 67.5q0 42 28 70t68 28q41 0 70 -28.5t29 -69.5q0 -40 -29 -67.5t-70 -27.5zM264 0h-145v981h145v-981z" />
    <glyph glyph-name="commaaccent.alt" 
d="M338 1102l113 291h106l-70 -291h-149z" />
    <glyph glyph-name="caroncomb.alt" 
d="M502 1409l-78 -319h-111l41 319h148z" />
    <glyph glyph-name="commaaccent" 
d="M485 -104l-110 -291h-105l72 291h143z" />
    </font>
</defs>
</svg>
