<?xml version="1.0" standalone="no"?>
<!DOCTYPE svg PUBLIC "-//W3C//DTD SVG 1.1//EN" "http://www.w3.org/Graphics/SVG/1.1/DTD/svg11.dtd" >
<svg xmlns="http://www.w3.org/2000/svg" xmlns:xlink="http://www.w3.org/1999/xlink" version="1.1">
<metadata>
Created by FontForge 20170731 at Sat Feb 11 11:56:34 2023
 By Aleksey,,,
Copyright 2021-2022 Indian Type Foundry. All rights reserved.
</metadata>
<defs>
<font id="ElevanceSansCondensed-Light" horiz-adv-x="819" >
  <font-face 
    font-family="Elevance Sans Condensed Light"
    font-weight="300"
    font-stretch="normal"
    units-per-em="2048"
    panose-1="0 0 0 0 0 0 0 0 0 0"
    ascent="1638"
    descent="-410"
    x-height="981"
    cap-height="1313"
    bbox="-303 -422 3062 1796"
    underline-thickness="102"
    underline-position="-307"
    unicode-range="U+0020-FB02"
  />
<missing-glyph horiz-adv-x="884" 
d="M735 0h-585v1313h585v-1313zM209 1257v-1202h467v1202h-467z" />
    <glyph glyph-name="fi" unicode="fi" horiz-adv-x="798" 
d="M215 0h-59v928h-99v53h99v147q0 135 74.5 215t197.5 80t209 -63l-27 -49q-81 59 -182 59q-100 0 -156.5 -64.5t-56.5 -177.5v-147h440v-981h-57v928h-383v-928z" />
    <glyph glyph-name="fl" unicode="fl" horiz-adv-x="800" 
d="M215 0h-59v928h-99v53h99v143q0 140 70 219.5t194 79.5q101 0 192 -51h39v-1237q0 -45 18.5 -68.5t51.5 -23.5q22 0 43 8l10 -51q-21 -12 -57 -12q-56 0 -90.5 39t-34.5 104v1190q-74 49 -172 49q-101 0 -153 -64t-52 -180v-145h176v-53h-176v-928z" />
    <glyph glyph-name=".notdef" horiz-adv-x="884" 
d="M735 0h-585v1313h585v-1313zM209 1257v-1202h467v1202h-467z" />
    <glyph glyph-name=".null" horiz-adv-x="0" 
 />
    <glyph glyph-name="nonmarkingreturn" horiz-adv-x="682" 
 />
    <glyph glyph-name="space" unicode=" " horiz-adv-x="356" 
 />
    <glyph glyph-name="exclam" unicode="!" horiz-adv-x="458" 
d="M254 342h-49l-8 971h65zM229 -14q-26 0 -42.5 17.5t-16.5 45.5t16.5 46t42.5 18t43 -18t17 -46t-17 -45.5t-43 -17.5z" />
    <glyph glyph-name="quotedbl" unicode="&#x22;" horiz-adv-x="370" 
d="M135 1409l-12 -377h-39l-14 377h65zM301 1409l-12 -377h-39l-12 377h63z" />
    <glyph glyph-name="numbersign" unicode="#" horiz-adv-x="800" 
d="M123 0l59 414h-170l8 53h170l54 381h-172l8 53h172l59 412h56l-60 -412h260l60 412h55l-59 -412h165l-8 -53h-166l-53 -381h168l-6 -53h-170l-59 -414h-54l60 414h-260l-60 -414h-57zM246 467h260l55 381h-260z" />
    <glyph glyph-name="dollar" unicode="$" horiz-adv-x="780" 
d="M422 -158h-57v158q-167 9 -293 117l34 47q120 -111 285 -111q113 0 187.5 70t74.5 178q0 38 -8.5 71.5t-19.5 58.5t-34 51t-40 42t-50 38t-51.5 33t-56.5 32q-45 26 -72.5 43.5t-66.5 46t-63 57t-47.5 65.5t-34.5 82t-11 97q0 117 77.5 199t201.5 94v159h57v-157
q134 -6 232 -80l-35 -43q-86 72 -217 72q-115 0 -186.5 -70t-71.5 -172q0 -40 8.5 -75.5t21 -62.5t36 -54.5t42.5 -45.5t52.5 -40.5t54.5 -35t59 -34.5q54 -31 83.5 -49.5t73 -54t66.5 -69.5t40.5 -86t17.5 -112q0 -123 -81.5 -206.5t-207.5 -92.5v-160z" />
    <glyph glyph-name="percent" unicode="%" horiz-adv-x="1097" 
d="M268 694q-103 0 -164 85.5t-61 230.5q0 146 61 231.5t164 85.5t164.5 -85.5t61.5 -231.5q0 -144 -61.5 -230t-164.5 -86zM260 0h-61l641 1313h61zM268 748q76 0 122 70t46 192t-46 193t-122 71q-75 0 -121.5 -71.5t-46.5 -192.5t46.5 -191.5t121.5 -70.5zM829 -14
q-103 0 -164 85.5t-61 231.5q0 145 61 230t164 85t164.5 -85.5t61.5 -229.5q0 -146 -61.5 -231.5t-164.5 -85.5zM829 39q75 0 121.5 71.5t46.5 192.5t-46.5 191.5t-121.5 70.5q-76 0 -121.5 -70t-45.5 -192t45.5 -193t121.5 -71z" />
    <glyph glyph-name="ampersand" unicode="&#x26;" horiz-adv-x="874" 
d="M377 -14q-142 0 -228 86.5t-86 240.5q0 118 58.5 207t181.5 176l-47 72q-90 140 -90 274q0 124 68 204.5t172 80.5q103 0 166 -78t63 -205q0 -107 -66.5 -201.5t-187.5 -162.5l283 -436q56 112 71 272l6 66l54 -9l-7 -65q-18 -186 -90 -315l117 -181l-51 -24l-100 153
q-112 -155 -287 -155zM301 801l49 -76q118 67 173 145t55 177q0 104 -47 165.5t-125 61.5q-80 0 -131.5 -64.5t-51.5 -165.5q0 -67 17.5 -122t60.5 -121zM121 313q0 -132 69 -203t187 -71q158 0 256 149l-299 461q-213 -135 -213 -336z" />
    <glyph glyph-name="quotesingle" unicode="'" horiz-adv-x="204" 
d="M135 1409l-12 -377h-39l-14 377h65z" />
    <glyph glyph-name="parenleft" unicode="(" horiz-adv-x="458" 
d="M438 -250l-39 -37q-307 359 -307 858q0 500 307 859l39 -37q-138 -165 -212 -379t-74 -443t74 -442.5t212 -378.5z" />
    <glyph glyph-name="parenright" unicode=")" horiz-adv-x="456" 
d="M59 -287l-39 37q137 166 212 379.5t75 441.5t-75 442t-212 380l39 37q306 -362 306 -859q0 -496 -306 -858z" />
    <glyph glyph-name="asterisk" unicode="*" horiz-adv-x="522" 
d="M352 969l-92 170l-90 -170l-47 30l106 166l-161 58l18 53l156 -72l-11 205h58l-6 -205l153 72l19 -53l-164 -58l108 -166z" />
    <glyph glyph-name="plus" unicode="+" horiz-adv-x="753" 
d="M98 635v53h250v299h58v-299h249v-53h-249v-299h-58v299h-250z" />
    <glyph glyph-name="comma" unicode="," horiz-adv-x="321" 
d="M160 111q27 0 43 -17.5t16 -44.5q0 -21 -14 -63l-80 -222h-47l74 224q-23 4 -36.5 21.5t-13.5 39.5q0 27 16 44.5t42 17.5z" />
    <glyph glyph-name="hyphen" unicode="-" horiz-adv-x="516" 
d="M72 555h372v-53h-372v53z" />
    <glyph glyph-name="period" unicode="." horiz-adv-x="319" 
d="M160 -14q-26 0 -43 17.5t-17 45.5t17 46t43 18t42.5 -18t16.5 -46t-16.5 -45.5t-42.5 -17.5z" />
    <glyph glyph-name="slash" unicode="/" horiz-adv-x="661" 
d="M39 0l526 1313h58l-527 -1313h-57z" />
    <glyph glyph-name="zero" unicode="0" horiz-adv-x="835" 
d="M418 -14q-157 0 -238.5 170.5t-81.5 500.5t81.5 500t238.5 170t238 -170t81 -500q0 -331 -81 -501t-238 -170zM418 39q126 0 194 159.5t68 458.5t-68 458t-194 159q-128 0 -195 -158t-67 -459q0 -299 68 -458.5t194 -159.5z" />
    <glyph glyph-name="one" unicode="1" horiz-adv-x="505" 
d="M342 0h-57v1231l-187 -201l-37 43l226 240h55v-1313z" />
    <glyph glyph-name="two" unicode="2" horiz-adv-x="700" 
d="M629 0h-582v51l371 535q157 224 157 430q0 111 -62 184.5t-173 73.5q-85 0 -140.5 -43t-95.5 -123l-49 27q100 192 285 192q132 0 212.5 -87t80.5 -224q0 -121 -45 -231.5t-125 -227.5l-348 -504h514v-53z" />
    <glyph glyph-name="three" unicode="3" horiz-adv-x="720" 
d="M328 -14q-184 0 -277 170l49 26q77 -143 228 -143q81 0 139.5 48.5t85.5 123.5t27 166q0 340 -291 340h-43v43l315 500h-479v53h536v-62l-303 -481q72 -4 128 -27t92 -58.5t59.5 -85t33 -104t9.5 -118.5q0 -167 -82 -279t-227 -112z" />
    <glyph glyph-name="four" unicode="4" horiz-adv-x="755" 
d="M504 326h-463v53l471 934h49v-934h139v-53h-139v-326h-57v326zM504 379v801l-404 -801h404z" />
    <glyph glyph-name="five" unicode="5" horiz-adv-x="772" 
d="M373 -14q-184 0 -277 170l49 26q77 -143 228 -143q61 0 108.5 28.5t76.5 77t43.5 109t14.5 129.5q0 73 -13.5 136t-42 116t-78.5 84t-117 31q-59 0 -108.5 -23.5t-102.5 -75.5l-35 15l80 647h428v-53h-381l-64 -525q79 68 183 68q103 0 174.5 -59.5t103 -152t31.5 -208.5
q0 -109 -32.5 -197t-102 -144t-166.5 -56z" />
    <glyph glyph-name="six" unicode="6" horiz-adv-x="806" 
d="M406 -14q-138 0 -223 119.5t-85 314.5q0 98 23.5 180t85.5 203l262 510h59l-270 -531q66 66 152 66q141 0 221 -114.5t80 -313.5q0 -198 -83 -316t-222 -118zM412 795q-112 0 -184 -106.5t-72 -268.5q0 -177 66.5 -279t183.5 -102q115 0 181 102t66 279t-63.5 276
t-177.5 99z" />
    <glyph glyph-name="seven" unicode="7" horiz-adv-x="641" 
d="M211 0h-57l387 1260h-508v53h565v-53z" />
    <glyph glyph-name="eight" unicode="8" horiz-adv-x="776" 
d="M389 -14q-140 0 -222.5 105.5t-82.5 279.5q0 134 54.5 228t150.5 126q-74 31 -117 106.5t-43 178.5q0 142 70.5 229.5t189.5 87.5q118 0 189 -87.5t71 -229.5q0 -103 -43 -178.5t-117 -106.5q94 -32 148.5 -126t54.5 -228q0 -174 -82 -279.5t-221 -105.5zM391 750
q91 0 146 72.5t55 189.5q0 118 -54.5 190t-146.5 72q-96 0 -150.5 -71.5t-54.5 -190.5q0 -118 56 -190t149 -72zM391 39q115 0 179.5 89t64.5 241q0 153 -64.5 240t-179.5 87q-118 0 -184 -86.5t-66 -240.5q0 -153 66 -241.5t184 -88.5z" />
    <glyph glyph-name="nine" unicode="9" horiz-adv-x="806" 
d="M401 1327q138 0 223 -119.5t85 -314.5q0 -97 -24 -179t-87 -204l-260 -510h-59l268 526q-67 -61 -150 -61q-141 0 -221 114.5t-80 313.5q0 198 83 316t222 118zM395 518q112 0 184 106.5t72 268.5q0 177 -66.5 279t-183.5 102q-115 0 -181 -102t-66 -279t63.5 -276
t177.5 -99z" />
    <glyph glyph-name="colon" unicode=":" horiz-adv-x="321" 
d="M160 797q-26 0 -43 17.5t-17 45.5t17 46t43 18t42.5 -18t16.5 -46t-16.5 -45.5t-42.5 -17.5zM160 -14q-26 0 -43 17.5t-17 45.5t17 46t43 18t42.5 -18t16.5 -46t-16.5 -45.5t-42.5 -17.5z" />
    <glyph glyph-name="semicolon" unicode=";" horiz-adv-x="321" 
d="M160 797q-26 0 -43 17.5t-17 45.5t17 46t43 18t42.5 -18t16.5 -46t-16.5 -45.5t-42.5 -17.5zM160 111q27 0 43 -17.5t16 -44.5q0 -21 -14 -63l-80 -222h-47l74 224q-23 4 -36.5 21.5t-13.5 39.5q0 27 16 44.5t42 17.5z" />
    <glyph glyph-name="less" unicode="&#x3c;" horiz-adv-x="761" 
d="M659 350v-63l-555 352v45l555 350v-63l-489 -309z" />
    <glyph glyph-name="equal" unicode="=" horiz-adv-x="753" 
d="M98 780v56h557v-56h-557zM98 487v56h557v-56h-557z" />
    <glyph glyph-name="greater" unicode="&#x3e;" horiz-adv-x="763" 
d="M659 639l-555 -352v63l490 312l-490 309v63l555 -350v-45z" />
    <glyph glyph-name="question" unicode="?" horiz-adv-x="673" 
d="M328 342h-52l-2 293h19q127 0 195.5 87t68.5 241q0 143 -65 227t-170 84q-80 0 -137.5 -38.5t-100.5 -121.5l-49 27q101 186 287 186q130 0 211 -99t81 -265q0 -162 -73.5 -263t-204.5 -116zM305 -14q-26 0 -42.5 17.5t-16.5 45.5t16.5 46t42.5 18t43 -18t17 -46
t-17 -45.5t-43 -17.5z" />
    <glyph glyph-name="at" unicode="@" horiz-adv-x="1218" 
d="M565 174q-96 0 -151.5 83.5t-55.5 229.5q0 204 75 333.5t194 129.5q126 0 164 -162l12 140h57l-43 -428q-26 -269 86 -269q79 0 127.5 138t48.5 352q0 259 -112 405t-312 146q-152 0 -270 -98.5t-183 -278t-65 -412.5q0 -285 127.5 -451.5t343.5 -166.5q132 0 223 59
l19 -51q-99 -63 -246 -63q-237 0 -380.5 184.5t-143.5 490.5q0 245 73.5 436.5t205.5 297.5t300 106q220 0 349 -165t129 -445q0 -239 -66 -389t-174 -150q-124 0 -139 172q-32 -85 -81.5 -129.5t-111.5 -44.5zM567 227q87 0 145 119t58 291q0 118 -40 189t-107 71
q-89 0 -148 -115.5t-59 -292.5q0 -121 41 -191.5t110 -70.5z" />
    <glyph glyph-name="A" unicode="A" horiz-adv-x="894" 
d="M807 0l-119 410h-485l-119 -410h-57l381 1313h79l381 -1313h-61zM217 463h457l-228 788z" />
    <glyph glyph-name="B" unicode="B" horiz-adv-x="901" 
d="M487 0h-337v1313h311q147 0 235 -90.5t88 -239.5q0 -105 -52.5 -185.5t-139.5 -113.5q105 -24 169 -112.5t64 -217.5q0 -158 -93.5 -256t-244.5 -98zM207 1260v-555h266q106 0 180 81t74 197q0 127 -73.5 202t-198.5 75h-248zM207 651v-598h270q132 0 211.5 82t79.5 219
q0 133 -75 215t-197 82h-289z" />
    <glyph glyph-name="C" unicode="C" horiz-adv-x="835" 
d="M516 -14q-198 0 -311 177.5t-113 491.5t112.5 493t309.5 179q86 0 149.5 -25.5t124.5 -80.5l-34 -41q-56 47 -111.5 70.5t-128.5 23.5q-171 0 -267.5 -163.5t-96.5 -455.5t97 -454t271 -162q124 0 236 94l34 -41q-62 -55 -125 -80.5t-147 -25.5z" />
    <glyph glyph-name="D" unicode="D" horiz-adv-x="970" 
d="M150 0v1313h241q125 0 219 -47t152.5 -134.5t87.5 -206.5t29 -270q0 -150 -28.5 -268.5t-86 -206t-150.5 -134t-217 -46.5h-247zM399 1260h-192v-1207h192q89 0 159.5 28.5t119.5 80t81 127t47 166.5t15 200t-15 200.5t-47 167t-81 128t-119.5 81t-159.5 28.5z" />
    <glyph glyph-name="E" unicode="E" horiz-adv-x="790" 
d="M150 0v1313h577v-53h-520v-578h463v-53h-463v-576h520v-53h-577z" />
    <glyph glyph-name="F" unicode="F" horiz-adv-x="757" 
d="M207 0h-57v1313h557v-53h-500v-588h442v-54h-442v-618z" />
    <glyph glyph-name="G" unicode="G" horiz-adv-x="937" 
d="M545 -14q-223 0 -338 172t-115 497q0 319 116 495.5t324 176.5q88 0 153 -24.5t130 -81.5l-35 -43q-59 52 -117 74t-131 22q-183 0 -282.5 -161.5t-99.5 -457.5q0 -302 99.5 -459t297.5 -157q134 0 225 70v489h-270v55h327v-569q-116 -98 -284 -98z" />
    <glyph glyph-name="H" unicode="H" horiz-adv-x="1009" 
d="M803 0v629h-596v-629h-57v1313h57v-631h596v631h57v-1313h-57z" />
    <glyph glyph-name="I" unicode="I" horiz-adv-x="356" 
d="M150 0v1313h57v-1313h-57z" />
    <glyph glyph-name="J" unicode="J" horiz-adv-x="587" 
d="M27 59l32 45q79 -65 166 -65q80 0 126 51t46 141v1082h58v-1080q0 -115 -63 -181t-167 -66q-113 0 -198 73z" />
    <glyph glyph-name="K" unicode="K" horiz-adv-x="798" 
d="M207 0h-57v1313h57v-658l485 658h66l-490 -664l508 -649h-71l-498 635v-635z" />
    <glyph glyph-name="L" unicode="L" horiz-adv-x="743" 
d="M150 0v1313h57v-1260h504v-53h-561z" />
    <glyph glyph-name="M" unicode="M" horiz-adv-x="1155" 
d="M578 432l-371 776v-1208h-57v1313h69l361 -756l362 756h64v-1313h-58v1204z" />
    <glyph glyph-name="N" unicode="N" horiz-adv-x="1005" 
d="M774 0l-567 1231v-1231h-57v1313h81l568 -1231v1231h57v-1313h-82z" />
    <glyph glyph-name="O" unicode="O" horiz-adv-x="995" 
d="M498 1327q196 0 300.5 -177.5t104.5 -496.5q0 -317 -104.5 -492t-300.5 -175q-195 0 -300.5 176t-105.5 491q0 318 105.5 496t300.5 178zM498 39q169 0 258.5 161t89.5 453q0 294 -90 457.5t-258 163.5q-169 0 -258.5 -162.5t-89.5 -458.5q0 -293 89.5 -453.5
t258.5 -160.5z" />
    <glyph glyph-name="P" unicode="P" horiz-adv-x="862" 
d="M150 0v1313h294q160 0 256.5 -104.5t96.5 -276.5q0 -171 -98.5 -276t-260.5 -105h-231v-551h-57zM451 1260h-244v-656h244q131 0 209.5 89.5t78.5 238.5t-78.5 238.5t-209.5 89.5z" />
    <glyph glyph-name="Q" unicode="Q" horiz-adv-x="995" 
d="M498 -14q-195 0 -300.5 176t-105.5 491q0 318 105.5 496t300.5 178q196 0 300.5 -177.5t104.5 -496.5q0 -402 -164 -569l119 -162l-43 -33l-117 160q-85 -63 -200 -63zM498 39q98 0 168 55l-170 234l43 32l168 -229q139 151 139 522q0 294 -90 457.5t-258 163.5
q-169 0 -258.5 -162.5t-89.5 -458.5q0 -293 89.5 -453.5t258.5 -160.5z" />
    <glyph glyph-name="R" unicode="R" horiz-adv-x="860" 
d="M150 0v1313h303q150 0 240.5 -99.5t90.5 -259.5q0 -148 -78 -246.5t-208 -115.5l270 -592h-63l-269 590h-229v-590h-57zM449 1260h-242v-617h242q127 0 202.5 86t75.5 225q0 138 -75 222t-203 84z" />
    <glyph glyph-name="S" unicode="S" horiz-adv-x="780" 
d="M391 -14q-186 0 -319 118l34 48q119 -113 285 -113q113 0 187.5 71.5t74.5 180.5q0 44 -9 81.5t-30 69.5t-39.5 54t-55.5 49t-58 40t-66 40q-55 32 -88 53t-78 59.5t-69.5 76t-43 93.5t-18.5 121q0 127 89 213t227 86q146 0 252 -82l-35 -43q-86 72 -217 72
q-114 0 -186 -70.5t-72 -175.5q0 -57 17 -106t39 -81t65.5 -67.5t71.5 -53.5t83 -50q40 -24 59.5 -36t55 -37t54 -44t43 -49t37 -59.5t21.5 -69.5t9 -84q0 -137 -89 -221t-231 -84z" />
    <glyph glyph-name="T" unicode="T" horiz-adv-x="704" 
d="M684 1260h-303v-1260h-57v1260h-304v53h664v-53z" />
    <glyph glyph-name="U" unicode="U" horiz-adv-x="946" 
d="M133 375v938h57v-944q0 -157 75.5 -243.5t207.5 -86.5t206.5 86t74.5 244v944h59v-938q0 -186 -90 -287.5t-250 -101.5t-250 101.5t-90 287.5z" />
    <glyph glyph-name="V" unicode="V" horiz-adv-x="831" 
d="M86 1313l332 -1252l332 1252h55l-348 -1313h-82l-348 1313h59z" />
    <glyph glyph-name="W" unicode="W" horiz-adv-x="1349" 
d="M1251 1313h58l-285 -1313h-76l-272 1233l-273 -1233h-77l-285 1313h59l267 -1235l270 1235h78l270 -1231z" />
    <glyph glyph-name="X" unicode="X" horiz-adv-x="768" 
d="M725 1313l-307 -639l323 -674h-61l-297 616l-297 -616h-59l323 672l-309 641h61l283 -584l281 584h59z" />
    <glyph glyph-name="Y" unicode="Y" horiz-adv-x="768" 
d="M354 0v463l-340 850h62l305 -770l313 770h60l-342 -840v-473h-58z" />
    <glyph glyph-name="Z" unicode="Z" horiz-adv-x="768" 
d="M55 55l594 1205h-594v53h658v-56l-594 -1204h594v-53h-658v55z" />
    <glyph glyph-name="bracketleft" unicode="[" horiz-adv-x="454" 
d="M150 -266v1675h262v-53h-205v-1569h205v-53h-262z" />
    <glyph glyph-name="backslash" unicode="\" horiz-adv-x="661" 
d="M623 0h-58l-526 1313h57z" />
    <glyph glyph-name="bracketright" unicode="]" horiz-adv-x="454" 
d="M305 -266h-262v53h205v1569h-205v53h262v-1675z" />
    <glyph glyph-name="asciicircum" unicode="^" horiz-adv-x="714" 
d="M168 657h-57l223 656h57l215 -656h-57l-187 570z" />
    <glyph glyph-name="underscore" unicode="_" horiz-adv-x="565" 
d="M-16 -43h596v-53h-596v53z" />
    <glyph glyph-name="grave" unicode="`" horiz-adv-x="542" 
d="M217 1409l137 -319h-51l-151 319h65z" />
    <glyph glyph-name="a" unicode="a" horiz-adv-x="874" 
d="M406 -14q-152 0 -242 138t-90 368q0 229 90 366t242 137q93 0 161 -56t105 -161v203h59v-981h-59v203q-37 -105 -105 -161t-161 -56zM401 41q126 0 198.5 121.5t72.5 331.5q0 206 -72.5 326t-198.5 120q-125 0 -197.5 -120.5t-72.5 -325.5q0 -206 73 -329.5t197 -123.5z
" />
    <glyph glyph-name="b" unicode="b" horiz-adv-x="872" 
d="M201 0h-58v1409h58v-639q36 108 104.5 166.5t165.5 58.5q152 0 240 -136.5t88 -366.5t-88.5 -368t-239.5 -138q-97 0 -165.5 59t-104.5 168v-213zM471 41q125 0 197.5 122t72.5 329q0 206 -72.5 327t-197.5 121t-197.5 -121t-72.5 -327q0 -207 72.5 -329t197.5 -122z" />
    <glyph glyph-name="c" unicode="c" horiz-adv-x="675" 
d="M399 -14q-150 0 -237.5 137.5t-87.5 368.5t87.5 367t239.5 136q139 0 230 -102l-37 -41q-81 90 -191 90q-127 0 -199.5 -121t-72.5 -329q0 -207 73 -330t197 -123q115 0 193 90l37 -41q-49 -53 -103 -77.5t-129 -24.5z" />
    <glyph glyph-name="d" unicode="d" horiz-adv-x="872" 
d="M401 -14q-151 0 -239 138t-88 368t88 366.5t239 136.5q97 0 166 -58.5t105 -166.5v639h57v-1409h-57v213q-36 -109 -105 -168t-166 -59zM401 41q125 0 198 122t73 329q0 206 -72.5 327t-198.5 121q-125 0 -197.5 -121t-72.5 -327q0 -207 72.5 -329t197.5 -122z" />
    <glyph glyph-name="e" unicode="e" horiz-adv-x="776" 
d="M424 -14q-163 0 -256.5 135.5t-93.5 370.5q0 228 87.5 365.5t237.5 137.5q139 0 221 -122.5t82 -317.5v-43h-571v-18q0 -215 77.5 -335t217.5 -120q55 0 107 24t90 68l34 -41q-101 -104 -233 -104zM399 942q-111 0 -181.5 -102t-84.5 -275h512q-8 171 -74 274t-172 103z
" />
    <glyph glyph-name="f" unicode="f" horiz-adv-x="425" 
d="M213 0h-57v928h-99v53h99v236q0 97 44.5 151.5t121.5 54.5q74 0 131 -57l-37 -41q-45 45 -94 45q-52 0 -80.5 -39.5t-28.5 -113.5v-236h178v-53h-178v-928z" />
    <glyph glyph-name="g" unicode="g" horiz-adv-x="872" 
d="M401 -14q-151 0 -239 138t-88 368t88 366.5t239 136.5q97 0 166 -58.5t105 -166.5v211h57v-1028q0 -179 -85 -274t-245 -95q-174 0 -288 117l34 43q106 -106 252 -106q135 0 205 78.5t70 230.5v266q-36 -109 -105 -168t-166 -59zM401 41q125 0 198 122t73 329
q0 206 -72.5 327t-198.5 121q-125 0 -197.5 -121t-72.5 -327q0 -207 72.5 -329t197.5 -122z" />
    <glyph glyph-name="h" unicode="h" horiz-adv-x="827" 
d="M201 0h-58v1409h58v-569q36 73 99 114t142 41q132 0 205.5 -83t73.5 -230v-682h-57v664q0 136 -56.5 207t-165.5 71q-110 0 -175.5 -82.5t-65.5 -222.5v-637z" />
    <glyph glyph-name="i" unicode="i" horiz-adv-x="346" 
d="M172 1221q-22 0 -36.5 14.5t-14.5 36.5q0 21 15 36t36 15q22 0 37.5 -14.5t15.5 -36.5t-15.5 -36.5t-37.5 -14.5zM201 0h-58v981h58v-981z" />
    <glyph glyph-name="j" unicode="j" horiz-adv-x="348" 
d="M174 1221q-22 0 -36.5 14.5t-14.5 36.5q0 21 15 36t36 15q22 0 37.5 -14.5t15.5 -36.5t-15.5 -36.5t-37.5 -14.5zM49 -416q-68 0 -119 45l35 43q37 -34 84 -34q94 0 94 157v1186h58v-1184q0 -103 -39.5 -158t-112.5 -55z" />
    <glyph glyph-name="k" unicode="k" horiz-adv-x="708" 
d="M201 0h-58v1409h58v-893l405 465h70l-414 -477l428 -504h-76l-413 487v-487z" />
    <glyph glyph-name="l" unicode="l" horiz-adv-x="352" 
d="M266 -12q-55 0 -89 39t-34 104v1278h58v-1274q0 -46 18.5 -70t50.5 -24q24 0 45 8l11 -49q-21 -12 -60 -12z" />
    <glyph glyph-name="m" unicode="m" horiz-adv-x="1302" 
d="M201 0h-58v981h58v-139q36 73 95.5 113t135.5 40q94 0 158 -48.5t90 -137.5q34 88 99.5 137t150.5 49q123 0 194.5 -83.5t71.5 -229.5v-682h-57v664q0 136 -54.5 207t-154.5 71q-105 0 -168.5 -83t-63.5 -222v-637h-57v664q0 136 -54.5 207t-154.5 71q-105 0 -168 -83
t-63 -222v-637z" />
    <glyph glyph-name="n" unicode="n" horiz-adv-x="827" 
d="M201 0h-58v981h58v-141q36 73 99 114t142 41q132 0 205.5 -83t73.5 -230v-682h-57v664q0 136 -56.5 207t-165.5 71q-110 0 -175.5 -82.5t-65.5 -222.5v-637z" />
    <glyph glyph-name="o" unicode="o" horiz-adv-x="802" 
d="M401 -14q-151 0 -239 138t-88 368t88 366.5t239 136.5q152 0 240 -136.5t88 -366.5t-88.5 -368t-239.5 -138zM401 41q125 0 198 122t73 329q0 206 -72.5 327t-198.5 121q-125 0 -197.5 -121t-72.5 -327q0 -207 72.5 -329t197.5 -122z" />
    <glyph glyph-name="p" unicode="p" horiz-adv-x="872" 
d="M201 -401h-58v1382h58v-213q36 109 104.5 168t165.5 59q151 0 239.5 -138t88.5 -368t-88 -366.5t-240 -136.5q-97 0 -165.5 58.5t-104.5 166.5v-612zM471 41q125 0 197.5 121t72.5 327q0 207 -72.5 329t-197.5 122t-197.5 -122t-72.5 -329q0 -206 72.5 -327t197.5 -121z
" />
    <glyph glyph-name="q" unicode="q" horiz-adv-x="872" 
d="M401 -14q-151 0 -239 136.5t-88 366.5t88 368t239 138q97 0 166 -59t105 -168v213h57v-1382h-57v612q-36 -108 -105 -166.5t-166 -58.5zM401 41q126 0 198.5 121t72.5 327q0 207 -73 329t-198 122t-197.5 -122t-72.5 -329q0 -206 72.5 -327t197.5 -121z" />
    <glyph glyph-name="r" unicode="r" horiz-adv-x="497" 
d="M143 0v981h58v-109q61 123 176 123q52 0 92 -18l-16 -55q-35 16 -76 16q-79 0 -127.5 -74.5t-48.5 -193.5v-670h-58z" />
    <glyph glyph-name="s" unicode="s" horiz-adv-x="634" 
d="M305 -14q-137 0 -250 84l31 47q109 -78 221 -78q90 0 146.5 55t56.5 142q0 50 -15 88.5t-48 68t-62.5 48t-81.5 44.5q-49 25 -79 44.5t-66 52.5t-54 77t-18 99q0 103 74 170t188 67q122 0 215 -57l-24 -49q-88 53 -191 53q-89 0 -147 -51.5t-58 -130.5q0 -42 13.5 -75.5
t42.5 -61t60 -47.5t79 -44q41 -21 67.5 -36.5t61 -42.5t54 -55t34 -69t14.5 -89q0 -115 -73 -184.5t-191 -69.5z" />
    <glyph glyph-name="t" unicode="t" horiz-adv-x="495" 
d="M57 928v53h99v225h57v-225h215v-53h-215v-754q0 -66 31 -99.5t86 -33.5q59 0 114 37l25 -49q-72 -43 -137 -43q-81 0 -128.5 48t-47.5 134v760h-99z" />
    <glyph glyph-name="u" unicode="u" horiz-adv-x="786" 
d="M166 981v-643q0 -146 57 -221.5t166 -75.5q113 0 172.5 76t59.5 221v643h57v-649q0 -164 -75.5 -254t-213.5 -90q-134 0 -207 90t-73 254v649h57z" />
    <glyph glyph-name="v" unicode="v" horiz-adv-x="679" 
d="M375 0h-70l-278 981h59l254 -909l258 909h55z" />
    <glyph glyph-name="w" unicode="w" horiz-adv-x="1114" 
d="M342 0h-72l-229 981h59l207 -907l221 907h60l221 -903l205 903h57l-225 -981h-72l-217 877z" />
    <glyph glyph-name="x" unicode="x" horiz-adv-x="657" 
d="M27 0l268 510l-254 471h61l228 -420l229 420h59l-260 -475l273 -506h-62l-245 455l-238 -455h-59z" />
    <glyph glyph-name="y" unicode="y" horiz-adv-x="679" 
d="M84 981l264 -891l250 891h55l-338 -1200q-30 -104 -69 -150.5t-103 -46.5q-59 0 -108 37l26 49q40 -32 89 -32q41 0 64 34.5t48 118.5l60 207l-297 983h59z" />
    <glyph glyph-name="z" unicode="z" horiz-adv-x="673" 
d="M63 55l476 873h-469v53h532v-55l-475 -873h483v-53h-547v55z" />
    <glyph glyph-name="braceleft" unicode="{" horiz-adv-x="499" 
d="M457 -266h-60q-186 0 -186 237v396q0 103 -27.5 138.5t-109.5 35.5v61q82 0 109.5 35.5t27.5 138.5v414q0 111 45 165t141 54h60v-53h-56q-73 0 -103 -37t-30 -129v-432q0 -172 -114 -187q58 -7 86 -52.5t28 -133.5v-416q0 -95 32 -138.5t101 -43.5h56v-53z" />
    <glyph glyph-name="bar" unicode="|" horiz-adv-x="356" 
d="M207 -401h-57v1810h57v-1810z" />
    <glyph glyph-name="braceright" unicode="}" horiz-adv-x="499" 
d="M102 -266h-59v53h55q71 0 103 43.5t32 138.5v416q0 88 27.5 133.5t87.5 52.5q-60 7 -87.5 53t-27.5 134v432q0 91 -31 128.5t-104 37.5h-55v53h59q97 0 142 -54t45 -165v-414q0 -103 27.5 -138.5t109.5 -35.5v-61q-82 0 -109.5 -35.5t-27.5 -138.5v-396q0 -237 -187 -237
z" />
    <glyph glyph-name="asciitilde" unicode="~" horiz-adv-x="714" 
d="M483 582q-38 0 -74.5 15.5t-61 34.5t-56 34.5t-60.5 15.5q-65 0 -133 -59v63q60 51 133 51q47 0 91 -25t84 -50t77 -25q67 0 133 57v-63q-61 -49 -133 -49z" />
    <glyph glyph-name="nbspace" unicode="&#xa0;" horiz-adv-x="356" 
 />
    <glyph glyph-name="exclamdown" unicode="&#xa1;" horiz-adv-x="456" 
d="M227 866q-25 0 -43 19t-18 45t18 45.5t43 19.5q26 0 45 -19.5t19 -45.5t-19 -45t-45 -19zM262 -322h-67l8 961h51z" />
    <glyph glyph-name="cent" unicode="&#xa2;" horiz-adv-x="675" 
d="M424 -20h-57v163q-136 15 -214.5 150t-78.5 354q0 217 78.5 352t214.5 150v164h57v-162q119 -8 207 -102l-37 -43q-82 92 -191 92q-127 0 -199.5 -121t-72.5 -328q0 -208 73 -331t197 -123q115 0 193 90l37 -41q-89 -95 -207 -103v-161z" />
    <glyph glyph-name="sterling" unicode="&#xa3;" horiz-adv-x="757" 
d="M201 53h512v-53h-658v53h54q86 0 86 150v375h-109v53h109v368q0 154 72 241t198 87q75 0 128.5 -25.5t100.5 -84.5l-39 -41q-76 98 -188 98q-102 0 -158.5 -73t-56.5 -204v-366h371v-53h-371v-377q0 -117 -51 -148z" />
    <glyph glyph-name="currency" unicode="&#xa4;" horiz-adv-x="780" 
d="M389 227q-112 0 -190 97l-101 -121l-37 41l107 127q-59 103 -59 258q0 154 57 256l-105 127l37 41l101 -121q74 96 190 96q117 0 193 -98l98 123l39 -41l-107 -129q56 -106 56 -254q0 -149 -58 -256l109 -129l-37 -41l-100 123q-80 -99 -193 -99zM389 281q100 0 160.5 95
t60.5 253q0 157 -60.5 251.5t-160.5 94.5q-101 0 -162 -94.5t-61 -251.5q0 -158 61 -253t162 -95z" />
    <glyph glyph-name="yen" unicode="&#xa5;" horiz-adv-x="768" 
d="M412 0h-58v461h-268v53h248l-101 252h-147v53h125l-197 494h62l307 -770l309 770h62l-201 -494h129v-53h-152l-102 -252h254v-53h-270v-461z" />
    <glyph glyph-name="brokenbar" unicode="&#xa6;" horiz-adv-x="356" 
d="M207 1409v-747h-57v747h57zM207 346v-747h-57v747h57z" />
    <glyph glyph-name="section" unicode="&#xa7;" horiz-adv-x="911" 
d="M442 -416q-162 0 -270 97l35 43q92 -86 235 -86q112 0 186 67.5t74 173.5q0 57 -16.5 102.5t-39.5 75t-65 57t-75.5 42.5t-89.5 37q-46 18 -69.5 28t-63.5 29.5t-62 36t-50 43.5t-42 55.5t-24.5 67.5t-10.5 84q0 83 41 151.5t103 112.5q-100 90 -97 235q3 132 84 211.5
t213 79.5q151 0 254 -92l-35 -43q-91 82 -219 82q-107 0 -173 -65.5t-66 -170.5q0 -47 10 -85.5t33 -68t45 -50.5t62.5 -42t67 -32.5t75.5 -30.5q45 -17 70 -27.5t64.5 -30.5t62.5 -37t50.5 -44t42 -55.5t25 -68t10.5 -85.5q0 -84 -41.5 -153t-101.5 -115q89 -89 86 -232
q-3 -135 -92 -216t-226 -81zM451 242q128 -52 182 -92q127 90 127 229q0 54 -18 98t-37.5 69.5t-69 54t-73.5 38.5t-90 35q-3 2 -5 2.5t-5 1.5t-5 2q-126 52 -178 88q-127 -94 -127 -231q0 -39 9.5 -72.5t22 -57t39 -47t45.5 -37t57.5 -31t59.5 -25.5t66 -25z" />
    <glyph glyph-name="dieresis" unicode="&#xa8;" 
d="M250 1272q0 22 14.5 36.5t34.5 14.5t34.5 -14.5t14.5 -36.5t-13.5 -36.5t-35.5 -14.5t-35.5 14.5t-13.5 36.5zM471 1272q0 22 14.5 36.5t34.5 14.5t34.5 -14.5t14.5 -36.5t-13.5 -36.5t-35.5 -14.5t-35.5 14.5t-13.5 36.5z" />
    <glyph glyph-name="copyright" unicode="&#xa9;" horiz-adv-x="1202" 
d="M602 -66q-231 0 -370.5 198.5t-139.5 529.5q0 329 139.5 526.5t370.5 197.5q229 0 368.5 -197.5t139.5 -526.5t-139.5 -528.5t-368.5 -199.5zM602 -12q206 0 328.5 181.5t122.5 492.5t-122 491t-329 180q-208 0 -330 -180t-122 -491q0 -312 122 -493t330 -181zM610 211
q-143 0 -232 125t-89 326q0 200 89.5 325t231.5 125q73 0 124 -22.5t102 -77.5l-37 -43q-41 47 -86 68.5t-103 21.5q-118 0 -191 -109t-73 -286q0 -178 74 -289t194 -111q109 0 185 88l37 -41q-51 -55 -102 -77.5t-124 -22.5z" />
    <glyph glyph-name="ordfeminine" unicode="&#xaa;" horiz-adv-x="753" 
d="M350 696q-114 0 -185 89t-71 229q0 141 71 230t185 89q135 0 197 -127v113h57v-608h-57v110q-63 -125 -197 -125zM350 750q91 0 144 71t53 193q0 123 -53 194.5t-144 71.5t-144.5 -72t-53.5 -194q0 -119 54.5 -191.5t143.5 -72.5z" />
    <glyph glyph-name="guillemotleft" unicode="&#xab;" horiz-adv-x="684" 
d="M61 494l254 362l41 -35l-227 -327l227 -328l-41 -35zM326 494l254 362l41 -35l-228 -327l228 -328l-41 -35z" />
    <glyph glyph-name="logicalnot" unicode="&#xac;" horiz-adv-x="753" 
d="M655 342h-57v293h-500v53h557v-346z" />
    <glyph glyph-name="softhyphen" unicode="&#xad;" horiz-adv-x="516" 
d="M72 555h372v-53h-372v53z" />
    <glyph glyph-name="registered" unicode="&#xae;" horiz-adv-x="671" 
d="M338 555q-134 0 -214.5 111t-80.5 297t80.5 298.5t214.5 112.5q132 0 211.5 -112.5t79.5 -298.5q0 -191 -77.5 -299.5t-213.5 -108.5zM338 608q112 0 172.5 92t60.5 263q0 164 -63 261t-170 97q-109 0 -173.5 -96.5t-64.5 -261.5q0 -164 64 -259.5t174 -95.5zM285 735
h-58v457h131q49 0 82 -33.5t33 -93.5q0 -53 -26 -86t-66 -39l102 -205h-63l-98 203h-37v-203zM285 1139v-148h65q66 0 66 74t-66 74h-65z" />
    <glyph glyph-name="macron" unicode="&#xaf;" 
d="M469 1251h-367v54h367v-54z" />
    <glyph glyph-name="degree" unicode="&#xb0;" horiz-adv-x="487" 
d="M244 731q-99 0 -161.5 85t-62.5 212q0 129 63 213t163 84q103 0 162 -81t59 -216q0 -133 -59.5 -215t-163.5 -82zM244 784q76 0 121 65.5t45 178.5q0 115 -44 179.5t-120 64.5q-74 0 -121 -67.5t-47 -176.5q0 -108 47.5 -176t118.5 -68z" />
    <glyph glyph-name="plusminus" unicode="&#xb1;" horiz-adv-x="714" 
d="M406 336h-58v299h-250v53h250v299h58v-299h249v-53h-249v-299zM655 0h-557v55h557v-55z" />
    <glyph glyph-name="twosuperior" unicode="&#xb2;" horiz-adv-x="434" 
d="M375 657h-316v50l181 256q73 103 73 194q0 55 -25.5 86t-72.5 31q-60 0 -100 -72l-47 27q49 96 149 96q68 0 112 -47.5t44 -118.5q0 -93 -97 -233l-149 -217h248v-52z" />
    <glyph glyph-name="threesuperior" unicode="&#xb3;" horiz-adv-x="436" 
d="M213 645q-107 0 -154 92l43 27q41 -68 111 -68q55 0 80.5 43t25.5 111q0 143 -133 143h-20v43l143 226h-231v51h291v-51l-144 -222q73 -9 112.5 -61t39.5 -129q0 -87 -44.5 -146t-119.5 -59z" />
    <glyph glyph-name="acute" unicode="&#xb4;" 
d="M633 1368h72l-185 -278h-55z" />
    <glyph glyph-name="paragraph" unicode="&#xb6;" horiz-adv-x="737" 
d="M389 1313h199v-1714h-51v1658h-76v-1658h-70v882q-151 4 -238 123t-87 303q0 185 86 295.5t237 110.5z" />
    <glyph glyph-name="periodcentered" unicode="&#xb7;" 
d="M354 647q0 22 16.5 38.5t39.5 16.5t39 -16.5t16 -38.5q0 -23 -16 -39t-39 -16t-39.5 16t-16.5 39z" />
    <glyph glyph-name="cedilla" unicode="&#xb8;" 
d="M408 0h49l-121 -324l-57 25z" />
    <glyph glyph-name="onesuperior" unicode="&#xb9;" horiz-adv-x="380" 
d="M256 657h-57v572l-101 -117l-37 37l138 164h57v-656z" />
    <glyph glyph-name="ordmasculine" unicode="&#xba;" horiz-adv-x="698" 
d="M350 696q-114 0 -185 89t-71 229q0 141 71 230t185 89q112 0 183 -89t71 -230t-70 -229.5t-184 -88.5zM350 750q91 0 144 71t53 193q0 123 -53 194.5t-144 71.5t-144.5 -72t-53.5 -194q0 -119 54.5 -191.5t143.5 -72.5z" />
    <glyph glyph-name="guillemotright" unicode="&#xbb;" horiz-adv-x="679" 
d="M356 494l-254 -363l-41 35l230 328l-230 327l41 35zM616 494l-254 -363l-40 35l229 328l-229 327l40 35z" />
    <glyph glyph-name="onequarter" unicode="&#xbc;" horiz-adv-x="942" 
d="M256 657h-57v572l-101 -117l-37 37l138 164h57v-656zM90 0l645 1313h60l-641 -1313h-64zM539 201l231 454h51v-454h74v-51h-74v-150h-57v150h-225v51zM594 201h170v334z" />
    <glyph glyph-name="onehalf" unicode="&#xbd;" horiz-adv-x="937" 
d="M256 657h-57v572l-101 -117l-37 37l138 164h57v-656zM90 0l645 1313h60l-641 -1313h-64zM879 0h-316v49l180 256q74 104 74 195q0 54 -25.5 85t-72.5 31q-62 0 -101 -71l-47 26q49 97 150 97q68 0 112 -47.5t44 -118.5q0 -94 -97 -234l-149 -217h248v-51z" />
    <glyph glyph-name="threequarters" unicode="&#xbe;" horiz-adv-x="960" 
d="M213 645q-107 0 -154 92l43 27q41 -68 111 -68q55 0 80.5 43t25.5 111q0 143 -133 143h-20v43l143 226h-231v51h291v-51l-144 -222q73 -9 112.5 -61t39.5 -129q0 -87 -44.5 -146t-119.5 -59zM145 0l646 1313h59l-641 -1313h-64zM555 201l231 454h52v-454h73v-51h-73v-150
h-58v150h-225v51zM610 201h170v334z" />
    <glyph glyph-name="questiondown" unicode="&#xbf;" horiz-adv-x="673" 
d="M369 1001q26 0 42.5 -17.5t16.5 -45.5t-16.5 -46t-42.5 -18t-43 18t-17 46t17 45.5t43 17.5zM346 645h51l2 -293h-18q-128 0 -196 -86.5t-68 -240.5q0 -143 65 -227.5t170 -84.5q80 0 137.5 38.5t100.5 121.5l49 -27q-101 -186 -287 -186q-130 0 -211.5 99.5t-81.5 265.5
q0 162 74 262.5t205 115.5z" />
    <glyph glyph-name="Agrave" unicode="&#xc0;" horiz-adv-x="894" 
d="M303 1700l166 -279h-55l-185 279h74zM807 0l-119 410h-485l-119 -410h-57l381 1313h79l381 -1313h-61zM217 463h457l-228 788z" />
    <glyph glyph-name="Aacute" unicode="&#xc1;" horiz-adv-x="894" 
d="M594 1700h72l-185 -279h-55zM807 0l-119 410h-485l-119 -410h-57l381 1313h79l381 -1313h-61zM217 463h457l-228 788z" />
    <glyph glyph-name="Acircumflex" unicode="&#xc2;" horiz-adv-x="894" 
d="M293 1421h-53l180 279h57l180 -279h-53l-155 221zM807 0l-119 410h-485l-119 -410h-57l381 1313h79l381 -1313h-61zM217 463h457l-228 788z" />
    <glyph glyph-name="Atilde" unicode="&#xc3;" horiz-adv-x="894" 
d="M276 1530l-45 16q51 117 129 117q36 0 66.5 -18.5t57.5 -37t57 -18.5q25 0 41.5 18t38.5 62l45 -16q-51 -117 -129 -117q-35 0 -66 18.5t-59 37t-58 18.5q-25 0 -40.5 -17.5t-37.5 -62.5zM807 0l-119 410h-485l-119 -410h-57l381 1313h79l381 -1313h-61zM217 463h457
l-228 788z" />
    <glyph glyph-name="Adieresis" unicode="&#xc4;" horiz-adv-x="894" 
d="M289 1604q0 22 14.5 36.5t34.5 14.5t34.5 -14.5t14.5 -36.5t-14 -37t-35 -15t-35 15t-14 37zM510 1604q0 22 14.5 36.5t34.5 14.5t34.5 -14.5t14.5 -36.5t-14 -37t-35 -15t-35 15t-14 37zM807 0l-119 410h-485l-119 -410h-57l381 1313h79l381 -1313h-61zM217 463h457
l-228 788z" />
    <glyph glyph-name="Aring" unicode="&#xc5;" horiz-adv-x="894" 
d="M449 1401q-84 0 -127 54t-43 130t43 130t127 54q85 0 127 -53.5t42 -130.5t-42 -130.5t-127 -53.5zM451 1452q57 0 84.5 38t27.5 95t-27.5 95t-84.5 38q-58 0 -87.5 -38.5t-29.5 -94.5t29.5 -94.5t87.5 -38.5zM807 0l-119 410h-485l-119 -410h-57l381 1313h79l381 -1313
h-61zM217 463h457l-228 788z" />
    <glyph glyph-name="AE" unicode="&#xc6;" horiz-adv-x="1218" 
d="M68 0h-60l477 1313h670v-53h-522v-578h465v-53h-465v-576h522v-53h-580v410h-358zM524 1260l-288 -797h339v797h-51z" />
    <glyph glyph-name="Ccedilla" unicode="&#xc7;" horiz-adv-x="835" 
d="M788 92q-112 -101 -253 -106l-115 -310l-58 25l123 287q-185 14 -289 189.5t-104 477.5q0 314 112.5 493t309.5 179q86 0 149.5 -25.5t124.5 -80.5l-34 -41q-56 47 -111.5 70.5t-128.5 23.5q-171 0 -267.5 -163.5t-96.5 -455.5t97 -454t271 -162q124 0 236 94z" />
    <glyph glyph-name="Egrave" unicode="&#xc8;" horiz-adv-x="790" 
d="M291 1700l166 -279h-56l-184 279h74zM150 0v1313h577v-53h-520v-578h463v-53h-463v-576h520v-53h-577z" />
    <glyph glyph-name="Eacute" unicode="&#xc9;" horiz-adv-x="790" 
d="M582 1700h71l-184 -279h-55zM150 0v1313h577v-53h-520v-578h463v-53h-463v-576h520v-53h-577z" />
    <glyph glyph-name="Ecircumflex" unicode="&#xca;" horiz-adv-x="790" 
d="M281 1421h-54l181 279h57l180 -279h-53l-156 221zM150 0v1313h577v-53h-520v-578h463v-53h-463v-576h520v-53h-577z" />
    <glyph glyph-name="Edieresis" unicode="&#xcb;" horiz-adv-x="790" 
d="M276 1604q0 22 15 36.5t35 14.5t34.5 -14.5t14.5 -36.5t-14 -37t-35 -15q-22 0 -36 15t-14 37zM498 1604q0 22 14.5 36.5t34.5 14.5t34.5 -14.5t14.5 -36.5t-14 -37t-35 -15t-35 15t-14 37zM150 0v1313h577v-53h-520v-578h463v-53h-463v-576h520v-53h-577z" />
    <glyph glyph-name="Igrave" unicode="&#xcc;" horiz-adv-x="356" 
d="M33 1700l166 -279h-56l-184 279h74zM150 0v1313h57v-1313h-57z" />
    <glyph glyph-name="Iacute" unicode="&#xcd;" horiz-adv-x="356" 
d="M324 1700h71l-184 -279h-55zM150 0v1313h57v-1313h-57z" />
    <glyph glyph-name="Icircumflex" unicode="&#xce;" horiz-adv-x="356" 
d="M23 1421h-54l181 279h57l180 -279h-53l-156 221zM150 0v1313h57v-1313h-57z" />
    <glyph glyph-name="Idieresis" unicode="&#xcf;" horiz-adv-x="356" 
d="M18 1604q0 22 15 36.5t35 14.5t34.5 -14.5t14.5 -36.5t-14 -37t-35 -15q-22 0 -36 15t-14 37zM240 1604q0 22 14.5 36.5t34.5 14.5t34.5 -14.5t14.5 -36.5t-14 -37t-35 -15t-35 15t-14 37zM150 0v1313h57v-1313h-57z" />
    <glyph glyph-name="Eth" unicode="&#xd0;" horiz-adv-x="970" 
d="M397 0h-247v629h-103v53h103v631h241q125 0 219 -47t152.5 -134.5t87.5 -206.5t29 -270q0 -150 -28.5 -268.5t-86 -206t-150.5 -134t-217 -46.5zM444 629h-237v-576h192q89 0 159.5 28.5t119.5 80t81 127t47 166.5t15 200t-15 200.5t-47 167t-81 128t-119.5 81
t-159.5 28.5h-192v-578h237v-53z" />
    <glyph glyph-name="Ntilde" unicode="&#xd1;" horiz-adv-x="1005" 
d="M332 1530l-45 16q51 117 129 117q36 0 66 -18.5t57 -37t57 -18.5q25 0 41.5 18t38.5 62l45 -16q-51 -117 -129 -117q-44 0 -95.5 37t-86.5 37q-25 0 -40.5 -17.5t-37.5 -62.5zM774 0l-567 1231v-1231h-57v1313h81l568 -1231v1231h57v-1313h-82z" />
    <glyph glyph-name="Ograve" unicode="&#xd2;" horiz-adv-x="995" 
d="M352 1700l166 -279h-55l-184 279h73zM498 1327q196 0 300.5 -177.5t104.5 -496.5q0 -317 -104.5 -492t-300.5 -175q-195 0 -300.5 176t-105.5 491q0 318 105.5 496t300.5 178zM498 39q169 0 258.5 161t89.5 453q0 294 -90 457.5t-258 163.5q-169 0 -258.5 -162.5
t-89.5 -458.5q0 -293 89.5 -453.5t258.5 -160.5z" />
    <glyph glyph-name="Oacute" unicode="&#xd3;" horiz-adv-x="995" 
d="M643 1700h72l-185 -279h-55zM498 1327q196 0 300.5 -177.5t104.5 -496.5q0 -317 -104.5 -492t-300.5 -175q-195 0 -300.5 176t-105.5 491q0 318 105.5 496t300.5 178zM498 39q169 0 258.5 161t89.5 453q0 294 -90 457.5t-258 163.5q-169 0 -258.5 -162.5t-89.5 -458.5
q0 -293 89.5 -453.5t258.5 -160.5z" />
    <glyph glyph-name="Ocircumflex" unicode="&#xd4;" horiz-adv-x="995" 
d="M342 1421h-53l180 279h57l181 -279h-54l-155 221zM498 1327q196 0 300.5 -177.5t104.5 -496.5q0 -317 -104.5 -492t-300.5 -175q-195 0 -300.5 176t-105.5 491q0 318 105.5 496t300.5 178zM498 39q169 0 258.5 161t89.5 453q0 294 -90 457.5t-258 163.5
q-169 0 -258.5 -162.5t-89.5 -458.5q0 -293 89.5 -453.5t258.5 -160.5z" />
    <glyph glyph-name="Otilde" unicode="&#xd5;" horiz-adv-x="995" 
d="M326 1530l-45 16q51 117 129 117q36 0 66 -18.5t57 -37t57 -18.5q25 0 41.5 18t38.5 62l45 -16q-51 -117 -129 -117q-44 0 -96 37t-87 37q-25 0 -40 -17t-37 -63zM498 1327q196 0 300.5 -177.5t104.5 -496.5q0 -317 -104.5 -492t-300.5 -175q-195 0 -300.5 176
t-105.5 491q0 318 105.5 496t300.5 178zM498 39q169 0 258.5 161t89.5 453q0 294 -90 457.5t-258 163.5q-169 0 -258.5 -162.5t-89.5 -458.5q0 -293 89.5 -453.5t258.5 -160.5z" />
    <glyph glyph-name="Odieresis" unicode="&#xd6;" horiz-adv-x="995" 
d="M338 1604q0 22 14.5 36.5t34.5 14.5t34.5 -14.5t14.5 -36.5t-14 -37t-35 -15t-35 15t-14 37zM559 1604q0 22 14.5 36.5t34.5 14.5t34.5 -14.5t14.5 -36.5t-14 -37t-35 -15t-35 15t-14 37zM498 1327q196 0 300.5 -177.5t104.5 -496.5q0 -317 -104.5 -492t-300.5 -175
q-195 0 -300.5 176t-105.5 491q0 318 105.5 496t300.5 178zM498 39q169 0 258.5 161t89.5 453q0 294 -90 457.5t-258 163.5q-169 0 -258.5 -162.5t-89.5 -458.5q0 -293 89.5 -453.5t258.5 -160.5z" />
    <glyph glyph-name="multiply" unicode="&#xd7;" horiz-adv-x="714" 
d="M170 352l-43 35l197 272l-197 271l43 35l188 -258l187 258l43 -35l-197 -271l197 -272l-43 -35l-187 258z" />
    <glyph glyph-name="Oslash" unicode="&#xd8;" horiz-adv-x="995" 
d="M498 -14q-142 0 -240 98l-84 -180l-47 24l94 199q-129 177 -129 526q0 318 105.5 496t300.5 178q141 0 239 -98l84 180l47 -25l-94 -198q129 -176 129 -533q0 -317 -104.5 -492t-300.5 -175zM150 653q0 -313 98 -467l463 990q-82 98 -213 98q-169 0 -258.5 -162.5
t-89.5 -458.5zM498 39q169 0 258.5 161t89.5 453q0 316 -98 473l-465 -989q82 -98 215 -98z" />
    <glyph glyph-name="Ugrave" unicode="&#xd9;" horiz-adv-x="946" 
d="M328 1700l166 -279h-56l-184 279h74zM133 375v938h57v-944q0 -157 75.5 -243.5t207.5 -86.5t206.5 86t74.5 244v944h59v-938q0 -186 -90 -287.5t-250 -101.5t-250 101.5t-90 287.5z" />
    <glyph glyph-name="Uacute" unicode="&#xda;" horiz-adv-x="946" 
d="M618 1700h72l-184 -279h-55zM133 375v938h57v-944q0 -157 75.5 -243.5t207.5 -86.5t206.5 86t74.5 244v944h59v-938q0 -186 -90 -287.5t-250 -101.5t-250 101.5t-90 287.5z" />
    <glyph glyph-name="Ucircumflex" unicode="&#xdb;" horiz-adv-x="946" 
d="M317 1421h-53l180 279h58l180 -279h-53l-156 221zM133 375v938h57v-944q0 -157 75.5 -243.5t207.5 -86.5t206.5 86t74.5 244v944h59v-938q0 -186 -90 -287.5t-250 -101.5t-250 101.5t-90 287.5z" />
    <glyph glyph-name="Udieresis" unicode="&#xdc;" horiz-adv-x="946" 
d="M313 1604q0 22 14.5 36.5t34.5 14.5t35 -14.5t15 -36.5t-14 -37t-36 -15q-21 0 -35 15t-14 37zM535 1604q0 22 14.5 36.5t34.5 14.5t34.5 -14.5t14.5 -36.5t-14 -37t-35 -15t-35 15t-14 37zM133 375v938h57v-944q0 -157 75.5 -243.5t207.5 -86.5t206.5 86t74.5 244v944
h59v-938q0 -186 -90 -287.5t-250 -101.5t-250 101.5t-90 287.5z" />
    <glyph glyph-name="Yacute" unicode="&#xdd;" horiz-adv-x="768" 
d="M530 1700h72l-184 -279h-56zM354 0v463l-340 850h62l305 -770l313 770h60l-342 -840v-473h-58z" />
    <glyph glyph-name="Thorn" unicode="&#xde;" horiz-adv-x="862" 
d="M207 0h-57v1313h57v-238h237q160 0 256.5 -104.5t96.5 -276.5q0 -171 -98.5 -276t-260.5 -105h-231v-313zM207 1022v-655h244q131 0 209.5 89t78.5 238t-78.5 238.5t-209.5 89.5h-244z" />
    <glyph glyph-name="germandbls" unicode="&#xdf;" horiz-adv-x="878" 
d="M506 -14q-120 0 -182 45l16 51q61 -43 166 -43q120 0 190 91t70 245q0 155 -74 245.5t-200 90.5h-113v53h106q93 0 155 85t62 214q0 146 -68.5 226.5t-191.5 80.5q-114 0 -177.5 -73.5t-63.5 -202.5v-1094h-58v1094q0 150 82 239.5t217 89.5q145 0 231.5 -98t86.5 -262
q0 -108 -47.5 -194.5t-126.5 -123.5q109 -28 173 -127.5t64 -240.5q0 -177 -86.5 -284t-230.5 -107z" />
    <glyph glyph-name="agrave" unicode="&#xe0;" horiz-adv-x="874" 
d="M293 1368l166 -278h-56l-184 278h74zM406 -14q-152 0 -242 138t-90 368q0 229 90 366t242 137q93 0 161 -56t105 -161v203h59v-981h-59v203q-37 -105 -105 -161t-161 -56zM401 41q126 0 198.5 121.5t72.5 331.5q0 206 -72.5 326t-198.5 120q-125 0 -197.5 -120.5
t-72.5 -325.5q0 -206 73 -329.5t197 -123.5z" />
    <glyph glyph-name="aacute" unicode="&#xe1;" horiz-adv-x="874" 
d="M584 1368h71l-184 -278h-55zM406 -14q-152 0 -242 138t-90 368q0 229 90 366t242 137q93 0 161 -56t105 -161v203h59v-981h-59v203q-37 -105 -105 -161t-161 -56zM401 41q126 0 198.5 121.5t72.5 331.5q0 206 -72.5 326t-198.5 120q-125 0 -197.5 -120.5t-72.5 -325.5
q0 -206 73 -329.5t197 -123.5z" />
    <glyph glyph-name="acircumflex" unicode="&#xe2;" horiz-adv-x="874" 
d="M283 1090h-54l181 278h57l180 -278h-53l-156 221zM406 -14q-152 0 -242 138t-90 368q0 229 90 366t242 137q93 0 161 -56t105 -161v203h59v-981h-59v203q-37 -105 -105 -161t-161 -56zM401 41q126 0 198.5 121.5t72.5 331.5q0 206 -72.5 326t-198.5 120
q-125 0 -197.5 -120.5t-72.5 -325.5q0 -206 73 -329.5t197 -123.5z" />
    <glyph glyph-name="atilde" unicode="&#xe3;" horiz-adv-x="874" 
d="M266 1198l-45 16q51 117 129 117q36 0 66 -18.5t57 -37t57 -18.5q25 0 41.5 18t38.5 62l45 -16q-51 -117 -129 -117q-35 0 -65.5 18.5t-58.5 37t-58 18.5q-25 0 -40.5 -17.5t-37.5 -62.5zM406 -14q-152 0 -242 138t-90 368q0 229 90 366t242 137q93 0 161 -56t105 -161
v203h59v-981h-59v203q-37 -105 -105 -161t-161 -56zM401 41q126 0 198.5 121.5t72.5 331.5q0 206 -72.5 326t-198.5 120q-125 0 -197.5 -120.5t-72.5 -325.5q0 -206 73 -329.5t197 -123.5z" />
    <glyph glyph-name="adieresis" unicode="&#xe4;" horiz-adv-x="874" 
d="M279 1272q0 22 14.5 36.5t34.5 14.5t34.5 -14.5t14.5 -36.5t-13.5 -36.5t-35.5 -14.5t-35.5 14.5t-13.5 36.5zM500 1272q0 22 14.5 36.5t34.5 14.5t34.5 -14.5t14.5 -36.5t-13.5 -36.5t-35.5 -14.5t-35.5 14.5t-13.5 36.5zM406 -14q-152 0 -242 138t-90 368q0 229 90 366
t242 137q93 0 161 -56t105 -161v203h59v-981h-59v203q-37 -105 -105 -161t-161 -56zM401 41q126 0 198.5 121.5t72.5 331.5q0 206 -72.5 326t-198.5 120q-125 0 -197.5 -120.5t-72.5 -325.5q0 -206 73 -329.5t197 -123.5z" />
    <glyph glyph-name="aring" unicode="&#xe5;" horiz-adv-x="874" 
d="M438 1069q-84 0 -127 54t-43 130t43 130.5t127 54.5q85 0 127.5 -54t42.5 -131t-42.5 -130.5t-127.5 -53.5zM440 1120q57 0 85 38t28 95t-28 95t-85 38q-58 0 -87 -38.5t-29 -94.5t29 -94.5t87 -38.5zM406 -14q-152 0 -242 138t-90 368q0 229 90 366t242 137
q93 0 161 -56t105 -161v203h59v-981h-59v203q-37 -105 -105 -161t-161 -56zM401 41q126 0 198.5 121.5t72.5 331.5q0 206 -72.5 326t-198.5 120q-125 0 -197.5 -120.5t-72.5 -325.5q0 -206 73 -329.5t197 -123.5z" />
    <glyph glyph-name="ae" unicode="&#xe6;" horiz-adv-x="1376" 
d="M406 -14q-152 0 -242 138t-90 368q0 229 90 366t242 137q93 0 161 -56t105 -161v203h59v-203q39 104 107 160.5t161 56.5q139 0 221.5 -122.5t82.5 -317.5v-43h-572v-18q0 -215 77.5 -335t217.5 -120q55 0 107 24t90 68l34 -41q-101 -104 -233 -104q-104 0 -178.5 56.5
t-114.5 162.5v-205h-59v203q-37 -105 -105 -161t-161 -56zM999 942q-111 0 -181.5 -102t-84.5 -275h512q-8 171 -74 274t-172 103zM401 41q126 0 198.5 121.5t72.5 331.5q0 206 -72.5 326t-198.5 120q-125 0 -197.5 -120.5t-72.5 -325.5q0 -206 73 -329.5t197 -123.5z" />
    <glyph glyph-name="ccedilla" unicode="&#xe7;" horiz-adv-x="675" 
d="M631 88q-88 -94 -205 -102l-117 -310l-57 25l123 285q-139 12 -220 148t-81 358q0 231 87.5 367t239.5 136q139 0 230 -102l-37 -41q-81 90 -191 90q-127 0 -199.5 -121t-72.5 -329q0 -207 73 -330t197 -123q115 0 193 90z" />
    <glyph glyph-name="egrave" unicode="&#xe8;" horiz-adv-x="776" 
d="M254 1368l166 -278h-55l-185 278h74zM424 -14q-163 0 -256.5 135.5t-93.5 370.5q0 228 87.5 365.5t237.5 137.5q139 0 221 -122.5t82 -317.5v-43h-571v-18q0 -215 77.5 -335t217.5 -120q55 0 107 24t90 68l34 -41q-101 -104 -233 -104zM399 942q-111 0 -181.5 -102
t-84.5 -275h512q-8 171 -74 274t-172 103z" />
    <glyph glyph-name="eacute" unicode="&#xe9;" horiz-adv-x="776" 
d="M545 1368h71l-184 -278h-55zM424 -14q-163 0 -256.5 135.5t-93.5 370.5q0 228 87.5 365.5t237.5 137.5q139 0 221 -122.5t82 -317.5v-43h-571v-18q0 -215 77.5 -335t217.5 -120q55 0 107 24t90 68l34 -41q-101 -104 -233 -104zM399 942q-111 0 -181.5 -102t-84.5 -275
h512q-8 171 -74 274t-172 103z" />
    <glyph glyph-name="ecircumflex" unicode="&#xea;" horiz-adv-x="776" 
d="M244 1090h-54l181 278h57l180 -278h-53l-156 221zM424 -14q-163 0 -256.5 135.5t-93.5 370.5q0 228 87.5 365.5t237.5 137.5q139 0 221 -122.5t82 -317.5v-43h-571v-18q0 -215 77.5 -335t217.5 -120q55 0 107 24t90 68l34 -41q-101 -104 -233 -104zM399 942
q-111 0 -181.5 -102t-84.5 -275h512q-8 171 -74 274t-172 103z" />
    <glyph glyph-name="edieresis" unicode="&#xeb;" horiz-adv-x="776" 
d="M240 1272q0 22 14.5 36.5t34.5 14.5t34.5 -14.5t14.5 -36.5t-13.5 -36.5t-35.5 -14.5t-35.5 14.5t-13.5 36.5zM461 1272q0 22 14.5 36.5t34.5 14.5t34.5 -14.5t14.5 -36.5t-13.5 -36.5t-35.5 -14.5t-35.5 14.5t-13.5 36.5zM424 -14q-163 0 -256.5 135.5t-93.5 370.5
q0 228 87.5 365.5t237.5 137.5q139 0 221 -122.5t82 -317.5v-43h-571v-18q0 -215 77.5 -335t217.5 -120q55 0 107 24t90 68l34 -41q-101 -104 -233 -104zM399 942q-111 0 -181.5 -102t-84.5 -275h512q-8 171 -74 274t-172 103z" />
    <glyph glyph-name="igrave" unicode="&#xec;" horiz-adv-x="344" 
d="M27 1368l166 -278h-56l-184 278h74zM201 981v-981h-58v981h58z" />
    <glyph glyph-name="iacute" unicode="&#xed;" horiz-adv-x="344" 
d="M317 1368h72l-184 -278h-55zM201 981v-981h-58v981h58z" />
    <glyph glyph-name="icircumflex" unicode="&#xee;" horiz-adv-x="344" 
d="M16 1090h-53l180 278h58l180 -278h-53l-156 221zM201 981v-981h-58v981h58z" />
    <glyph glyph-name="idieresis" unicode="&#xef;" horiz-adv-x="344" 
d="M12 1272q0 22 14.5 36.5t34.5 14.5q21 0 35.5 -14.5t14.5 -36.5t-14 -36.5t-36 -14.5t-35.5 14.5t-13.5 36.5zM233 1272q0 22 14.5 36.5t35.5 14.5q20 0 34.5 -14.5t14.5 -36.5t-13.5 -36.5t-35.5 -14.5t-36 14.5t-14 36.5zM201 981v-981h-58v981h58z" />
    <glyph glyph-name="eth" unicode="&#xf0;" horiz-adv-x="802" 
d="M401 -14q-153 0 -240 129.5t-87 357.5t87.5 358t239.5 130q82 0 148 -51.5t100 -129.5q-61 275 -209 463l-108 -86l-27 43l103 80q-65 68 -121 106l30 44q73 -50 132 -115l100 78l26 -43l-94 -74q114 -142 181 -345t67 -458q0 -228 -87.5 -357.5t-240.5 -129.5zM401 41
q127 0 199 114t72 318q0 120 -31.5 217.5t-94 156t-145.5 58.5q-127 0 -198.5 -113.5t-71.5 -318.5t71.5 -318.5t198.5 -113.5z" />
    <glyph glyph-name="ntilde" unicode="&#xf1;" horiz-adv-x="827" 
d="M268 1198l-45 16q51 117 129 117q36 0 66 -18.5t57 -37t57 -18.5q25 0 41.5 18t38.5 62l45 -16q-51 -117 -129 -117q-35 0 -65.5 18.5t-58.5 37t-58 18.5q-25 0 -40.5 -17.5t-37.5 -62.5zM201 0h-58v981h58v-141q36 73 99 114t142 41q132 0 205.5 -83t73.5 -230v-682h-57
v664q0 136 -56.5 207t-165.5 71q-110 0 -175.5 -82.5t-65.5 -222.5v-637z" />
    <glyph glyph-name="ograve" unicode="&#xf2;" horiz-adv-x="802" 
d="M256 1368l166 -278h-55l-185 278h74zM401 -14q-151 0 -239 138t-88 368t88 366.5t239 136.5q152 0 240 -136.5t88 -366.5t-88.5 -368t-239.5 -138zM401 41q125 0 198 122t73 329q0 206 -72.5 327t-198.5 121q-125 0 -197.5 -121t-72.5 -327q0 -207 72.5 -329t197.5 -122z
" />
    <glyph glyph-name="oacute" unicode="&#xf3;" horiz-adv-x="802" 
d="M547 1368h71l-184 -278h-55zM401 -14q-151 0 -239 138t-88 368t88 366.5t239 136.5q152 0 240 -136.5t88 -366.5t-88.5 -368t-239.5 -138zM401 41q125 0 198 122t73 329q0 206 -72.5 327t-198.5 121q-125 0 -197.5 -121t-72.5 -327q0 -207 72.5 -329t197.5 -122z" />
    <glyph glyph-name="ocircumflex" unicode="&#xf4;" horiz-adv-x="802" 
d="M246 1090h-53l180 278h57l180 -278h-53l-156 221zM401 -14q-151 0 -239 138t-88 368t88 366.5t239 136.5q152 0 240 -136.5t88 -366.5t-88.5 -368t-239.5 -138zM401 41q125 0 198 122t73 329q0 206 -72.5 327t-198.5 121q-125 0 -197.5 -121t-72.5 -327q0 -207 72.5 -329
t197.5 -122z" />
    <glyph glyph-name="otilde" unicode="&#xf5;" horiz-adv-x="802" 
d="M229 1198l-45 16q51 117 129 117q36 0 66.5 -18.5t57.5 -37t57 -18.5q25 0 41 17.5t38 62.5l45 -16q-51 -117 -129 -117q-43 0 -95 37t-87 37q-25 0 -40.5 -17.5t-37.5 -62.5zM401 -14q-151 0 -239 138t-88 368t88 366.5t239 136.5q152 0 240 -136.5t88 -366.5
t-88.5 -368t-239.5 -138zM401 41q125 0 198 122t73 329q0 206 -72.5 327t-198.5 121q-125 0 -197.5 -121t-72.5 -327q0 -207 72.5 -329t197.5 -122z" />
    <glyph glyph-name="odieresis" unicode="&#xf6;" horiz-adv-x="802" 
d="M242 1272q0 22 14.5 36.5t34.5 14.5t34.5 -14.5t14.5 -36.5t-13.5 -36.5t-35.5 -14.5t-35.5 14.5t-13.5 36.5zM463 1272q0 22 14.5 36.5t34.5 14.5t34.5 -14.5t14.5 -36.5t-13.5 -36.5t-35.5 -14.5t-35.5 14.5t-13.5 36.5zM401 -14q-151 0 -239 138t-88 368t88 366.5
t239 136.5q152 0 240 -136.5t88 -366.5t-88.5 -368t-239.5 -138zM401 41q125 0 198 122t73 329q0 206 -72.5 327t-198.5 121q-125 0 -197.5 -121t-72.5 -327q0 -207 72.5 -329t197.5 -122z" />
    <glyph glyph-name="divide" unicode="&#xf7;" horiz-adv-x="753" 
d="M375 922q-23 0 -39.5 17t-16.5 42q0 23 16.5 40t39.5 17q24 0 40.5 -16.5t16.5 -40.5q0 -25 -16 -42t-41 -17zM655 635h-557v53h557v-53zM375 285q-23 0 -39.5 17t-16.5 40q0 25 16.5 42t39.5 17q25 0 41 -17t16 -42q0 -24 -16.5 -40.5t-40.5 -16.5z" />
    <glyph glyph-name="oslash" unicode="&#xf8;" horiz-adv-x="802" 
d="M401 -14q-112 0 -192 80l-80 -152l-45 25l88 170q-98 137 -98 383q0 230 88 366.5t239 136.5q113 0 193 -80l80 152l45 -25l-88 -168q98 -137 98 -382q0 -230 -88.5 -368t-239.5 -138zM131 492q0 -207 72 -326l364 698q-67 76 -166 76q-125 0 -197.5 -121t-72.5 -327z
M401 41q125 0 198 122t73 329q0 206 -72 325l-364 -698q66 -78 165 -78z" />
    <glyph glyph-name="ugrave" unicode="&#xf9;" horiz-adv-x="786" 
d="M248 1368l166 -278h-56l-184 278h74zM166 981v-643q0 -146 57 -221.5t166 -75.5q113 0 172.5 76t59.5 221v643h57v-649q0 -164 -75.5 -254t-213.5 -90q-134 0 -207 90t-73 254v649h57z" />
    <glyph glyph-name="uacute" unicode="&#xfa;" horiz-adv-x="786" 
d="M539 1368h71l-184 -278h-55zM166 981v-643q0 -146 57 -221.5t166 -75.5q113 0 172.5 76t59.5 221v643h57v-649q0 -164 -75.5 -254t-213.5 -90q-134 0 -207 90t-73 254v649h57z" />
    <glyph glyph-name="ucircumflex" unicode="&#xfb;" horiz-adv-x="786" 
d="M238 1090h-54l181 278h57l180 -278h-53l-156 221zM166 981v-643q0 -146 57 -221.5t166 -75.5q113 0 172.5 76t59.5 221v643h57v-649q0 -164 -75.5 -254t-213.5 -90q-134 0 -207 90t-73 254v649h57z" />
    <glyph glyph-name="udieresis" unicode="&#xfc;" horiz-adv-x="786" 
d="M233 1272q0 22 14.5 36.5t35.5 14.5q20 0 34.5 -14.5t14.5 -36.5t-13.5 -36.5t-35.5 -14.5t-36 14.5t-14 36.5zM455 1272q0 22 14.5 36.5t34.5 14.5t34.5 -14.5t14.5 -36.5t-13.5 -36.5t-35.5 -14.5t-35.5 14.5t-13.5 36.5zM166 981v-643q0 -146 57 -221.5t166 -75.5
q113 0 172.5 76t59.5 221v643h57v-649q0 -164 -75.5 -254t-213.5 -90q-134 0 -207 90t-73 254v649h57z" />
    <glyph glyph-name="yacute" unicode="&#xfd;" horiz-adv-x="679" 
d="M485 1368h72l-184 -278h-56zM84 981l264 -891l250 891h55l-338 -1200q-30 -104 -69 -150.5t-103 -46.5q-59 0 -108 37l26 49q40 -32 89 -32q41 0 64 34.5t48 118.5l60 207l-297 983h59z" />
    <glyph glyph-name="thorn" unicode="&#xfe;" horiz-adv-x="872" 
d="M201 -401h-58v1810h58v-641q36 109 104.5 168t165.5 59q151 0 239.5 -138t88.5 -368t-88 -366.5t-240 -136.5q-97 0 -165.5 58.5t-104.5 166.5v-612zM471 41q125 0 197.5 121t72.5 327q0 207 -72.5 329t-197.5 122t-197.5 -122t-72.5 -329q0 -206 72.5 -327t197.5 -121z
" />
    <glyph glyph-name="ydieresis" unicode="&#xff;" horiz-adv-x="679" 
d="M180 1272q0 22 14.5 36.5t34.5 14.5q21 0 35.5 -14.5t14.5 -36.5t-14 -36.5t-36 -14.5t-35.5 14.5t-13.5 36.5zM401 1272q0 22 14.5 36.5t35.5 14.5q20 0 34.5 -14.5t14.5 -36.5t-13.5 -36.5t-35.5 -14.5t-36 14.5t-14 36.5zM84 981l264 -891l250 891h55l-338 -1200
q-30 -104 -69 -150.5t-103 -46.5q-59 0 -108 37l26 49q40 -32 89 -32q41 0 64 34.5t48 118.5l60 207l-297 983h59z" />
    <glyph glyph-name="Amacron" unicode="&#x100;" horiz-adv-x="894" 
d="M631 1583h-367v53h367v-53zM807 0l-119 410h-485l-119 -410h-57l381 1313h79l381 -1313h-61zM217 463h457l-228 788z" />
    <glyph glyph-name="amacron" unicode="&#x101;" horiz-adv-x="874" 
d="M621 1251h-367v54h367v-54zM406 -14q-152 0 -242 138t-90 368q0 229 90 366t242 137q93 0 161 -56t105 -161v203h59v-981h-59v203q-37 -105 -105 -161t-161 -56zM401 41q126 0 198.5 121.5t72.5 331.5q0 206 -72.5 326t-198.5 120q-125 0 -197.5 -120.5t-72.5 -325.5
q0 -206 73 -329.5t197 -123.5z" />
    <glyph glyph-name="Abreve" unicode="&#x102;" horiz-adv-x="894" 
d="M449 1401q-98 0 -149.5 68t-51.5 190h49q0 -97 38.5 -151t113.5 -54q151 0 151 205h49q0 -124 -50 -191t-150 -67zM807 0l-119 410h-485l-119 -410h-57l381 1313h79l381 -1313h-61zM217 463h457l-228 788z" />
    <glyph glyph-name="abreve" unicode="&#x103;" horiz-adv-x="874" 
d="M438 1069q-98 0 -149 68t-51 190h49q0 -97 38 -151t113 -54q152 0 152 205h49q0 -124 -50.5 -191t-150.5 -67zM406 -14q-152 0 -242 138t-90 368q0 229 90 366t242 137q93 0 161 -56t105 -161v203h59v-981h-59v203q-37 -105 -105 -161t-161 -56zM401 41
q126 0 198.5 121.5t72.5 331.5q0 206 -72.5 326t-198.5 120q-125 0 -197.5 -120.5t-72.5 -325.5q0 -206 73 -329.5t197 -123.5z" />
    <glyph glyph-name="Aogonek" unicode="&#x104;" horiz-adv-x="894" 
d="M784 -395q-55 0 -93 39t-38 96q0 136 152 270l-117 400h-485l-119 -410h-57l381 1313h79l381 -1313h-2q-155 -137 -155 -256q0 -40 21 -63t56 -23q39 0 82 35l29 -39q-49 -49 -115 -49zM217 463h457l-228 788z" />
    <glyph glyph-name="aogonek" unicode="&#x105;" horiz-adv-x="874" 
d="M406 -14q-152 0 -242 138t-90 368q0 229 90 366t242 137q93 0 161 -56t105 -161v203h59v-981h-2q-156 -138 -156 -256q0 -40 21.5 -63t56.5 -23q39 0 82 35l29 -39q-49 -49 -115 -49q-55 0 -93 39t-38 96q0 136 156 274v189q-37 -105 -105 -161t-161 -56zM401 41
q126 0 198.5 121.5t72.5 331.5q0 206 -72.5 326t-198.5 120q-125 0 -197.5 -120.5t-72.5 -325.5q0 -206 73 -329.5t197 -123.5z" />
    <glyph glyph-name="Cacute" unicode="&#x106;" horiz-adv-x="835" 
d="M659 1700h72l-184 -279h-55zM516 -14q-198 0 -311 177.5t-113 491.5t112.5 493t309.5 179q86 0 149.5 -25.5t124.5 -80.5l-34 -41q-56 47 -111.5 70.5t-128.5 23.5q-171 0 -267.5 -163.5t-96.5 -455.5t97 -454t271 -162q124 0 236 94l34 -41q-62 -55 -125 -80.5
t-147 -25.5z" />
    <glyph glyph-name="cacute" unicode="&#x107;" horiz-adv-x="675" 
d="M549 1368h72l-185 -278h-55zM399 -14q-150 0 -237.5 137.5t-87.5 368.5t87.5 367t239.5 136q139 0 230 -102l-37 -41q-81 90 -191 90q-127 0 -199.5 -121t-72.5 -329q0 -207 73 -330t197 -123q115 0 193 90l37 -41q-49 -53 -103 -77.5t-129 -24.5z" />
    <glyph glyph-name="Ccircumflex" unicode="&#x108;" horiz-adv-x="835" 
d="M358 1421h-53l180 279h58l180 -279h-53l-156 221zM516 -14q-198 0 -311 177.5t-113 491.5t112.5 493t309.5 179q86 0 149.5 -25.5t124.5 -80.5l-34 -41q-56 47 -111.5 70.5t-128.5 23.5q-171 0 -267.5 -163.5t-96.5 -455.5t97 -454t271 -162q124 0 236 94l34 -41
q-62 -55 -125 -80.5t-147 -25.5z" />
    <glyph glyph-name="ccircumflex" unicode="&#x109;" horiz-adv-x="675" 
d="M248 1090h-53l180 278h57l180 -278h-53l-156 221zM399 -14q-150 0 -237.5 137.5t-87.5 368.5t87.5 367t239.5 136q139 0 230 -102l-37 -41q-81 90 -191 90q-127 0 -199.5 -121t-72.5 -329q0 -207 73 -330t197 -123q115 0 193 90l37 -41q-49 -53 -103 -77.5t-129 -24.5z
" />
    <glyph glyph-name="Cdotaccent" unicode="&#x10a;" horiz-adv-x="835" 
d="M514 1552q-22 0 -36.5 15t-14.5 37q0 21 15 36t36 15q22 0 37.5 -14.5t15.5 -36.5t-15.5 -37t-37.5 -15zM516 -14q-198 0 -311 177.5t-113 491.5t112.5 493t309.5 179q86 0 149.5 -25.5t124.5 -80.5l-34 -41q-56 47 -111.5 70.5t-128.5 23.5q-171 0 -267.5 -163.5
t-96.5 -455.5t97 -454t271 -162q124 0 236 94l34 -41q-62 -55 -125 -80.5t-147 -25.5z" />
    <glyph glyph-name="cdotaccent" unicode="&#x10b;" horiz-adv-x="675" 
d="M403 1221q-22 0 -36.5 14.5t-14.5 36.5q0 21 15 36t36 15q22 0 38 -15t16 -36t-16 -36t-38 -15zM399 -14q-150 0 -237.5 137.5t-87.5 368.5t87.5 367t239.5 136q139 0 230 -102l-37 -41q-81 90 -191 90q-127 0 -199.5 -121t-72.5 -329q0 -207 73 -330t197 -123
q115 0 193 90l37 -41q-49 -53 -103 -77.5t-129 -24.5z" />
    <glyph glyph-name="Ccaron" unicode="&#x10c;" horiz-adv-x="835" 
d="M543 1421h-58l-180 279h53l156 -221l156 221h53zM516 -14q-198 0 -311 177.5t-113 491.5t112.5 493t309.5 179q86 0 149.5 -25.5t124.5 -80.5l-34 -41q-56 47 -111.5 70.5t-128.5 23.5q-171 0 -267.5 -163.5t-96.5 -455.5t97 -454t271 -162q124 0 236 94l34 -41
q-62 -55 -125 -80.5t-147 -25.5z" />
    <glyph glyph-name="ccaron" unicode="&#x10d;" horiz-adv-x="675" 
d="M432 1090h-57l-180 278h53l155 -221l156 221h53zM399 -14q-150 0 -237.5 137.5t-87.5 368.5t87.5 367t239.5 136q139 0 230 -102l-37 -41q-81 90 -191 90q-127 0 -199.5 -121t-72.5 -329q0 -207 73 -330t197 -123q115 0 193 90l37 -41q-49 -53 -103 -77.5t-129 -24.5z
" />
    <glyph glyph-name="Dcaron" unicode="&#x10e;" horiz-adv-x="970" 
d="M473 1421h-57l-180 279h53l155 -221l156 221h53zM150 0v1313h241q125 0 219 -47t152.5 -134.5t87.5 -206.5t29 -270q0 -150 -28.5 -268.5t-86 -206t-150.5 -134t-217 -46.5h-247zM399 1260h-192v-1207h192q89 0 159.5 28.5t119.5 80t81 127t47 166.5t15 200t-15 200.5
t-47 167t-81 128t-119.5 81t-159.5 28.5z" />
    <glyph glyph-name="dcaron" unicode="&#x10f;" horiz-adv-x="872" 
d="M401 -14q-151 0 -239 138t-88 368t88 366.5t239 136.5q97 0 166 -58.5t105 -166.5v639h57v-1409h-57v213q-36 -109 -105 -168t-166 -59zM899 1409l-61 -319h-47l40 319h68zM401 41q125 0 198 122t73 329q0 206 -72.5 327t-198.5 121q-125 0 -197.5 -121t-72.5 -327
q0 -207 72.5 -329t197.5 -122z" />
    <glyph glyph-name="Dcroat" unicode="&#x110;" horiz-adv-x="970" 
d="M397 0h-247v629h-103v53h103v631h241q125 0 219 -47t152.5 -134.5t87.5 -206.5t29 -270q0 -150 -28.5 -268.5t-86 -206t-150.5 -134t-217 -46.5zM444 629h-237v-576h192q89 0 159.5 28.5t119.5 80t81 127t47 166.5t15 200t-15 200.5t-47 167t-81 128t-119.5 81
t-159.5 28.5h-192v-578h237v-53z" />
    <glyph glyph-name="dcroat" unicode="&#x111;" horiz-adv-x="872" 
d="M401 -14q-151 0 -239 138t-88 368t88 366.5t239 136.5q97 0 166 -58.5t105 -166.5v440h-178v54h178v145h57v-145h123v-54h-123v-1210h-57v213q-36 -109 -105 -168t-166 -59zM401 41q125 0 198 122t73 329q0 206 -72.5 327t-198.5 121q-125 0 -197.5 -121t-72.5 -327
q0 -207 72.5 -329t197.5 -122z" />
    <glyph glyph-name="Emacron" unicode="&#x112;" horiz-adv-x="790" 
d="M618 1583h-366v53h366v-53zM150 0v1313h577v-53h-520v-578h463v-53h-463v-576h520v-53h-577z" />
    <glyph glyph-name="emacron" unicode="&#x113;" horiz-adv-x="776" 
d="M582 1251h-367v54h367v-54zM424 -14q-163 0 -256.5 135.5t-93.5 370.5q0 228 87.5 365.5t237.5 137.5q139 0 221 -122.5t82 -317.5v-43h-571v-18q0 -215 77.5 -335t217.5 -120q55 0 107 24t90 68l34 -41q-101 -104 -233 -104zM399 942q-111 0 -181.5 -102t-84.5 -275h512
q-8 171 -74 274t-172 103z" />
    <glyph glyph-name="Ebreve" unicode="&#x114;" horiz-adv-x="790" 
d="M436 1401q-98 0 -149 68t-51 190h49q0 -97 38 -151t113 -54q152 0 152 205h49q0 -124 -50.5 -191t-150.5 -67zM150 0v1313h577v-53h-520v-578h463v-53h-463v-576h520v-53h-577z" />
    <glyph glyph-name="ebreve" unicode="&#x115;" horiz-adv-x="776" 
d="M399 1069q-98 0 -149 68t-51 190h49q0 -97 38 -151t113 -54q152 0 152 205h49q0 -124 -50.5 -191t-150.5 -67zM424 -14q-163 0 -256.5 135.5t-93.5 370.5q0 228 87.5 365.5t237.5 137.5q139 0 221 -122.5t82 -317.5v-43h-571v-18q0 -215 77.5 -335t217.5 -120
q55 0 107 24t90 68l34 -41q-101 -104 -233 -104zM399 942q-111 0 -181.5 -102t-84.5 -275h512q-8 171 -74 274t-172 103z" />
    <glyph glyph-name="Edotaccent" unicode="&#x116;" horiz-adv-x="790" 
d="M436 1552q-22 0 -36.5 15t-14.5 37q0 21 15 36t36 15q22 0 37.5 -14.5t15.5 -36.5t-15.5 -37t-37.5 -15zM150 0v1313h577v-53h-520v-578h463v-53h-463v-576h520v-53h-577z" />
    <glyph glyph-name="edotaccent" unicode="&#x117;" horiz-adv-x="776" 
d="M399 1221q-22 0 -36.5 14.5t-14.5 36.5q0 21 15 36t36 15q22 0 38 -15t16 -36t-16 -36t-38 -15zM424 -14q-163 0 -256.5 135.5t-93.5 370.5q0 228 87.5 365.5t237.5 137.5q139 0 221 -122.5t82 -317.5v-43h-571v-18q0 -215 77.5 -335t217.5 -120q55 0 107 24t90 68
l34 -41q-101 -104 -233 -104zM399 942q-111 0 -181.5 -102t-84.5 -275h512q-8 171 -74 274t-172 103z" />
    <glyph glyph-name="Eogonek" unicode="&#x118;" horiz-adv-x="790" 
d="M150 0v1313h577v-53h-520v-578h463v-53h-463v-576h520v-53h-2q-156 -138 -156 -256q0 -40 21.5 -63t56.5 -23q39 0 82 35l29 -39q-49 -49 -115 -49q-55 0 -93 39t-38 96q0 133 139 260h-501z" />
    <glyph glyph-name="eogonek" unicode="&#x119;" horiz-adv-x="776" 
d="M424 -14q-163 0 -256.5 135.5t-93.5 370.5q0 228 87.5 365.5t237.5 137.5q139 0 221 -122.5t82 -317.5v-43h-571v-18q0 -215 77.5 -335t217.5 -120q55 0 107 24t90 68l34 -41q-65 -68 -145 -92q-154 -136 -154 -254q0 -40 21.5 -63t56.5 -23q39 0 82 35l29 -39
q-49 -49 -115 -49q-55 0 -93 39t-38 96q0 124 125 246h-2zM399 942q-111 0 -181.5 -102t-84.5 -275h512q-8 171 -74 274t-172 103z" />
    <glyph glyph-name="Ecaron" unicode="&#x11a;" horiz-adv-x="790" 
d="M465 1421h-57l-181 279h54l155 -221l156 221h53zM150 0v1313h577v-53h-520v-578h463v-53h-463v-576h520v-53h-577z" />
    <glyph glyph-name="ecaron" unicode="&#x11b;" horiz-adv-x="776" 
d="M428 1090h-57l-181 278h54l155 -221l156 221h53zM424 -14q-163 0 -256.5 135.5t-93.5 370.5q0 228 87.5 365.5t237.5 137.5q139 0 221 -122.5t82 -317.5v-43h-571v-18q0 -215 77.5 -335t217.5 -120q55 0 107 24t90 68l34 -41q-101 -104 -233 -104zM399 942
q-111 0 -181.5 -102t-84.5 -275h512q-8 171 -74 274t-172 103z" />
    <glyph glyph-name="Gcircumflex" unicode="&#x11c;" horiz-adv-x="937" 
d="M375 1421h-53l180 279h57l180 -279h-53l-156 221zM545 -14q-223 0 -338 172t-115 497q0 319 116 495.5t324 176.5q88 0 153 -24.5t130 -81.5l-35 -43q-59 52 -117 74t-131 22q-183 0 -282.5 -161.5t-99.5 -457.5q0 -302 99.5 -459t297.5 -157q134 0 225 70v489h-270v55
h327v-569q-116 -98 -284 -98z" />
    <glyph glyph-name="gcircumflex" unicode="&#x11d;" horiz-adv-x="872" 
d="M281 1090h-54l181 278h57l180 -278h-53l-156 221zM401 -14q-151 0 -239 138t-88 368t88 366.5t239 136.5q97 0 166 -58.5t105 -166.5v211h57v-1028q0 -179 -85 -274t-245 -95q-174 0 -288 117l34 43q106 -106 252 -106q135 0 205 78.5t70 230.5v266q-36 -109 -105 -168
t-166 -59zM401 41q125 0 198 122t73 329q0 206 -72.5 327t-198.5 121q-125 0 -197.5 -121t-72.5 -327q0 -207 72.5 -329t197.5 -122z" />
    <glyph glyph-name="Gbreve" unicode="&#x11e;" horiz-adv-x="937" 
d="M530 1401q-98 0 -149 68t-51 190h49q0 -97 38 -151t113 -54q152 0 152 205h49q0 -124 -50.5 -191t-150.5 -67zM545 -14q-223 0 -338 172t-115 497q0 319 116 495.5t324 176.5q88 0 153 -24.5t130 -81.5l-35 -43q-59 52 -117 74t-131 22q-183 0 -282.5 -161.5
t-99.5 -457.5q0 -302 99.5 -459t297.5 -157q134 0 225 70v489h-270v55h327v-569q-116 -98 -284 -98z" />
    <glyph glyph-name="gbreve" unicode="&#x11f;" horiz-adv-x="872" 
d="M436 1069q-98 0 -149 68t-51 190h49q0 -97 38 -151t113 -54q152 0 152 205h49q0 -124 -50.5 -191t-150.5 -67zM401 -14q-151 0 -239 138t-88 368t88 366.5t239 136.5q97 0 166 -58.5t105 -166.5v211h57v-1028q0 -179 -85 -274t-245 -95q-174 0 -288 117l34 43
q106 -106 252 -106q135 0 205 78.5t70 230.5v266q-36 -109 -105 -168t-166 -59zM401 41q125 0 198 122t73 329q0 206 -72.5 327t-198.5 121q-125 0 -197.5 -121t-72.5 -327q0 -207 72.5 -329t197.5 -122z" />
    <glyph glyph-name="Gdotaccent" unicode="&#x120;" horiz-adv-x="937" 
d="M530 1552q-22 0 -36.5 15t-14.5 37q0 21 15 36t36 15q22 0 38 -15t16 -36q0 -22 -16 -37t-38 -15zM545 -14q-223 0 -338 172t-115 497q0 319 116 495.5t324 176.5q88 0 153 -24.5t130 -81.5l-35 -43q-59 52 -117 74t-131 22q-183 0 -282.5 -161.5t-99.5 -457.5
q0 -302 99.5 -459t297.5 -157q134 0 225 70v489h-270v55h327v-569q-116 -98 -284 -98z" />
    <glyph glyph-name="gdotaccent" unicode="&#x121;" horiz-adv-x="872" 
d="M436 1221q-22 0 -36.5 14.5t-14.5 36.5q0 21 15 36t36 15q22 0 37.5 -14.5t15.5 -36.5t-15.5 -36.5t-37.5 -14.5zM401 -14q-151 0 -239 138t-88 368t88 366.5t239 136.5q97 0 166 -58.5t105 -166.5v211h57v-1028q0 -179 -85 -274t-245 -95q-174 0 -288 117l34 43
q106 -106 252 -106q135 0 205 78.5t70 230.5v266q-36 -109 -105 -168t-166 -59zM401 41q125 0 198 122t73 329q0 206 -72.5 327t-198.5 121q-125 0 -197.5 -121t-72.5 -327q0 -207 72.5 -329t197.5 -122z" />
    <glyph glyph-name="Gcommaaccent" unicode="&#x122;" horiz-adv-x="937" 
d="M545 -14q-223 0 -338 172t-115 497q0 319 116 495.5t324 176.5q88 0 153 -24.5t130 -81.5l-35 -43q-59 52 -117 74t-131 22q-183 0 -282.5 -161.5t-99.5 -457.5q0 -302 99.5 -459t297.5 -157q134 0 225 70v489h-270v55h327v-569q-116 -98 -284 -98zM569 -104l-102 -261
h-47l78 261h71z" />
    <glyph glyph-name="gcommaaccent" unicode="&#x123;" horiz-adv-x="872" 
d="M393 1102l103 260h55l-78 -260h-80zM401 -14q-151 0 -239 138t-88 368t88 366.5t239 136.5q97 0 166 -58.5t105 -166.5v211h57v-1028q0 -179 -85 -274t-245 -95q-174 0 -288 117l34 43q106 -106 252 -106q135 0 205 78.5t70 230.5v266q-36 -109 -105 -168t-166 -59z
M401 41q125 0 198 122t73 329q0 206 -72.5 327t-198.5 121q-125 0 -197.5 -121t-72.5 -327q0 -207 72.5 -329t197.5 -122z" />
    <glyph glyph-name="Hcircumflex" unicode="&#x124;" horiz-adv-x="1009" 
d="M350 1421h-53l180 279h58l180 -279h-53l-156 221zM803 0v629h-596v-629h-57v1313h57v-631h596v631h57v-1313h-57z" />
    <glyph glyph-name="hcircumflex" unicode="&#x125;" horiz-adv-x="827" 
d="M14 1518h-53l180 278h58l180 -278h-53l-156 221zM201 0h-58v1409h58v-569q36 73 99 114t142 41q132 0 205.5 -83t73.5 -230v-682h-57v664q0 136 -56.5 207t-165.5 71q-110 0 -175.5 -82.5t-65.5 -222.5v-637z" />
    <glyph glyph-name="Hbar" unicode="&#x126;" horiz-adv-x="1009" 
d="M803 0v629h-596v-629h-57v1010h-103v53h103v250h57v-250h596v250h57v-250h103v-53h-103v-1010h-57zM207 682h596v328h-596v-328z" />
    <glyph glyph-name="hbar" unicode="&#x127;" horiz-adv-x="827" 
d="M201 0h-58v1210h-123v54h123v145h58v-145h178v-54h-178v-370q36 73 99 114t142 41q132 0 205.5 -83t73.5 -230v-682h-57v664q0 136 -56.5 207t-165.5 71q-110 0 -175.5 -82.5t-65.5 -222.5v-637z" />
    <glyph glyph-name="Itilde" unicode="&#x128;" horiz-adv-x="356" 
d="M6 1530l-45 16q51 117 129 117q36 0 66 -18.5t57 -37t57 -18.5q25 0 41.5 18t38.5 62l45 -16q-51 -117 -129 -117q-35 0 -65.5 18.5t-58.5 37t-58 18.5q-25 0 -40.5 -17.5t-37.5 -62.5zM150 0v1313h57v-1313h-57z" />
    <glyph glyph-name="itilde" unicode="&#x129;" horiz-adv-x="344" 
d="M0 1198l-45 16q51 117 129 117q36 0 66 -18.5t57 -37t57 -18.5q25 0 41.5 18t38.5 62l45 -16q-51 -117 -129 -117q-44 0 -95.5 37t-86.5 37q-25 0 -40.5 -17.5t-37.5 -62.5zM201 981v-981h-58v981h58z" />
    <glyph glyph-name="Imacron" unicode="&#x12a;" horiz-adv-x="356" 
d="M360 1583h-366v53h366v-53zM150 0v1313h57v-1313h-57z" />
    <glyph glyph-name="imacron" unicode="&#x12b;" horiz-adv-x="344" 
d="M354 1251h-366v54h366v-54zM201 981v-981h-58v981h58z" />
    <glyph glyph-name="Ibreve" unicode="&#x12c;" horiz-adv-x="356" 
d="M178 1401q-98 0 -149.5 68t-51.5 190h50q0 -97 38 -151t113 -54q152 0 152 205h49q0 -124 -50.5 -191t-150.5 -67zM150 0v1313h57v-1313h-57z" />
    <glyph glyph-name="ibreve" unicode="&#x12d;" horiz-adv-x="344" 
d="M172 1069q-98 0 -149.5 68t-51.5 190h49q0 -97 38.5 -151t113.5 -54q152 0 152 205h49q0 -124 -50.5 -191t-150.5 -67zM201 981v-981h-58v981h58z" />
    <glyph glyph-name="Iogonek" unicode="&#x12e;" horiz-adv-x="356" 
d="M123 -395q-55 0 -93 39t-38 96q0 139 158 276v1297h57v-1313h-2q-156 -138 -156 -256q0 -40 21.5 -63t56.5 -23q39 0 82 35l29 -39q-49 -49 -115 -49z" />
    <glyph glyph-name="iogonek" unicode="&#x12f;" horiz-adv-x="344" 
d="M172 1221q-22 0 -36.5 14.5t-14.5 36.5q0 21 15 36t36 15q22 0 37.5 -14.5t15.5 -36.5t-15.5 -36.5t-37.5 -14.5zM117 -395q-55 0 -93 39t-38 96q0 140 157 276v965h58v-981h-2q-156 -138 -156 -256q0 -40 21.5 -63t56.5 -23q39 0 82 35l28 -39q-49 -49 -114 -49z" />
    <glyph glyph-name="Idotaccent" unicode="&#x130;" horiz-adv-x="356" 
d="M178 1552q-22 0 -36.5 15t-14.5 37q0 21 15 36t36 15q22 0 37.5 -14.5t15.5 -36.5t-15.5 -37t-37.5 -15zM150 0v1313h57v-1313h-57z" />
    <glyph glyph-name="idotless" unicode="&#x131;" horiz-adv-x="344" 
d="M201 981v-981h-58v981h58z" />
    <glyph glyph-name="IJ" unicode="&#x132;" horiz-adv-x="944" 
d="M150 0v1313h57v-1313h-57zM383 59l33 45q79 -65 166 -65q80 0 126 51t46 141v1082h57v-1080q0 -116 -62.5 -181.5t-166.5 -65.5q-114 0 -199 73z" />
    <glyph glyph-name="ij" unicode="&#x133;" horiz-adv-x="694" 
d="M172 1221q-22 0 -36.5 14.5t-14.5 36.5q0 21 15 36t36 15q22 0 37.5 -14.5t15.5 -36.5t-15.5 -36.5t-37.5 -14.5zM520 1221q-22 0 -36.5 14.5t-14.5 36.5q0 21 15 36t36 15q22 0 37.5 -14.5t15.5 -36.5t-15.5 -36.5t-37.5 -14.5zM201 0h-58v981h58v-981zM395 -416
q-68 0 -119 45l35 43q37 -34 84 -34q94 0 94 157v1186h58v-1184q0 -103 -39.5 -158t-112.5 -55z" />
    <glyph glyph-name="Jcircumflex" unicode="&#x134;" horiz-adv-x="587" 
d="M270 1421h-53l180 279h58l180 -279h-53l-156 221zM27 59l32 45q79 -65 166 -65q80 0 126 51t46 141v1082h58v-1080q0 -115 -63 -181t-167 -66q-113 0 -198 73z" />
    <glyph glyph-name="jcircumflex" unicode="&#x135;" horiz-adv-x="348" 
d="M23 1090h-54l181 278h57l180 -278h-53l-156 221zM53 -416q-68 0 -119 45l35 43q37 -34 84 -34q94 0 94 157v1186h58v-1184q0 -103 -39.5 -158t-112.5 -55z" />
    <glyph glyph-name="Kcommaaccent" unicode="&#x136;" horiz-adv-x="798" 
d="M207 0h-57v1313h57v-658l485 658h66l-490 -664l508 -649h-71l-498 635v-635zM479 -104l-102 -261h-47l78 261h71z" />
    <glyph glyph-name="kcommaaccent" unicode="&#x137;" horiz-adv-x="708" 
d="M201 0h-58v1409h58v-893l405 465h70l-414 -477l428 -504h-76l-413 487v-487zM434 -104l-102 -261h-47l77 261h72z" />
    <glyph glyph-name="Lacute" unicode="&#x139;" horiz-adv-x="743" 
d="M324 1700h71l-184 -279h-55zM150 0v1313h57v-1260h504v-53h-561z" />
    <glyph glyph-name="lacute" unicode="&#x13a;" horiz-adv-x="352" 
d="M322 1796h71l-184 -278h-55zM266 -12q-55 0 -89 39t-34 104v1278h58v-1274q0 -46 18.5 -70t50.5 -24q24 0 45 8l11 -49q-21 -12 -60 -12z" />
    <glyph glyph-name="Lcommaaccent" unicode="&#x13b;" horiz-adv-x="743" 
d="M150 0v1313h57v-1260h504v-53h-561zM473 -104l-102 -261h-47l77 261h72z" />
    <glyph glyph-name="lcommaaccent" unicode="&#x13c;" horiz-adv-x="352" 
d="M266 -12q-55 0 -89 39t-34 104v1278h58v-1274q0 -46 18.5 -70t50.5 -24q24 0 45 8l11 -49q-21 -12 -60 -12zM299 -104l-102 -261h-47l77 261h72z" />
    <glyph glyph-name="Lcaron" unicode="&#x13d;" horiz-adv-x="743" 
d="M150 0v1313h57v-1260h504v-53h-561zM418 1313l-62 -320h-47l41 320h68z" />
    <glyph glyph-name="lcaron" unicode="&#x13e;" horiz-adv-x="352" 
d="M266 -12q-55 0 -89 39t-34 104v1278h58v-1274q0 -46 18.5 -70t50.5 -24q24 0 45 8l11 -49q-21 -12 -60 -12zM371 1409l-62 -319h-47l41 319h68z" />
    <glyph glyph-name="Ldot" unicode="&#x13f;" horiz-adv-x="743" 
d="M150 0v1313h57v-1260h504v-53h-561zM498 647q0 22 16 38.5t39 16.5t39 -16.5t16 -38.5q0 -23 -16 -39t-39 -16t-39 16t-16 39z" />
    <glyph glyph-name="ldot" unicode="&#x140;" horiz-adv-x="352" 
d="M266 -12q-55 0 -89 39t-34 104v1278h58v-1274q0 -46 18.5 -70t50.5 -24q24 0 45 8l11 -49q-21 -12 -60 -12zM297 647q0 22 16 38.5t39 16.5t39.5 -16.5t16.5 -38.5q0 -23 -16.5 -39t-39.5 -16t-39 16t-16 39z" />
    <glyph glyph-name="Lslash" unicode="&#x141;" horiz-adv-x="743" 
d="M150 0v586l-101 -33v55l101 33v672h57v-656l190 62v-55l-190 -62v-549h504v-53h-561z" />
    <glyph glyph-name="lslash" unicode="&#x142;" horiz-adv-x="352" 
d="M266 -12q-55 0 -89 39t-34 104v590l-92 -39v57l92 39v631h58v-606l112 49v-57l-112 -50v-610q0 -46 18.5 -70t50.5 -24q24 0 45 8l11 -49q-21 -12 -60 -12z" />
    <glyph glyph-name="Nacute" unicode="&#x143;" horiz-adv-x="1005" 
d="M649 1700h72l-184 -279h-56zM774 0l-567 1231v-1231h-57v1313h81l568 -1231v1231h57v-1313h-82z" />
    <glyph glyph-name="nacute" unicode="&#x144;" horiz-adv-x="827" 
d="M586 1368h71l-184 -278h-55zM201 0h-58v981h58v-141q36 73 99 114t142 41q132 0 205.5 -83t73.5 -230v-682h-57v664q0 136 -56.5 207t-165.5 71q-110 0 -175.5 -82.5t-65.5 -222.5v-637z" />
    <glyph glyph-name="Ncommaaccent" unicode="&#x145;" horiz-adv-x="1005" 
d="M774 0l-567 1231v-1231h-57v1313h81l568 -1231v1231h57v-1313h-82zM543 -104l-103 -261h-47l78 261h72z" />
    <glyph glyph-name="ncommaaccent" unicode="&#x146;" horiz-adv-x="827" 
d="M201 0h-58v981h58v-141q36 73 99 114t142 41q132 0 205.5 -83t73.5 -230v-682h-57v664q0 136 -56.5 207t-165.5 71q-110 0 -175.5 -82.5t-65.5 -222.5v-637zM479 -104l-102 -261h-47l78 261h71z" />
    <glyph glyph-name="Ncaron" unicode="&#x147;" horiz-adv-x="1005" 
d="M532 1421h-57l-180 279h53l156 -221l155 221h54zM774 0l-567 1231v-1231h-57v1313h81l568 -1231v1231h57v-1313h-82z" />
    <glyph glyph-name="ncaron" unicode="&#x148;" horiz-adv-x="827" 
d="M469 1090h-57l-181 278h54l155 -221l156 221h53zM201 0h-58v981h58v-141q36 73 99 114t142 41q132 0 205.5 -83t73.5 -230v-682h-57v664q0 136 -56.5 207t-165.5 71q-110 0 -175.5 -82.5t-65.5 -222.5v-637z" />
    <glyph glyph-name="Omacron" unicode="&#x14c;" horiz-adv-x="995" 
d="M680 1583h-367v53h367v-53zM498 1327q196 0 300.5 -177.5t104.5 -496.5q0 -317 -104.5 -492t-300.5 -175q-195 0 -300.5 176t-105.5 491q0 318 105.5 496t300.5 178zM498 39q169 0 258.5 161t89.5 453q0 294 -90 457.5t-258 163.5q-169 0 -258.5 -162.5t-89.5 -458.5
q0 -293 89.5 -453.5t258.5 -160.5z" />
    <glyph glyph-name="omacron" unicode="&#x14d;" horiz-adv-x="802" 
d="M584 1251h-367v54h367v-54zM401 -14q-151 0 -239 138t-88 368t88 366.5t239 136.5q152 0 240 -136.5t88 -366.5t-88.5 -368t-239.5 -138zM401 41q125 0 198 122t73 329q0 206 -72.5 327t-198.5 121q-125 0 -197.5 -121t-72.5 -327q0 -207 72.5 -329t197.5 -122z" />
    <glyph glyph-name="Obreve" unicode="&#x14e;" horiz-adv-x="995" 
d="M498 1401q-98 0 -149.5 68t-51.5 190h49q0 -97 38.5 -151t113.5 -54q151 0 151 205h49q0 -124 -50 -191t-150 -67zM498 1327q196 0 300.5 -177.5t104.5 -496.5q0 -317 -104.5 -492t-300.5 -175q-195 0 -300.5 176t-105.5 491q0 318 105.5 496t300.5 178zM498 39
q169 0 258.5 161t89.5 453q0 294 -90 457.5t-258 163.5q-169 0 -258.5 -162.5t-89.5 -458.5q0 -293 89.5 -453.5t258.5 -160.5z" />
    <glyph glyph-name="obreve" unicode="&#x14f;" horiz-adv-x="802" 
d="M401 1069q-98 0 -149 68t-51 190h49q0 -97 38 -151t113 -54q152 0 152 205h49q0 -124 -50.5 -191t-150.5 -67zM401 -14q-151 0 -239 138t-88 368t88 366.5t239 136.5q152 0 240 -136.5t88 -366.5t-88.5 -368t-239.5 -138zM401 41q125 0 198 122t73 329q0 206 -72.5 327
t-198.5 121q-125 0 -197.5 -121t-72.5 -327q0 -207 72.5 -329t197.5 -122z" />
    <glyph glyph-name="Ohungarumlaut" unicode="&#x150;" horiz-adv-x="995" 
d="M483 1700h74l-184 -279h-49zM725 1700h74l-185 -279h-49zM498 1327q196 0 300.5 -177.5t104.5 -496.5q0 -317 -104.5 -492t-300.5 -175q-195 0 -300.5 176t-105.5 491q0 318 105.5 496t300.5 178zM498 39q169 0 258.5 161t89.5 453q0 294 -90 457.5t-258 163.5
q-169 0 -258.5 -162.5t-89.5 -458.5q0 -293 89.5 -453.5t258.5 -160.5z" />
    <glyph glyph-name="ohungarumlaut" unicode="&#x151;" horiz-adv-x="802" 
d="M387 1368h74l-185 -278h-49zM629 1368h73l-184 -278h-49zM401 -14q-151 0 -239 138t-88 368t88 366.5t239 136.5q152 0 240 -136.5t88 -366.5t-88.5 -368t-239.5 -138zM401 41q125 0 198 122t73 329q0 206 -72.5 327t-198.5 121q-125 0 -197.5 -121t-72.5 -327
q0 -207 72.5 -329t197.5 -122z" />
    <glyph glyph-name="OE" unicode="&#x152;" horiz-adv-x="1486" 
d="M498 -14q-195 0 -300.5 176t-105.5 491q0 318 105.5 496t300.5 178q126 0 214 -75t134 -218v279h577v-53h-520v-578h463v-53h-463v-576h520v-53h-577v274q-46 -140 -134 -214t-214 -74zM498 39q169 0 258.5 161t89.5 453q0 294 -90 457.5t-258 163.5
q-169 0 -258.5 -162.5t-89.5 -458.5q0 -293 89.5 -453.5t258.5 -160.5z" />
    <glyph glyph-name="oe" unicode="&#x153;" horiz-adv-x="1368" 
d="M401 -14q-151 0 -239 138t-88 368t88 366.5t239 136.5q109 0 186 -74t111 -206q34 132 110 206t183 74q139 0 221 -122.5t82 -317.5v-43h-571v-18q0 -215 77.5 -335t217.5 -120q116 0 196 92l35 -41q-101 -104 -233 -104q-119 0 -200.5 74t-117.5 210
q-34 -135 -111 -209.5t-186 -74.5zM991 942q-111 0 -181.5 -102t-84.5 -275h512q-8 171 -74 274t-172 103zM401 41q125 0 198 122t73 329q0 206 -72.5 327t-198.5 121q-125 0 -197.5 -121t-72.5 -327q0 -207 72.5 -329t197.5 -122z" />
    <glyph glyph-name="Racute" unicode="&#x154;" horiz-adv-x="860" 
d="M575 1700h72l-184 -279h-55zM150 0v1313h303q150 0 240.5 -99.5t90.5 -259.5q0 -148 -78 -246.5t-208 -115.5l270 -592h-63l-269 590h-229v-590h-57zM449 1260h-242v-617h242q127 0 202.5 86t75.5 225q0 138 -75 222t-203 84z" />
    <glyph glyph-name="racute" unicode="&#x155;" horiz-adv-x="497" 
d="M428 1368h72l-185 -278h-55zM143 0v981h58v-109q61 123 176 123q52 0 92 -18l-16 -55q-35 16 -76 16q-79 0 -127.5 -74.5t-48.5 -193.5v-670h-58z" />
    <glyph glyph-name="Rcommaaccent" unicode="&#x156;" horiz-adv-x="860" 
d="M150 0v1313h303q150 0 240.5 -99.5t90.5 -259.5q0 -148 -78 -246.5t-208 -115.5l270 -592h-63l-269 590h-229v-590h-57zM449 1260h-242v-617h242q127 0 202.5 86t75.5 225q0 138 -75 222t-203 84zM469 -104l-102 -261h-48l78 261h72z" />
    <glyph glyph-name="rcommaaccent" unicode="&#x157;" horiz-adv-x="497" 
d="M143 0v981h58v-109q61 123 176 123q52 0 92 -18l-16 -55q-35 16 -76 16q-79 0 -127.5 -74.5t-48.5 -193.5v-670h-58zM211 -104l-102 -261h-48l78 261h72z" />
    <glyph glyph-name="Rcaron" unicode="&#x158;" horiz-adv-x="860" 
d="M459 1421h-58l-180 279h53l156 -221l156 221h53zM150 0v1313h303q150 0 240.5 -99.5t90.5 -259.5q0 -148 -78 -246.5t-208 -115.5l270 -592h-63l-269 590h-229v-590h-57zM449 1260h-242v-617h242q127 0 202.5 86t75.5 225q0 138 -75 222t-203 84z" />
    <glyph glyph-name="rcaron" unicode="&#x159;" horiz-adv-x="497" 
d="M311 1090h-57l-180 278h53l156 -221l155 221h54zM143 0v981h58v-109q61 123 176 123q52 0 92 -18l-16 -55q-35 16 -76 16q-79 0 -127.5 -74.5t-48.5 -193.5v-670h-58z" />
    <glyph glyph-name="Sacute" unicode="&#x15a;" horiz-adv-x="780" 
d="M549 1700h72l-185 -279h-55zM391 -14q-186 0 -319 118l34 48q119 -113 285 -113q113 0 187.5 71.5t74.5 180.5q0 44 -9 81.5t-30 69.5t-39.5 54t-55.5 49t-58 40t-66 40q-55 32 -88 53t-78 59.5t-69.5 76t-43 93.5t-18.5 121q0 127 89 213t227 86q146 0 252 -82l-35 -43
q-86 72 -217 72q-114 0 -186 -70.5t-72 -175.5q0 -57 17 -106t39 -81t65.5 -67.5t71.5 -53.5t83 -50q40 -24 59.5 -36t55 -37t54 -44t43 -49t37 -59.5t21.5 -69.5t9 -84q0 -137 -89 -221t-231 -84z" />
    <glyph glyph-name="sacute" unicode="&#x15b;" horiz-adv-x="634" 
d="M498 1368h71l-184 -278h-55zM305 -14q-137 0 -250 84l31 47q109 -78 221 -78q90 0 146.5 55t56.5 142q0 50 -15 88.5t-48 68t-62.5 48t-81.5 44.5q-49 25 -79 44.5t-66 52.5t-54 77t-18 99q0 103 74 170t188 67q122 0 215 -57l-24 -49q-88 53 -191 53q-89 0 -147 -51.5
t-58 -130.5q0 -42 13.5 -75.5t42.5 -61t60 -47.5t79 -44q41 -21 67.5 -36.5t61 -42.5t54 -55t34 -69t14.5 -89q0 -115 -73 -184.5t-191 -69.5z" />
    <glyph glyph-name="Scircumflex" unicode="&#x15c;" horiz-adv-x="780" 
d="M248 1421h-53l180 279h57l180 -279h-53l-156 221zM391 -14q-186 0 -319 118l34 48q119 -113 285 -113q113 0 187.5 71.5t74.5 180.5q0 44 -9 81.5t-30 69.5t-39.5 54t-55.5 49t-58 40t-66 40q-55 32 -88 53t-78 59.5t-69.5 76t-43 93.5t-18.5 121q0 127 89 213t227 86
q146 0 252 -82l-35 -43q-86 72 -217 72q-114 0 -186 -70.5t-72 -175.5q0 -57 17 -106t39 -81t65.5 -67.5t71.5 -53.5t83 -50q40 -24 59.5 -36t55 -37t54 -44t43 -49t37 -59.5t21.5 -69.5t9 -84q0 -137 -89 -221t-231 -84z" />
    <glyph glyph-name="scircumflex" unicode="&#x15d;" horiz-adv-x="634" 
d="M197 1090h-54l181 278h57l180 -278h-53l-156 221zM305 -14q-137 0 -250 84l31 47q109 -78 221 -78q90 0 146.5 55t56.5 142q0 50 -15 88.5t-48 68t-62.5 48t-81.5 44.5q-49 25 -79 44.5t-66 52.5t-54 77t-18 99q0 103 74 170t188 67q122 0 215 -57l-24 -49
q-88 53 -191 53q-89 0 -147 -51.5t-58 -130.5q0 -42 13.5 -75.5t42.5 -61t60 -47.5t79 -44q41 -21 67.5 -36.5t61 -42.5t54 -55t34 -69t14.5 -89q0 -115 -73 -184.5t-191 -69.5z" />
    <glyph glyph-name="Scedilla" unicode="&#x15e;" horiz-adv-x="780" 
d="M711 291q0 -132 -82 -214.5t-217 -90.5l-115 -310l-57 25l122 285q-166 9 -290 118l34 48q119 -113 285 -113q113 0 187.5 71.5t74.5 180.5q0 44 -9 81.5t-30 69.5t-39.5 54t-55.5 49t-58 40t-66 40q-55 32 -88 53t-78 59.5t-69.5 76t-43 93.5t-18.5 121q0 127 89 213
t227 86q146 0 252 -82l-35 -43q-86 72 -217 72q-114 0 -186 -70.5t-72 -175.5q0 -57 17 -106t39 -81t65.5 -67.5t71.5 -53.5t83 -50q40 -24 59.5 -36t55 -37t54 -44t43 -49t37 -59.5t21.5 -69.5t9 -84z" />
    <glyph glyph-name="scedilla" unicode="&#x15f;" horiz-adv-x="634" 
d="M569 240q0 -108 -66 -177t-173 -77l-117 -310l-57 25l123 285q-125 10 -224 84l31 47q109 -78 221 -78q90 0 146.5 55t56.5 142q0 50 -15 88.5t-48 68t-62.5 48t-81.5 44.5q-49 25 -79 44.5t-66 52.5t-54 77t-18 99q0 103 74 170t188 67q122 0 215 -57l-24 -49
q-88 53 -191 53q-89 0 -147 -51.5t-58 -130.5q0 -42 13.5 -75.5t42.5 -61t60 -47.5t79 -44q41 -21 67.5 -36.5t61 -42.5t54 -55t34 -69t14.5 -89z" />
    <glyph glyph-name="Scaron" unicode="&#x160;" horiz-adv-x="780" 
d="M432 1421h-57l-180 279h53l155 -221l156 221h53zM391 -14q-186 0 -319 118l34 48q119 -113 285 -113q113 0 187.5 71.5t74.5 180.5q0 44 -9 81.5t-30 69.5t-39.5 54t-55.5 49t-58 40t-66 40q-55 32 -88 53t-78 59.5t-69.5 76t-43 93.5t-18.5 121q0 127 89 213t227 86
q146 0 252 -82l-35 -43q-86 72 -217 72q-114 0 -186 -70.5t-72 -175.5q0 -57 17 -106t39 -81t65.5 -67.5t71.5 -53.5t83 -50q40 -24 59.5 -36t55 -37t54 -44t43 -49t37 -59.5t21.5 -69.5t9 -84q0 -137 -89 -221t-231 -84z" />
    <glyph glyph-name="scaron" unicode="&#x161;" horiz-adv-x="634" 
d="M381 1090h-57l-181 278h54l155 -221l156 221h53zM305 -14q-137 0 -250 84l31 47q109 -78 221 -78q90 0 146.5 55t56.5 142q0 50 -15 88.5t-48 68t-62.5 48t-81.5 44.5q-49 25 -79 44.5t-66 52.5t-54 77t-18 99q0 103 74 170t188 67q122 0 215 -57l-24 -49q-88 53 -191 53
q-89 0 -147 -51.5t-58 -130.5q0 -42 13.5 -75.5t42.5 -61t60 -47.5t79 -44q41 -21 67.5 -36.5t61 -42.5t54 -55t34 -69t14.5 -89q0 -115 -73 -184.5t-191 -69.5z" />
    <glyph glyph-name="Tcedilla" unicode="&#x162;" horiz-adv-x="704" 
d="M330 0h-6v1260h-304v53h664v-53h-303v-1260h-2l-121 -324l-57 25z" />
    <glyph glyph-name="tcedilla" unicode="&#x163;" horiz-adv-x="495" 
d="M57 928v53h99v225h57v-225h215v-53h-215v-754q0 -66 31 -99.5t86 -33.5q59 0 114 37l25 -49q-65 -38 -115 -43l-116 -310l-58 25l123 287q-68 8 -107.5 55t-39.5 125v760h-99z" />
    <glyph glyph-name="Tcaron" unicode="&#x164;" horiz-adv-x="704" 
d="M381 1421h-57l-181 279h54l155 -221l156 221h53zM684 1260h-303v-1260h-57v1260h-304v53h664v-53z" />
    <glyph glyph-name="tcaron" unicode="&#x165;" horiz-adv-x="495" 
d="M383 1409l-61 -319h-48l41 319h68zM57 928v53h99v225h57v-225h215v-53h-215v-754q0 -66 31 -99.5t86 -33.5q59 0 114 37l25 -49q-72 -43 -137 -43q-81 0 -128.5 48t-47.5 134v760h-99z" />
    <glyph glyph-name="Tbar" unicode="&#x166;" horiz-adv-x="704" 
d="M147 688h177v572h-304v53h664v-53h-303v-572h176v-53h-176v-635h-57v635h-177v53z" />
    <glyph glyph-name="tbar" unicode="&#x167;" horiz-adv-x="495" 
d="M66 520h90v408h-99v53h99v225h57v-225h215v-53h-215v-408h174v-53h-174v-293q0 -66 31 -99.5t86 -33.5q59 0 114 37l25 -49q-72 -43 -137 -43q-81 0 -128.5 48t-47.5 134v299h-90v53z" />
    <glyph glyph-name="Utilde" unicode="&#x168;" horiz-adv-x="946" 
d="M301 1530l-45 16q51 117 129 117q36 0 66 -18.5t57 -37t57 -18.5q25 0 41.5 18t38.5 62l45 -16q-51 -117 -129 -117q-43 0 -95 37t-87 37q-25 0 -40.5 -17.5t-37.5 -62.5zM133 375v938h57v-944q0 -157 75.5 -243.5t207.5 -86.5t206.5 86t74.5 244v944h59v-938
q0 -186 -90 -287.5t-250 -101.5t-250 101.5t-90 287.5z" />
    <glyph glyph-name="utilde" unicode="&#x169;" horiz-adv-x="786" 
d="M221 1198l-45 16q51 117 129 117q36 0 66 -18.5t57 -37t57 -18.5q25 0 41.5 18t38.5 62l45 -16q-51 -117 -129 -117q-35 0 -65.5 18.5t-58.5 37t-58 18.5q-25 0 -40.5 -17.5t-37.5 -62.5zM166 981v-643q0 -146 57 -221.5t166 -75.5q113 0 172.5 76t59.5 221v643h57v-649
q0 -164 -75.5 -254t-213.5 -90q-134 0 -207 90t-73 254v649h57z" />
    <glyph glyph-name="Umacron" unicode="&#x16a;" horiz-adv-x="946" 
d="M655 1583h-366v53h366v-53zM133 375v938h57v-944q0 -157 75.5 -243.5t207.5 -86.5t206.5 86t74.5 244v944h59v-938q0 -186 -90 -287.5t-250 -101.5t-250 101.5t-90 287.5z" />
    <glyph glyph-name="umacron" unicode="&#x16b;" horiz-adv-x="786" 
d="M575 1251h-366v54h366v-54zM166 981v-643q0 -146 57 -221.5t166 -75.5q113 0 172.5 76t59.5 221v643h57v-649q0 -164 -75.5 -254t-213.5 -90q-134 0 -207 90t-73 254v649h57z" />
    <glyph glyph-name="Ubreve" unicode="&#x16c;" horiz-adv-x="946" 
d="M473 1401q-98 0 -149.5 68t-51.5 190h50q0 -97 38 -151t113 -54q152 0 152 205h49q0 -124 -50.5 -191t-150.5 -67zM133 375v938h57v-944q0 -157 75.5 -243.5t207.5 -86.5t206.5 86t74.5 244v944h59v-938q0 -186 -90 -287.5t-250 -101.5t-250 101.5t-90 287.5z" />
    <glyph glyph-name="ubreve" unicode="&#x16d;" horiz-adv-x="786" 
d="M393 1069q-98 0 -149 68t-51 190h49q0 -97 38 -151t113 -54q152 0 152 205h49q0 -124 -50.5 -191t-150.5 -67zM166 981v-643q0 -146 57 -221.5t166 -75.5q113 0 172.5 76t59.5 221v643h57v-649q0 -164 -75.5 -254t-213.5 -90q-134 0 -207 90t-73 254v649h57z" />
    <glyph glyph-name="Uring" unicode="&#x16e;" horiz-adv-x="946" 
d="M473 1401q-84 0 -127 54t-43 130t43 130t127 54q85 0 127.5 -53.5t42.5 -130.5t-42.5 -130.5t-127.5 -53.5zM475 1452q57 0 85 38t28 95t-28 95t-85 38q-58 0 -87.5 -38.5t-29.5 -94.5t29.5 -94.5t87.5 -38.5zM133 375v938h57v-944q0 -157 75.5 -243.5t207.5 -86.5
t206.5 86t74.5 244v944h59v-938q0 -186 -90 -287.5t-250 -101.5t-250 101.5t-90 287.5z" />
    <glyph glyph-name="uring" unicode="&#x16f;" horiz-adv-x="786" 
d="M393 1069q-84 0 -127 54t-43 130t43 130.5t127 54.5q85 0 127.5 -54t42.5 -131t-42.5 -130.5t-127.5 -53.5zM395 1120q57 0 85 38t28 95t-28 95t-85 38q-58 0 -87 -38.5t-29 -94.5t29 -94.5t87 -38.5zM166 981v-643q0 -146 57 -221.5t166 -75.5q113 0 172.5 76t59.5 221
v643h57v-649q0 -164 -75.5 -254t-213.5 -90q-134 0 -207 90t-73 254v649h57z" />
    <glyph glyph-name="Uhungarumlaut" unicode="&#x170;" horiz-adv-x="946" 
d="M459 1700h73l-184 -279h-49zM700 1700h74l-184 -279h-49zM133 375v938h57v-944q0 -157 75.5 -243.5t207.5 -86.5t206.5 86t74.5 244v944h59v-938q0 -186 -90 -287.5t-250 -101.5t-250 101.5t-90 287.5z" />
    <glyph glyph-name="uhungarumlaut" unicode="&#x171;" horiz-adv-x="786" 
d="M379 1368h74l-185 -278h-49zM621 1368h73l-184 -278h-49zM166 981v-643q0 -146 57 -221.5t166 -75.5q113 0 172.5 76t59.5 221v643h57v-649q0 -164 -75.5 -254t-213.5 -90q-134 0 -207 90t-73 254v649h57z" />
    <glyph glyph-name="Uogonek" unicode="&#x172;" horiz-adv-x="946" 
d="M133 375v938h57v-944q0 -157 75.5 -243.5t207.5 -86.5t206.5 86t74.5 244v944h59v-938q0 -151 -60.5 -247.5t-170.5 -127.5q-156 -138 -156 -256q0 -40 21.5 -63t56.5 -23q39 0 82 35l28 -39q-49 -49 -114 -49q-55 0 -93 39t-38 96q0 124 125 246h-21q-160 0 -250 101.5
t-90 287.5z" />
    <glyph glyph-name="uogonek" unicode="&#x173;" horiz-adv-x="786" 
d="M395 -395q-55 0 -93 39t-38 96q0 127 127 248h-2q-134 0 -207 90t-73 254v649h57v-643q0 -146 57 -221.5t166 -75.5q113 0 172.5 76t59.5 221v643h57v-649q0 -136 -52.5 -222t-150.5 -112q-153 -138 -153 -254q0 -40 21 -63t56 -23q39 0 82 35l29 -39q-49 -49 -115 -49z
" />
    <glyph glyph-name="Wcircumflex" unicode="&#x174;" horiz-adv-x="1349" 
d="M520 1421h-53l180 279h58l180 -279h-54l-155 221zM1251 1313h58l-285 -1313h-76l-272 1233l-273 -1233h-77l-285 1313h59l267 -1235l270 1235h78l270 -1231z" />
    <glyph glyph-name="wcircumflex" unicode="&#x175;" horiz-adv-x="1114" 
d="M401 1090h-53l180 278h58l180 -278h-53l-156 221zM342 0h-72l-229 981h59l207 -907l221 907h60l221 -903l205 903h57l-225 -981h-72l-217 877z" />
    <glyph glyph-name="Ycircumflex" unicode="&#x176;" horiz-adv-x="768" 
d="M229 1421h-53l180 279h58l180 -279h-53l-156 221zM354 0v463l-340 850h62l305 -770l313 770h60l-342 -840v-473h-58z" />
    <glyph glyph-name="ycircumflex" unicode="&#x177;" horiz-adv-x="679" 
d="M184 1090h-53l180 278h58l180 -278h-53l-156 221zM84 981l264 -891l250 891h55l-338 -1200q-30 -104 -69 -150.5t-103 -46.5q-59 0 -108 37l26 49q40 -32 89 -32q41 0 64 34.5t48 118.5l60 207l-297 983h59z" />
    <glyph glyph-name="Ydieresis" unicode="&#x178;" horiz-adv-x="768" 
d="M225 1604q0 22 14.5 36.5t34.5 14.5t35 -14.5t15 -36.5t-14 -37t-36 -15q-21 0 -35 15t-14 37zM446 1604q0 22 15 36.5t35 14.5t34.5 -14.5t14.5 -36.5t-14 -37t-35 -15q-22 0 -36 15t-14 37zM354 0v463l-340 850h62l305 -770l313 770h60l-342 -840v-473h-58z" />
    <glyph glyph-name="Zacute" unicode="&#x179;" horiz-adv-x="768" 
d="M530 1700h72l-184 -279h-56zM55 55l594 1205h-594v53h658v-56l-594 -1204h594v-53h-658v55z" />
    <glyph glyph-name="zacute" unicode="&#x17a;" horiz-adv-x="673" 
d="M483 1368h72l-184 -278h-56zM63 55l476 873h-469v53h532v-55l-475 -873h483v-53h-547v55z" />
    <glyph glyph-name="Zdotaccent" unicode="&#x17b;" horiz-adv-x="768" 
d="M385 1552q-22 0 -36.5 15t-14.5 37q0 21 15 36t36 15q22 0 37.5 -14.5t15.5 -36.5t-15.5 -37t-37.5 -15zM55 55l594 1205h-594v53h658v-56l-594 -1204h594v-53h-658v55z" />
    <glyph glyph-name="zdotaccent" unicode="&#x17c;" horiz-adv-x="673" 
d="M338 1221q-22 0 -36.5 14.5t-14.5 36.5q0 21 15 36t36 15q22 0 37.5 -14.5t15.5 -36.5t-15.5 -36.5t-37.5 -14.5zM63 55l476 873h-469v53h532v-55l-475 -873h483v-53h-547v55z" />
    <glyph glyph-name="Zcaron" unicode="&#x17d;" horiz-adv-x="768" 
d="M414 1421h-58l-180 279h53l156 -221l156 221h53zM55 55l594 1205h-594v53h658v-56l-594 -1204h594v-53h-658v55z" />
    <glyph glyph-name="zcaron" unicode="&#x17e;" horiz-adv-x="673" 
d="M367 1090h-58l-180 278h53l156 -221l156 221h53zM63 55l476 873h-469v53h532v-55l-475 -873h483v-53h-547v55z" />
    <glyph glyph-name="florin" unicode="&#x192;" horiz-adv-x="485" 
d="M106 -422q-74 0 -131 57l37 41q45 -45 94 -45q52 0 80.5 40t28.5 114v917h-143v54h143v461q0 97 44.5 151.5t121.5 54.5q74 0 131 -57l-37 -41q-45 45 -94 45q-52 0 -80.5 -39.5t-28.5 -113.5v-461h177v-54h-177v-917q0 -98 -44.5 -152.5t-121.5 -54.5z" />
    <glyph glyph-name="Scommaaccent" unicode="&#x218;" horiz-adv-x="780" 
d="M391 -14q-186 0 -319 118l34 48q119 -113 285 -113q113 0 187.5 71.5t74.5 180.5q0 44 -9 81.5t-30 69.5t-39.5 54t-55.5 49t-58 40t-66 40q-55 32 -88 53t-78 59.5t-69.5 76t-43 93.5t-18.5 121q0 127 89 213t227 86q146 0 252 -82l-35 -43q-86 72 -217 72
q-114 0 -186 -70.5t-72 -175.5q0 -57 17 -106t39 -81t65.5 -67.5t71.5 -53.5t83 -50q40 -24 59.5 -36t55 -37t54 -44t43 -49t37 -59.5t21.5 -69.5t9 -84q0 -137 -89 -221t-231 -84zM430 -104l-102 -261h-47l77 261h72z" />
    <glyph glyph-name="scommaaccent" unicode="&#x219;" horiz-adv-x="634" 
d="M305 -14q-137 0 -250 84l31 47q109 -78 221 -78q90 0 146.5 55t56.5 142q0 50 -15 88.5t-48 68t-62.5 48t-81.5 44.5q-49 25 -79 44.5t-66 52.5t-54 77t-18 99q0 103 74 170t188 67q122 0 215 -57l-24 -49q-88 53 -191 53q-89 0 -147 -51.5t-58 -130.5q0 -42 13.5 -75.5
t42.5 -61t60 -47.5t79 -44q41 -21 67.5 -36.5t61 -42.5t54 -55t34 -69t14.5 -89q0 -115 -73 -184.5t-191 -69.5zM346 -104l-102 -261h-47l77 261h72z" />
    <glyph glyph-name="Tcommaaccent" unicode="&#x21a;" horiz-adv-x="704" 
d="M684 1260h-303v-1260h-57v1260h-304v53h664v-53zM391 -104l-102 -261h-47l77 261h72z" />
    <glyph glyph-name="tcommaaccent" unicode="&#x21b;" horiz-adv-x="495" 
d="M57 928v53h99v225h57v-225h215v-53h-215v-754q0 -66 31 -99.5t86 -33.5q59 0 114 37l25 -49q-72 -43 -137 -43q-81 0 -128.5 48t-47.5 134v760h-99zM371 -104l-103 -261h-47l78 261h72z" />
    <glyph glyph-name="jdotless" unicode="&#x237;" horiz-adv-x="348" 
d="M53 -416q-68 0 -119 45l35 43q37 -34 84 -34q94 0 94 157v1186h58v-1184q0 -103 -39.5 -158t-112.5 -55z" />
    <glyph glyph-name="circumflex" unicode="&#x2c6;" 
d="M254 1090h-53l180 278h57l180 -278h-53l-155 221z" />
    <glyph glyph-name="caron" unicode="&#x2c7;" 
d="M438 1090h-57l-180 278h53l156 -221l155 221h53z" />
    <glyph glyph-name="breve" unicode="&#x2d8;" 
d="M410 1069q-98 0 -149.5 68t-51.5 190h49q0 -97 38.5 -151t113.5 -54q151 0 151 205h49q0 -124 -50 -191t-150 -67z" />
    <glyph glyph-name="dotaccent" unicode="&#x2d9;" 
d="M410 1221q-22 0 -37 14.5t-15 36.5q0 21 15.5 36t36.5 15q22 0 37.5 -14.5t15.5 -36.5t-15.5 -36.5t-37.5 -14.5z" />
    <glyph glyph-name="ring" unicode="&#x2da;" 
d="M410 1069q-84 0 -127 54t-43 130t43 130.5t127 54.5q85 0 127.5 -54t42.5 -131t-42.5 -130.5t-127.5 -53.5zM412 1120q57 0 84.5 38t27.5 95t-27.5 95t-84.5 38q-58 0 -87.5 -38.5t-29.5 -94.5t29.5 -94.5t87.5 -38.5z" />
    <glyph glyph-name="ogonek" unicode="&#x2db;" 
d="M461 -395q-55 0 -93 39t-38 96q0 153 188 301l25 -41q-156 -138 -156 -256q0 -40 21.5 -63t56.5 -23q39 0 82 35l28 -39q-49 -49 -114 -49z" />
    <glyph glyph-name="tilde" unicode="&#x2dc;" 
d="M115 1198l-45 16q51 117 129 117q36 0 66 -18.5t57 -37t57 -18.5q25 0 41.5 18t38.5 62l45 -16q-51 -117 -129 -117q-43 0 -95 37t-87 37q-25 0 -40.5 -17.5t-37.5 -62.5z" />
    <glyph glyph-name="hungarumlaut" unicode="&#x2dd;" 
d="M410 1368h73l-184 -278h-49zM651 1368h74l-184 -278h-49z" />
    <glyph glyph-name="gravecomb" unicode="&#x300;" horiz-adv-x="774" 
d="M166 1368l166 -278h-56l-184 278h74z" />
    <glyph glyph-name="acutecomb" unicode="&#x301;" 
d="M633 1368h72l-185 -278h-55z" />
    <glyph glyph-name="circumflexcomb" unicode="&#x302;" 
d="M254 1090h-53l180 278h57l180 -278h-53l-155 221z" />
    <glyph glyph-name="tildecomb" unicode="&#x303;" horiz-adv-x="573" 
d="M115 1198l-45 16q51 117 129 117q36 0 66 -18.5t57 -37t57 -18.5q25 0 41.5 18t38.5 62l45 -16q-51 -117 -129 -117q-43 0 -95 37t-87 37q-25 0 -40.5 -17.5t-37.5 -62.5z" />
    <glyph glyph-name="macroncomb" unicode="&#x304;" horiz-adv-x="573" 
d="M469 1251h-367v54h367v-54z" />
    <glyph glyph-name="brevecomb" unicode="&#x306;" 
d="M410 1069q-98 0 -149.5 68t-51.5 190h49q0 -97 38.5 -151t113.5 -54q151 0 151 205h49q0 -124 -50 -191t-150 -67z" />
    <glyph glyph-name="dotaccentcomb" unicode="&#x307;" 
d="M410 1221q-22 0 -37 14.5t-15 36.5q0 21 15.5 36t36.5 15q22 0 37.5 -14.5t15.5 -36.5t-15.5 -36.5t-37.5 -14.5z" />
    <glyph glyph-name="dieresiscomb" unicode="&#x308;" 
d="M250 1272q0 22 14.5 36.5t34.5 14.5t34.5 -14.5t14.5 -36.5t-13.5 -36.5t-35.5 -14.5t-35.5 14.5t-13.5 36.5zM471 1272q0 22 14.5 36.5t34.5 14.5t34.5 -14.5t14.5 -36.5t-13.5 -36.5t-35.5 -14.5t-35.5 14.5t-13.5 36.5z" />
    <glyph glyph-name="ringcomb" unicode="&#x30a;" 
d="M410 1069q-84 0 -127 54t-43 130t43 130.5t127 54.5q85 0 127.5 -54t42.5 -131t-42.5 -130.5t-127.5 -53.5zM412 1120q57 0 84.5 38t27.5 95t-27.5 95t-84.5 38q-58 0 -87.5 -38.5t-29.5 -94.5t29.5 -94.5t87.5 -38.5z" />
    <glyph glyph-name="hungarumlautcomb" unicode="&#x30b;" 
d="M410 1368h73l-184 -278h-49zM651 1368h74l-184 -278h-49z" />
    <glyph glyph-name="caroncomb" unicode="&#x30c;" 
d="M438 1090h-57l-180 278h53l156 -221l155 221h53z" />
    <glyph glyph-name="commaaccentcomb" unicode="&#x326;" 
d="M446 -104l-102 -261h-47l78 261h71z" />
    <glyph glyph-name="cedillacomb" unicode="&#x327;" 
d="M408 0h49l-121 -324l-57 25z" />
    <glyph glyph-name="ogonekcomb" unicode="&#x328;" 
d="M461 -395q-55 0 -93 39t-38 96q0 153 188 301l25 -41q-156 -138 -156 -256q0 -40 21.5 -63t56.5 -23q39 0 82 35l28 -39q-49 -49 -114 -49z" />
    <glyph glyph-name="strokeshortcomb" unicode="&#x335;" horiz-adv-x="731" 
d="M182 565h322v-53h-322v53z" />
    <glyph glyph-name="Delta" unicode="&#x394;" horiz-adv-x="894" 
d="M868 0h-841l381 1313h79zM446 1251l-346 -1198h691z" />
    <glyph glyph-name="Omega" unicode="&#x3a9;" horiz-adv-x="944" 
d="M383 0h-317v53h223q-106 101 -164.5 278t-58.5 398q0 281 108 442.5t297 161.5t297.5 -161t108.5 -443q0 -219 -59 -397t-165 -279h226v-53h-318v41q125 83 191.5 261t66.5 427q0 261 -91 406t-257 145q-164 0 -256 -145.5t-92 -405.5q0 -249 67 -427t193 -261v-41z" />
    <glyph glyph-name="mu" unicode="&#x3bc;" horiz-adv-x="821" 
d="M201 -401h-58v1382h58v-643q0 -146 57 -221.5t166 -75.5q113 0 172 76t59 221v643h58v-649q0 -164 -75.5 -254t-213.5 -90q-152 0 -223 112v-501z" />
    <glyph glyph-name="pi" unicode="&#x3c0;" horiz-adv-x="851" 
d="M57 928v53h738v-53h-133v-766q0 -60 20 -84.5t68 -24.5h45v-53h-50q-141 0 -141 162v766h-375v-926h-57v926h-115z" />
    <glyph glyph-name="Wgrave" unicode="&#x1e80;" horiz-adv-x="1349" 
d="M530 1700l166 -279h-55l-184 279h73zM1251 1313h58l-285 -1313h-76l-272 1233l-273 -1233h-77l-285 1313h59l267 -1235l270 1235h78l270 -1231z" />
    <glyph glyph-name="wgrave" unicode="&#x1e81;" horiz-adv-x="1114" 
d="M412 1368l166 -278h-56l-184 278h74zM342 0h-72l-229 981h59l207 -907l221 907h60l221 -903l205 903h57l-225 -981h-72l-217 877z" />
    <glyph glyph-name="Wacute" unicode="&#x1e82;" horiz-adv-x="1349" 
d="M821 1700h72l-184 -279h-56zM1251 1313h58l-285 -1313h-76l-272 1233l-273 -1233h-77l-285 1313h59l267 -1235l270 1235h78l270 -1231z" />
    <glyph glyph-name="wacute" unicode="&#x1e83;" horiz-adv-x="1114" 
d="M702 1368h72l-184 -278h-55zM342 0h-72l-229 981h59l207 -907l221 907h60l221 -903l205 903h57l-225 -981h-72l-217 877z" />
    <glyph glyph-name="Wdieresis" unicode="&#x1e84;" horiz-adv-x="1349" 
d="M516 1604q0 22 14.5 36.5t34.5 14.5t34.5 -14.5t14.5 -36.5t-14 -37t-35 -15t-35 15t-14 37zM737 1604q0 22 14.5 36.5t34.5 14.5t35 -14.5t15 -36.5t-14 -37t-36 -15q-21 0 -35 15t-14 37zM1251 1313h58l-285 -1313h-76l-272 1233l-273 -1233h-77l-285 1313h59
l267 -1235l270 1235h78l270 -1231z" />
    <glyph glyph-name="wdieresis" unicode="&#x1e85;" horiz-adv-x="1114" 
d="M397 1272q0 22 14.5 36.5t34.5 14.5t35 -14.5t15 -36.5t-14 -36.5t-36 -14.5t-35.5 14.5t-13.5 36.5zM618 1272q0 22 15 36.5t35 14.5t34.5 -14.5t14.5 -36.5t-13.5 -36.5t-35.5 -14.5t-36 14.5t-14 36.5zM342 0h-72l-229 981h59l207 -907l221 907h60l221 -903l205 903
h57l-225 -981h-72l-217 877z" />
    <glyph glyph-name="Ygrave" unicode="&#x1ef2;" horiz-adv-x="768" 
d="M240 1700l166 -279h-56l-184 279h74zM354 0v463l-340 850h62l305 -770l313 770h60l-342 -840v-473h-58z" />
    <glyph glyph-name="ygrave" unicode="&#x1ef3;" horiz-adv-x="679" 
d="M195 1368l165 -278h-55l-184 278h74zM84 981l264 -891l250 891h55l-338 -1200q-30 -104 -69 -150.5t-103 -46.5q-59 0 -108 37l26 49q40 -32 89 -32q41 0 64 34.5t48 118.5l60 207l-297 983h59z" />
    <glyph glyph-name="endash" unicode="&#x2013;" horiz-adv-x="745" 
d="M53 555h639v-53h-639v53z" />
    <glyph glyph-name="emdash" unicode="&#x2014;" horiz-adv-x="1314" 
d="M53 555h1209v-53h-1209v53z" />
    <glyph glyph-name="quoteleft" unicode="&#x2018;" horiz-adv-x="256" 
d="M121 1063q-27 0 -43.5 17t-16.5 44q0 19 15 64l80 221h47l-74 -223q23 -4 36 -21.5t13 -40.5q0 -27 -15.5 -44t-41.5 -17z" />
    <glyph glyph-name="quoteright" unicode="&#x2019;" horiz-adv-x="256" 
d="M135 1409q27 0 43.5 -17t16.5 -44q0 -19 -15 -64l-80 -221h-47l74 223q-23 4 -36 21.5t-13 40.5q0 27 15.5 44t41.5 17z" />
    <glyph glyph-name="quotesinglbase" unicode="&#x201a;" horiz-adv-x="292" 
d="M160 111q27 0 43 -17.5t16 -44.5q0 -21 -14 -63l-80 -222h-47l74 224q-23 4 -36.5 21.5t-13.5 39.5q0 27 16 44.5t42 17.5z" />
    <glyph glyph-name="quotedblleft" unicode="&#x201c;" horiz-adv-x="466" 
d="M121 1063q-27 0 -43.5 17t-16.5 44q0 19 15 64l80 221h47l-74 -223q23 -4 36 -21.5t13 -40.5q0 -27 -15.5 -44t-41.5 -17zM332 1063q-27 0 -43.5 17t-16.5 44q0 19 15 64l80 221h47l-74 -223q23 -4 36 -21.5t13 -40.5q0 -27 -15.5 -44t-41.5 -17z" />
    <glyph glyph-name="quotedblright" unicode="&#x201d;" horiz-adv-x="462" 
d="M135 1409q27 0 43.5 -17t16.5 -44q0 -19 -15 -64l-80 -221h-47l74 223q-23 4 -36 21.5t-13 40.5q0 27 15.5 44t41.5 17zM342 1409q27 0 43 -17t16 -44q0 -22 -14 -64l-80 -221h-47l74 223q-23 4 -36 21.5t-13 40.5q0 27 15.5 44t41.5 17z" />
    <glyph glyph-name="quotedblbase" unicode="&#x201e;" horiz-adv-x="512" 
d="M160 111q27 0 43 -17.5t16 -44.5q0 -21 -14 -63l-80 -222h-47l74 224q-23 4 -36.5 21.5t-13.5 39.5q0 27 16 44.5t42 17.5zM379 111q27 0 43 -17.5t16 -44.5q0 -21 -14 -63l-80 -222h-47l74 224q-23 4 -36 21.5t-13 39.5q0 27 15.5 44.5t41.5 17.5z" />
    <glyph glyph-name="dagger" unicode="&#x2020;" horiz-adv-x="622" 
d="M283 -401v1308h-230v54h230v448h57v-448h229v-54h-229v-1308h-57z" />
    <glyph glyph-name="daggerdbl" unicode="&#x2021;" horiz-adv-x="622" 
d="M53 47v53h230v807h-230v54h230v448h57v-448h229v-54h-229v-807h229v-53h-229v-448h-57v448h-230z" />
    <glyph glyph-name="bullet" unicode="&#x2022;" horiz-adv-x="538" 
d="M268 303q-70 0 -114.5 58.5t-44.5 150.5t44.5 150.5t114.5 58.5q71 0 116.5 -58.5t45.5 -150.5t-45.5 -150.5t-116.5 -58.5z" />
    <glyph glyph-name="ellipsis" unicode="&#x2026;" horiz-adv-x="847" 
d="M160 -14q-26 0 -43 17.5t-17 45.5t17 46t43 18t42.5 -18t16.5 -46t-16.5 -45.5t-42.5 -17.5zM424 -14q-26 0 -42.5 17.5t-16.5 45.5t16.5 46t42.5 18t42.5 -18t16.5 -46t-16.5 -45.5t-42.5 -17.5zM686 -14q-26 0 -42.5 17.5t-16.5 45.5t16.5 46t42.5 18t42.5 -18
t16.5 -46t-16.5 -45.5t-42.5 -17.5z" />
    <glyph glyph-name="perthousand" unicode="&#x2030;" horiz-adv-x="1617" 
d="M268 694q-103 0 -164 85.5t-61 230.5q0 146 61 231.5t164 85.5t164.5 -85.5t61.5 -231.5q0 -144 -61.5 -230t-164.5 -86zM260 0h-61l641 1313h61zM268 748q76 0 122 70t46 192t-46 193t-122 71q-75 0 -121.5 -71.5t-46.5 -192.5t46.5 -191.5t121.5 -70.5zM829 -14
q-103 0 -164 85.5t-61 231.5q0 145 61 230t164 85t164.5 -85.5t61.5 -229.5q0 -146 -61.5 -231.5t-164.5 -85.5zM1350 -14q-103 0 -164.5 85.5t-61.5 231.5q0 144 61.5 229.5t164.5 85.5t164 -85t61 -230q0 -146 -61 -231.5t-164 -85.5zM829 39q75 0 121.5 71.5t46.5 192.5
t-46.5 191.5t-121.5 70.5q-76 0 -121.5 -70t-45.5 -192t45.5 -193t121.5 -71zM1350 39q75 0 121.5 71.5t46.5 192.5t-46.5 191.5t-121.5 70.5q-76 0 -122 -70t-46 -192t46 -193t122 -71z" />
    <glyph glyph-name="guilsinglleft" unicode="&#x2039;" horiz-adv-x="419" 
d="M61 494l254 362l41 -35l-227 -327l227 -328l-41 -35z" />
    <glyph glyph-name="guilsinglright" unicode="&#x203a;" horiz-adv-x="419" 
d="M356 494l-254 -363l-41 35l230 328l-230 327l41 35z" />
    <glyph glyph-name="fraction" unicode="&#x2044;" horiz-adv-x="122" 
d="M-291 0l645 1313h60l-641 -1313h-64z" />
    <glyph glyph-name="zero.superior" unicode="&#x2070;" horiz-adv-x="428" 
d="M215 645q-174 0 -174 340t174 340q172 0 172 -340t-172 -340zM215 696q115 0 115 289t-115 289q-117 0 -117 -289t117 -289z" />
    <glyph glyph-name="four.superior" unicode="&#x2074;" horiz-adv-x="440" 
d="M260 657v150h-225v51l231 455h51v-455h74v-51h-74v-150h-57zM90 858h170v334z" />
    <glyph glyph-name="Euro" unicode="&#x20ac;" horiz-adv-x="880" 
d="M561 -14q-169 0 -277 129t-137 364h-127l13 53h108q-4 78 -4 123q0 69 6 131h-123l13 54h117q31 231 137.5 359t271.5 128q86 0 149 -25.5t126 -80.5l-35 -43q-57 48 -112.5 72t-127.5 24q-141 0 -232.5 -113.5t-119.5 -320.5h457l-13 -54h-450q-6 -62 -6 -131
q0 -45 4 -123h407l-12 -53h-389q28 -211 120 -324.5t236 -113.5q126 0 238 94l35 -43q-61 -55 -125 -80.5t-148 -25.5z" />
    <glyph glyph-name="litre" unicode="&#x2113;" horiz-adv-x="522" 
d="M291 -12q-152 0 -152 225v176q-3 -3 -9 -10t-9 -10l-76 -84v84l66 69q5 5 14 16.5t14 16.5v684q0 141 39 208t119 67q166 0 166 -283q0 -182 -64.5 -347t-201.5 -341v-242q0 -92 22 -133t72 -41q40 0 70 28t59 93l45 -23q-36 -79 -77.5 -116t-96.5 -37zM197 1159v-616
q211 288 211 606q0 225 -109 225q-102 0 -102 -215z" />
    <glyph glyph-name="trademark" unicode="&#x2122;" horiz-adv-x="1169" 
d="M178 596v664h-158v53h373v-53h-157v-664h-58zM743 788l-219 426v-618h-57v717h68l210 -412l209 412h66v-717h-57v621z" />
    <glyph glyph-name="partialdiff" unicode="&#x2202;" horiz-adv-x="802" 
d="M401 -14q-153 0 -240 129.5t-87 357.5t87.5 358t239.5 130q82 0 148 -51.5t100 -129.5q-45 206 -139.5 362t-222.5 244l30 44q180 -124 296 -370t116 -587q0 -228 -87.5 -357.5t-240.5 -129.5zM401 41q127 0 199 114t72 318q0 120 -31.5 217.5t-94 156t-145.5 58.5
q-127 0 -198.5 -113.5t-71.5 -318.5t71.5 -318.5t198.5 -113.5z" />
    <glyph glyph-name="product" unicode="&#x220f;" horiz-adv-x="884" 
d="M664 1260h-443v-1661h-57v1661h-123v53h803v-53h-123v-1661h-57v1661z" />
    <glyph glyph-name="summation" unicode="&#x2211;" horiz-adv-x="739" 
d="M698 -401h-657v53l391 827l-391 781v53h657v-53h-594l377 -750v-61l-377 -797h594v-53z" />
    <glyph glyph-name="minus" unicode="&#x2212;" horiz-adv-x="753" 
d="M655 635h-557v53h557v-53z" />
    <glyph glyph-name="divisionslash" unicode="&#x2215;" horiz-adv-x="135" 
d="M-303 0l682 1313h59l-678 -1313h-63z" />
    <glyph glyph-name="radical" unicode="&#x221a;" horiz-adv-x="765" 
d="M453 0h-80l-215 928h-138v53h183l209 -911l270 1339h57z" />
    <glyph glyph-name="infinity" unicode="&#x221e;" horiz-adv-x="1021" 
d="M936 659q0 -109 -59 -177t-154 -68q-81 0 -129 37.5t-78 103.5q-32 -66 -87.5 -103.5t-121.5 -37.5q-98 0 -159.5 67t-61.5 174q0 109 57 177.5t146 68.5q82 0 129.5 -37t77.5 -104q32 67 89.5 104t131.5 37q98 0 158.5 -66.5t60.5 -175.5zM143 655q0 -188 164 -188
q113 0 189 139q-5 14 -15 43t-16 44t-16.5 39.5t-20 38t-24 30.5t-30.5 26t-38 15t-47 6q-69 0 -107.5 -50.5t-38.5 -142.5zM717 848q-135 0 -203 -135q5 -14 15.5 -43.5t16 -45t16.5 -40.5t20 -38.5t24 -31t31 -26t38 -15t48 -6.5q69 0 113.5 53t44.5 135q0 87 -45 140
t-119 53z" />
    <glyph glyph-name="integral" unicode="&#x222b;" horiz-adv-x="466" 
d="M88 -422q-74 0 -131 57l37 41q45 -45 94 -45q52 0 80.5 40t28.5 114v1432q0 98 44 152t121 54q75 0 132 -57l-37 -41q-45 45 -95 45q-52 0 -80 -39.5t-28 -113.5v-1432q0 -98 -44.5 -152.5t-121.5 -54.5z" />
    <glyph glyph-name="approxequal" unicode="&#x2248;" horiz-adv-x="714" 
d="M483 717q-38 0 -74.5 15.5t-61 34.5t-56 34.5t-60.5 15.5q-65 0 -133 -59v61q57 51 133 51q47 0 91 -24.5t84 -49t77 -24.5q67 0 133 57v-63q-61 -49 -133 -49zM483 440q-38 0 -74.5 16t-61 34.5t-56 34.5t-60.5 16q-64 0 -133 -60v64q60 51 133 51q47 0 91 -25t84 -50
t77 -25q67 0 133 57v-64q-61 -49 -133 -49z" />
    <glyph glyph-name="notequal" unicode="&#x2260;" horiz-adv-x="753" 
d="M186 272l90 215h-178v56h203l98 237h-301v56h326l90 215h59l-90 -215h172v-56h-196l-99 -237h295v-56h-319l-90 -215h-60z" />
    <glyph glyph-name="lessequal" unicode="&#x2264;" horiz-adv-x="753" 
d="M655 350v-63l-557 352v45l557 350v-63l-491 -307zM655 0h-557v55h557v-55z" />
    <glyph glyph-name="greaterequal" unicode="&#x2265;" horiz-adv-x="753" 
d="M655 639l-557 -352v63l492 314l-492 307v63l557 -350v-45zM655 0h-557v55h557v-55z" />
    <glyph glyph-name="lozenge" unicode="&#x25ca;" horiz-adv-x="833" 
d="M455 0h-76l-297 655l297 658h76l297 -658zM145 655l273 -602l270 602l-270 607z" />
    <glyph glyph-name="ITF" unicode="&#xf8ff;" horiz-adv-x="3274" 
d="M213 0v1313h405v-1313h-405zM702 930v383h406v-383h-406zM1190 0v1313h405v-1313h-405zM1681 930v383h404v-383h-404zM2169 0v1313h403v-1313h-403zM2658 930v383h404v-383h-404zM2658 465v381h404v-381h-404z" />
    <glyph glyph-name="G.alt" horiz-adv-x="993" 
d="M526 -14q-207 0 -320.5 173t-113.5 496q0 320 120 496t333 176q94 0 161 -24.5t132 -81.5l-35 -43q-59 52 -118 74t-140 22q-188 0 -291.5 -160.5t-103.5 -458.5q0 -300 97.5 -458t278.5 -158q257 0 301 272v338h-333v53h391v-395q-25 -156 -115.5 -238.5t-243.5 -82.5z
" />
    <glyph glyph-name="a.alt" horiz-adv-x="882" 
d="M401 -14q-151 0 -239 136.5t-88 366.5t88 368t239 138q96 0 164.5 -58.5t106.5 -166.5v211h57v-846q0 -46 20 -70t52 -24q22 0 43 8l12 -49q-24 -12 -59 -12q-56 0 -90.5 39t-34.5 104v82q-75 -227 -271 -227zM401 41q126 0 198.5 121t72.5 327q0 207 -73 329t-198 122
t-197.5 -122t-72.5 -329q0 -206 72.5 -327t197.5 -121z" />
    <glyph glyph-name="j.alt" horiz-adv-x="348" 
d="M174 1221q-22 0 -36.5 14.5t-14.5 36.5q0 21 15 36t36 15q22 0 37.5 -14.5t15.5 -36.5t-15.5 -36.5t-37.5 -14.5zM27 -416h-21v54h21q116 0 116 145v1198h58v-1198q0 -97 -44.5 -148t-129.5 -51z" />
    <glyph glyph-name="l.alt" horiz-adv-x="344" 
d="M143 0v1409h58v-1409h-58z" />
    <glyph glyph-name="y.alt" horiz-adv-x="667" 
d="M262 -401h-57l117 401l-297 981h59l264 -887l250 887h55z" />
    <glyph glyph-name="fl.alt" horiz-adv-x="794" 
d="M215 0h-59v928h-99v53h99v143q0 140 70 219.5t194 79.5q101 0 192 -51h39v-1372h-59v1321q-74 49 -172 49q-101 0 -153 -64t-52 -180v-145h176v-53h-176v-928z" />
    <glyph glyph-name="quoteleft.alt02" horiz-adv-x="200" 
d="M70 1362l49 47h12v-377h-61v330z" />
    <glyph glyph-name="quoteright.alt02" horiz-adv-x="215" 
d="M137 1079l-49 -47h-10v377h59v-330z" />
    <glyph glyph-name="ampersand.alt" horiz-adv-x="888" 
d="M367 -14q-139 0 -221.5 87t-82.5 238q0 115 58.5 207t181.5 178l-43 66q-94 145 -94 282q0 127 72.5 205t187.5 78q69 0 120.5 -23t102.5 -77l-37 -41q-82 88 -186 88q-89 0 -146 -62.5t-57 -164.5q0 -68 19.5 -125t64.5 -127l334 -514q3 8 23 53l116 287l49 -23
l-118 -289q-9 -21 -37 -80l139 -215l-49 -26l-121 184q-112 -186 -276 -186zM121 311q0 -129 65 -200.5t181 -71.5q143 0 243 184l-278 428q-211 -136 -211 -340z" />
    <glyph glyph-name="Gbreve.alt" horiz-adv-x="993" 
d="M545 1401q-98 0 -149.5 68t-51.5 190h49q0 -97 38.5 -151t113.5 -54q151 0 151 205h49q0 -124 -50 -191t-150 -67zM526 -14q-207 0 -320.5 173t-113.5 496q0 320 120 496t333 176q94 0 161 -24.5t132 -81.5l-35 -43q-59 52 -118 74t-140 22q-188 0 -291.5 -160.5
t-103.5 -458.5q0 -300 97.5 -458t278.5 -158q257 0 301 272v338h-333v53h391v-395q-25 -156 -115.5 -238.5t-243.5 -82.5z" />
    <glyph glyph-name="Gcircumflex.alt" horiz-adv-x="993" 
d="M389 1421h-53l180 279h57l181 -279h-54l-155 221zM526 -14q-207 0 -320.5 173t-113.5 496q0 320 120 496t333 176q94 0 161 -24.5t132 -81.5l-35 -43q-59 52 -118 74t-140 22q-188 0 -291.5 -160.5t-103.5 -458.5q0 -300 97.5 -458t278.5 -158q257 0 301 272v338h-333v53
h391v-395q-25 -156 -115.5 -238.5t-243.5 -82.5z" />
    <glyph glyph-name="Gcommaaccent.alt" horiz-adv-x="993" 
d="M526 -14q-207 0 -320.5 173t-113.5 496q0 320 120 496t333 176q94 0 161 -24.5t132 -81.5l-35 -43q-59 52 -118 74t-140 22q-188 0 -291.5 -160.5t-103.5 -458.5q0 -300 97.5 -458t278.5 -158q257 0 301 272v338h-333v53h391v-395q-25 -156 -115.5 -238.5t-243.5 -82.5z
M569 -104l-102 -261h-47l78 261h71z" />
    <glyph glyph-name="Gdotaccent.alt" horiz-adv-x="993" 
d="M545 1552q-22 0 -36.5 15t-14.5 37q0 21 15 36t36 15q22 0 37.5 -14.5t15.5 -36.5t-15.5 -37t-37.5 -15zM526 -14q-207 0 -320.5 173t-113.5 496q0 320 120 496t333 176q94 0 161 -24.5t132 -81.5l-35 -43q-59 52 -118 74t-140 22q-188 0 -291.5 -160.5t-103.5 -458.5
q0 -300 97.5 -458t278.5 -158q257 0 301 272v338h-333v53h391v-395q-25 -156 -115.5 -238.5t-243.5 -82.5z" />
    <glyph glyph-name="aacute.alt" horiz-adv-x="882" 
d="M588 1368h71l-184 -278h-55zM401 -14q-151 0 -239 136.5t-88 366.5t88 368t239 138q96 0 164.5 -58.5t106.5 -166.5v211h57v-846q0 -46 20 -70t52 -24q22 0 43 8l12 -49q-24 -12 -59 -12q-56 0 -90.5 39t-34.5 104v82q-75 -227 -271 -227zM401 41q126 0 198.5 121
t72.5 327q0 207 -73 329t-198 122t-197.5 -122t-72.5 -329q0 -206 72.5 -327t197.5 -121z" />
    <glyph glyph-name="abreve.alt" horiz-adv-x="882" 
d="M442 1069q-98 0 -149 68t-51 190h49q0 -97 38 -151t113 -54q152 0 152 205h49q0 -124 -50.5 -191t-150.5 -67zM401 -14q-151 0 -239 136.5t-88 366.5t88 368t239 138q96 0 164.5 -58.5t106.5 -166.5v211h57v-846q0 -46 20 -70t52 -24q22 0 43 8l12 -49q-24 -12 -59 -12
q-56 0 -90.5 39t-34.5 104v82q-75 -227 -271 -227zM401 41q126 0 198.5 121t72.5 327q0 207 -73 329t-198 122t-197.5 -122t-72.5 -329q0 -206 72.5 -327t197.5 -121z" />
    <glyph glyph-name="acircumflex.alt" horiz-adv-x="882" 
d="M287 1090h-54l181 278h57l180 -278h-53l-156 221zM401 -14q-151 0 -239 136.5t-88 366.5t88 368t239 138q96 0 164.5 -58.5t106.5 -166.5v211h57v-846q0 -46 20 -70t52 -24q22 0 43 8l12 -49q-24 -12 -59 -12q-56 0 -90.5 39t-34.5 104v82q-75 -227 -271 -227zM401 41
q126 0 198.5 121t72.5 327q0 207 -73 329t-198 122t-197.5 -122t-72.5 -329q0 -206 72.5 -327t197.5 -121z" />
    <glyph glyph-name="adieresis.alt" horiz-adv-x="882" 
d="M283 1272q0 22 14.5 36.5t34.5 14.5t34.5 -14.5t14.5 -36.5t-13.5 -36.5t-35.5 -14.5t-35.5 14.5t-13.5 36.5zM504 1272q0 22 14.5 36.5t34.5 14.5t34.5 -14.5t14.5 -36.5t-13.5 -36.5t-35.5 -14.5t-35.5 14.5t-13.5 36.5zM401 -14q-151 0 -239 136.5t-88 366.5t88 368
t239 138q96 0 164.5 -58.5t106.5 -166.5v211h57v-846q0 -46 20 -70t52 -24q22 0 43 8l12 -49q-24 -12 -59 -12q-56 0 -90.5 39t-34.5 104v82q-75 -227 -271 -227zM401 41q126 0 198.5 121t72.5 327q0 207 -73 329t-198 122t-197.5 -122t-72.5 -329q0 -206 72.5 -327
t197.5 -121z" />
    <glyph glyph-name="agrave.alt" horiz-adv-x="882" 
d="M297 1368l166 -278h-55l-185 278h74zM401 -14q-151 0 -239 136.5t-88 366.5t88 368t239 138q96 0 164.5 -58.5t106.5 -166.5v211h57v-846q0 -46 20 -70t52 -24q22 0 43 8l12 -49q-24 -12 -59 -12q-56 0 -90.5 39t-34.5 104v82q-75 -227 -271 -227zM401 41
q126 0 198.5 121t72.5 327q0 207 -73 329t-198 122t-197.5 -122t-72.5 -329q0 -206 72.5 -327t197.5 -121z" />
    <glyph glyph-name="amacron.alt" horiz-adv-x="882" 
d="M625 1251h-367v54h367v-54zM401 -14q-151 0 -239 136.5t-88 366.5t88 368t239 138q96 0 164.5 -58.5t106.5 -166.5v211h57v-846q0 -46 20 -70t52 -24q22 0 43 8l12 -49q-24 -12 -59 -12q-56 0 -90.5 39t-34.5 104v82q-75 -227 -271 -227zM401 41q126 0 198.5 121
t72.5 327q0 207 -73 329t-198 122t-197.5 -122t-72.5 -329q0 -206 72.5 -327t197.5 -121z" />
    <glyph glyph-name="aogonek.alt" horiz-adv-x="882" 
d="M401 -14q-151 0 -239 136.5t-88 366.5t88 368t239 138q96 0 164.5 -58.5t106.5 -166.5v211h57v-846q0 -46 20 -70t52 -24q22 0 43 8l12 -49l-4 -2q-154 -139 -154 -254q0 -40 21.5 -63t56.5 -23q39 0 82 35l29 -39q-49 -49 -115 -49q-55 0 -93 39t-38 96q0 127 129 250
q-45 9 -71.5 46t-26.5 95v82q-75 -227 -271 -227zM401 41q126 0 198.5 121t72.5 327q0 207 -73 329t-198 122t-197.5 -122t-72.5 -329q0 -206 72.5 -327t197.5 -121z" />
    <glyph glyph-name="aring.alt" horiz-adv-x="882" 
d="M442 1069q-84 0 -127 54t-43 130t43 130.5t127 54.5q85 0 127.5 -54t42.5 -131t-42.5 -130.5t-127.5 -53.5zM444 1120q57 0 85 38t28 95t-28 95t-85 38q-58 0 -87 -38.5t-29 -94.5t29 -94.5t87 -38.5zM401 -14q-151 0 -239 136.5t-88 366.5t88 368t239 138
q96 0 164.5 -58.5t106.5 -166.5v211h57v-846q0 -46 20 -70t52 -24q22 0 43 8l12 -49q-24 -12 -59 -12q-56 0 -90.5 39t-34.5 104v82q-75 -227 -271 -227zM401 41q126 0 198.5 121t72.5 327q0 207 -73 329t-198 122t-197.5 -122t-72.5 -329q0 -206 72.5 -327t197.5 -121z" />
    <glyph glyph-name="atilde.alt" horiz-adv-x="882" 
d="M270 1198l-45 16q51 117 129 117q36 0 66.5 -18.5t57.5 -37t57 -18.5q25 0 41 17.5t38 62.5l45 -16q-51 -117 -129 -117q-35 0 -65.5 18.5t-58.5 37t-58 18.5q-25 0 -40.5 -17.5t-37.5 -62.5zM401 -14q-151 0 -239 136.5t-88 366.5t88 368t239 138q96 0 164.5 -58.5
t106.5 -166.5v211h57v-846q0 -46 20 -70t52 -24q22 0 43 8l12 -49q-24 -12 -59 -12q-56 0 -90.5 39t-34.5 104v82q-75 -227 -271 -227zM401 41q126 0 198.5 121t72.5 327q0 207 -73 329t-198 122t-197.5 -122t-72.5 -329q0 -206 72.5 -327t197.5 -121z" />
    <glyph glyph-name="jdotless.alt" horiz-adv-x="348" 
d="M27 -416h-21v54h21q116 0 116 145v1198h58v-1198q0 -97 -44.5 -148t-129.5 -51z" />
    <glyph glyph-name="jcircumflex.alt" horiz-adv-x="348" 
d="M16 1090h-53l180 278h58l180 -278h-53l-156 221zM27 -416h-21v54h21q116 0 116 145v1198h58v-1198q0 -97 -44.5 -148t-129.5 -51z" />
    <glyph glyph-name="lacute.alt" horiz-adv-x="344" 
d="M317 1796h72l-184 -278h-55zM143 0v1409h58v-1409h-58z" />
    <glyph glyph-name="lcaron.alt" horiz-adv-x="344" 
d="M143 0v1409h58v-1409h-58zM371 1409l-62 -319h-47l41 319h68z" />
    <glyph glyph-name="lcommaaccent.alt" horiz-adv-x="344" 
d="M143 0v1409h58v-1409h-58zM211 -104l-102 -261h-48l78 261h72z" />
    <glyph glyph-name="ldot.alt" horiz-adv-x="352" 
d="M143 0v1409h58v-1409h-58zM297 647q0 22 16 38.5t39 16.5t39.5 -16.5t16.5 -38.5q0 -23 -16.5 -39t-39.5 -16t-39 16t-16 39z" />
    <glyph glyph-name="lslash.alt" horiz-adv-x="344" 
d="M143 0v723l-92 -43v59l92 43v627h58v-600l92 43v-59l-92 -43v-750h-58z" />
    <glyph glyph-name="yacute.alt" horiz-adv-x="667" 
d="M479 1368h72l-184 -278h-56zM262 -401h-57l117 401l-297 981h59l264 -887l250 887h55z" />
    <glyph glyph-name="ycircumflex.alt" horiz-adv-x="667" 
d="M178 1090h-53l180 278h57l181 -278h-54l-155 221zM262 -401h-57l117 401l-297 981h59l264 -887l250 887h55z" />
    <glyph glyph-name="ydieresis.alt" horiz-adv-x="667" 
d="M174 1272q0 22 14.5 36.5t34.5 14.5t34.5 -14.5t14.5 -36.5t-13.5 -36.5t-35.5 -14.5t-35.5 14.5t-13.5 36.5zM395 1272q0 22 14.5 36.5t34.5 14.5t35 -14.5t15 -36.5t-14 -36.5t-36 -14.5t-35.5 14.5t-13.5 36.5zM262 -401h-57l117 401l-297 981h59l264 -887l250 887h55
z" />
    <glyph glyph-name="ygrave.alt" horiz-adv-x="667" 
d="M188 1368l166 -278h-55l-184 278h73zM262 -401h-57l117 401l-297 981h59l264 -887l250 887h55z" />
    <glyph glyph-name="i.loclTRK" horiz-adv-x="346" 
d="M172 1221q-22 0 -36.5 14.5t-14.5 36.5q0 21 15 36t36 15q22 0 37.5 -14.5t15.5 -36.5t-15.5 -36.5t-37.5 -14.5zM201 0h-58v981h58v-981z" />
    <glyph glyph-name="commaaccent.alt" 
d="M375 1102l102 260h55l-77 -260h-80z" />
    <glyph glyph-name="caroncomb.alt" 
d="M449 1409l-62 -319h-47l41 319h68z" />
    <glyph glyph-name="commaaccent" 
d="M446 -104l-102 -261h-49l78 261h73z" />
    </font>
</defs>
</svg>
