<?xml version="1.0" standalone="no"?>
<!DOCTYPE svg PUBLIC "-//W3C//DTD SVG 1.1//EN" "http://www.w3.org/Graphics/SVG/1.1/DTD/svg11.dtd" >
<svg xmlns="http://www.w3.org/2000/svg" xmlns:xlink="http://www.w3.org/1999/xlink" version="1.1">
<metadata>
Created by FontForge 20170731 at Sat Feb 11 11:56:35 2023
 By Aleksey,,,
Copyright 2021-2022 Indian Type Foundry. All rights reserved.
</metadata>
<defs>
<font id="ElevanceSans-Semibold" horiz-adv-x="819" >
  <font-face 
    font-family="Elevance Sans Semibold"
    font-weight="600"
    font-stretch="normal"
    units-per-em="2048"
    panose-1="0 0 0 0 0 0 0 0 0 0"
    ascent="1638"
    descent="-410"
    x-height="981"
    cap-height="1313"
    bbox="-473 -438 2998 1905"
    underline-thickness="102"
    underline-position="-307"
    unicode-range="U+0020-FB02"
  />
<missing-glyph horiz-adv-x="1210" 
d="M1061 0h-911v1313h911v-1313zM385 1092v-871h440v871h-440z" />
    <glyph glyph-name="fi" unicode="fi" horiz-adv-x="1226" 
d="M51 760v221h160v18q0 203 127 320t352 117q257 0 412 -131l-125 -197q-47 43 -121.5 68.5t-150.5 25.5q-116 0 -179 -52.5t-63 -156.5v-12h624v-981h-249v760h-375v-760h-252v760h-160z" />
    <glyph glyph-name="fl" unicode="fl" horiz-adv-x="1226" 
d="M51 760v221h160v20q0 202 116.5 318.5t303.5 116.5q136 0 229 -37h227v-1399h-249v1153q-71 49 -183 49q-85 0 -138.5 -52t-53.5 -146v-23h211v-221h-211v-760h-252v760h-160z" />
    <glyph glyph-name=".notdef" horiz-adv-x="1210" 
d="M1061 0h-911v1313h911v-1313zM385 1092v-871h440v871h-440z" />
    <glyph glyph-name=".null" horiz-adv-x="0" 
 />
    <glyph glyph-name="nonmarkingreturn" horiz-adv-x="682" 
 />
    <glyph glyph-name="space" unicode=" " horiz-adv-x="438" 
 />
    <glyph glyph-name="exclam" unicode="!" horiz-adv-x="589" 
d="M197 471l-35 842h268l-33 -842h-200zM295 -25q-68 0 -116 47.5t-48 114.5t48.5 115.5t115.5 48.5q66 0 114 -48.5t48 -115.5t-48 -114.5t-114 -47.5z" />
    <glyph glyph-name="quotedbl" unicode="&#x22;" horiz-adv-x="733" 
d="M322 1409l-31 -448h-180l-23 448h234zM647 1409l-31 -448h-180l-22 448h233z" />
    <glyph glyph-name="numbersign" unicode="#" horiz-adv-x="1243" 
d="M150 0l71 348h-205l37 182h205l53 265h-205l37 182h205l68 334h211l-68 -334h256l68 334h209l-68 -334h203l-37 -182h-203l-53 -265h203l-35 -182h-205l-72 -348h-209l72 348h-256l-72 -348h-210zM469 530h256l53 265h-256z" />
    <glyph glyph-name="dollar" unicode="$" horiz-adv-x="1138" 
d="M305 20q-79 18 -239 119l106 213q83 -52 194 -84t207 -32q102 0 165 39t63 114q0 38 -23.5 66t-63.5 46t-92 33t-109.5 30t-115 32.5t-109.5 45.5t-92 65t-63.5 94.5t-23.5 130.5q0 152 105 252t273 127v186h211v-184q199 -22 344 -131l-122 -199q-64 43 -155 68.5
t-177 25.5q-92 0 -148.5 -37.5t-56.5 -101.5q0 -36 23.5 -64.5t63.5 -48t92 -36t109 -33t114 -35.5t109 -47t92 -63.5t63.5 -89t23.5 -120.5q0 -160 -103.5 -261t-271.5 -132v-192h-211v182q-110 3 -182 22z" />
    <glyph glyph-name="percent" unicode="%" horiz-adv-x="1601" 
d="M389 676q-140 0 -241 97.5t-101 234.5q0 141 95.5 236t246.5 95q150 0 247 -95.5t97 -235.5q0 -137 -102 -234.5t-242 -97.5zM457 0h-195l881 1313h196zM389 825q72 0 125 50.5t53 132.5t-53.5 131t-124.5 49q-72 0 -124 -49t-52 -131q0 -83 52.5 -133t123.5 -50z
M1212 -27q-150 0 -247 96t-97 236q0 137 102 234.5t242 97.5q139 0 240.5 -97.5t101.5 -234.5q0 -141 -95.5 -236.5t-246.5 -95.5zM1210 125q73 0 126 49.5t53 130.5q0 83 -53 132.5t-126 49.5q-72 0 -124 -50t-52 -132t53.5 -131t122.5 -49z" />
    <glyph glyph-name="ampersand" unicode="&#x26;" horiz-adv-x="1329" 
d="M553 -27q-127 0 -234.5 46.5t-174 137.5t-66.5 208q0 227 254 340q-111 131 -111 274q0 154 111 257t280 103q155 0 266 -99t111 -241q0 -118 -67 -203.5t-201 -148.5l211 -201q26 61 35 103l20 88l225 -43l-22 -86q-29 -121 -86 -223l160 -152l-168 -170l-146 139
q-160 -129 -397 -129zM553 807l14 -12q181 77 181 186q0 53 -38.5 93t-97.5 40q-64 0 -104.5 -40t-40.5 -95q0 -90 86 -172zM330 381q0 -85 68 -134.5t171 -49.5q125 0 219 63l-307 297q-151 -74 -151 -176z" />
    <glyph glyph-name="quotesingle" unicode="'" horiz-adv-x="407" 
d="M322 1409l-31 -448h-180l-23 448h234z" />
    <glyph glyph-name="parenleft" unicode="(" horiz-adv-x="686" 
d="M666 -180l-158 -142q-412 386 -412 883q0 496 412 885l158 -141q-320 -310 -320 -744t320 -741z" />
    <glyph glyph-name="parenright" unicode=")" horiz-adv-x="686" 
d="M178 -322l-160 142q320 304 320 741t-320 744l160 141q412 -386 412 -885q0 -500 -412 -883z" />
    <glyph glyph-name="asterisk" unicode="*" horiz-adv-x="854" 
d="M541 766l-113 186l-115 -186l-155 113l139 165l-209 50l59 182l199 -84l-16 217h190l-16 -217l203 84l59 -182l-211 -50l139 -165z" />
    <glyph glyph-name="plus" unicode="+" horiz-adv-x="1054" 
d="M86 545v225h322v352h237v-352h324v-225h-324v-350h-237v350h-322z" />
    <glyph glyph-name="comma" unicode="," horiz-adv-x="481" 
d="M264 299q66 0 112 -45t46 -111q0 -68 -49 -145l-148 -246h-137l121 250q-105 43 -105 139q0 67 46 112.5t114 45.5z" />
    <glyph glyph-name="hyphen" unicode="-" horiz-adv-x="653" 
d="M76 610h504v-213h-504v213z" />
    <glyph glyph-name="period" unicode="." horiz-adv-x="481" 
d="M260 -25q-66 0 -114 47.5t-48 114.5t48 115.5t114 48.5q68 0 116 -48.5t48 -115.5t-48 -114.5t-116 -47.5z" />
    <glyph glyph-name="slash" unicode="/" horiz-adv-x="866" 
d="M27 0l555 1313h258l-557 -1313h-256z" />
    <glyph glyph-name="zero" unicode="0" horiz-adv-x="1210" 
d="M610 -27q-148 0 -267 88t-186 244.5t-67 351.5q0 194 65.5 350t181.5 244t261 88q150 0 269.5 -88t186 -244t66.5 -350q2 -195 -63.5 -351.5t-182.5 -244.5t-264 -88zM606 207q118 0 191 124.5t73 325.5q0 199 -74.5 324t-195.5 125q-116 0 -188 -125t-72 -324
q0 -201 73.5 -325.5t192.5 -124.5z" />
    <glyph glyph-name="one" unicode="1" horiz-adv-x="890" 
d="M678 0h-250v1016l-207 -203l-149 166l352 334h254v-1313z" />
    <glyph glyph-name="two" unicode="2" horiz-adv-x="1030" 
d="M53 0v190l494 474q139 133 139 260q0 78 -56.5 130t-144.5 52q-167 0 -260 -191l-196 129q62 130 178.5 212.5t290.5 82.5q198 0 318 -118.5t120 -292.5q0 -105 -50.5 -200.5t-164.5 -201.5l-326 -305h549v-221h-891z" />
    <glyph glyph-name="three" unicode="3" horiz-adv-x="1036" 
d="M467 -27q-152 0 -265.5 58.5t-183.5 163.5l183 163q55 -79 121.5 -115t154.5 -36q116 0 175 56.5t59 146.5q0 102 -68.5 156.5t-202.5 54.5h-141v147l319 324h-518v221h826v-195l-320 -317q177 -34 266 -136t89 -255q0 -192 -129 -314.5t-365 -122.5z" />
    <glyph glyph-name="four" unicode="4" horiz-adv-x="1134" 
d="M51 471l639 842h223v-842h187v-219h-187v-252h-241v252h-621v219zM295 471h377v508z" />
    <glyph glyph-name="five" unicode="5" horiz-adv-x="1089" 
d="M510 207q111 0 175.5 60t64.5 155q0 94 -63.5 155.5t-176.5 61.5q-132 0 -252 -70l-113 80l105 664h674v-221h-469l-45 -267q59 27 153 27q202 0 319 -120.5t117 -313.5q0 -196 -131.5 -321.5t-353.5 -125.5q-152 0 -265 59.5t-183 164.5l182 163q105 -151 262 -151z" />
    <glyph glyph-name="six" unicode="6" horiz-adv-x="1136" 
d="M578 -27q-210 0 -349 135t-139 334q0 110 42.5 213t166.5 281l266 377h287l-299 -434q10 2 27 2q106 0 197 -36t152 -96.5t95.5 -140t34.5 -166.5q0 -200 -135 -334.5t-346 -134.5zM575 674q-99 0 -167 -67.5t-68 -164.5q0 -100 67.5 -167.5t167.5 -67.5q99 0 166.5 67.5
t67.5 167.5q0 97 -68 164.5t-166 67.5z" />
    <glyph glyph-name="seven" unicode="7" horiz-adv-x="929" 
d="M397 0h-268l492 1092h-584v221h850v-199z" />
    <glyph glyph-name="eight" unicode="8" horiz-adv-x="1085" 
d="M541 -27q-201 0 -333 114t-132 286q0 109 58 197.5t159 140.5q-78 48 -122 121.5t-44 162.5q0 150 117 247t297 97q182 0 299.5 -96.5t117.5 -247.5q0 -90 -42.5 -163t-120.5 -121q100 -52 157.5 -140.5t57.5 -197.5q0 -172 -133.5 -286t-335.5 -114zM545 807
q72 0 121 46t49 114q0 69 -49 115t-121 46q-74 0 -124 -46t-50 -115q0 -68 50.5 -114t123.5 -46zM545 184q91 0 153 61t62 150t-62 149t-153 60q-94 0 -156.5 -60t-62.5 -149q0 -90 63 -150.5t156 -60.5z" />
    <glyph glyph-name="nine" unicode="9" horiz-adv-x="1136" 
d="M561 1319q209 0 347.5 -135.5t138.5 -333.5q0 -109 -42.5 -210.5t-166.5 -283.5l-267 -379h-284l299 437q-10 -2 -27 -2q-212 0 -346.5 129t-134.5 309q0 199 135.5 334t347.5 135zM561 616q100 0 169 68t69 166t-69 165.5t-169 67.5q-98 0 -165.5 -67.5t-67.5 -165.5
t67.5 -166t165.5 -68z" />
    <glyph glyph-name="colon" unicode=":" horiz-adv-x="481" 
d="M260 659q-66 0 -114 47.5t-48 114.5t48 115.5t114 48.5q68 0 116 -48.5t48 -115.5t-48 -114.5t-116 -47.5zM260 -25q-66 0 -114 47.5t-48 114.5t48 115.5t114 48.5q68 0 116 -48.5t48 -115.5t-48 -114.5t-116 -47.5z" />
    <glyph glyph-name="semicolon" unicode=";" horiz-adv-x="491" 
d="M260 659q-66 0 -114 47.5t-48 114.5t48 115.5t114 48.5q68 0 116 -48.5t48 -115.5t-48 -114.5t-116 -47.5zM258 299q67 0 112.5 -45t45.5 -111q0 -67 -47 -145l-150 -246h-137l121 250q-105 43 -105 139q0 67 46.5 112.5t113.5 45.5z" />
    <glyph glyph-name="less" unicode="&#x3c;" horiz-adv-x="1071" 
d="M979 412v-246l-885 391v217l885 389v-243l-614 -254z" />
    <glyph glyph-name="equal" unicode="=" horiz-adv-x="1054" 
d="M86 745v228h883v-228h-883zM86 344v227h883v-227h-883z" />
    <glyph glyph-name="greater" unicode="&#x3e;" horiz-adv-x="1071" 
d="M94 412l613 254l-613 254v243l885 -389v-217l-885 -391v246z" />
    <glyph glyph-name="question" unicode="?" horiz-adv-x="978" 
d="M344 457l-25 295h64q119 0 187.5 55.5t68.5 136.5q0 75 -54.5 116.5t-133.5 41.5q-68 0 -133.5 -28.5t-114.5 -84.5l-158 174q82 87 191 131.5t221 44.5q115 0 210.5 -42t156.5 -130t61 -206q0 -138 -90 -241.5t-250 -125.5l-6 -137h-195zM449 -25q-66 0 -114 47.5
t-48 114.5t48 115.5t114 48.5q67 0 115 -48t48 -116q0 -67 -47.5 -114.5t-115.5 -47.5z" />
    <glyph glyph-name="at" unicode="@" horiz-adv-x="1734" 
d="M784 174q-130 0 -216.5 97t-86.5 257q0 177 106.5 299.5t256.5 122.5q140 0 200 -108l5 86h186l-25 -428q-3 -76 24.5 -113t76.5 -37q77 0 119.5 80.5t42.5 202.5q0 112 -45.5 214.5t-123.5 178.5t-189 121t-236 45q-169 0 -311 -84t-224 -227t-82 -312q0 -168 82 -311
t224 -227t311 -84q99 0 165.5 17.5t129.5 55.5l75 -159q-147 -94 -370 -94q-217 0 -402 107.5t-293 292.5t-108 402t108 402t293 293t402 108q162 0 307.5 -60t248.5 -160t163.5 -235.5t60.5 -281.5q0 -71 -14 -137.5t-44 -125t-72 -102t-102.5 -69t-132.5 -25.5
q-87 0 -156 39t-96 123q-82 -164 -258 -164zM829 354q90 0 144.5 67t54.5 161q0 81 -44 134.5t-116 53.5q-83 0 -139.5 -65.5t-56.5 -161.5q0 -79 46 -134t111 -55z" />
    <glyph glyph-name="A" unicode="A" horiz-adv-x="1406" 
d="M1098 0l-115 295h-573l-115 -295h-268l526 1313h301l528 -1313h-284zM496 522h401l-201 518z" />
    <glyph glyph-name="B" unicode="B" horiz-adv-x="1210" 
d="M150 0v1311h528q186 0 309 -102t123 -261q0 -105 -57.5 -172.5t-137.5 -101.5q103 -31 167.5 -109.5t64.5 -195.5q0 -156 -116.5 -262.5t-321.5 -106.5h-559zM653 1085h-247v-315h247q84 0 137.5 44.5t53.5 113.5t-54 113t-137 44zM682 559h-276v-332h276q86 0 142.5 47
t56.5 119t-56.5 119t-142.5 47z" />
    <glyph glyph-name="C" unicode="C" horiz-adv-x="1282" 
d="M1241 1161l-170 -196q-130 120 -313 120q-167 0 -284.5 -125.5t-117.5 -304.5t120 -303.5t298 -124.5q85 0 164.5 31t134.5 88l168 -188q-168 -185 -483 -185q-188 0 -343.5 92t-244 248.5t-88.5 341.5q0 140 53.5 266.5t144 218t215 145.5t261.5 54q310 0 485 -178z" />
    <glyph glyph-name="D" unicode="D" horiz-adv-x="1411" 
d="M150 0v1311h438q213 0 382.5 -83.5t264 -233.5t94.5 -339t-93.5 -338.5t-261 -233t-378.5 -83.5h-446zM586 1071h-172v-829h174q211 0 339 113t128 300q0 189 -128.5 302.5t-340.5 113.5z" />
    <glyph glyph-name="E" unicode="E" horiz-adv-x="1071" 
d="M150 0v1313h851v-240h-595v-291h514v-241h-514v-299h595v-242h-851z" />
    <glyph glyph-name="F" unicode="F" horiz-adv-x="1048" 
d="M150 0v1311h831v-240h-575v-317h493v-242h-493v-512h-256z" />
    <glyph glyph-name="G" unicode="G" horiz-adv-x="1370" 
d="M764 -27q-201 0 -358 91t-240.5 246t-83.5 345q0 142 55.5 269.5t148 218t218 143.5t262.5 53q310 0 485 -178l-164 -188q-135 121 -319 121q-169 0 -290.5 -126t-121.5 -313q0 -123 53.5 -223.5t154.5 -160.5t231 -60q133 0 233 53v238h-274v223h518v-598
q-109 -82 -228 -118t-280 -36z" />
    <glyph glyph-name="H" unicode="H" horiz-adv-x="1437" 
d="M1032 0v551h-626v-551h-256v1313h256v-522h626v522h256v-1313h-256z" />
    <glyph glyph-name="I" unicode="I" horiz-adv-x="557" 
d="M150 0v1313h256v-1313h-256z" />
    <glyph glyph-name="J" unicode="J" horiz-adv-x="940" 
d="M27 145l172 179q74 -97 174 -97q176 0 176 213v873h256v-860q0 -237 -118 -358.5t-308 -121.5q-116 0 -210 48.5t-142 123.5z" />
    <glyph glyph-name="K" unicode="K" horiz-adv-x="1249" 
d="M406 0h-256v1313h256v-635l499 635h312l-517 -651l537 -662h-328l-503 621v-621z" />
    <glyph glyph-name="L" unicode="L" horiz-adv-x="1073" 
d="M150 0v1313h256v-1071h641v-242h-897z" />
    <glyph glyph-name="M" unicode="M" horiz-adv-x="1691" 
d="M846 248l-440 663v-911h-256v1313h294l416 -643l420 643h260v-1313h-256v901z" />
    <glyph glyph-name="N" unicode="N" horiz-adv-x="1437" 
d="M1016 0l-613 889v-889h-256v1313h275l614 -899v899h256v-1313h-276z" />
    <glyph glyph-name="O" unicode="O" horiz-adv-x="1523" 
d="M762 1339q184 0 341 -92t248 -250t91 -344q0 -138 -54 -264t-145 -217t-217 -145t-264 -54t-264 54t-217 145.5t-145 218t-54 264.5q0 140 54 266.5t145 218t217 145.5t264 54zM762 227q168 0 287.5 125.5t119.5 300.5q0 117 -54.5 216.5t-148 157.5t-204.5 58
q-169 0 -287.5 -125.5t-118.5 -304.5q0 -177 118.5 -302.5t287.5 -125.5z" />
    <glyph glyph-name="P" unicode="P" horiz-adv-x="1206" 
d="M150 0v1313h468q238 0 382.5 -119t144.5 -315q0 -198 -146 -318.5t-385 -120.5h-208v-440h-256zM639 1085h-233v-417h233q106 0 170.5 58t64.5 153q0 93 -64.5 149.5t-170.5 56.5z" />
    <glyph glyph-name="Q" unicode="Q" horiz-adv-x="1523" 
d="M762 -27q-138 0 -264 54t-217 145.5t-145 218t-54 264.5q0 140 54 266.5t145 218t217 145.5t264 54q184 0 341 -92t248 -250t91 -344q0 -230 -146 -420l183 -182l-168 -170l-193 193q-167 -101 -356 -101zM762 227q91 0 166 37l-187 187l168 170l197 -197q63 104 63 229
q0 117 -54.5 216.5t-148 157.5t-204.5 58q-169 0 -287.5 -125.5t-118.5 -304.5q0 -177 118.5 -302.5t287.5 -125.5z" />
    <glyph glyph-name="R" unicode="R" horiz-adv-x="1241" 
d="M150 0v1313h468q232 0 373.5 -113.5t141.5 -300.5q0 -132 -73.5 -230.5t-203.5 -146.5l303 -522h-297l-266 481h-190v-481h-256zM639 1085h-233v-376h233q100 0 161.5 52t61.5 138q0 84 -61.5 135t-161.5 51z" />
    <glyph glyph-name="S" unicode="S" horiz-adv-x="1138" 
d="M303 -2q-94 25 -240 121l111 215q84 -53 193.5 -86t205.5 -33q102 0 164 38.5t62 113.5q0 37 -23.5 66t-63.5 49t-92 37.5t-109 35.5t-114 39.5t-109 53t-92 71.5t-63.5 100.5t-23.5 134.5q0 118 67 207.5t177.5 134.5t244.5 45q262 0 442 -137l-125 -203q-66 43 -156 72
t-173 29q-90 0 -146.5 -38.5t-56.5 -102.5q0 -43 29.5 -76t78 -53t110 -42t126.5 -41.5t126.5 -51.5t110 -71t78 -102t29.5 -143q0 -98 -41 -177t-112.5 -128.5t-164 -76t-198.5 -26.5q-160 0 -252 25z" />
    <glyph glyph-name="T" unicode="T" horiz-adv-x="1075" 
d="M1055 1073h-389v-1073h-258v1073h-390v240h1037v-240z" />
    <glyph glyph-name="U" unicode="U" horiz-adv-x="1345" 
d="M137 535v778h256v-774q0 -140 77.5 -226t203.5 -86q127 0 202.5 85t75.5 227v774h258v-778q0 -253 -148.5 -407.5t-391.5 -154.5q-241 0 -387 154t-146 408z" />
    <glyph glyph-name="V" unicode="V" horiz-adv-x="1341" 
d="M317 1313l361 -1037l360 1037h269l-488 -1313h-299l-487 1313h284z" />
    <glyph glyph-name="W" unicode="W" horiz-adv-x="2070" 
d="M1753 1313h270l-415 -1313h-322l-256 995l-258 -995h-309l-416 1313h283l288 -1014l263 1014h321l262 -1014z" />
    <glyph glyph-name="X" unicode="X" horiz-adv-x="1288" 
d="M389 1313l273 -414l282 414h287l-426 -629l450 -684h-319l-303 455l-311 -455h-289l456 670l-430 643h330z" />
    <glyph glyph-name="Y" unicode="Y" horiz-adv-x="1263" 
d="M504 0v436l-486 877h287l330 -608l336 608h272l-483 -877v-436h-256z" />
    <glyph glyph-name="Z" unicode="Z" horiz-adv-x="1163" 
d="M74 242l669 831h-655v240h987v-240l-669 -831h684v-242h-1016v242z" />
    <glyph glyph-name="bracketleft" unicode="[" horiz-adv-x="675" 
d="M164 -266v1675h467v-221h-215v-1233h215v-221h-467z" />
    <glyph glyph-name="backslash" unicode="\" horiz-adv-x="866" 
d="M840 0h-258l-555 1313h256z" />
    <glyph glyph-name="bracketright" unicode="]" horiz-adv-x="675" 
d="M512 -266h-465v221h215v1233h-215v221h465v-1675z" />
    <glyph glyph-name="asciicircum" unicode="^" horiz-adv-x="1054" 
d="M428 1313h209l324 -656h-224l-205 439l-215 -439h-221z" />
    <glyph glyph-name="underscore" unicode="_" horiz-adv-x="892" 
d="M-6 -41h905v-168h-905v168z" />
    <glyph glyph-name="grave" unicode="`" horiz-adv-x="806" 
d="M330 1409l200 -319h-227l-268 319h295z" />
    <glyph glyph-name="a" unicode="a" horiz-adv-x="1234" 
d="M545 -27q-129 0 -235.5 65t-170 184.5t-63.5 269.5q0 222 133.5 369t335.5 147q194 0 301 -156v129h250v-981h-250v139q-110 -166 -301 -166zM586 207q113 0 186.5 82.5t73.5 202.5t-73.5 201t-186.5 81t-186.5 -81t-73.5 -201t73.5 -202.5t186.5 -82.5z" />
    <glyph glyph-name="b" unicode="b" horiz-adv-x="1234" 
d="M690 1008q197 0 334 -146.5t137 -372.5q0 -146 -60.5 -264t-168.5 -185t-242 -67q-195 0 -301 158v-131h-250v1409h250v-567q110 166 301 166zM651 774q-113 0 -187.5 -82.5t-74.5 -202.5q0 -119 74.5 -200.5t187.5 -81.5q112 0 186 81.5t74 200.5q0 120 -74.5 202.5
t-185.5 82.5z" />
    <glyph glyph-name="c" unicode="c" horiz-adv-x="999" 
d="M831 684q-96 90 -233 90q-121 0 -196.5 -80.5t-75.5 -201.5t76 -203t196 -82q143 0 242 96l127 -184q-60 -66 -160.5 -106t-214.5 -40q-144 0 -262.5 69.5t-186 188.5t-67.5 261q0 141 67.5 259.5t185.5 187.5t259 69q244 0 387 -146z" />
    <glyph glyph-name="d" unicode="d" horiz-adv-x="1234" 
d="M545 -27q-129 0 -235.5 65t-170 184.5t-63.5 269.5q0 222 133.5 369t335.5 147q194 0 301 -156v557h250v-1409h-250v139q-110 -166 -301 -166zM586 207q113 0 186.5 82.5t73.5 202.5t-73.5 201t-186.5 81t-186.5 -81t-73.5 -201t73.5 -202.5t186.5 -82.5z" />
    <glyph glyph-name="e" unicode="e" horiz-adv-x="1126" 
d="M602 -27q-112 0 -210.5 41t-167.5 110.5t-108.5 165.5t-39.5 202q0 141 63.5 259t177 187.5t252.5 69.5q211 0 353.5 -143t142.5 -355q0 -64 -6 -88h-727q21 -104 94.5 -166.5t183.5 -62.5q143 0 242 102l129 -172q-60 -66 -160.5 -108t-218.5 -42zM573 797
q-87 0 -149 -55t-86 -146h469q-23 97 -85 149t-149 52z" />
    <glyph glyph-name="f" unicode="f" horiz-adv-x="784" 
d="M51 760v221h160v57q0 185 97.5 291.5t262.5 106.5q182 0 283 -101l-123 -188q-22 24 -59 39.5t-76 15.5q-62 0 -97.5 -42t-35.5 -120v-59h254v-221h-254v-760h-252v760h-160z" />
    <glyph glyph-name="g" unicode="g" horiz-adv-x="1220" 
d="M274 -104q128 -97 285 -97q128 0 200 67t72 191v117q-108 -160 -299 -160q-192 0 -324 140t-132 358q0 211 132.5 350t323.5 139q195 0 299 -145v125h250v-911q0 -113 -30 -201t-78.5 -143t-116.5 -90.5t-137 -49.5t-146 -14q-282 0 -426 129zM580 250q108 0 179.5 76
t71.5 186t-71.5 186t-179.5 76t-181 -76t-73 -186q0 -111 73 -186.5t181 -75.5z" />
    <glyph glyph-name="h" unicode="h" horiz-adv-x="1169" 
d="M139 0v1409h250v-567q39 79 111 122.5t168 43.5q169 0 269.5 -111.5t100.5 -302.5v-594h-250v557q0 100 -53 158.5t-145 58.5t-146.5 -58.5t-54.5 -158.5v-557h-250z" />
    <glyph glyph-name="i" unicode="i" horiz-adv-x="530" 
d="M264 1112q-61 0 -103 43t-42 105q0 60 42 102.5t103 42.5q60 0 104 -42.5t44 -102.5q0 -61 -44 -104.5t-104 -43.5zM389 0h-250v981h250v-981z" />
    <glyph glyph-name="j" unicode="j" horiz-adv-x="530" 
d="M264 1112q-61 0 -103 43t-42 105q0 60 42 102.5t103 42.5q60 0 104 -42.5t44 -102.5q0 -61 -44 -104.5t-104 -43.5zM33 -428q-155 0 -244 86l117 186q52 -45 117 -45q54 0 85 41t31 119v1022h250v-1010q0 -185 -92 -292t-264 -107z" />
    <glyph glyph-name="k" unicode="k" horiz-adv-x="1122" 
d="M389 0h-250v1409h250v-834l389 406h309l-430 -446l473 -535h-319l-422 485v-485z" />
    <glyph glyph-name="l" unicode="l" horiz-adv-x="614" 
d="M518 217l27 -219q-65 -21 -121 -21t-104.5 18.5t-90 57t-66 106.5t-24.5 158v1092h250v-1098q0 -53 25 -78.5t63 -25.5q21 0 41 10z" />
    <glyph glyph-name="m" unicode="m" horiz-adv-x="1794" 
d="M389 0h-250v981h250v-150q39 82 111 129.5t166 47.5q112 0 195 -53t126 -152q89 205 301 205q172 0 274.5 -110t102.5 -304v-594h-252v557q0 100 -51.5 158.5t-140.5 58.5t-142 -58.5t-53 -158.5v-557h-250v557q0 100 -51.5 158.5t-140.5 58.5t-142 -58.5t-53 -158.5
v-557z" />
    <glyph glyph-name="n" unicode="n" horiz-adv-x="1169" 
d="M139 0v981h250v-139q39 79 111 122.5t168 43.5q169 0 269.5 -111.5t100.5 -302.5v-594h-250v557q0 100 -53 158.5t-145 58.5t-146.5 -58.5t-54.5 -158.5v-557h-250z" />
    <glyph glyph-name="o" unicode="o" horiz-adv-x="1171" 
d="M586 -27q-140 0 -257.5 69.5t-185 189t-67.5 260.5q0 140 67.5 259t185 188t257.5 69t257.5 -69t185 -188t67.5 -259q0 -141 -67.5 -260.5t-185 -189t-257.5 -69.5zM586 207q113 0 186.5 82.5t73.5 202.5t-73.5 201t-186.5 81t-186.5 -81t-73.5 -201t73.5 -202.5
t186.5 -82.5z" />
    <glyph glyph-name="p" unicode="p" horiz-adv-x="1234" 
d="M389 -401h-250v1382h250v-139q110 166 301 166q197 0 334 -146.5t137 -372.5q0 -146 -60.5 -264t-168.5 -185t-242 -67q-195 0 -301 158v-532zM651 207q112 0 186 81.5t74 200.5q0 120 -74.5 202.5t-185.5 82.5q-113 0 -187.5 -82.5t-74.5 -202.5q0 -119 74.5 -200.5
t187.5 -81.5z" />
    <glyph glyph-name="q" unicode="q" horiz-adv-x="1234" 
d="M545 -27q-129 0 -235.5 65t-170 184.5t-63.5 269.5q0 222 133.5 369t335.5 147q194 0 301 -156v129h250v-1382h-250v540q-110 -166 -301 -166zM586 207q113 0 186.5 82.5t73.5 202.5t-73.5 201t-186.5 81t-186.5 -81t-73.5 -201t73.5 -202.5t186.5 -82.5z" />
    <glyph glyph-name="r" unicode="r" horiz-adv-x="817" 
d="M139 0v981h250v-145q36 80 98.5 126t143.5 46q99 0 155 -47l-102 -236q-54 41 -131 41q-74 0 -119 -59t-45 -158v-549h-250z" />
    <glyph glyph-name="s" unicode="s" horiz-adv-x="927" 
d="M440 -27q-211 0 -383 95l80 192q175 -82 316 -82q81 0 121 25.5t40 70.5q0 31 -22.5 54.5t-60 37t-84.5 28.5t-97 28.5t-97 38t-84.5 55.5t-60 83t-22.5 118q0 119 102 205t281 86q100 0 185 -21t182 -67l-93 -187q-54 30 -124.5 50t-129.5 20q-71 0 -111 -22t-40 -62
q0 -36 29 -61t75 -40t102 -29.5t112 -36.5t102 -53.5t75 -87.5t29 -132q0 -132 -113 -219t-309 -87z" />
    <glyph glyph-name="t" unicode="t" horiz-adv-x="829" 
d="M39 760v221h172v254h252v-254h264v-221h-262v-418q0 -135 110 -135q75 0 117 49l111 -186q-43 -43 -111.5 -70t-154.5 -27q-152 0 -239 93t-87 270v424h-172z" />
    <glyph glyph-name="u" unicode="u" horiz-adv-x="1169" 
d="M377 981v-530q0 -108 57 -174t150 -66q94 0 151.5 66.5t57.5 173.5v530h251v-549q0 -206 -126.5 -331.5t-333.5 -125.5t-332 125.5t-125 331.5v549h250z" />
    <glyph glyph-name="v" unicode="v" horiz-adv-x="1085" 
d="M707 0h-326l-354 981h274l250 -758l254 758h256z" />
    <glyph glyph-name="w" unicode="w" horiz-adv-x="1654" 
d="M625 0h-283l-303 981h268l182 -707l199 707h270l203 -711l187 711h268l-303 -981h-312l-190 666z" />
    <glyph glyph-name="x" unicode="x" horiz-adv-x="1099" 
d="M27 0l370 494l-358 487h311l213 -289l217 289h281l-359 -477l371 -504h-311l-225 305l-232 -305h-278z" />
    <glyph glyph-name="y" unicode="y" horiz-adv-x="1087" 
d="M453 -39l8 25l-449 995h275l286 -676l236 676h252l-402 -1106q-107 -303 -364 -303q-76 0 -147.5 28t-120.5 74l112 197q69 -66 158 -66q53 0 89.5 35.5t66.5 120.5z" />
    <glyph glyph-name="z" unicode="z" horiz-adv-x="980" 
d="M78 221l485 539h-469v221h793v-221l-486 -539h502v-221h-825v221z" />
    <glyph glyph-name="braceleft" unicode="{" horiz-adv-x="692" 
d="M45 463v217q85 0 120.5 36.5t35.5 117.5v286q0 130 78 209.5t235 79.5h131v-221h-74q-120 0 -120 -121v-274q0 -103 -48.5 -157.5t-128.5 -64.5q81 -10 129 -64t48 -157v-274q0 -121 120 -121h74v-221h-131q-157 0 -235 79.5t-78 209.5v286q0 81 -35.5 117.5t-120.5 36.5
z" />
    <glyph glyph-name="bar" unicode="|" horiz-adv-x="569" 
d="M406 -401h-242v1810h242v-1810z" />
    <glyph glyph-name="braceright" unicode="}" horiz-adv-x="692" 
d="M647 463q-85 0 -120 -36.5t-35 -117.5v-286q0 -130 -79 -209.5t-235 -79.5h-131v221h74q121 0 121 121v274q0 103 47 157t127 64q-80 10 -127 64t-47 158v274q0 121 -121 121h-74v221h131q156 0 235 -79.5t79 -209.5v-286q0 -81 35 -117.5t120 -36.5v-217z" />
    <glyph glyph-name="asciitilde" unicode="~" horiz-adv-x="1054" 
d="M86 524v230q111 75 231 75q62 0 121 -16.5t98 -36.5t93 -36.5t108 -16.5q147 0 232 61v-227q-95 -61 -228 -61q-60 0 -119 16.5t-99.5 36.5t-95.5 36.5t-108 16.5q-151 0 -233 -78z" />
    <glyph glyph-name="nbspace" unicode="&#xa0;" horiz-adv-x="428" 
 />
    <glyph glyph-name="exclamdown" unicode="&#xa1;" horiz-adv-x="589" 
d="M297 684q-68 0 -117 48t-49 116q0 66 49 113t117 47q66 0 113 -47t47 -113q0 -69 -47 -116.5t-113 -47.5zM428 -328h-268l35 840h200z" />
    <glyph glyph-name="cent" unicode="&#xa2;" horiz-adv-x="1011" 
d="M831 846q-96 90 -233 90q-121 0 -196.5 -80.5t-75.5 -202.5q0 -120 76 -201t196 -81q145 0 242 94l127 -182q-46 -53 -121.5 -91t-163.5 -51v-168h-213v177q-173 40 -283 180t-110 323t110.5 323.5t282.5 180.5v176h213v-168q178 -26 293 -141z" />
    <glyph glyph-name="sterling" unicode="&#xa3;" horiz-adv-x="1159" 
d="M125 227h49q61 0 88 40t27 122v172h-137v168h137v182q0 191 110.5 310.5t311.5 119.5q244 0 374 -176l-153 -159q-86 100 -209 100q-91 0 -136.5 -56t-45.5 -153v-168h377v-168h-377v-180q0 -68 -28 -107t-73 -47h637v-227h-952v227z" />
    <glyph glyph-name="currency" unicode="&#xa4;" horiz-adv-x="1169" 
d="M584 154q-132 0 -244 69l-133 -129l-160 160l133 133q-63 108 -63 238q0 128 63 239l-133 131l160 162l133 -131q109 70 244 70q130 0 247 -70l134 131l159 -162l-135 -135q62 -108 62 -235q0 -125 -62 -236l135 -135l-159 -160l-134 131q-114 -71 -247 -71zM584 373
q102 0 173.5 74.5t71.5 177.5q0 106 -71.5 181t-173.5 75q-104 0 -176 -75t-72 -181q0 -103 72 -177.5t176 -74.5z" />
    <glyph glyph-name="yen" unicode="&#xa5;" horiz-adv-x="1263" 
d="M760 0h-256v336h-346v168h311l-88 155h-223v168h131l-271 486h287l330 -639l336 639h272l-268 -486h131v-168h-225l-86 -155h311v-168h-346v-336z" />
    <glyph glyph-name="brokenbar" unicode="&#xa6;" horiz-adv-x="569" 
d="M406 1409v-747h-242v747h242zM406 346v-747h-242v747h242z" />
    <glyph glyph-name="section" unicode="&#xa7;" horiz-adv-x="1452" 
d="M1208 1120l-176 -174q-48 66 -131.5 110t-185.5 44q-87 0 -137 -33.5t-50 -91.5q0 -39 32 -69.5t84.5 -49.5t119 -40t136.5 -40t136.5 -50.5t119 -70t84.5 -101t32 -140.5q0 -152 -129 -244q76 -79 76 -195q0 -178 -138.5 -290.5t-361.5 -112.5q-355 0 -514 233l184 170
q123 -163 342 -163q102 0 158.5 39t56.5 106q0 42 -32 75t-84 53t-119 41.5t-136.5 40t-136.5 49.5t-119 68t-84 98t-32 138q0 70 37 132t108 102q-92 85 -92 207q0 167 134 272.5t345 105.5q156 0 280 -60t193 -159zM475 528q0 -33 20 -60t51 -45t80 -36t94.5 -30.5
t107 -31t106.5 -34.5q65 41 65 112q0 40 -24.5 71t-75 54.5t-98 39t-124.5 38t-124 39.5q-78 -43 -78 -117z" />
    <glyph glyph-name="dieresis" unicode="&#xa8;" 
d="M90 1247q0 56 38 95.5t93 39.5q57 0 96 -39.5t39 -95.5t-39 -94.5t-96 -38.5q-55 0 -93 38.5t-38 94.5zM463 1247q0 56 38.5 95.5t92.5 39.5q56 0 95.5 -40t39.5 -95t-39.5 -94t-95.5 -39q-54 0 -92.5 39t-38.5 94z" />
    <glyph glyph-name="copyright" unicode="&#xa9;" horiz-adv-x="1654" 
d="M827 1405q203 0 375.5 -101t273.5 -273.5t101 -375.5q0 -202 -101 -374.5t-273.5 -272.5t-375.5 -100q-152 0 -290.5 59t-239 159.5t-160 238.5t-59.5 290t59.5 290.5t160 239.5t239 160.5t290.5 59.5zM829 1253q-160 0 -296.5 -80t-215.5 -217t-79 -297
q0 -121 47 -230.5t126 -188.5t188.5 -125.5t229.5 -46.5t230 46.5t189.5 125.5t127 188.5t47.5 230.5q0 160 -80 297t-217 217t-297 80zM1145 963l-115 -144q-82 76 -194 76q-100 0 -164 -68.5t-64 -169.5q0 -99 65 -166t167 -67q114 0 200 80l103 -148q-53 -59 -133.5 -91
t-175.5 -32q-181 0 -304.5 124t-123.5 300q0 179 122 303.5t297 124.5q201 0 320 -122z" />
    <glyph glyph-name="ordfeminine" unicode="&#xaa;" horiz-adv-x="792" 
d="M328 643q-119 0 -205 94t-86 244q0 149 83.5 248.5t205.5 99.5q129 0 192 -104v86h199v-652h-199v89q-64 -105 -190 -105zM377 827q60 0 99.5 44t39.5 110t-39.5 110t-99.5 44t-99.5 -44t-39.5 -110t39.5 -110t99.5 -44z" />
    <glyph glyph-name="guillemotleft" unicode="&#xab;" horiz-adv-x="1093" 
d="M70 508l389 387l129 -129l-258 -258l258 -260l-129 -127zM506 508l389 387l129 -129l-258 -258l258 -260l-129 -127z" />
    <glyph glyph-name="logicalnot" unicode="&#xac;" horiz-adv-x="1067" 
d="M977 260h-229v285h-656v225h885v-510z" />
    <glyph glyph-name="softhyphen" unicode="&#xad;" horiz-adv-x="653" 
d="M76 610h504v-213h-504v213z" />
    <glyph glyph-name="registered" unicode="&#xae;" horiz-adv-x="1187" 
d="M596 1513q146 0 269.5 -72.5t195.5 -197.5t72 -272t-71.5 -271t-195 -196t-270.5 -72t-271 72.5t-196 196.5t-72 270q0 147 72 272t196 197.5t271 72.5zM596 1386q-169 0 -288.5 -121.5t-119.5 -291.5t119.5 -291t288.5 -121q172 0 291 120t119 292q0 171 -120 292
t-290 121zM379 713v532h233q98 0 156.5 -40.5t58.5 -123.5q0 -111 -116 -145l135 -223h-164l-119 209h-33v-209h-151zM598 1133h-70v-113h70q78 0 78 57q0 56 -78 56z" />
    <glyph glyph-name="macron" unicode="&#xaf;" 
d="M104 1350h609v-185h-609v185z" />
    <glyph glyph-name="degree" unicode="&#xb0;" horiz-adv-x="755" 
d="M375 647q-143 0 -250 102t-107 242q0 147 101 247.5t258 100.5q160 0 259 -100t99 -248q0 -142 -105 -243t-255 -101zM377 807q78 0 131 51t53 133q0 86 -54 136.5t-128 50.5q-76 0 -129 -50.5t-53 -136.5q0 -83 53.5 -133.5t126.5 -50.5z" />
    <glyph glyph-name="plusminus" unicode="&#xb1;" horiz-adv-x="1054" 
d="M86 688v225h322v324h237v-324h324v-225h-324v-321h-237v321h-322zM86 0v227h883v-227h-883z" />
    <glyph glyph-name="twosuperior" unicode="&#xb2;" horiz-adv-x="593" 
d="M59 657v134l234 184q42 34 58 61t16 60q0 35 -22.5 58.5t-61.5 23.5q-82 0 -127 -95l-117 80q30 71 96 118.5t170 47.5t169 -61t65 -148q0 -64 -31.5 -118.5t-110.5 -108.5l-118 -94h258v-142h-478z" />
    <glyph glyph-name="threesuperior" unicode="&#xb3;" horiz-adv-x="593" 
d="M279 643q-165 0 -236 109l111 108q52 -65 125 -65q45 0 69.5 23t24.5 59q0 41 -31.5 64.5t-87.5 23.5h-72v73l154 131h-250v144h440v-121l-161 -131q178 -37 178 -193q0 -97 -70 -161t-194 -64z" />
    <glyph glyph-name="acute" unicode="&#xb4;" 
d="M453 1409h295l-269 -319h-227z" />
    <glyph glyph-name="paragraph" unicode="&#xb6;" horiz-adv-x="1173" 
d="M543 1313h481v-1714h-180v1493h-113v-1493h-244v886q-189 20 -298 136t-109 286q0 186 124 296t339 110z" />
    <glyph glyph-name="periodcentered" unicode="&#xb7;" 
d="M262 612q0 60 43.5 104t104.5 44q60 0 102.5 -44t42.5 -104t-42.5 -102.5t-102.5 -42.5q-61 0 -104.5 42.5t-43.5 102.5z" />
    <glyph glyph-name="cedilla" unicode="&#xb8;" 
d="M350 0h170l-145 -401l-199 82z" />
    <glyph glyph-name="onesuperior" unicode="&#xb9;" horiz-adv-x="593" 
d="M416 657h-180v461l-91 -90l-98 115l182 170h187v-656z" />
    <glyph glyph-name="ordmasculine" unicode="&#xba;" horiz-adv-x="753" 
d="M377 643q-140 0 -240 100.5t-100 241.5q0 142 100 244t240 102t240 -102t100 -244q0 -141 -100 -241.5t-240 -100.5zM377 831q60 0 99.5 44t39.5 110q0 65 -39.5 109.5t-99.5 44.5t-99.5 -44.5t-39.5 -109.5q0 -66 39.5 -110t99.5 -44z" />
    <glyph glyph-name="guillemotright" unicode="&#xbb;" horiz-adv-x="1093" 
d="M506 766l129 129l389 -387l-389 -387l-129 127l258 260zM70 766l129 129l389 -387l-389 -387l-129 127l258 260z" />
    <glyph glyph-name="onequarter" unicode="&#xbc;" horiz-adv-x="1341" 
d="M416 657h-180v461l-91 -90l-98 115l182 170h187v-656zM164 0l883 1313h192l-879 -1313h-196zM764 252l311 403h162v-403h84v-150h-84v-102h-158v102h-315v150zM903 252h176v231z" />
    <glyph glyph-name="onehalf" unicode="&#xbd;" horiz-adv-x="1341" 
d="M416 657h-180v461l-91 -90l-98 115l182 170h187v-656zM111 0l884 1313h193l-879 -1313h-198zM809 0v133l231 184q43 34 59.5 61.5t16.5 59.5q0 35 -23 58.5t-63 23.5q-79 0 -127 -94l-115 80q30 70 96.5 118t168.5 48q105 0 169 -60.5t64 -148.5q0 -65 -30.5 -119
t-108.5 -108l-119 -95h258v-141h-477z" />
    <glyph glyph-name="threequarters" unicode="&#xbe;" horiz-adv-x="1341" 
d="M279 643q-165 0 -236 109l111 108q52 -65 125 -65q45 0 69.5 23t24.5 59q0 41 -31.5 64.5t-87.5 23.5h-72v73l154 131h-250v144h440v-121l-161 -131q178 -37 178 -193q0 -97 -70 -161t-194 -64zM180 0l883 1313h194l-878 -1313h-199zM764 252l311 403h162v-403h84v-150
h-84v-102h-158v102h-315v150zM903 252h176v231z" />
    <glyph glyph-name="questiondown" unicode="&#xbf;" horiz-adv-x="978" 
d="M530 1012q66 0 114 -47.5t48 -114.5t-48 -115.5t-114 -48.5q-67 0 -115 48t-48 116q0 67 47.5 114.5t115.5 47.5zM635 530l24 -294h-63q-119 0 -187.5 -56t-68.5 -137q0 -75 54.5 -116.5t133.5 -41.5q68 0 133.5 28.5t114.5 84.5l158 -174q-82 -87 -191 -131.5
t-221 -44.5q-85 0 -162 25t-136.5 71.5t-94.5 120t-35 162.5q0 138 90 241t250 125l6 137h195z" />
    <glyph glyph-name="Agrave" unicode="&#xc0;" horiz-adv-x="1406" 
d="M637 1741l201 -320h-228l-268 320h295zM1098 0l-115 295h-573l-115 -295h-268l526 1313h301l528 -1313h-284zM496 522h401l-201 518z" />
    <glyph glyph-name="Aacute" unicode="&#xc1;" horiz-adv-x="1406" 
d="M770 1741h295l-268 -320h-228zM1098 0l-115 295h-573l-115 -295h-268l526 1313h301l528 -1313h-284zM496 522h401l-201 518z" />
    <glyph glyph-name="Acircumflex" unicode="&#xc2;" horiz-adv-x="1406" 
d="M592 1741h225l244 -320h-238l-118 174l-119 -174h-238zM1098 0l-115 295h-573l-115 -295h-268l526 1313h301l528 -1313h-284zM496 522h401l-201 518z" />
    <glyph glyph-name="Atilde" unicode="&#xc3;" horiz-adv-x="1406" 
d="M864 1438q-50 0 -103.5 23.5t-102.5 47t-89 23.5q-20 0 -36 -7.5t-31 -26t-22 -29t-23 -37.5l-123 100q74 180 211 180q50 0 103.5 -24t102.5 -48t89 -24q20 0 36 7.5t30.5 25.5t22.5 30.5t23 38.5l123 -102q-74 -178 -211 -178zM1098 0l-115 295h-573l-115 -295h-268
l526 1313h301l528 -1313h-284zM496 522h401l-201 518z" />
    <glyph glyph-name="Adieresis" unicode="&#xc4;" horiz-adv-x="1406" 
d="M385 1579q0 56 38 95.5t93 39.5q57 0 96 -39.5t39 -95.5t-39 -94.5t-96 -38.5q-55 0 -93 38.5t-38 94.5zM758 1579q0 56 38.5 95.5t92.5 39.5q55 0 95 -40t40 -95t-39.5 -94t-95.5 -39q-54 0 -92.5 39t-38.5 94zM1098 0l-115 295h-573l-115 -295h-268l526 1313h301
l528 -1313h-284zM496 522h401l-201 518z" />
    <glyph glyph-name="Aring" unicode="&#xc5;" horiz-adv-x="1406" 
d="M705 1401q-104 0 -175 69t-71 168t71 168.5t175 69.5t174.5 -69.5t70.5 -168.5t-70.5 -168t-174.5 -69zM707 1538q42 0 70 28t28 72t-28.5 73.5t-69.5 29.5q-42 0 -71.5 -29.5t-29.5 -73.5q0 -43 29.5 -71.5t71.5 -28.5zM1098 0l-115 295h-573l-115 -295h-268l526 1313
h301l528 -1313h-284zM496 522h401l-201 518z" />
    <glyph glyph-name="AE" unicode="&#xc6;" horiz-adv-x="1714" 
d="M834 0v295h-426l-129 -295h-269l586 1313h1049v-240h-555v-291h473v-241h-473v-299h555v-242h-811zM756 1090l-248 -568h326v568h-78z" />
    <glyph glyph-name="Ccedilla" unicode="&#xc7;" horiz-adv-x="1282" 
d="M1241 1161l-170 -196q-130 120 -313 120q-167 0 -284.5 -125.5t-117.5 -304.5t120 -303.5t298 -124.5q85 0 164.5 31t134.5 88l168 -188q-146 -162 -403 -183l-138 -376l-198 82l164 299q-253 34 -418.5 225.5t-165.5 449.5q0 140 53.5 266.5t144 218t215 145.5t261.5 54
q310 0 485 -178z" />
    <glyph glyph-name="Egrave" unicode="&#xc8;" horiz-adv-x="1071" 
d="M508 1741l201 -320h-228l-268 320h295zM150 0v1313h851v-240h-595v-291h514v-241h-514v-299h595v-242h-851z" />
    <glyph glyph-name="Eacute" unicode="&#xc9;" horiz-adv-x="1071" 
d="M641 1741h295l-268 -320h-228zM150 0v1313h851v-240h-595v-291h514v-241h-514v-299h595v-242h-851z" />
    <glyph glyph-name="Ecircumflex" unicode="&#xca;" horiz-adv-x="1071" 
d="M463 1741h225l244 -320h-238l-119 174l-118 -174h-238zM150 0v1313h851v-240h-595v-291h514v-241h-514v-299h595v-242h-851z" />
    <glyph glyph-name="Edieresis" unicode="&#xcb;" horiz-adv-x="1071" 
d="M256 1579q0 56 38 95.5t93 39.5q57 0 96 -39.5t39 -95.5t-39 -94.5t-96 -38.5q-55 0 -93 38.5t-38 94.5zM629 1579q0 56 38.5 95.5t92.5 39.5q56 0 95.5 -40t39.5 -95t-39.5 -94t-95.5 -39q-54 0 -92.5 39t-38.5 94zM150 0v1313h851v-240h-595v-291h514v-241h-514v-299
h595v-242h-851z" />
    <glyph glyph-name="Igrave" unicode="&#xcc;" horiz-adv-x="557" 
d="M211 1741l201 -320h-228l-268 320h295zM150 0v1313h256v-1313h-256z" />
    <glyph glyph-name="Iacute" unicode="&#xcd;" horiz-adv-x="557" 
d="M344 1741h295l-268 -320h-228zM150 0v1313h256v-1313h-256z" />
    <glyph glyph-name="Icircumflex" unicode="&#xce;" horiz-adv-x="557" 
d="M166 1741h225l244 -320h-238l-118 174l-119 -174h-238zM150 0v1313h256v-1313h-256z" />
    <glyph glyph-name="Idieresis" unicode="&#xcf;" horiz-adv-x="557" 
d="M-41 1579q0 56 38 95.5t93 39.5q57 0 96 -39.5t39 -95.5t-39 -94.5t-96 -38.5q-55 0 -93 38.5t-38 94.5zM332 1579q0 56 38.5 95.5t92.5 39.5q55 0 95 -40t40 -95t-39.5 -94t-95.5 -39q-54 0 -92.5 39t-38.5 94zM150 0v1313h256v-1313h-256z" />
    <glyph glyph-name="Eth" unicode="&#xd0;" horiz-adv-x="1411" 
d="M150 0v559h-134v213h134v539h438q213 0 382.5 -83.5t264 -233.5t94.5 -339t-93.5 -338.5t-261 -233t-378.5 -83.5h-446zM586 1071h-172v-299h256v-213h-256v-317h174q211 0 339 113t128 300q0 189 -128.5 302.5t-340.5 113.5z" />
    <glyph glyph-name="Ntilde" unicode="&#xd1;" horiz-adv-x="1437" 
d="M889 1438q-50 0 -103.5 23.5t-102.5 47t-89 23.5q-20 0 -36 -7.5t-31 -25.5t-23 -29.5t-23 -37.5l-123 100q74 180 211 180q50 0 103.5 -24t102.5 -48t89 -24q26 0 48.5 17t34 34t30.5 51l123 -102q-74 -178 -211 -178zM1016 0l-613 889v-889h-256v1313h275l614 -899v899
h256v-1313h-276z" />
    <glyph glyph-name="Ograve" unicode="&#xd2;" horiz-adv-x="1523" 
d="M694 1741l201 -320h-227l-269 320h295zM762 1339q184 0 341 -92t248 -250t91 -344q0 -138 -54 -264t-145 -217t-217 -145t-264 -54t-264 54t-217 145.5t-145 218t-54 264.5q0 140 54 266.5t145 218t217 145.5t264 54zM762 227q168 0 287.5 125.5t119.5 300.5
q0 117 -54.5 216.5t-148 157.5t-204.5 58q-169 0 -287.5 -125.5t-118.5 -304.5q0 -177 118.5 -302.5t287.5 -125.5z" />
    <glyph glyph-name="Oacute" unicode="&#xd3;" horiz-adv-x="1523" 
d="M827 1741h295l-268 -320h-227zM762 1339q184 0 341 -92t248 -250t91 -344q0 -138 -54 -264t-145 -217t-217 -145t-264 -54t-264 54t-217 145.5t-145 218t-54 264.5q0 140 54 266.5t145 218t217 145.5t264 54zM762 227q168 0 287.5 125.5t119.5 300.5q0 117 -54.5 216.5
t-148 157.5t-204.5 58q-169 0 -287.5 -125.5t-118.5 -304.5q0 -177 118.5 -302.5t287.5 -125.5z" />
    <glyph glyph-name="Ocircumflex" unicode="&#xd4;" horiz-adv-x="1523" 
d="M649 1741h225l244 -320h-237l-119 174l-119 -174h-237zM762 1339q184 0 341 -92t248 -250t91 -344q0 -138 -54 -264t-145 -217t-217 -145t-264 -54t-264 54t-217 145.5t-145 218t-54 264.5q0 140 54 266.5t145 218t217 145.5t264 54zM762 227q168 0 287.5 125.5
t119.5 300.5q0 117 -54.5 216.5t-148 157.5t-204.5 58q-169 0 -287.5 -125.5t-118.5 -304.5q0 -177 118.5 -302.5t287.5 -125.5z" />
    <glyph glyph-name="Otilde" unicode="&#xd5;" horiz-adv-x="1523" 
d="M922 1438q-50 0 -103.5 23.5t-102.5 47t-89 23.5q-20 0 -36 -7.5t-31 -25.5t-23 -29.5t-23 -37.5l-123 100q74 180 211 180q50 0 103.5 -24t102.5 -48t89 -24q26 0 48.5 17t34 34t30.5 51l123 -102q-74 -178 -211 -178zM762 1339q184 0 341 -92t248 -250t91 -344
q0 -138 -54 -264t-145 -217t-217 -145t-264 -54t-264 54t-217 145.5t-145 218t-54 264.5q0 140 54 266.5t145 218t217 145.5t264 54zM762 227q168 0 287.5 125.5t119.5 300.5q0 117 -54.5 216.5t-148 157.5t-204.5 58q-169 0 -287.5 -125.5t-118.5 -304.5
q0 -177 118.5 -302.5t287.5 -125.5z" />
    <glyph glyph-name="Odieresis" unicode="&#xd6;" horiz-adv-x="1523" 
d="M442 1579q0 56 38 95.5t93 39.5q57 0 96.5 -39.5t39.5 -95.5t-39.5 -94.5t-96.5 -38.5q-55 0 -93 38.5t-38 94.5zM815 1579q0 56 38.5 95.5t92.5 39.5q56 0 95.5 -40t39.5 -95t-39.5 -94t-95.5 -39q-54 0 -92.5 39t-38.5 94zM762 1339q184 0 341 -92t248 -250t91 -344
q0 -138 -54 -264t-145 -217t-217 -145t-264 -54t-264 54t-217 145.5t-145 218t-54 264.5q0 140 54 266.5t145 218t217 145.5t264 54zM762 227q168 0 287.5 125.5t119.5 300.5q0 117 -54.5 216.5t-148 157.5t-204.5 58q-169 0 -287.5 -125.5t-118.5 -304.5
q0 -177 118.5 -302.5t287.5 -125.5z" />
    <glyph glyph-name="multiply" unicode="&#xd7;" horiz-adv-x="1054" 
d="M279 244l-166 164l247 249l-243 244l166 168l245 -246l248 250l166 -168l-248 -248l244 -243l-166 -166l-244 244z" />
    <glyph glyph-name="Oslash" unicode="&#xd8;" horiz-adv-x="1523" 
d="M205 -2l102 152q-105 96 -165 227t-60 278q0 140 54 266.5t145 218t217 145.5t264 54q162 0 305 -73l96 143l146 -94l-99 -146q108 -96 170 -230.5t62 -285.5q0 -138 -54 -264t-145 -217t-217 -145t-264 -54q-161 0 -313 76l-99 -145zM356 655q0 -160 103 -284l461 680
q-69 34 -158 34q-169 0 -287.5 -125.5t-118.5 -304.5zM762 227q168 0 287.5 125.5t119.5 300.5q0 172 -110 295l-463 -684q79 -37 166 -37z" />
    <glyph glyph-name="Ugrave" unicode="&#xd9;" horiz-adv-x="1345" 
d="M606 1741l201 -320h-227l-269 320h295zM137 535v778h256v-774q0 -140 77.5 -226t203.5 -86q127 0 202.5 85t75.5 227v774h258v-778q0 -253 -148.5 -407.5t-391.5 -154.5q-241 0 -387 154t-146 408z" />
    <glyph glyph-name="Uacute" unicode="&#xda;" horiz-adv-x="1345" 
d="M739 1741h295l-268 -320h-227zM137 535v778h256v-774q0 -140 77.5 -226t203.5 -86q127 0 202.5 85t75.5 227v774h258v-778q0 -253 -148.5 -407.5t-391.5 -154.5q-241 0 -387 154t-146 408z" />
    <glyph glyph-name="Ucircumflex" unicode="&#xdb;" horiz-adv-x="1345" 
d="M561 1741h225l244 -320h-237l-119 174l-119 -174h-238zM137 535v778h256v-774q0 -140 77.5 -226t203.5 -86q127 0 202.5 85t75.5 227v774h258v-778q0 -253 -148.5 -407.5t-391.5 -154.5q-241 0 -387 154t-146 408z" />
    <glyph glyph-name="Udieresis" unicode="&#xdc;" horiz-adv-x="1345" 
d="M354 1579q0 56 38 95.5t93 39.5q57 0 96.5 -39.5t39.5 -95.5t-39.5 -94.5t-96.5 -38.5q-55 0 -93 38.5t-38 94.5zM727 1579q0 56 38.5 95.5t92.5 39.5q56 0 95.5 -40t39.5 -95t-39.5 -94t-95.5 -39q-54 0 -92.5 39t-38.5 94zM137 535v778h256v-774q0 -140 77.5 -226
t203.5 -86q127 0 202.5 85t75.5 227v774h258v-778q0 -253 -148.5 -407.5t-391.5 -154.5q-241 0 -387 154t-146 408z" />
    <glyph glyph-name="Yacute" unicode="&#xdd;" horiz-adv-x="1263" 
d="M698 1741h295l-268 -320h-227zM504 0v436l-486 877h287l330 -608l336 608h272l-483 -877v-436h-256z" />
    <glyph glyph-name="Thorn" unicode="&#xde;" horiz-adv-x="1206" 
d="M406 0h-256v1313h256v-207h212q238 0 382.5 -119t144.5 -315q0 -198 -145.5 -317t-385.5 -119h-208v-236zM639 879h-233v-418h233q106 0 170.5 58t64.5 153q0 94 -64.5 150.5t-170.5 56.5z" />
    <glyph glyph-name="germandbls" unicode="&#xdf;" horiz-adv-x="1193" 
d="M590 1202q-96 0 -148.5 -58t-52.5 -173v-971h-250v967q0 216 122 342.5t327 126.5q199 0 320.5 -113.5t121.5 -290.5q0 -169 -139 -266q221 -108 221 -358q0 -195 -125 -315t-317 -120q-114 0 -193 33l60 221q44 -20 108 -20q95 0 155 58.5t60 152.5q0 100 -64 159.5
t-184 59.5h-90v205h74q89 0 135.5 53t46.5 127q0 80 -48.5 130t-139.5 50z" />
    <glyph glyph-name="agrave" unicode="&#xe0;" horiz-adv-x="1234" 
d="M539 1409l200 -319h-227l-268 319h295zM545 -27q-129 0 -235.5 65t-170 184.5t-63.5 269.5q0 222 133.5 369t335.5 147q194 0 301 -156v129h250v-981h-250v139q-110 -166 -301 -166zM586 207q113 0 186.5 82.5t73.5 202.5t-73.5 201t-186.5 81t-186.5 -81t-73.5 -201
t73.5 -202.5t186.5 -82.5z" />
    <glyph glyph-name="aacute" unicode="&#xe1;" horiz-adv-x="1234" 
d="M672 1409h295l-269 -319h-227zM545 -27q-129 0 -235.5 65t-170 184.5t-63.5 269.5q0 222 133.5 369t335.5 147q194 0 301 -156v129h250v-981h-250v139q-110 -166 -301 -166zM586 207q113 0 186.5 82.5t73.5 202.5t-73.5 201t-186.5 81t-186.5 -81t-73.5 -201t73.5 -202.5
t186.5 -82.5z" />
    <glyph glyph-name="acircumflex" unicode="&#xe2;" horiz-adv-x="1234" 
d="M492 1409h225l244 -319h-238l-119 174l-119 -174h-237zM545 -27q-129 0 -235.5 65t-170 184.5t-63.5 269.5q0 222 133.5 369t335.5 147q194 0 301 -156v129h250v-981h-250v139q-110 -166 -301 -166zM586 207q113 0 186.5 82.5t73.5 202.5t-73.5 201t-186.5 81t-186.5 -81
t-73.5 -201t73.5 -202.5t186.5 -82.5z" />
    <glyph glyph-name="atilde" unicode="&#xe3;" horiz-adv-x="1234" 
d="M764 1106q-50 0 -103.5 23.5t-102.5 47t-89 23.5q-20 0 -36 -7.5t-31 -25.5t-23 -29.5t-23 -37.5l-123 100q74 180 211 180q50 0 103.5 -24t102.5 -48t89 -24q26 0 48.5 17t34 34t30.5 51l123 -102q-74 -178 -211 -178zM545 -27q-129 0 -235.5 65t-170 184.5t-63.5 269.5
q0 222 133.5 369t335.5 147q194 0 301 -156v129h250v-981h-250v139q-110 -166 -301 -166zM586 207q113 0 186.5 82.5t73.5 202.5t-73.5 201t-186.5 81t-186.5 -81t-73.5 -201t73.5 -202.5t186.5 -82.5z" />
    <glyph glyph-name="adieresis" unicode="&#xe4;" horiz-adv-x="1234" 
d="M285 1247q0 56 38 95.5t93 39.5q57 0 96 -39.5t39 -95.5t-39 -94.5t-96 -38.5q-55 0 -93 38.5t-38 94.5zM657 1247q0 56 38.5 95.5t92.5 39.5q56 0 96 -40t40 -95t-40 -94t-96 -39q-54 0 -92.5 39t-38.5 94zM545 -27q-129 0 -235.5 65t-170 184.5t-63.5 269.5
q0 222 133.5 369t335.5 147q194 0 301 -156v129h250v-981h-250v139q-110 -166 -301 -166zM586 207q113 0 186.5 82.5t73.5 202.5t-73.5 201t-186.5 81t-186.5 -81t-73.5 -201t73.5 -202.5t186.5 -82.5z" />
    <glyph glyph-name="aring" unicode="&#xe5;" horiz-adv-x="1234" 
d="M604 1069q-104 0 -175 69.5t-71 168.5t71 168t175 69t175 -69t71 -168t-71 -168.5t-175 -69.5zM606 1206q42 0 70.5 28.5t28.5 72.5t-28.5 73t-70.5 29t-71 -29t-29 -73t29 -72.5t71 -28.5zM545 -27q-129 0 -235.5 65t-170 184.5t-63.5 269.5q0 222 133.5 369t335.5 147
q194 0 301 -156v129h250v-981h-250v139q-110 -166 -301 -166zM586 207q113 0 186.5 82.5t73.5 202.5t-73.5 201t-186.5 81t-186.5 -81t-73.5 -201t73.5 -202.5t186.5 -82.5z" />
    <glyph glyph-name="ae" unicode="&#xe6;" horiz-adv-x="1882" 
d="M545 -27q-129 0 -235.5 65t-170 184.5t-63.5 269.5q0 222 133.5 369t335.5 147q200 0 301 -164v137h235v-129q111 156 293 156q117 0 219.5 -64.5t165 -180t62.5 -253.5q0 -58 -6 -82h-728q19 -105 92.5 -170t178.5 -65q151 0 250 102l129 -172q-56 -64 -155 -107
t-193 -43q-193 0 -308 166v-139h-235v147q-108 -174 -301 -174zM1331 797q-92 0 -154.5 -57.5t-84.5 -153.5h473q-21 103 -83 157t-151 54zM586 207q113 0 186.5 82.5t73.5 202.5t-73.5 201t-186.5 81t-186.5 -81t-73.5 -201t73.5 -202.5t186.5 -82.5z" />
    <glyph glyph-name="ccedilla" unicode="&#xe7;" horiz-adv-x="999" 
d="M831 684q-96 90 -233 90q-121 0 -196.5 -80.5t-75.5 -201.5t76 -203t196 -82q143 0 242 96l127 -184q-46 -51 -120 -87.5t-161 -49.5l-139 -383l-199 82l164 299q-191 29 -313.5 173t-122.5 339q0 141 67.5 259.5t185.5 187.5t259 69q244 0 387 -146z" />
    <glyph glyph-name="egrave" unicode="&#xe8;" horiz-adv-x="1126" 
d="M502 1409l200 -319h-227l-268 319h295zM602 -27q-112 0 -210.5 41t-167.5 110.5t-108.5 165.5t-39.5 202q0 141 63.5 259t177 187.5t252.5 69.5q211 0 353.5 -143t142.5 -355q0 -64 -6 -88h-727q21 -104 94.5 -166.5t183.5 -62.5q143 0 242 102l129 -172
q-60 -66 -160.5 -108t-218.5 -42zM573 797q-87 0 -149 -55t-86 -146h469q-23 97 -85 149t-149 52z" />
    <glyph glyph-name="eacute" unicode="&#xe9;" horiz-adv-x="1126" 
d="M635 1409h295l-268 -319h-228zM602 -27q-112 0 -210.5 41t-167.5 110.5t-108.5 165.5t-39.5 202q0 141 63.5 259t177 187.5t252.5 69.5q211 0 353.5 -143t142.5 -355q0 -64 -6 -88h-727q21 -104 94.5 -166.5t183.5 -62.5q143 0 242 102l129 -172q-60 -66 -160.5 -108
t-218.5 -42zM573 797q-87 0 -149 -55t-86 -146h469q-23 97 -85 149t-149 52z" />
    <glyph glyph-name="ecircumflex" unicode="&#xea;" horiz-adv-x="1126" 
d="M457 1409h225l244 -319h-238l-119 174l-118 -174h-238zM602 -27q-112 0 -210.5 41t-167.5 110.5t-108.5 165.5t-39.5 202q0 141 63.5 259t177 187.5t252.5 69.5q211 0 353.5 -143t142.5 -355q0 -64 -6 -88h-727q21 -104 94.5 -166.5t183.5 -62.5q143 0 242 102l129 -172
q-60 -66 -160.5 -108t-218.5 -42zM573 797q-87 0 -149 -55t-86 -146h469q-23 97 -85 149t-149 52z" />
    <glyph glyph-name="edieresis" unicode="&#xeb;" horiz-adv-x="1126" 
d="M250 1247q0 56 38 95.5t93 39.5q57 0 96 -39.5t39 -95.5t-39 -94.5t-96 -38.5q-55 0 -93 38.5t-38 94.5zM623 1247q0 56 38.5 95.5t92.5 39.5q56 0 95.5 -40t39.5 -95t-39.5 -94t-95.5 -39q-54 0 -92.5 39t-38.5 94zM602 -27q-112 0 -210.5 41t-167.5 110.5t-108.5 165.5
t-39.5 202q0 141 63.5 259t177 187.5t252.5 69.5q211 0 353.5 -143t142.5 -355q0 -64 -6 -88h-727q21 -104 94.5 -166.5t183.5 -62.5q143 0 242 102l129 -172q-60 -66 -160.5 -108t-218.5 -42zM573 797q-87 0 -149 -55t-86 -146h469q-23 97 -85 149t-149 52z" />
    <glyph glyph-name="igrave" unicode="&#xec;" horiz-adv-x="530" 
d="M199 1409l200 -319h-227l-268 319h295zM389 981v-981h-250v981h250z" />
    <glyph glyph-name="iacute" unicode="&#xed;" horiz-adv-x="530" 
d="M332 1409h295l-269 -319h-227zM389 981v-981h-250v981h250z" />
    <glyph glyph-name="icircumflex" unicode="&#xee;" horiz-adv-x="530" 
d="M154 1409h225l244 -319h-238l-119 174l-119 -174h-237zM389 981v-981h-250v981h250z" />
    <glyph glyph-name="idieresis" unicode="&#xef;" horiz-adv-x="530" 
d="M-53 1247q0 56 38 95.5t93 39.5q57 0 96 -39.5t39 -95.5t-39 -94.5t-96 -38.5q-55 0 -93 38.5t-38 94.5zM319 1247q0 55 39 95t93 40q55 0 95 -40t40 -95t-39.5 -94t-95.5 -39q-54 0 -93 39t-39 94zM389 981v-981h-250v981h250z" />
    <glyph glyph-name="eth" unicode="&#xf0;" horiz-adv-x="1171" 
d="M444 1030l-77 133l108 62q-81 63 -143 90l168 155q106 -50 194 -120l135 75l78 -133l-94 -53q133 -141 208 -319t75 -369q0 -262 -140.5 -420t-369.5 -158q-140 0 -257.5 66.5t-185 182.5t-67.5 255q0 210 147 347t363 137q78 0 178 -62q-54 105 -164 219zM586 207
q113 0 186.5 77t73.5 193q0 117 -73 194t-187 77t-187 -77t-73 -194q0 -116 73.5 -193t186.5 -77z" />
    <glyph glyph-name="ntilde" unicode="&#xf1;" horiz-adv-x="1169" 
d="M745 1106q-50 0 -103 23.5t-102 47t-89 23.5q-20 0 -36 -7.5t-31 -25.5t-23 -29.5t-23 -37.5l-123 100q74 180 211 180q50 0 103.5 -24t102.5 -48t89 -24q26 0 48.5 17t34 34t30.5 51l122 -102q-74 -178 -211 -178zM139 0v981h250v-139q39 79 111 122.5t168 43.5
q169 0 269.5 -111.5t100.5 -302.5v-594h-250v557q0 100 -53 158.5t-145 58.5t-146.5 -58.5t-54.5 -158.5v-557h-250z" />
    <glyph glyph-name="ograve" unicode="&#xf2;" horiz-adv-x="1171" 
d="M518 1409l201 -319h-227l-269 319h295zM586 -27q-140 0 -257.5 69.5t-185 189t-67.5 260.5q0 140 67.5 259t185 188t257.5 69t257.5 -69t185 -188t67.5 -259q0 -141 -67.5 -260.5t-185 -189t-257.5 -69.5zM586 207q113 0 186.5 82.5t73.5 202.5t-73.5 201t-186.5 81
t-186.5 -81t-73.5 -201t73.5 -202.5t186.5 -82.5z" />
    <glyph glyph-name="oacute" unicode="&#xf3;" horiz-adv-x="1171" 
d="M651 1409h295l-268 -319h-227zM586 -27q-140 0 -257.5 69.5t-185 189t-67.5 260.5q0 140 67.5 259t185 188t257.5 69t257.5 -69t185 -188t67.5 -259q0 -141 -67.5 -260.5t-185 -189t-257.5 -69.5zM586 207q113 0 186.5 82.5t73.5 202.5t-73.5 201t-186.5 81t-186.5 -81
t-73.5 -201t73.5 -202.5t186.5 -82.5z" />
    <glyph glyph-name="ocircumflex" unicode="&#xf4;" horiz-adv-x="1171" 
d="M473 1409h225l244 -319h-237l-119 174l-119 -174h-238zM586 -27q-140 0 -257.5 69.5t-185 189t-67.5 260.5q0 140 67.5 259t185 188t257.5 69t257.5 -69t185 -188t67.5 -259q0 -141 -67.5 -260.5t-185 -189t-257.5 -69.5zM586 207q113 0 186.5 82.5t73.5 202.5t-73.5 201
t-186.5 81t-186.5 -81t-73.5 -201t73.5 -202.5t186.5 -82.5z" />
    <glyph glyph-name="otilde" unicode="&#xf5;" horiz-adv-x="1171" 
d="M745 1106q-50 0 -103 23.5t-102 47t-89 23.5q-20 0 -36 -7.5t-31 -25.5t-23 -29.5t-23 -37.5l-123 100q74 180 211 180q50 0 103.5 -24t102.5 -48t89 -24q26 0 48.5 17t34 34t30.5 51l122 -102q-74 -178 -211 -178zM586 -27q-140 0 -257.5 69.5t-185 189t-67.5 260.5
q0 140 67.5 259t185 188t257.5 69t257.5 -69t185 -188t67.5 -259q0 -141 -67.5 -260.5t-185 -189t-257.5 -69.5zM586 207q113 0 186.5 82.5t73.5 202.5t-73.5 201t-186.5 81t-186.5 -81t-73.5 -201t73.5 -202.5t186.5 -82.5z" />
    <glyph glyph-name="odieresis" unicode="&#xf6;" horiz-adv-x="1171" 
d="M266 1247q0 56 38 95.5t93 39.5q57 0 96 -39.5t39 -95.5t-39 -94.5t-96 -38.5q-55 0 -93 38.5t-38 94.5zM639 1247q0 56 38.5 95.5t92.5 39.5q56 0 95.5 -40t39.5 -95t-39.5 -94t-95.5 -39q-54 0 -92.5 39t-38.5 94zM586 -27q-140 0 -257.5 69.5t-185 189t-67.5 260.5
q0 140 67.5 259t185 188t257.5 69t257.5 -69t185 -188t67.5 -259q0 -141 -67.5 -260.5t-185 -189t-257.5 -69.5zM586 207q113 0 186.5 82.5t73.5 202.5t-73.5 201t-186.5 81t-186.5 -81t-73.5 -201t73.5 -202.5t186.5 -82.5z" />
    <glyph glyph-name="divide" unicode="&#xf7;" horiz-adv-x="1054" 
d="M524 893q-67 0 -114.5 48t-47.5 114q0 68 47.5 116t114.5 48q66 0 115 -48.5t49 -115.5q0 -66 -49 -114t-115 -48zM969 545h-883v225h883v-225zM524 94q-68 0 -115 47t-47 115q0 67 47.5 115.5t114.5 48.5q66 0 115 -49t49 -115q0 -67 -48.5 -114.5t-115.5 -47.5z" />
    <glyph glyph-name="oslash" unicode="&#xf8;" horiz-adv-x="1214" 
d="M606 -27q-120 0 -227 52l-76 -111l-125 84l76 111q-81 72 -126.5 171.5t-45.5 211.5q0 140 70 259t190.5 188t263.5 69q120 0 230 -52l82 121l122 -84l-82 -119q83 -71 129 -170t46 -212q0 -141 -70 -260.5t-191.5 -189t-265.5 -69.5zM332 492q0 -104 61 -181l305 447
q-46 16 -92 16q-118 0 -196 -81.5t-78 -200.5zM881 492q0 101 -60 180l-307 -449q46 -16 92 -16q119 0 197 82.5t78 202.5z" />
    <glyph glyph-name="ugrave" unicode="&#xf9;" horiz-adv-x="1169" 
d="M518 1409l201 -319h-227l-269 319h295zM377 981v-530q0 -108 57 -174t150 -66q94 0 151.5 66.5t57.5 173.5v530h251v-549q0 -206 -126.5 -331.5t-333.5 -125.5t-332 125.5t-125 331.5v549h250z" />
    <glyph glyph-name="uacute" unicode="&#xfa;" horiz-adv-x="1169" 
d="M651 1409h295l-268 -319h-227zM377 981v-530q0 -108 57 -174t150 -66q94 0 151.5 66.5t57.5 173.5v530h251v-549q0 -206 -126.5 -331.5t-333.5 -125.5t-332 125.5t-125 331.5v549h250z" />
    <glyph glyph-name="ucircumflex" unicode="&#xfb;" horiz-adv-x="1169" 
d="M473 1409h225l244 -319h-237l-119 174l-119 -174h-238zM377 981v-530q0 -108 57 -174t150 -66q94 0 151.5 66.5t57.5 173.5v530h251v-549q0 -206 -126.5 -331.5t-333.5 -125.5t-332 125.5t-125 331.5v549h250z" />
    <glyph glyph-name="udieresis" unicode="&#xfc;" horiz-adv-x="1169" 
d="M266 1247q0 56 38 95.5t93 39.5q57 0 96 -39.5t39 -95.5t-39 -94.5t-96 -38.5q-55 0 -93 38.5t-38 94.5zM639 1247q0 56 38.5 95.5t92.5 39.5q56 0 95.5 -40t39.5 -95t-39.5 -94t-95.5 -39q-54 0 -92.5 39t-38.5 94zM377 981v-530q0 -108 57 -174t150 -66
q94 0 151.5 66.5t57.5 173.5v530h251v-549q0 -206 -126.5 -331.5t-333.5 -125.5t-332 125.5t-125 331.5v549h250z" />
    <glyph glyph-name="yacute" unicode="&#xfd;" horiz-adv-x="1087" 
d="M610 1409h295l-268 -319h-227zM453 -39l8 25l-449 995h275l286 -676l236 676h252l-402 -1106q-107 -303 -364 -303q-76 0 -147.5 28t-120.5 74l112 197q69 -66 158 -66q53 0 89.5 35.5t66.5 120.5z" />
    <glyph glyph-name="thorn" unicode="&#xfe;" horiz-adv-x="1234" 
d="M690 1008q197 0 334 -146.5t137 -372.5q0 -146 -60.5 -264t-168.5 -185t-242 -67q-190 0 -301 127v-501h-250v1810h250v-537q119 136 301 136zM651 774q-113 0 -187.5 -82.5t-74.5 -202.5q0 -119 74.5 -200.5t187.5 -81.5q112 0 186 81.5t74 200.5q0 120 -74.5 202.5
t-185.5 82.5z" />
    <glyph glyph-name="ydieresis" unicode="&#xff;" horiz-adv-x="1087" 
d="M225 1247q0 56 38 95.5t93 39.5q57 0 96.5 -39.5t39.5 -95.5t-39.5 -94.5t-96.5 -38.5q-55 0 -93 38.5t-38 94.5zM598 1247q0 56 38.5 95.5t92.5 39.5q55 0 95 -40t40 -95t-39.5 -94t-95.5 -39q-54 0 -92.5 39t-38.5 94zM453 -39l8 25l-449 995h275l286 -676l236 676h252
l-402 -1106q-107 -303 -364 -303q-76 0 -147.5 28t-120.5 74l112 197q69 -66 158 -66q53 0 89.5 35.5t66.5 120.5z" />
    <glyph glyph-name="Amacron" unicode="&#x100;" horiz-adv-x="1406" 
d="M399 1681h609v-184h-609v184zM1098 0l-115 295h-573l-115 -295h-268l526 1313h301l528 -1313h-284zM496 522h401l-201 518z" />
    <glyph glyph-name="amacron" unicode="&#x101;" horiz-adv-x="1234" 
d="M299 1350h608v-185h-608v185zM545 -27q-129 0 -235.5 65t-170 184.5t-63.5 269.5q0 222 133.5 369t335.5 147q194 0 301 -156v129h250v-981h-250v139q-110 -166 -301 -166zM586 207q113 0 186.5 82.5t73.5 202.5t-73.5 201t-186.5 81t-186.5 -81t-73.5 -201t73.5 -202.5
t186.5 -82.5z" />
    <glyph glyph-name="Abreve" unicode="&#x102;" horiz-adv-x="1406" 
d="M702 1401q-134 0 -221.5 92t-87.5 236h176q0 -79 37.5 -120.5t95.5 -41.5q59 0 96.5 41t37.5 121h178q0 -144 -88 -236t-224 -92zM1098 0l-115 295h-573l-115 -295h-268l526 1313h301l528 -1313h-284zM496 522h401l-201 518z" />
    <glyph glyph-name="abreve" unicode="&#x103;" horiz-adv-x="1234" 
d="M602 1069q-134 0 -221.5 92t-87.5 236h176q0 -79 37.5 -120.5t95.5 -41.5q59 0 96 41t37 121h178q0 -144 -87.5 -236t-223.5 -92zM545 -27q-129 0 -235.5 65t-170 184.5t-63.5 269.5q0 222 133.5 369t335.5 147q194 0 301 -156v129h250v-981h-250v139
q-110 -166 -301 -166zM586 207q113 0 186.5 82.5t73.5 202.5t-73.5 201t-186.5 81t-186.5 -81t-73.5 -201t73.5 -202.5t186.5 -82.5z" />
    <glyph glyph-name="Aogonek" unicode="&#x104;" horiz-adv-x="1406" 
d="M1098 0l-115 295h-573l-115 -295h-268l526 1313h301l528 -1313q-213 -99 -213 -207q0 -31 20 -48t52 -17q54 0 107 45l73 -117q-36 -41 -93 -66.5t-126 -25.5q-96 0 -159.5 49t-63.5 137q0 142 168 250h-49zM496 522h401l-201 518z" />
    <glyph glyph-name="aogonek" unicode="&#x105;" horiz-adv-x="1234" 
d="M545 -27q-129 0 -235.5 65t-170 184.5t-63.5 269.5q0 222 133.5 369t335.5 147q194 0 301 -156v129h250v-981q-213 -99 -213 -207q0 -31 19.5 -48t51.5 -17q54 0 107 45l74 -117q-36 -41 -93.5 -66.5t-126.5 -25.5q-96 0 -159.5 49t-63.5 137q0 142 168 250h-14v139
q-110 -166 -301 -166zM586 207q113 0 186.5 82.5t73.5 202.5t-73.5 201t-186.5 81t-186.5 -81t-73.5 -201t73.5 -202.5t186.5 -82.5z" />
    <glyph glyph-name="Cacute" unicode="&#x106;" horiz-adv-x="1282" 
d="M821 1741h295l-268 -320h-227zM1241 1161l-170 -196q-130 120 -313 120q-167 0 -284.5 -125.5t-117.5 -304.5t120 -303.5t298 -124.5q85 0 164.5 31t134.5 88l168 -188q-168 -185 -483 -185q-188 0 -343.5 92t-244 248.5t-88.5 341.5q0 140 53.5 266.5t144 218t215 145.5
t261.5 54q310 0 485 -178z" />
    <glyph glyph-name="cacute" unicode="&#x107;" horiz-adv-x="999" 
d="M655 1409h295l-268 -319h-227zM831 684q-96 90 -233 90q-121 0 -196.5 -80.5t-75.5 -201.5t76 -203t196 -82q143 0 242 96l127 -184q-60 -66 -160.5 -106t-214.5 -40q-144 0 -262.5 69.5t-186 188.5t-67.5 261q0 141 67.5 259.5t185.5 187.5t259 69q244 0 387 -146z" />
    <glyph glyph-name="Ccircumflex" unicode="&#x108;" horiz-adv-x="1282" 
d="M643 1741h225l244 -320h-238l-118 174l-119 -174h-238zM1241 1161l-170 -196q-130 120 -313 120q-167 0 -284.5 -125.5t-117.5 -304.5t120 -303.5t298 -124.5q85 0 164.5 31t134.5 88l168 -188q-168 -185 -483 -185q-188 0 -343.5 92t-244 248.5t-88.5 341.5
q0 140 53.5 266.5t144 218t215 145.5t261.5 54q310 0 485 -178z" />
    <glyph glyph-name="ccircumflex" unicode="&#x109;" horiz-adv-x="999" 
d="M477 1409h225l244 -319h-237l-119 174l-119 -174h-238zM831 684q-96 90 -233 90q-121 0 -196.5 -80.5t-75.5 -201.5t76 -203t196 -82q143 0 242 96l127 -184q-60 -66 -160.5 -106t-214.5 -40q-144 0 -262.5 69.5t-186 188.5t-67.5 261q0 141 67.5 259.5t185.5 187.5
t259 69q244 0 387 -146z" />
    <glyph glyph-name="Cdotaccent" unicode="&#x10a;" horiz-adv-x="1282" 
d="M608 1591q0 60 43.5 103t104.5 43q60 0 102.5 -43t42.5 -103q0 -61 -42.5 -104t-102.5 -43q-62 0 -105 43t-43 104zM1241 1161l-170 -196q-130 120 -313 120q-167 0 -284.5 -125.5t-117.5 -304.5t120 -303.5t298 -124.5q85 0 164.5 31t134.5 88l168 -188
q-168 -185 -483 -185q-188 0 -343.5 92t-244 248.5t-88.5 341.5q0 140 53.5 266.5t144 218t215 145.5t261.5 54q310 0 485 -178z" />
    <glyph glyph-name="cdotaccent" unicode="&#x10b;" horiz-adv-x="999" 
d="M442 1260q0 60 43.5 102.5t104.5 42.5q60 0 102.5 -42.5t42.5 -102.5q0 -61 -42.5 -104.5t-102.5 -43.5q-62 0 -105 43t-43 105zM831 684q-96 90 -233 90q-121 0 -196.5 -80.5t-75.5 -201.5t76 -203t196 -82q143 0 242 96l127 -184q-60 -66 -160.5 -106t-214.5 -40
q-144 0 -262.5 69.5t-186 188.5t-67.5 261q0 141 67.5 259.5t185.5 187.5t259 69q244 0 387 -146z" />
    <glyph glyph-name="Ccaron" unicode="&#x10c;" horiz-adv-x="1282" 
d="M868 1421h-225l-244 320h238l119 -174l118 174h238zM1241 1161l-170 -196q-130 120 -313 120q-167 0 -284.5 -125.5t-117.5 -304.5t120 -303.5t298 -124.5q85 0 164.5 31t134.5 88l168 -188q-168 -185 -483 -185q-188 0 -343.5 92t-244 248.5t-88.5 341.5
q0 140 53.5 266.5t144 218t215 145.5t261.5 54q310 0 485 -178z" />
    <glyph glyph-name="ccaron" unicode="&#x10d;" horiz-adv-x="999" 
d="M702 1090h-225l-244 319h238l119 -174l119 174h237zM831 684q-96 90 -233 90q-121 0 -196.5 -80.5t-75.5 -201.5t76 -203t196 -82q143 0 242 96l127 -184q-60 -66 -160.5 -106t-214.5 -40q-144 0 -262.5 69.5t-186 188.5t-67.5 261q0 141 67.5 259.5t185.5 187.5t259 69
q244 0 387 -146z" />
    <glyph glyph-name="Dcaron" unicode="&#x10e;" horiz-adv-x="1411" 
d="M799 1421h-226l-243 320h237l119 -174l119 174h237zM150 0v1311h438q213 0 382.5 -83.5t264 -233.5t94.5 -339t-93.5 -338.5t-261 -233t-378.5 -83.5h-446zM586 1071h-172v-829h174q211 0 339 113t128 300q0 189 -128.5 302.5t-340.5 113.5z" />
    <glyph glyph-name="dcaron" unicode="&#x10f;" horiz-adv-x="1234" 
d="M545 -27q-129 0 -235.5 65t-170 184.5t-63.5 269.5q0 222 133.5 369t335.5 147q194 0 301 -156v557h250v-1409h-250v139q-110 -166 -301 -166zM1432 1409l-86 -340h-183l41 340h228zM586 207q113 0 186.5 82.5t73.5 202.5t-73.5 201t-186.5 81t-186.5 -81t-73.5 -201
t73.5 -202.5t186.5 -82.5z" />
    <glyph glyph-name="Dcroat" unicode="&#x110;" horiz-adv-x="1411" 
d="M150 0v559h-134v213h134v539h438q213 0 382.5 -83.5t264 -233.5t94.5 -339t-93.5 -338.5t-261 -233t-378.5 -83.5h-446zM586 1071h-172v-299h256v-213h-256v-317h174q211 0 339 113t128 300q0 189 -128.5 302.5t-340.5 113.5z" />
    <glyph glyph-name="dcroat" unicode="&#x111;" horiz-adv-x="1234" 
d="M545 -27q-129 0 -235.5 65t-170 184.5t-63.5 269.5q0 222 133.5 369t335.5 147q194 0 301 -156v272h-254v185h254v100h250v-100h104v-185h-104v-1124h-250v139q-110 -166 -301 -166zM586 207q113 0 186.5 82.5t73.5 202.5t-73.5 201t-186.5 81t-186.5 -81t-73.5 -201
t73.5 -202.5t186.5 -82.5z" />
    <glyph glyph-name="Emacron" unicode="&#x112;" horiz-adv-x="1071" 
d="M270 1681h609v-184h-609v184zM150 0v1313h851v-240h-595v-291h514v-241h-514v-299h595v-242h-851z" />
    <glyph glyph-name="emacron" unicode="&#x113;" horiz-adv-x="1126" 
d="M264 1350h608v-185h-608v185zM602 -27q-112 0 -210.5 41t-167.5 110.5t-108.5 165.5t-39.5 202q0 141 63.5 259t177 187.5t252.5 69.5q211 0 353.5 -143t142.5 -355q0 -64 -6 -88h-727q21 -104 94.5 -166.5t183.5 -62.5q143 0 242 102l129 -172q-60 -66 -160.5 -108
t-218.5 -42zM573 797q-87 0 -149 -55t-86 -146h469q-23 97 -85 149t-149 52z" />
    <glyph glyph-name="Ebreve" unicode="&#x114;" horiz-adv-x="1071" 
d="M573 1401q-134 0 -221.5 92t-87.5 236h176q0 -79 37.5 -120.5t95.5 -41.5q59 0 96.5 41t37.5 121h178q0 -144 -88 -236t-224 -92zM150 0v1313h851v-240h-595v-291h514v-241h-514v-299h595v-242h-851z" />
    <glyph glyph-name="ebreve" unicode="&#x115;" horiz-adv-x="1126" 
d="M567 1069q-134 0 -221.5 92t-87.5 236h176q0 -79 37.5 -120.5t95.5 -41.5q59 0 96 41t37 121h179q0 -144 -88 -236t-224 -92zM602 -27q-112 0 -210.5 41t-167.5 110.5t-108.5 165.5t-39.5 202q0 141 63.5 259t177 187.5t252.5 69.5q211 0 353.5 -143t142.5 -355
q0 -64 -6 -88h-727q21 -104 94.5 -166.5t183.5 -62.5q143 0 242 102l129 -172q-60 -66 -160.5 -108t-218.5 -42zM573 797q-87 0 -149 -55t-86 -146h469q-23 97 -85 149t-149 52z" />
    <glyph glyph-name="Edotaccent" unicode="&#x116;" horiz-adv-x="1071" 
d="M428 1591q0 60 43 103t104 43q60 0 103 -43t43 -103q0 -61 -43 -104t-103 -43q-61 0 -104 43t-43 104zM150 0v1313h851v-240h-595v-291h514v-241h-514v-299h595v-242h-851z" />
    <glyph glyph-name="edotaccent" unicode="&#x117;" horiz-adv-x="1126" 
d="M422 1260q0 60 43 102.5t104 42.5q60 0 103 -42.5t43 -102.5q0 -61 -43 -104.5t-103 -43.5q-61 0 -104 43t-43 105zM602 -27q-112 0 -210.5 41t-167.5 110.5t-108.5 165.5t-39.5 202q0 141 63.5 259t177 187.5t252.5 69.5q211 0 353.5 -143t142.5 -355q0 -64 -6 -88h-727
q21 -104 94.5 -166.5t183.5 -62.5q143 0 242 102l129 -172q-60 -66 -160.5 -108t-218.5 -42zM573 797q-87 0 -149 -55t-86 -146h469q-23 97 -85 149t-149 52z" />
    <glyph glyph-name="Eogonek" unicode="&#x118;" horiz-adv-x="1071" 
d="M150 0v1313h851v-240h-595v-291h514v-241h-514v-299h595v-242q-213 -99 -213 -207q0 -31 20 -48t52 -17q54 0 107 45l73 -117q-36 -41 -93 -66.5t-126 -25.5q-96 0 -159.5 49t-63.5 137q0 142 168 250h-616z" />
    <glyph glyph-name="eogonek" unicode="&#x119;" horiz-adv-x="1126" 
d="M817 -344q-36 -41 -93 -66.5t-126 -25.5q-96 0 -159.5 49t-63.5 137q0 130 139 230q-193 31 -315.5 174.5t-122.5 337.5q0 141 63.5 259t177 187.5t252.5 69.5q211 0 353.5 -143t142.5 -355q0 -64 -6 -88h-727q21 -104 94.5 -166.5t183.5 -62.5q143 0 242 102l129 -172
q-77 -83 -203 -123q-213 -99 -213 -207q0 -31 20 -48t52 -17q53 0 106 45zM573 797q-87 0 -149 -55t-86 -146h469q-23 97 -85 149t-149 52z" />
    <glyph glyph-name="Ecaron" unicode="&#x11a;" horiz-adv-x="1071" 
d="M688 1421h-225l-244 320h238l118 -174l119 174h238zM150 0v1313h851v-240h-595v-291h514v-241h-514v-299h595v-242h-851z" />
    <glyph glyph-name="ecaron" unicode="&#x11b;" horiz-adv-x="1126" 
d="M682 1090h-225l-244 319h238l118 -174l119 174h238zM602 -27q-112 0 -210.5 41t-167.5 110.5t-108.5 165.5t-39.5 202q0 141 63.5 259t177 187.5t252.5 69.5q211 0 353.5 -143t142.5 -355q0 -64 -6 -88h-727q21 -104 94.5 -166.5t183.5 -62.5q143 0 242 102l129 -172
q-60 -66 -160.5 -108t-218.5 -42zM573 797q-87 0 -149 -55t-86 -146h469q-23 97 -85 149t-149 52z" />
    <glyph glyph-name="Gcircumflex" unicode="&#x11c;" horiz-adv-x="1370" 
d="M602 1741h225l244 -320h-237l-119 174l-119 -174h-238zM764 -27q-201 0 -358 91t-240.5 246t-83.5 345q0 142 55.5 269.5t148 218t218 143.5t262.5 53q310 0 485 -178l-164 -188q-135 121 -319 121q-169 0 -290.5 -126t-121.5 -313q0 -123 53.5 -223.5t154.5 -160.5
t231 -60q133 0 233 53v238h-274v223h518v-598q-109 -82 -228 -118t-280 -36z" />
    <glyph glyph-name="gcircumflex" unicode="&#x11d;" horiz-adv-x="1220" 
d="M485 1409h226l243 -319h-237l-119 174l-119 -174h-237zM274 -104q128 -97 285 -97q128 0 200 67t72 191v117q-108 -160 -299 -160q-192 0 -324 140t-132 358q0 211 132.5 350t323.5 139q195 0 299 -145v125h250v-911q0 -113 -30 -201t-78.5 -143t-116.5 -90.5t-137 -49.5
t-146 -14q-282 0 -426 129zM580 250q108 0 179.5 76t71.5 186t-71.5 186t-179.5 76t-181 -76t-73 -186q0 -111 73 -186.5t181 -75.5z" />
    <glyph glyph-name="Gbreve" unicode="&#x11e;" horiz-adv-x="1370" 
d="M713 1401q-134 0 -222 92t-88 236h177q0 -79 37.5 -120.5t95.5 -41.5q59 0 96 41t37 121h178q0 -144 -87.5 -236t-223.5 -92zM764 -27q-201 0 -358 91t-240.5 246t-83.5 345q0 142 55.5 269.5t148 218t218 143.5t262.5 53q310 0 485 -178l-164 -188q-135 121 -319 121
q-169 0 -290.5 -126t-121.5 -313q0 -123 53.5 -223.5t154.5 -160.5t231 -60q133 0 233 53v238h-274v223h518v-598q-109 -82 -228 -118t-280 -36z" />
    <glyph glyph-name="gbreve" unicode="&#x11f;" horiz-adv-x="1220" 
d="M596 1069q-134 0 -221.5 92t-87.5 236h176q0 -79 37.5 -120.5t95.5 -41.5q59 0 96 41t37 121h178q0 -144 -87.5 -236t-223.5 -92zM274 -104q128 -97 285 -97q128 0 200 67t72 191v117q-108 -160 -299 -160q-192 0 -324 140t-132 358q0 211 132.5 350t323.5 139
q195 0 299 -145v125h250v-911q0 -113 -30 -201t-78.5 -143t-116.5 -90.5t-137 -49.5t-146 -14q-282 0 -426 129zM580 250q108 0 179.5 76t71.5 186t-71.5 186t-179.5 76t-181 -76t-73 -186q0 -111 73 -186.5t181 -75.5z" />
    <glyph glyph-name="Gdotaccent" unicode="&#x120;" horiz-adv-x="1370" 
d="M567 1591q0 60 43.5 103t104.5 43q60 0 102.5 -43t42.5 -103q0 -61 -42.5 -104t-102.5 -43q-62 0 -105 43t-43 104zM764 -27q-201 0 -358 91t-240.5 246t-83.5 345q0 142 55.5 269.5t148 218t218 143.5t262.5 53q310 0 485 -178l-164 -188q-135 121 -319 121
q-169 0 -290.5 -126t-121.5 -313q0 -123 53.5 -223.5t154.5 -160.5t231 -60q133 0 233 53v238h-274v223h518v-598q-109 -82 -228 -118t-280 -36z" />
    <glyph glyph-name="gdotaccent" unicode="&#x121;" horiz-adv-x="1220" 
d="M451 1260q0 60 43 102.5t104 42.5q60 0 102.5 -42.5t42.5 -102.5q0 -61 -42.5 -104.5t-102.5 -43.5q-61 0 -104 43t-43 105zM274 -104q128 -97 285 -97q128 0 200 67t72 191v117q-108 -160 -299 -160q-192 0 -324 140t-132 358q0 211 132.5 350t323.5 139q195 0 299 -145
v125h250v-911q0 -113 -30 -201t-78.5 -143t-116.5 -90.5t-137 -49.5t-146 -14q-282 0 -426 129zM580 250q108 0 179.5 76t71.5 186t-71.5 186t-179.5 76t-181 -76t-73 -186q0 -111 73 -186.5t181 -75.5z" />
    <glyph glyph-name="Gcommaaccent" unicode="&#x122;" horiz-adv-x="1370" 
d="M764 -27q-201 0 -358 91t-240.5 246t-83.5 345q0 142 55.5 269.5t148 218t218 143.5t262.5 53q310 0 485 -178l-164 -188q-135 121 -319 121q-169 0 -290.5 -126t-121.5 -313q0 -123 53.5 -223.5t154.5 -160.5t231 -60q133 0 233 53v238h-274v223h518v-598
q-109 -82 -228 -118t-280 -36zM836 -104l-117 -308h-195l66 308h246z" />
    <glyph glyph-name="gcommaaccent" unicode="&#x123;" horiz-adv-x="1220" 
d="M451 1102l116 307h199l-68 -307h-247zM274 -104q128 -97 285 -97q128 0 200 67t72 191v117q-108 -160 -299 -160q-192 0 -324 140t-132 358q0 211 132.5 350t323.5 139q195 0 299 -145v125h250v-911q0 -113 -30 -201t-78.5 -143t-116.5 -90.5t-137 -49.5t-146 -14
q-282 0 -426 129zM580 250q108 0 179.5 76t71.5 186t-71.5 186t-179.5 76t-181 -76t-73 -186q0 -111 73 -186.5t181 -75.5z" />
    <glyph glyph-name="Hcircumflex" unicode="&#x124;" horiz-adv-x="1437" 
d="M608 1741h226l243 -320h-237l-119 174l-119 -174h-237zM1032 0v551h-626v-551h-256v1313h256v-522h626v522h256v-1313h-256z" />
    <glyph glyph-name="hcircumflex" unicode="&#x125;" horiz-adv-x="1169" 
d="M328 1905h225l244 -320h-238l-119 174l-118 -174h-238zM139 0v1409h250v-567q39 79 111 122.5t168 43.5q169 0 269.5 -111.5t100.5 -302.5v-594h-250v557q0 100 -53 158.5t-145 58.5t-146.5 -58.5t-54.5 -158.5v-557h-250z" />
    <glyph glyph-name="Hbar" unicode="&#x126;" horiz-adv-x="1452" 
d="M412 0h-254v971h-111v184h111v158h254v-158h626v158h258v-158h109v-184h-109v-971h-258v551h-626v-551zM412 791h626v180h-626v-180z" />
    <glyph glyph-name="hbar" unicode="&#x127;" horiz-adv-x="1169" 
d="M139 0v1110h-102v184h102v115h250v-115h254v-184h-254v-268q39 79 111 122.5t168 43.5q169 0 269.5 -111.5t100.5 -302.5v-594h-250v557q0 100 -53 158.5t-145 58.5t-146.5 -58.5t-54.5 -158.5v-557h-250z" />
    <glyph glyph-name="Itilde" unicode="&#x128;" horiz-adv-x="557" 
d="M438 1438q-50 0 -103.5 23.5t-102.5 47t-89 23.5q-20 0 -36 -7.5t-31 -26t-22 -29t-23 -37.5l-123 100q74 180 211 180q50 0 103.5 -24t102.5 -48t89 -24q20 0 36 7.5t30.5 25.5t22.5 30.5t23 38.5l123 -102q-74 -178 -211 -178zM150 0v1313h256v-1313h-256z" />
    <glyph glyph-name="itilde" unicode="&#x129;" horiz-adv-x="530" 
d="M426 1106q-50 0 -103.5 23.5t-102.5 47t-89 23.5q-20 0 -36 -7.5t-31 -25.5t-23 -29.5t-23 -37.5l-122 100q74 180 210 180q50 0 103.5 -24t102.5 -48t89 -24q26 0 48.5 17t34 34t30.5 51l123 -102q-74 -178 -211 -178zM389 981v-981h-250v981h250z" />
    <glyph glyph-name="Imacron" unicode="&#x12a;" horiz-adv-x="557" 
d="M-27 1681h609v-184h-609v184zM150 0v1313h256v-1313h-256z" />
    <glyph glyph-name="imacron" unicode="&#x12b;" horiz-adv-x="530" 
d="M-39 1350h608v-185h-608v185zM389 981v-981h-250v981h250z" />
    <glyph glyph-name="Ibreve" unicode="&#x12c;" horiz-adv-x="557" 
d="M276 1401q-134 0 -221.5 92t-87.5 236h176q0 -79 37.5 -120.5t95.5 -41.5q59 0 96.5 41t37.5 121h178q0 -144 -88 -236t-224 -92zM150 0v1313h256v-1313h-256z" />
    <glyph glyph-name="ibreve" unicode="&#x12d;" horiz-adv-x="530" 
d="M264 1069q-134 0 -221.5 92t-87.5 236h176q0 -79 37.5 -120.5t95.5 -41.5q59 0 96 41t37 121h178q0 -144 -87.5 -236t-223.5 -92zM389 981v-981h-250v981h250z" />
    <glyph glyph-name="Iogonek" unicode="&#x12e;" horiz-adv-x="557" 
d="M150 0v1313h256v-1313q-213 -99 -213 -207q0 -31 19.5 -48t51.5 -17q54 0 107 45l73 -117q-36 -41 -93 -66.5t-126 -25.5q-96 0 -159.5 49t-63.5 137q0 142 168 250h-20z" />
    <glyph glyph-name="iogonek" unicode="&#x12f;" horiz-adv-x="530" 
d="M119 1260q0 60 43 102.5t104 42.5q60 0 103 -42.5t43 -102.5q0 -61 -43 -104.5t-103 -43.5q-61 0 -104 43t-43 105zM389 981v-981q-213 -99 -213 -207q0 -31 20 -48t52 -17q53 0 106 45l74 -117q-36 -41 -93 -66.5t-126 -25.5q-96 0 -159.5 49t-63.5 137q0 142 168 250
h-15v981h250z" />
    <glyph glyph-name="Idotaccent" unicode="&#x130;" horiz-adv-x="557" 
d="M131 1591q0 60 43.5 103t104.5 43q60 0 102.5 -43t42.5 -103q0 -61 -42.5 -104t-102.5 -43q-62 0 -105 43t-43 104zM150 0v1313h256v-1313h-256z" />
    <glyph glyph-name="idotless" unicode="&#x131;" horiz-adv-x="530" 
d="M389 981v-981h-250v981h250z" />
    <glyph glyph-name="IJ" unicode="&#x132;" horiz-adv-x="1497" 
d="M150 0v1313h256v-1313h-256zM584 145l172 179q74 -97 174 -97q176 0 176 213v873h256v-860q0 -237 -118 -358.5t-308 -121.5q-116 0 -210 48.5t-142 123.5z" />
    <glyph glyph-name="ij" unicode="&#x133;" horiz-adv-x="1058" 
d="M264 1112q-61 0 -103 43t-42 105q0 60 42 102.5t103 42.5q60 0 104 -42.5t44 -102.5q0 -61 -44 -104.5t-104 -43.5zM795 1112q-61 0 -103.5 43t-42.5 105q0 60 42.5 102.5t103.5 42.5q60 0 103.5 -42.5t43.5 -102.5q0 -61 -43.5 -104.5t-103.5 -43.5zM389 0h-250v981h250
v-981zM563 -428q-155 0 -244 86l117 186q52 -45 117 -45q54 0 85.5 41t31.5 119v1022h250v-1010q0 -185 -92.5 -292t-264.5 -107z" />
    <glyph glyph-name="Jcircumflex" unicode="&#x134;" horiz-adv-x="940" 
d="M559 1739h225l244 -320h-237l-119 174l-119 -174h-238zM27 145l172 179q74 -97 174 -97q176 0 176 213v873h256v-860q0 -237 -118 -358.5t-308 -121.5q-116 0 -210 48.5t-142 123.5z" />
    <glyph glyph-name="jcircumflex" unicode="&#x135;" horiz-adv-x="530" 
d="M154 1409h225l244 -319h-238l-119 174l-119 -174h-237zM389 981v-1010q0 -185 -92 -292t-264 -107q-155 0 -244 86l117 186q52 -45 117 -45q54 0 85 41t31 119v1022h250z" />
    <glyph glyph-name="Kcommaaccent" unicode="&#x136;" horiz-adv-x="1249" 
d="M406 0h-256v1313h256v-635l499 635h312l-517 -651l537 -662h-328l-503 621v-621zM764 -104l-117 -308h-194l65 308h246z" />
    <glyph glyph-name="kcommaaccent" unicode="&#x137;" horiz-adv-x="1122" 
d="M389 0h-250v1409h250v-834l389 406h309l-430 -446l473 -535h-319l-422 485v-485zM690 -104l-117 -308h-194l65 308h246z" />
    <glyph glyph-name="Lacute" unicode="&#x139;" horiz-adv-x="1073" 
d="M342 1741h295l-268 -320h-228zM150 0v1313h256v-1071h641v-242h-897z" />
    <glyph glyph-name="lacute" unicode="&#x13a;" horiz-adv-x="606" 
d="M336 1837h295l-269 -319h-227zM518 217l27 -219q-65 -21 -121 -21t-104.5 18.5t-90 57t-66 106.5t-24.5 158v1092h250v-1098q0 -53 25 -78.5t63 -25.5q21 0 41 10z" />
    <glyph glyph-name="Lcommaaccent" unicode="&#x13b;" horiz-adv-x="1073" 
d="M150 0v1313h256v-1071h641v-242h-897zM721 -104l-117 -308h-194l65 308h246z" />
    <glyph glyph-name="lcommaaccent" unicode="&#x13c;" horiz-adv-x="606" 
d="M518 217l27 -219q-65 -21 -121 -21t-104.5 18.5t-90 57t-66 106.5t-24.5 158v1092h250v-1098q0 -53 25 -78.5t63 -25.5q21 0 41 10zM492 -104l-117 -308h-195l66 308h246z" />
    <glyph glyph-name="Lcaron" unicode="&#x13d;" horiz-adv-x="1073" 
d="M150 0v1313h256v-1071h641v-242h-897zM848 1313l-86 -340h-182l41 340h227z" />
    <glyph glyph-name="lcaron" unicode="&#x13e;" horiz-adv-x="606" 
d="M518 217l27 -219q-65 -21 -121 -21t-104.5 18.5t-90 57t-66 106.5t-24.5 158v1092h250v-1098q0 -53 25 -78.5t63 -25.5q21 0 41 10zM719 1409l-86 -340h-182l41 340h227z" />
    <glyph glyph-name="Ldot" unicode="&#x13f;" horiz-adv-x="1073" 
d="M150 0v1313h256v-1071h641v-242h-897zM592 690q0 60 43 104t104 44q60 0 103 -44t43 -104t-43 -102.5t-103 -42.5q-61 0 -104 42.5t-43 102.5z" />
    <glyph glyph-name="ldot" unicode="&#x140;" horiz-adv-x="765" 
d="M518 217l27 -219q-65 -21 -121 -21t-104.5 18.5t-90 57t-66 106.5t-24.5 158v1092h250v-1098q0 -53 25 -78.5t63 -25.5q21 0 41 10zM502 612q0 60 43 104t104 44q60 0 103 -44t43 -104t-43 -102.5t-103 -42.5q-61 0 -104 42.5t-43 102.5z" />
    <glyph glyph-name="Lslash" unicode="&#x141;" horiz-adv-x="1073" 
d="M150 0v551l-127 -41v213l127 41v549h256v-469l219 69v-211l-219 -69v-391h641v-242h-897z" />
    <glyph glyph-name="lslash" unicode="&#x142;" horiz-adv-x="538" 
d="M518 217l27 -219q-65 -21 -121 -21t-104.5 18.5t-90 57t-66 106.5t-24.5 158v279l-110 -43v213l110 43v600h250v-506l139 53v-213l-139 -53v-379q0 -53 25 -78.5t63 -25.5q21 0 41 10z" />
    <glyph glyph-name="Nacute" unicode="&#x143;" horiz-adv-x="1437" 
d="M795 1741h295l-269 -320h-227zM1016 0l-613 889v-889h-256v1313h275l614 -899v899h256v-1313h-276z" />
    <glyph glyph-name="nacute" unicode="&#x144;" horiz-adv-x="1169" 
d="M651 1409h295l-268 -319h-227zM139 0v981h250v-139q39 79 111 122.5t168 43.5q169 0 269.5 -111.5t100.5 -302.5v-594h-250v557q0 100 -53 158.5t-145 58.5t-146.5 -58.5t-54.5 -158.5v-557h-250z" />
    <glyph glyph-name="Ncommaaccent" unicode="&#x145;" horiz-adv-x="1437" 
d="M1016 0l-613 889v-889h-256v1313h275l614 -899v899h256v-1313h-276zM846 -104l-117 -308h-194l65 308h246z" />
    <glyph glyph-name="ncommaaccent" unicode="&#x146;" horiz-adv-x="1169" 
d="M139 0v981h250v-139q39 79 111 122.5t168 43.5q169 0 269.5 -111.5t100.5 -302.5v-594h-250v557q0 100 -53 158.5t-145 58.5t-146.5 -58.5t-54.5 -158.5v-557h-250zM707 -104l-117 -308h-195l66 308h246z" />
    <glyph glyph-name="Ncaron" unicode="&#x147;" horiz-adv-x="1437" 
d="M842 1421h-226l-243 320h237l119 -174l119 174h237zM1016 0l-613 889v-889h-256v1313h275l614 -899v899h256v-1313h-276z" />
    <glyph glyph-name="ncaron" unicode="&#x148;" horiz-adv-x="1169" 
d="M698 1090h-225l-244 319h238l119 -174l119 174h237zM139 0v981h250v-139q39 79 111 122.5t168 43.5q169 0 269.5 -111.5t100.5 -302.5v-594h-250v557q0 100 -53 158.5t-145 58.5t-146.5 -58.5t-54.5 -158.5v-557h-250z" />
    <glyph glyph-name="Omacron" unicode="&#x14c;" horiz-adv-x="1523" 
d="M457 1681h608v-184h-608v184zM762 1339q184 0 341 -92t248 -250t91 -344q0 -138 -54 -264t-145 -217t-217 -145t-264 -54t-264 54t-217 145.5t-145 218t-54 264.5q0 140 54 266.5t145 218t217 145.5t264 54zM762 227q168 0 287.5 125.5t119.5 300.5q0 117 -54.5 216.5
t-148 157.5t-204.5 58q-169 0 -287.5 -125.5t-118.5 -304.5q0 -177 118.5 -302.5t287.5 -125.5z" />
    <glyph glyph-name="omacron" unicode="&#x14d;" horiz-adv-x="1171" 
d="M281 1350h608v-185h-608v185zM586 -27q-140 0 -257.5 69.5t-185 189t-67.5 260.5q0 140 67.5 259t185 188t257.5 69t257.5 -69t185 -188t67.5 -259q0 -141 -67.5 -260.5t-185 -189t-257.5 -69.5zM586 207q113 0 186.5 82.5t73.5 202.5t-73.5 201t-186.5 81t-186.5 -81
t-73.5 -201t73.5 -202.5t186.5 -82.5z" />
    <glyph glyph-name="Obreve" unicode="&#x14e;" horiz-adv-x="1523" 
d="M760 1401q-134 0 -221.5 92t-87.5 236h176q0 -79 37.5 -120.5t95.5 -41.5q59 0 96 41t37 121h178q0 -144 -87.5 -236t-223.5 -92zM762 1339q184 0 341 -92t248 -250t91 -344q0 -138 -54 -264t-145 -217t-217 -145t-264 -54t-264 54t-217 145.5t-145 218t-54 264.5
q0 140 54 266.5t145 218t217 145.5t264 54zM762 227q168 0 287.5 125.5t119.5 300.5q0 117 -54.5 216.5t-148 157.5t-204.5 58q-169 0 -287.5 -125.5t-118.5 -304.5q0 -177 118.5 -302.5t287.5 -125.5z" />
    <glyph glyph-name="obreve" unicode="&#x14f;" horiz-adv-x="1171" 
d="M584 1069q-134 0 -222 92t-88 236h177q0 -79 37.5 -120.5t95.5 -41.5q59 0 96 41t37 121h178q0 -144 -87.5 -236t-223.5 -92zM586 -27q-140 0 -257.5 69.5t-185 189t-67.5 260.5q0 140 67.5 259t185 188t257.5 69t257.5 -69t185 -188t67.5 -259q0 -141 -67.5 -260.5
t-185 -189t-257.5 -69.5zM586 207q113 0 186.5 82.5t73.5 202.5t-73.5 201t-186.5 81t-186.5 -81t-73.5 -201t73.5 -202.5t186.5 -82.5z" />
    <glyph glyph-name="Ohungarumlaut" unicode="&#x150;" horiz-adv-x="1523" 
d="M653 1741h246l-254 -320h-192zM1016 1741h260l-266 -320h-195zM762 1339q184 0 341 -92t248 -250t91 -344q0 -138 -54 -264t-145 -217t-217 -145t-264 -54t-264 54t-217 145.5t-145 218t-54 264.5q0 140 54 266.5t145 218t217 145.5t264 54zM762 227q168 0 287.5 125.5
t119.5 300.5q0 117 -54.5 216.5t-148 157.5t-204.5 58q-169 0 -287.5 -125.5t-118.5 -304.5q0 -177 118.5 -302.5t287.5 -125.5z" />
    <glyph glyph-name="ohungarumlaut" unicode="&#x151;" horiz-adv-x="1171" 
d="M477 1409h246l-254 -319h-193zM840 1409h260l-266 -319h-195zM586 -27q-140 0 -257.5 69.5t-185 189t-67.5 260.5q0 140 67.5 259t185 188t257.5 69t257.5 -69t185 -188t67.5 -259q0 -141 -67.5 -260.5t-185 -189t-257.5 -69.5zM586 207q113 0 186.5 82.5t73.5 202.5
t-73.5 201t-186.5 81t-186.5 -81t-73.5 -201t73.5 -202.5t186.5 -82.5z" />
    <glyph glyph-name="OE" unicode="&#x152;" horiz-adv-x="2088" 
d="M1169 0v141q-168 -168 -407 -168q-138 0 -264 54t-217 145.5t-145 218t-54 264.5q0 140 54 266.5t145 218t217 145.5t264 54q239 0 407 -168v142h850v-240h-596v-291h514v-241h-514v-299h596v-242h-850zM762 227q168 0 287.5 125.5t119.5 300.5q0 117 -54.5 216.5
t-148 157.5t-204.5 58q-169 0 -287.5 -125.5t-118.5 -304.5q0 -177 118.5 -302.5t287.5 -125.5z" />
    <glyph glyph-name="oe" unicode="&#x153;" horiz-adv-x="1888" 
d="M586 -27q-140 0 -257.5 69.5t-185 189t-67.5 260.5q0 140 67.5 259t185 188t257.5 69q116 0 215 -52t168 -143q65 91 158.5 143t205.5 52q211 0 352.5 -143t141.5 -355q0 -50 -4 -82h-729q19 -105 92 -170t178 -65q150 0 252 102l127 -172q-57 -65 -163 -107.5
t-222 -42.5q-118 0 -219 53t-168 146q-67 -93 -168 -146t-217 -53zM1337 797q-92 0 -154.5 -57.5t-84.5 -153.5h475q-21 101 -84 156t-152 55zM586 207q113 0 186.5 82.5t73.5 202.5t-73.5 201t-186.5 81t-186.5 -81t-73.5 -201t73.5 -202.5t186.5 -82.5z" />
    <glyph glyph-name="Racute" unicode="&#x154;" horiz-adv-x="1241" 
d="M688 1741h295l-268 -320h-228zM150 0v1313h468q232 0 373.5 -113.5t141.5 -300.5q0 -132 -73.5 -230.5t-203.5 -146.5l303 -522h-297l-266 481h-190v-481h-256zM639 1085h-233v-376h233q100 0 161.5 52t61.5 138q0 84 -61.5 135t-161.5 51z" />
    <glyph glyph-name="racute" unicode="&#x155;" horiz-adv-x="817" 
d="M500 1409h295l-269 -319h-227zM139 0v981h250v-145q36 80 98.5 126t143.5 46q99 0 155 -47l-102 -236q-54 41 -131 41q-74 0 -119 -59t-45 -158v-549h-250z" />
    <glyph glyph-name="Rcommaaccent" unicode="&#x156;" horiz-adv-x="1241" 
d="M150 0v1313h468q232 0 373.5 -113.5t141.5 -300.5q0 -132 -73.5 -230.5t-203.5 -146.5l303 -522h-297l-266 481h-190v-481h-256zM639 1085h-233v-376h233q100 0 161.5 52t61.5 138q0 84 -61.5 135t-161.5 51zM743 -104l-116 -308h-195l66 308h245z" />
    <glyph glyph-name="rcommaaccent" unicode="&#x157;" horiz-adv-x="817" 
d="M139 0v981h250v-145q36 80 98.5 126t143.5 46q99 0 155 -47l-102 -236q-54 41 -131 41q-74 0 -119 -59t-45 -158v-549h-250zM383 -104l-117 -308h-194l65 308h246z" />
    <glyph glyph-name="Rcaron" unicode="&#x158;" horiz-adv-x="1241" 
d="M733 1421h-225l-244 320h238l119 -174l118 174h238zM150 0v1313h468q232 0 373.5 -113.5t141.5 -300.5q0 -132 -73.5 -230.5t-203.5 -146.5l303 -522h-297l-266 481h-190v-481h-256zM639 1085h-233v-376h233q100 0 161.5 52t61.5 138q0 84 -61.5 135t-161.5 51z" />
    <glyph glyph-name="rcaron" unicode="&#x159;" horiz-adv-x="817" 
d="M547 1090h-225l-244 319h237l119 -174l119 174h238zM139 0v981h250v-145q36 80 98.5 126t143.5 46q99 0 155 -47l-102 -236q-54 41 -131 41q-74 0 -119 -59t-45 -158v-549h-250z" />
    <glyph glyph-name="Sacute" unicode="&#x15a;" horiz-adv-x="1138" 
d="M635 1741h295l-268 -320h-228zM303 -2q-94 25 -240 121l111 215q84 -53 193.5 -86t205.5 -33q102 0 164 38.5t62 113.5q0 37 -23.5 66t-63.5 49t-92 37.5t-109 35.5t-114 39.5t-109 53t-92 71.5t-63.5 100.5t-23.5 134.5q0 118 67 207.5t177.5 134.5t244.5 45
q262 0 442 -137l-125 -203q-66 43 -156 72t-173 29q-90 0 -146.5 -38.5t-56.5 -102.5q0 -43 29.5 -76t78 -53t110 -42t126.5 -41.5t126.5 -51.5t110 -71t78 -102t29.5 -143q0 -98 -41 -177t-112.5 -128.5t-164 -76t-198.5 -26.5q-160 0 -252 25z" />
    <glyph glyph-name="sacute" unicode="&#x15b;" horiz-adv-x="927" 
d="M530 1409h295l-268 -319h-227zM440 -27q-211 0 -383 95l80 192q175 -82 316 -82q81 0 121 25.5t40 70.5q0 31 -22.5 54.5t-60 37t-84.5 28.5t-97 28.5t-97 38t-84.5 55.5t-60 83t-22.5 118q0 119 102 205t281 86q100 0 185 -21t182 -67l-93 -187q-54 30 -124.5 50
t-129.5 20q-71 0 -111 -22t-40 -62q0 -36 29 -61t75 -40t102 -29.5t112 -36.5t102 -53.5t75 -87.5t29 -132q0 -132 -113 -219t-309 -87z" />
    <glyph glyph-name="Scircumflex" unicode="&#x15c;" horiz-adv-x="1138" 
d="M457 1741h225l244 -320h-238l-119 174l-118 -174h-238zM303 -2q-94 25 -240 121l111 215q84 -53 193.5 -86t205.5 -33q102 0 164 38.5t62 113.5q0 37 -23.5 66t-63.5 49t-92 37.5t-109 35.5t-114 39.5t-109 53t-92 71.5t-63.5 100.5t-23.5 134.5q0 118 67 207.5
t177.5 134.5t244.5 45q262 0 442 -137l-125 -203q-66 43 -156 72t-173 29q-90 0 -146.5 -38.5t-56.5 -102.5q0 -43 29.5 -76t78 -53t110 -42t126.5 -41.5t126.5 -51.5t110 -71t78 -102t29.5 -143q0 -98 -41 -177t-112.5 -128.5t-164 -76t-198.5 -26.5q-160 0 -252 25z" />
    <glyph glyph-name="scircumflex" unicode="&#x15d;" horiz-adv-x="927" 
d="M352 1409h226l243 -319h-237l-119 174l-119 -174h-237zM440 -27q-211 0 -383 95l80 192q175 -82 316 -82q81 0 121 25.5t40 70.5q0 31 -22.5 54.5t-60 37t-84.5 28.5t-97 28.5t-97 38t-84.5 55.5t-60 83t-22.5 118q0 119 102 205t281 86q100 0 185 -21t182 -67l-93 -187
q-54 30 -124.5 50t-129.5 20q-71 0 -111 -22t-40 -62q0 -36 29 -61t75 -40t102 -29.5t112 -36.5t102 -53.5t75 -87.5t29 -132q0 -132 -113 -219t-309 -87z" />
    <glyph glyph-name="Scedilla" unicode="&#x15e;" horiz-adv-x="1138" 
d="M303 -2q-94 25 -240 121l111 215q84 -53 193.5 -86t205.5 -33q102 0 164 38.5t62 113.5q0 37 -23.5 66t-63.5 49t-92 37.5t-109 35.5t-114 39.5t-109 53t-92 71.5t-63.5 100.5t-23.5 134.5q0 118 67 207.5t177.5 134.5t244.5 45q262 0 442 -137l-125 -203q-66 43 -156 72
t-173 29q-90 0 -146.5 -38.5t-56.5 -102.5q0 -43 29.5 -76t78 -53t110 -42t126.5 -41.5t126.5 -51.5t110 -71t78 -102t29.5 -143q0 -171 -117 -274.5t-303 -126.5l-137 -381l-199 82l160 294q-96 3 -172 23z" />
    <glyph glyph-name="scedilla" unicode="&#x15f;" horiz-adv-x="927" 
d="M862 279q0 -112 -82 -193t-231 -104l-139 -383l-199 82l162 294q-171 13 -316 93l80 192q175 -82 316 -82q81 0 121 25.5t40 70.5q0 31 -22.5 54.5t-60 37t-84.5 28.5t-97 28.5t-97 38t-84.5 55.5t-60 83t-22.5 118q0 119 102 205t281 86q100 0 185 -21t182 -67l-93 -187
q-54 30 -124.5 50t-129.5 20q-71 0 -111 -22t-40 -62q0 -36 29 -61t75 -40t102 -29.5t112 -36.5t102 -53.5t75 -87.5t29 -132z" />
    <glyph glyph-name="Scaron" unicode="&#x160;" horiz-adv-x="1138" 
d="M682 1421h-225l-244 320h238l118 -174l119 174h238zM303 -2q-94 25 -240 121l111 215q84 -53 193.5 -86t205.5 -33q102 0 164 38.5t62 113.5q0 37 -23.5 66t-63.5 49t-92 37.5t-109 35.5t-114 39.5t-109 53t-92 71.5t-63.5 100.5t-23.5 134.5q0 118 67 207.5t177.5 134.5
t244.5 45q262 0 442 -137l-125 -203q-66 43 -156 72t-173 29q-90 0 -146.5 -38.5t-56.5 -102.5q0 -43 29.5 -76t78 -53t110 -42t126.5 -41.5t126.5 -51.5t110 -71t78 -102t29.5 -143q0 -98 -41 -177t-112.5 -128.5t-164 -76t-198.5 -26.5q-160 0 -252 25z" />
    <glyph glyph-name="scaron" unicode="&#x161;" horiz-adv-x="927" 
d="M578 1090h-226l-243 319h237l119 -174l119 174h237zM440 -27q-211 0 -383 95l80 192q175 -82 316 -82q81 0 121 25.5t40 70.5q0 31 -22.5 54.5t-60 37t-84.5 28.5t-97 28.5t-97 38t-84.5 55.5t-60 83t-22.5 118q0 119 102 205t281 86q100 0 185 -21t182 -67l-93 -187
q-54 30 -124.5 50t-129.5 20q-71 0 -111 -22t-40 -62q0 -36 29 -61t75 -40t102 -29.5t112 -36.5t102 -53.5t75 -87.5t29 -132q0 -132 -113 -219t-309 -87z" />
    <glyph glyph-name="Tcedilla" unicode="&#x162;" horiz-adv-x="1075" 
d="M459 0h-51v1073h-390v240h1037v-240h-389v-1073h-37l-146 -401l-198 82z" />
    <glyph glyph-name="tcedilla" unicode="&#x163;" horiz-adv-x="829" 
d="M39 760v221h172v254h252v-254h264v-221h-262v-418q0 -135 110 -135q75 0 117 49l111 -186q-68 -68 -180 -88l-140 -383l-198 82l164 301q-113 25 -175.5 115t-62.5 239v424h-172z" />
    <glyph glyph-name="Tcaron" unicode="&#x164;" horiz-adv-x="1075" 
d="M651 1421h-225l-244 320h238l119 -174l118 174h238zM1055 1073h-389v-1073h-258v1073h-390v240h1037v-240z" />
    <glyph glyph-name="tcaron" unicode="&#x165;" horiz-adv-x="829" 
d="M805 1409l-86 -340h-182l41 340h227zM39 760v221h172v254h252v-254h264v-221h-262v-418q0 -135 110 -135q75 0 117 49l111 -186q-43 -43 -111.5 -70t-154.5 -27q-152 0 -239 93t-87 270v424h-172z" />
    <glyph glyph-name="Tbar" unicode="&#x166;" horiz-adv-x="1075" 
d="M221 709h187v364h-390v240h1037v-240h-389v-364h186v-185h-186v-524h-258v524h-187v185z" />
    <glyph glyph-name="tbar" unicode="&#x167;" horiz-adv-x="829" 
d="M68 586h143v174h-172v221h172v254h252v-254h264v-221h-262v-174h186v-189h-186v-55q0 -135 110 -135q75 0 117 49l111 -186q-43 -43 -111.5 -70t-154.5 -27q-152 0 -239 93t-87 270v61h-143v189z" />
    <glyph glyph-name="Utilde" unicode="&#x168;" horiz-adv-x="1345" 
d="M834 1438q-50 0 -103.5 23.5t-102.5 47t-89 23.5q-20 0 -36 -7.5t-31 -25.5t-23 -29.5t-23 -37.5l-123 100q74 180 211 180q50 0 103.5 -24t102.5 -48t89 -24q26 0 48.5 17t34 34t30.5 51l122 -102q-74 -178 -210 -178zM137 535v778h256v-774q0 -140 77.5 -226t203.5 -86
q127 0 202.5 85t75.5 227v774h258v-778q0 -253 -148.5 -407.5t-391.5 -154.5q-241 0 -387 154t-146 408z" />
    <glyph glyph-name="utilde" unicode="&#x169;" horiz-adv-x="1169" 
d="M745 1106q-50 0 -103 23.5t-102 47t-89 23.5q-20 0 -36 -7.5t-31 -25.5t-23 -29.5t-23 -37.5l-123 100q74 180 211 180q50 0 103.5 -24t102.5 -48t89 -24q26 0 48.5 17t34 34t30.5 51l122 -102q-74 -178 -211 -178zM377 981v-530q0 -108 57 -174t150 -66q94 0 151.5 66.5
t57.5 173.5v530h251v-549q0 -206 -126.5 -331.5t-333.5 -125.5t-332 125.5t-125 331.5v549h250z" />
    <glyph glyph-name="Umacron" unicode="&#x16a;" horiz-adv-x="1345" 
d="M369 1681h608v-184h-608v184zM137 535v778h256v-774q0 -140 77.5 -226t203.5 -86q127 0 202.5 85t75.5 227v774h258v-778q0 -253 -148.5 -407.5t-391.5 -154.5q-241 0 -387 154t-146 408z" />
    <glyph glyph-name="umacron" unicode="&#x16b;" horiz-adv-x="1169" 
d="M281 1350h608v-185h-608v185zM377 981v-530q0 -108 57 -174t150 -66q94 0 151.5 66.5t57.5 173.5v530h251v-549q0 -206 -126.5 -331.5t-333.5 -125.5t-332 125.5t-125 331.5v549h250z" />
    <glyph glyph-name="Ubreve" unicode="&#x16c;" horiz-adv-x="1345" 
d="M672 1401q-134 0 -222 92t-88 236h177q0 -79 37.5 -120.5t95.5 -41.5q59 0 96 41t37 121h178q0 -144 -87.5 -236t-223.5 -92zM137 535v778h256v-774q0 -140 77.5 -226t203.5 -86q127 0 202.5 85t75.5 227v774h258v-778q0 -253 -148.5 -407.5t-391.5 -154.5
q-241 0 -387 154t-146 408z" />
    <glyph glyph-name="ubreve" unicode="&#x16d;" horiz-adv-x="1169" 
d="M584 1069q-134 0 -222 92t-88 236h177q0 -79 37.5 -120.5t95.5 -41.5q59 0 96 41t37 121h178q0 -144 -87.5 -236t-223.5 -92zM377 981v-530q0 -108 57 -174t150 -66q94 0 151.5 66.5t57.5 173.5v530h251v-549q0 -206 -126.5 -331.5t-333.5 -125.5t-332 125.5t-125 331.5
v549h250z" />
    <glyph glyph-name="Uring" unicode="&#x16e;" horiz-adv-x="1345" 
d="M674 1401q-104 0 -175 69t-71 168t71 168.5t175 69.5t175 -69.5t71 -168.5t-71 -168t-175 -69zM676 1538q42 0 70 28t28 72t-28.5 73.5t-69.5 29.5q-42 0 -71.5 -29.5t-29.5 -73.5q0 -43 29.5 -71.5t71.5 -28.5zM137 535v778h256v-774q0 -140 77.5 -226t203.5 -86
q127 0 202.5 85t75.5 227v774h258v-778q0 -253 -148.5 -407.5t-391.5 -154.5q-241 0 -387 154t-146 408z" />
    <glyph glyph-name="uring" unicode="&#x16f;" horiz-adv-x="1169" 
d="M586 1069q-104 0 -175 69.5t-71 168.5t71 168t175 69t174.5 -69t70.5 -168t-70.5 -168.5t-174.5 -69.5zM588 1206q42 0 70 28.5t28 72.5t-28 73t-70 29t-71.5 -29t-29.5 -73t29.5 -72.5t71.5 -28.5zM377 981v-530q0 -108 57 -174t150 -66q94 0 151.5 66.5t57.5 173.5v530
h251v-549q0 -206 -126.5 -331.5t-333.5 -125.5t-332 125.5t-125 331.5v549h250z" />
    <glyph glyph-name="Uhungarumlaut" unicode="&#x170;" horiz-adv-x="1345" 
d="M565 1741h246l-254 -320h-192zM928 1741h260l-266 -320h-195zM137 535v778h256v-774q0 -140 77.5 -226t203.5 -86q127 0 202.5 85t75.5 227v774h258v-778q0 -253 -148.5 -407.5t-391.5 -154.5q-241 0 -387 154t-146 408z" />
    <glyph glyph-name="uhungarumlaut" unicode="&#x171;" horiz-adv-x="1169" 
d="M477 1409h246l-254 -319h-193zM840 1409h260l-266 -319h-195zM377 981v-530q0 -108 57 -174t150 -66q94 0 151.5 66.5t57.5 173.5v530h251v-549q0 -206 -126.5 -331.5t-333.5 -125.5t-332 125.5t-125 331.5v549h250z" />
    <glyph glyph-name="Uogonek" unicode="&#x172;" horiz-adv-x="1345" 
d="M137 535v778h256v-774q0 -140 77.5 -226t203.5 -86q127 0 202.5 85t75.5 227v774h258v-778q0 -199 -95 -340.5t-261 -194.5q-213 -99 -213 -207q0 -31 20 -48t52 -17q53 0 106 45l74 -117q-36 -41 -93 -66.5t-126 -25.5q-96 0 -159.5 49t-63.5 137q0 130 137 230
q-206 26 -328.5 176t-122.5 379z" />
    <glyph glyph-name="uogonek" unicode="&#x173;" horiz-adv-x="1169" 
d="M377 981v-530q0 -108 57 -174t150 -66q94 0 151.5 66.5t57.5 173.5v530h251v-549q0 -165 -83 -280.5t-228 -155.5q-203 -98 -203 -203q0 -31 20 -48t52 -17q54 0 107 45l73 -117q-36 -41 -93 -66.5t-126 -25.5q-96 0 -159.5 49t-63.5 137q0 134 143 234
q-165 29 -260.5 149t-95.5 299v549h250z" />
    <glyph glyph-name="Wcircumflex" unicode="&#x174;" horiz-adv-x="2070" 
d="M924 1741h225l244 -320h-238l-119 174l-118 -174h-238zM1753 1313h270l-415 -1313h-322l-256 995l-258 -995h-309l-416 1313h283l288 -1014l263 1014h321l262 -1014z" />
    <glyph glyph-name="wcircumflex" unicode="&#x175;" horiz-adv-x="1654" 
d="M715 1409h225l244 -319h-238l-119 174l-118 -174h-238zM625 0h-283l-303 981h268l182 -707l199 707h270l203 -711l187 711h268l-303 -981h-312l-190 666z" />
    <glyph glyph-name="Ycircumflex" unicode="&#x176;" horiz-adv-x="1263" 
d="M520 1741h225l244 -320h-237l-119 174l-119 -174h-238zM504 0v436l-486 877h287l330 -608l336 608h272l-483 -877v-436h-256z" />
    <glyph glyph-name="ycircumflex" unicode="&#x177;" horiz-adv-x="1087" 
d="M432 1409h225l244 -319h-237l-119 174l-119 -174h-238zM453 -39l8 25l-449 995h275l286 -676l236 676h252l-402 -1106q-107 -303 -364 -303q-76 0 -147.5 28t-120.5 74l112 197q69 -66 158 -66q53 0 89.5 35.5t66.5 120.5z" />
    <glyph glyph-name="Ydieresis" unicode="&#x178;" horiz-adv-x="1263" 
d="M313 1579q0 56 38 95.5t93 39.5q57 0 96.5 -39.5t39.5 -95.5t-39.5 -94.5t-96.5 -38.5q-55 0 -93 38.5t-38 94.5zM686 1579q0 56 38.5 95.5t92.5 39.5q55 0 95 -40t40 -95t-39.5 -94t-95.5 -39q-54 0 -92.5 39t-38.5 94zM504 0v436l-486 877h287l330 -608l336 608h272
l-483 -877v-436h-256z" />
    <glyph glyph-name="Zacute" unicode="&#x179;" horiz-adv-x="1163" 
d="M647 1741h295l-268 -320h-228zM74 242l669 831h-655v240h987v-240l-669 -831h684v-242h-1016v242z" />
    <glyph glyph-name="zacute" unicode="&#x17a;" horiz-adv-x="980" 
d="M557 1409h295l-268 -319h-228zM78 221l485 539h-469v221h793v-221l-486 -539h502v-221h-825v221z" />
    <glyph glyph-name="Zdotaccent" unicode="&#x17b;" horiz-adv-x="1163" 
d="M434 1591q0 60 43.5 103t104.5 43q60 0 102.5 -43t42.5 -103q0 -61 -42.5 -104t-102.5 -43q-62 0 -105 43t-43 104zM74 242l669 831h-655v240h987v-240l-669 -831h684v-242h-1016v242z" />
    <glyph glyph-name="zdotaccent" unicode="&#x17c;" horiz-adv-x="980" 
d="M344 1260q0 60 43.5 102.5t104.5 42.5q60 0 102.5 -42.5t42.5 -102.5q0 -61 -42.5 -104.5t-102.5 -43.5q-62 0 -105 43t-43 105zM78 221l485 539h-469v221h793v-221l-486 -539h502v-221h-825v221z" />
    <glyph glyph-name="Zcaron" unicode="&#x17d;" horiz-adv-x="1163" 
d="M694 1421h-225l-244 320h238l119 -174l118 174h238zM74 242l669 831h-655v240h987v-240l-669 -831h684v-242h-1016v242z" />
    <glyph glyph-name="zcaron" unicode="&#x17e;" horiz-adv-x="980" 
d="M604 1090h-225l-244 319h238l119 -174l118 174h238zM78 221l485 539h-469v221h793v-221l-486 -539h502v-221h-825v221z" />
    <glyph glyph-name="florin" unicode="&#x192;" horiz-adv-x="1046" 
d="M379 14v535h-168v190h168v299q0 185 97 291.5t263 106.5q183 0 281 -101l-121 -188q-24 24 -61 39.5t-74 15.5q-64 0 -99.5 -41.5t-35.5 -120.5v-301h264v-190h-264v-520q0 -186 -93 -294t-264 -108q-150 0 -245 88l118 185q50 -43 117 -43q53 0 85 40.5t32 116.5z" />
    <glyph glyph-name="Scommaaccent" unicode="&#x218;" horiz-adv-x="1138" 
d="M303 -2q-94 25 -240 121l111 215q84 -53 193.5 -86t205.5 -33q102 0 164 38.5t62 113.5q0 37 -23.5 66t-63.5 49t-92 37.5t-109 35.5t-114 39.5t-109 53t-92 71.5t-63.5 100.5t-23.5 134.5q0 118 67 207.5t177.5 134.5t244.5 45q262 0 442 -137l-125 -203q-66 43 -156 72
t-173 29q-90 0 -146.5 -38.5t-56.5 -102.5q0 -43 29.5 -76t78 -53t110 -42t126.5 -41.5t126.5 -51.5t110 -71t78 -102t29.5 -143q0 -98 -41 -177t-112.5 -128.5t-164 -76t-198.5 -26.5q-160 0 -252 25zM690 -104l-117 -308h-194l65 308h246z" />
    <glyph glyph-name="scommaaccent" unicode="&#x219;" horiz-adv-x="927" 
d="M440 -27q-211 0 -383 95l80 192q175 -82 316 -82q81 0 121 25.5t40 70.5q0 31 -22.5 54.5t-60 37t-84.5 28.5t-97 28.5t-97 38t-84.5 55.5t-60 83t-22.5 118q0 119 102 205t281 86q100 0 185 -21t182 -67l-93 -187q-54 30 -124.5 50t-129.5 20q-71 0 -111 -22t-40 -62
q0 -36 29 -61t75 -40t102 -29.5t112 -36.5t102 -53.5t75 -87.5t29 -132q0 -132 -113 -219t-309 -87zM586 -104l-117 -308h-195l66 308h246z" />
    <glyph glyph-name="Tcommaaccent" unicode="&#x21a;" horiz-adv-x="1075" 
d="M1055 1073h-389v-1073h-258v1073h-390v240h1037v-240zM659 -104l-116 -308h-195l66 308h245z" />
    <glyph glyph-name="tcommaaccent" unicode="&#x21b;" horiz-adv-x="829" 
d="M39 760v221h172v254h252v-254h264v-221h-262v-418q0 -135 110 -135q75 0 117 49l111 -186q-43 -43 -111.5 -70t-154.5 -27q-152 0 -239 93t-87 270v424h-172zM659 -104l-116 -308h-195l66 308h245z" />
    <glyph glyph-name="jdotless" unicode="&#x237;" horiz-adv-x="530" 
d="M389 981v-1010q0 -185 -92 -292t-264 -107q-155 0 -244 86l117 186q52 -45 117 -45q54 0 85 41t31 119v1022h250z" />
    <glyph glyph-name="circumflex" unicode="&#x2c6;" 
d="M297 1409h225l244 -319h-238l-118 174l-119 -174h-238z" />
    <glyph glyph-name="caron" unicode="&#x2c7;" 
d="M522 1090h-225l-244 319h238l119 -174l118 174h238z" />
    <glyph glyph-name="breve" unicode="&#x2d8;" 
d="M410 1069q-134 0 -222 92t-88 236h176q0 -79 38 -120.5t96 -41.5q59 0 96 41t37 121h178q0 -144 -87.5 -236t-223.5 -92z" />
    <glyph glyph-name="dotaccent" unicode="&#x2d9;" 
d="M262 1260q0 60 43.5 102.5t104.5 42.5q60 0 102.5 -42.5t42.5 -102.5q0 -61 -42.5 -104.5t-102.5 -43.5q-62 0 -105 43t-43 105z" />
    <glyph glyph-name="ring" unicode="&#x2da;" 
d="M410 1069q-104 0 -175 69.5t-71 168.5t71 168t175 69t174.5 -69t70.5 -168t-70.5 -168.5t-174.5 -69.5zM412 1206q42 0 70 28.5t28 72.5t-28 73t-70 29t-71.5 -29t-29.5 -73t29.5 -72.5t71.5 -28.5z" />
    <glyph glyph-name="ogonek" unicode="&#x2db;" 
d="M453 57l125 -57q-213 -99 -213 -207q0 -31 19.5 -48t51.5 -17q54 0 107 45l73 -117q-36 -41 -93 -66.5t-126 -25.5q-96 0 -159.5 49t-63.5 137q0 186 279 307z" />
    <glyph glyph-name="tilde" unicode="&#x2dc;" 
d="M569 1106q-50 0 -103.5 23.5t-102.5 47t-89 23.5q-20 0 -36 -7.5t-31 -26t-22 -29t-23 -37.5l-123 100q74 180 211 180q50 0 103.5 -24t102.5 -48t89 -24q20 0 36 7.5t30.5 25.5t22.5 30.5t23 38.5l123 -102q-74 -178 -211 -178z" />
    <glyph glyph-name="hungarumlaut" unicode="&#x2dd;" 
d="M334 1409h246l-254 -319h-193zM696 1409h260l-266 -319h-194z" />
    <glyph glyph-name="gravecomb" unicode="&#x300;" horiz-adv-x="806" 
d="M358 1409l201 -319h-227l-269 319h295z" />
    <glyph glyph-name="acutecomb" unicode="&#x301;" 
d="M453 1409h295l-269 -319h-227z" />
    <glyph glyph-name="circumflexcomb" unicode="&#x302;" 
d="M297 1409h225l244 -319h-238l-118 174l-119 -174h-238z" />
    <glyph glyph-name="tildecomb" unicode="&#x303;" 
d="M569 1106q-50 0 -103.5 23.5t-102.5 47t-89 23.5q-20 0 -36 -7.5t-31 -26t-22 -29t-23 -37.5l-123 100q74 180 211 180q50 0 103.5 -24t102.5 -48t89 -24q20 0 36 7.5t30.5 25.5t22.5 30.5t23 38.5l123 -102q-74 -178 -211 -178z" />
    <glyph glyph-name="macroncomb" unicode="&#x304;" 
d="M104 1350h609v-185h-609v185z" />
    <glyph glyph-name="brevecomb" unicode="&#x306;" 
d="M410 1069q-134 0 -222 92t-88 236h176q0 -79 38 -120.5t96 -41.5q59 0 96 41t37 121h178q0 -144 -87.5 -236t-223.5 -92z" />
    <glyph glyph-name="dotaccentcomb" unicode="&#x307;" 
d="M262 1260q0 60 43.5 102.5t104.5 42.5q60 0 102.5 -42.5t42.5 -102.5q0 -61 -42.5 -104.5t-102.5 -43.5q-62 0 -105 43t-43 105z" />
    <glyph glyph-name="dieresiscomb" unicode="&#x308;" 
d="M90 1247q0 56 38 95.5t93 39.5q57 0 96 -39.5t39 -95.5t-39 -94.5t-96 -38.5q-55 0 -93 38.5t-38 94.5zM463 1247q0 56 38.5 95.5t92.5 39.5q56 0 95.5 -40t39.5 -95t-39.5 -94t-95.5 -39q-54 0 -92.5 39t-38.5 94z" />
    <glyph glyph-name="ringcomb" unicode="&#x30a;" 
d="M410 1069q-104 0 -175 69.5t-71 168.5t71 168t175 69t174.5 -69t70.5 -168t-70.5 -168.5t-174.5 -69.5zM412 1206q42 0 70 28.5t28 72.5t-28 73t-70 29t-71.5 -29t-29.5 -73t29.5 -72.5t71.5 -28.5z" />
    <glyph glyph-name="hungarumlautcomb" unicode="&#x30b;" 
d="M334 1409h246l-254 -319h-193zM696 1409h260l-266 -319h-194z" />
    <glyph glyph-name="caroncomb" unicode="&#x30c;" 
d="M522 1090h-225l-244 319h238l119 -174l118 174h238z" />
    <glyph glyph-name="commaaccentcomb" unicode="&#x326;" 
d="M539 -104l-117 -308h-195l66 308h246z" />
    <glyph glyph-name="cedillacomb" unicode="&#x327;" 
d="M350 0h170l-145 -401l-199 82z" />
    <glyph glyph-name="ogonekcomb" unicode="&#x328;" 
d="M453 57l125 -57q-213 -99 -213 -207q0 -31 19.5 -48t51.5 -17q54 0 107 45l73 -117q-36 -41 -93 -66.5t-126 -25.5q-96 0 -159.5 49t-63.5 137q0 186 279 307z" />
    <glyph glyph-name="strokeshortcomb" unicode="&#x335;" horiz-adv-x="841" 
d="M94 608h584v-188h-584v188z" />
    <glyph glyph-name="Delta" unicode="&#x394;" horiz-adv-x="1421" 
d="M33 0l526 1313h301l529 -1313h-1356zM385 227h635l-318 815z" />
    <glyph glyph-name="Omega" unicode="&#x3a9;" horiz-adv-x="1497" 
d="M748 1085q-172 0 -288 -114t-116 -291q0 -80 26.5 -153.5t71.5 -130t97 -99t112 -74.5v-223h-563v227l244 -4q-262 200 -262 500q0 121 53 234t143 197t216.5 134.5t265.5 50.5t265 -50.5t216 -134.5t143 -197t53 -234q0 -300 -262 -500l246 4v-227h-563v223
q60 32 112 74.5t97 99t71.5 130t26.5 153.5q0 177 -116 291t-289 114z" />
    <glyph glyph-name="mu" unicode="&#x3bc;" horiz-adv-x="1189" 
d="M389 981v-530q0 -108 57 -174t152 -66q94 0 151.5 66.5t57.5 173.5v530h250v-549q0 -206 -126 -331.5t-333 -125.5q-116 0 -209 41v-360h-250v1325h250z" />
    <glyph glyph-name="pi" unicode="&#x3c0;" horiz-adv-x="1255" 
d="M59 760v221h1129v-221h-160v-422q0 -64 23 -94.5t73 -30.5h64v-213h-107q-307 0 -307 330v430h-309v-758h-254v758h-152z" />
    <glyph glyph-name="Wgrave" unicode="&#x1e80;" horiz-adv-x="2070" 
d="M969 1741l200 -320h-227l-268 320h295zM1753 1313h270l-415 -1313h-322l-256 995l-258 -995h-309l-416 1313h283l288 -1014l263 1014h321l262 -1014z" />
    <glyph glyph-name="wgrave" unicode="&#x1e81;" horiz-adv-x="1654" 
d="M760 1409l201 -319h-228l-268 319h295zM625 0h-283l-303 981h268l182 -707l199 707h270l203 -711l187 711h268l-303 -981h-312l-190 666z" />
    <glyph glyph-name="Wacute" unicode="&#x1e82;" horiz-adv-x="2070" 
d="M1102 1741h295l-269 -320h-227zM1753 1313h270l-415 -1313h-322l-256 995l-258 -995h-309l-416 1313h283l288 -1014l263 1014h321l262 -1014z" />
    <glyph glyph-name="wacute" unicode="&#x1e83;" horiz-adv-x="1654" 
d="M893 1409h295l-268 -319h-228zM625 0h-283l-303 981h268l182 -707l199 707h270l203 -711l187 711h268l-303 -981h-312l-190 666z" />
    <glyph glyph-name="Wdieresis" unicode="&#x1e84;" horiz-adv-x="2070" 
d="M717 1579q0 56 38 95.5t93 39.5q57 0 96 -39.5t39 -95.5t-39 -94.5t-96 -38.5q-55 0 -93 38.5t-38 94.5zM1090 1579q0 56 38.5 95.5t92.5 39.5q55 0 95 -40t40 -95t-39.5 -94t-95.5 -39q-54 0 -92.5 39t-38.5 94zM1753 1313h270l-415 -1313h-322l-256 995l-258 -995h-309
l-416 1313h283l288 -1014l263 1014h321l262 -1014z" />
    <glyph glyph-name="wdieresis" unicode="&#x1e85;" horiz-adv-x="1654" 
d="M508 1247q0 56 38 95.5t93 39.5q57 0 96 -39.5t39 -95.5t-39 -94.5t-96 -38.5q-55 0 -93 38.5t-38 94.5zM881 1247q0 56 38.5 95.5t92.5 39.5q56 0 95.5 -40t39.5 -95t-39.5 -94t-95.5 -39q-54 0 -92.5 39t-38.5 94zM625 0h-283l-303 981h268l182 -707l199 707h270
l203 -711l187 711h268l-303 -981h-312l-190 666z" />
    <glyph glyph-name="Ygrave" unicode="&#x1ef2;" horiz-adv-x="1263" 
d="M565 1741l201 -320h-227l-269 320h295zM504 0v436l-486 877h287l330 -608l336 608h272l-483 -877v-436h-256z" />
    <glyph glyph-name="ygrave" unicode="&#x1ef3;" horiz-adv-x="1087" 
d="M477 1409l201 -319h-227l-269 319h295zM453 -39l8 25l-449 995h275l286 -676l236 676h252l-402 -1106q-107 -303 -364 -303q-76 0 -147.5 28t-120.5 74l112 197q69 -66 158 -66q53 0 89.5 35.5t66.5 120.5z" />
    <glyph glyph-name="endash" unicode="&#x2013;" horiz-adv-x="1011" 
d="M76 610h860v-213h-860v213z" />
    <glyph glyph-name="emdash" unicode="&#x2014;" horiz-adv-x="2035" 
d="M76 610h1884v-213h-1884v213z" />
    <glyph glyph-name="quoteleft" unicode="&#x2018;" horiz-adv-x="446" 
d="M188 961q-56 0 -93.5 37.5t-37.5 93.5q0 58 41 118l121 199h115l-101 -201q40 -16 64.5 -46.5t24.5 -69.5q0 -56 -38.5 -93.5t-95.5 -37.5z" />
    <glyph glyph-name="quoteright" unicode="&#x2019;" horiz-adv-x="446" 
d="M260 1411q56 0 93.5 -37.5t37.5 -93.5q0 -60 -43 -119l-121 -198h-114l100 200q-39 15 -63.5 46.5t-24.5 70.5q0 55 39 93t96 38z" />
    <glyph glyph-name="quotesinglbase" unicode="&#x201a;" horiz-adv-x="473" 
d="M238 -199h-113l98 201q-38 16 -62 47t-24 70q0 56 38 93.5t95 37.5q56 0 93.5 -37t37.5 -92q0 -59 -41 -121z" />
    <glyph glyph-name="quotedblleft" unicode="&#x201c;" horiz-adv-x="784" 
d="M526 961q-56 0 -93.5 37.5t-37.5 93.5q0 57 39 118l123 199h115l-99 -201q38 -15 61 -46t23 -70q0 -56 -37 -93.5t-94 -37.5zM188 961q-56 0 -93.5 37.5t-37.5 93.5q0 58 41 118l121 199h115l-101 -201q40 -16 64.5 -46.5t24.5 -69.5q0 -56 -38.5 -93.5t-95.5 -37.5z" />
    <glyph glyph-name="quotedblright" unicode="&#x201d;" horiz-adv-x="784" 
d="M266 1411q56 0 93.5 -37.5t37.5 -93.5q0 -58 -39 -119l-122 -198h-115l100 200q-39 15 -62.5 46.5t-23.5 70.5q0 56 37 93.5t94 37.5zM604 1411q56 0 94.5 -38t38.5 -93q0 -60 -43 -119l-121 -198h-114l100 200q-39 15 -63.5 46.5t-24.5 70.5q0 56 38 93.5t95 37.5z" />
    <glyph glyph-name="quotedblbase" unicode="&#x201e;" horiz-adv-x="813" 
d="M238 -199h-113l98 201q-38 16 -62 47t-24 70q0 56 38 93.5t95 37.5q56 0 93.5 -37t37.5 -92q0 -59 -41 -121zM578 -199h-113l98 201q-38 16 -62 47t-24 70q0 56 38 93.5t95 37.5q56 0 93.5 -37t37.5 -92q0 -59 -41 -121z" />
    <glyph glyph-name="dagger" unicode="&#x2020;" horiz-adv-x="999" 
d="M375 -401v1177h-316v221h316v412h250v-412h313v-221h-313v-1177h-250z" />
    <glyph glyph-name="daggerdbl" unicode="&#x2021;" horiz-adv-x="999" 
d="M59 10v221h316v545h-316v221h316v412h250v-412h313v-221h-313v-545h313v-221h-313v-411h-250v411h-316z" />
    <glyph glyph-name="bullet" unicode="&#x2022;" horiz-adv-x="841" 
d="M422 219q-123 0 -208 85.5t-85 207.5t85 207.5t208 85.5q121 0 206 -85.5t85 -207.5t-85 -207.5t-206 -85.5z" />
    <glyph glyph-name="ellipsis" unicode="&#x2026;" horiz-adv-x="1505" 
d="M1276 -25q-66 0 -114 47.5t-48 114.5t48 115.5t114 48.5q68 0 116 -48.5t48 -115.5t-48 -114.5t-116 -47.5zM225 -25q-66 0 -112.5 47.5t-46.5 114.5q0 68 46.5 116t112.5 48q69 0 117.5 -48t48.5 -116q0 -67 -48.5 -114.5t-117.5 -47.5zM752 -25q-66 0 -114 47.5
t-48 114.5t48 115.5t114 48.5q67 0 115 -48t48 -116q0 -67 -47.5 -114.5t-115.5 -47.5z" />
    <glyph glyph-name="perthousand" unicode="&#x2030;" horiz-adv-x="2367" 
d="M389 676q-140 0 -241 97.5t-101 234.5q0 141 95.5 236t246.5 95q150 0 247 -95.5t97 -235.5q0 -137 -102 -234.5t-242 -97.5zM457 0h-195l881 1313h196zM389 825q72 0 125 50.5t53 132.5t-53.5 131t-124.5 49q-72 0 -124 -49t-52 -131q0 -83 52.5 -133t123.5 -50z
M1212 -27q-150 0 -247 96t-97 236q0 137 102 234.5t242 97.5q139 0 240.5 -97.5t101.5 -234.5q0 -141 -95.5 -236.5t-246.5 -95.5zM1978 -27q-151 0 -247.5 96t-96.5 236q0 137 102 234.5t242 97.5q139 0 240.5 -97.5t101.5 -234.5q0 -141 -95.5 -236.5t-246.5 -95.5z
M1210 125q73 0 126 49.5t53 130.5q0 83 -53 132.5t-126 49.5q-72 0 -124 -50t-52 -132t53.5 -131t122.5 -49zM1976 125q73 0 125.5 49.5t52.5 130.5q0 83 -52.5 132.5t-125.5 49.5q-72 0 -124 -50t-52 -132t53.5 -131t122.5 -49z" />
    <glyph glyph-name="guilsinglleft" unicode="&#x2039;" horiz-adv-x="665" 
d="M70 508l389 387l137 -139l-248 -248l248 -248l-137 -139z" />
    <glyph glyph-name="guilsinglright" unicode="&#x203a;" horiz-adv-x="665" 
d="M70 756l137 139l389 -387l-389 -387l-137 139l247 248z" />
    <glyph glyph-name="fraction" unicode="&#x2044;" horiz-adv-x="129" 
d="M-473 0l883 1313h194l-880 -1313h-197z" />
    <glyph glyph-name="zero.superior" unicode="&#x2070;" horiz-adv-x="593" 
d="M301 643q-122 0 -201.5 96.5t-79.5 245.5q0 148 77 246t194 98q122 0 201 -97.5t79 -246.5t-76 -245.5t-194 -96.5zM297 795q51 0 80 51t29 139t-28.5 139.5t-80.5 51.5q-51 0 -81 -52t-30 -139q0 -89 29 -139.5t82 -50.5z" />
    <glyph glyph-name="four.superior" unicode="&#x2074;" horiz-adv-x="593" 
d="M330 657v103h-314v149l310 404h163v-404h82v-149h-82v-103h-159zM156 909h174v228z" />
    <glyph glyph-name="Euro" unicode="&#x20ac;" horiz-adv-x="1331" 
d="M815 -27q-216 0 -385.5 123t-241.5 320h-170l52 168h82q-5 58 -5 71q0 34 3 64h-132l52 166h116q68 202 239.5 328t387.5 126q302 0 477 -178l-151 -178q-130 117 -324 117q-111 0 -204 -58.5t-146 -156.5h479l-49 -166h-485q-4 -40 -4 -64q0 -25 4 -71h458l-51 -168
h-350q54 -94 145.5 -148.5t208.5 -54.5q95 0 178 30.5t138 88.5l155 -174q-173 -185 -477 -185z" />
    <glyph glyph-name="litre" unicode="&#x2113;" horiz-adv-x="983" 
d="M834 104q-111 -131 -299 -131q-149 0 -238 86t-98 250l-131 -59v258l131 53v465q0 192 91.5 301t248.5 109q172 0 267 -104t95 -294q0 -174 -116 -328.5t-332 -279.5v-72q0 -151 122 -151q42 0 80.5 21.5t63.5 58.5zM453 1055v-369q101 76 155 172t54 195q0 73 -28 111
t-75 38q-106 0 -106 -147z" />
    <glyph glyph-name="trademark" unicode="&#x2122;" horiz-adv-x="1771" 
d="M256 596v557h-203v160h602v-160h-219v-557h-180zM1192 743l-260 330l6 -477h-178v717h180l258 -332l256 332h166v-717h-176l6 477z" />
    <glyph glyph-name="partialdiff" unicode="&#x2202;" horiz-adv-x="1183" 
d="M592 1008q75 0 145 -39q-78 120 -189.5 210t-209.5 136l168 155q264 -127 431 -373.5t167 -529.5q0 -270 -141 -432t-371 -162q-139 0 -256.5 70.5t-185.5 192t-68 264.5q0 145 68.5 261.5t185 181.5t256.5 65zM594 207q111 0 184.5 85t73.5 208q0 127 -73 212t-185 85
q-113 0 -187.5 -85t-74.5 -212q0 -123 74.5 -208t187.5 -85z" />
    <glyph glyph-name="product" unicode="&#x220f;" horiz-adv-x="1304" 
d="M831 1073h-358v-1474h-256v1474h-149v240h1169v-240h-150v-1474h-256v1474z" />
    <glyph glyph-name="summation" unicode="&#x2211;" horiz-adv-x="1028" 
d="M776 612v-204l-428 -553h653v-256h-974v292l485 635l-485 623v260h974v-254h-651z" />
    <glyph glyph-name="minus" unicode="&#x2212;" horiz-adv-x="1054" 
d="M86 545v225h883v-225h-883z" />
    <glyph glyph-name="divisionslash" unicode="&#x2215;" horiz-adv-x="129" 
d="M-473 0l883 1313h194l-880 -1313h-197z" />
    <glyph glyph-name="radical" unicode="&#x221a;" horiz-adv-x="1212" 
d="M780 0h-327l-252 754h-174v227h374l222 -756l309 1184h254z" />
    <glyph glyph-name="infinity" unicode="&#x221e;" horiz-adv-x="1067" 
d="M993 659q0 -127 -68.5 -208.5t-179.5 -81.5q-147 0 -225 135q-75 -135 -207 -135q-105 0 -172 80.5t-67 205.5q0 127 68 209t177 82q148 0 224 -131q80 131 211 131q105 0 172 -81t67 -206zM227 655q0 -48 30 -79t79 -31q74 0 129 78q-17 39 -27 58.5t-26.5 43.5
t-36.5 34.5t-45 10.5q-45 0 -74 -32t-29 -83zM733 770q-90 0 -137 -70q17 -41 27 -61.5t27 -46t37.5 -36.5t47.5 -11q43 0 75 32.5t32 77.5q0 50 -32 82.5t-77 32.5z" />
    <glyph glyph-name="integral" unicode="&#x222b;" horiz-adv-x="1046" 
d="M379 14v1024q0 185 97 291.5t263 106.5q183 0 281 -101l-121 -188q-24 24 -61 39.5t-74 15.5q-64 0 -99.5 -41.5t-35.5 -120.5v-1011q0 -186 -93 -294t-264 -108q-150 0 -245 88l118 185q50 -43 117 -43q53 0 85 40.5t32 116.5z" />
    <glyph glyph-name="approxequal" unicode="&#x2248;" horiz-adv-x="1054" 
d="M86 725v229q113 76 231 76q62 0 121 -16.5t98 -36.5t93 -36.5t108 -16.5q148 0 232 63v-231q-102 -62 -228 -62q-60 0 -119 16.5t-99.5 37t-95.5 37t-108 16.5q-150 0 -233 -76zM86 317v232q113 76 231 76q62 0 121 -16.5t98 -37t93 -37t108 -16.5q146 0 232 62v-230
q-101 -61 -228 -61q-60 0 -119 16.5t-99.5 36.5t-95.5 36.5t-108 16.5q-151 0 -233 -78z" />
    <glyph glyph-name="notequal" unicode="&#x2260;" horiz-adv-x="1054" 
d="M180 168l94 176h-188v227h309l92 174h-401v228h522l94 176h179l-93 -176h181v-228h-301l-93 -174h394v-227h-514l-93 -176h-182z" />
    <glyph glyph-name="lessequal" unicode="&#x2264;" horiz-adv-x="1054" 
d="M969 551v-246l-883 363v217l883 360v-244l-609 -225zM86 0v227h883v-227h-883z" />
    <glyph glyph-name="greaterequal" unicode="&#x2265;" horiz-adv-x="1054" 
d="M86 551l608 225l-608 225v244l883 -360v-217l-883 -363v246zM969 0h-883v227h883v-227z" />
    <glyph glyph-name="lozenge" unicode="&#x25ca;" horiz-adv-x="1079" 
d="M1006 655l-330 -655h-273l-329 655l329 658h273zM739 655l-204 439l-207 -439l207 -436z" />
    <glyph glyph-name="ITF" unicode="&#xf8ff;" horiz-adv-x="3147" 
d="M150 0v1313h405v-1313h-405zM639 930v383h405v-383h-405zM1126 0v1313h406v-1313h-406zM1618 930v383h403v-383h-403zM2105 0v1313h404v-1313h-404zM2595 930v383h403v-383h-403zM2595 465v381h403v-381h-403z" />
    <glyph glyph-name="G.alt" horiz-adv-x="1488" 
d="M758 -27q-184 0 -339 88.5t-246 245.5t-91 348q0 139 55.5 266t149 218.5t222.5 145.5t269 54q303 0 490 -178l-166 -188q-60 55 -143.5 88t-176.5 33q-177 0 -301.5 -127.5t-124.5 -311.5q0 -188 116.5 -311t287.5 -123q170 0 269 82.5t118 206.5v20h-365v236h625v-305
q-18 -76 -52.5 -145.5t-91 -132.5t-128.5 -109t-169 -73.5t-208 -27.5z" />
    <glyph glyph-name="a.alt" horiz-adv-x="1275" 
d="M545 -27q-129 0 -235.5 65t-170 184.5t-63.5 269.5q0 222 133.5 369t335.5 147q192 0 301 -154v127h250v-670q0 -53 25 -78.5t61 -25.5q20 0 43 10l26 -219q-65 -21 -123 -21q-79 0 -146 39t-103 121q-54 -79 -140 -121.5t-194 -42.5zM586 207q113 0 186.5 82.5
t73.5 202.5t-73.5 201t-186.5 81t-186.5 -81t-73.5 -201t73.5 -202.5t186.5 -82.5z" />
    <glyph glyph-name="j.alt" horiz-adv-x="530" 
d="M264 1112q-61 0 -103 43t-42 105q0 60 42 102.5t103 42.5q60 0 104 -42.5t44 -102.5q0 -61 -44 -104.5t-104 -43.5zM-4 -428h-59v238h49q153 0 153 161v1010h250v-1012q0 -183 -104.5 -290t-288.5 -107z" />
    <glyph glyph-name="l.alt" horiz-adv-x="530" 
d="M139 0v1409h250v-1409h-250z" />
    <glyph glyph-name="y.alt" horiz-adv-x="1087" 
d="M543 -401h-252l162 407l-441 975h275l282 -666l240 666h252z" />
    <glyph glyph-name="ampersand.alt" horiz-adv-x="1310" 
d="M1053 705l184 -134l-174 -237l203 -205l-179 -162l-176 180q-176 -167 -387 -167q-123 0 -221 41.5t-157.5 126.5t-59.5 200q0 121 75.5 216t203.5 149q-111 144 -111 272q0 154 114 252t279 98q198 0 367 -125l-119 -186q-128 86 -229 86q-68 0 -112 -36t-44 -97
q0 -88 98 -186l289 -291zM336 360q0 -74 51 -117.5t139 -43.5q115 0 224 112l-230 238q-84 -28 -134 -76t-50 -113z" />
    <glyph glyph-name="Gbreve.alt" horiz-adv-x="1488" 
d="M743 1401q-134 0 -221.5 92t-87.5 236h176q0 -79 37.5 -120.5t95.5 -41.5q59 0 96.5 41t37.5 121h178q0 -144 -88 -236t-224 -92zM758 -27q-184 0 -339 88.5t-246 245.5t-91 348q0 139 55.5 266t149 218.5t222.5 145.5t269 54q303 0 490 -178l-166 -188q-60 55 -143.5 88
t-176.5 33q-177 0 -301.5 -127.5t-124.5 -311.5q0 -188 116.5 -311t287.5 -123q170 0 269 82.5t118 206.5v20h-365v236h625v-305q-18 -76 -52.5 -145.5t-91 -132.5t-128.5 -109t-169 -73.5t-208 -27.5z" />
    <glyph glyph-name="Gcircumflex.alt" horiz-adv-x="1488" 
d="M633 1741h225l244 -320h-238l-119 174l-118 -174h-238zM758 -27q-184 0 -339 88.5t-246 245.5t-91 348q0 139 55.5 266t149 218.5t222.5 145.5t269 54q303 0 490 -178l-166 -188q-60 55 -143.5 88t-176.5 33q-177 0 -301.5 -127.5t-124.5 -311.5q0 -188 116.5 -311
t287.5 -123q170 0 269 82.5t118 206.5v20h-365v236h625v-305q-18 -76 -52.5 -145.5t-91 -132.5t-128.5 -109t-169 -73.5t-208 -27.5z" />
    <glyph glyph-name="Gcommaaccent.alt" horiz-adv-x="1488" 
d="M758 -27q-184 0 -339 88.5t-246 245.5t-91 348q0 139 55.5 266t149 218.5t222.5 145.5t269 54q303 0 490 -178l-166 -188q-60 55 -143.5 88t-176.5 33q-177 0 -301.5 -127.5t-124.5 -311.5q0 -188 116.5 -311t287.5 -123q170 0 269 82.5t118 206.5v20h-365v236h625v-305
q-18 -76 -52.5 -145.5t-91 -132.5t-128.5 -109t-169 -73.5t-208 -27.5zM866 -104l-116 -308h-195l66 308h245z" />
    <glyph glyph-name="Gdotaccent.alt" horiz-adv-x="1488" 
d="M598 1591q0 60 43 103t104 43q60 0 103 -43t43 -103q0 -61 -43 -104t-103 -43q-61 0 -104 43t-43 104zM758 -27q-184 0 -339 88.5t-246 245.5t-91 348q0 139 55.5 266t149 218.5t222.5 145.5t269 54q303 0 490 -178l-166 -188q-60 55 -143.5 88t-176.5 33
q-177 0 -301.5 -127.5t-124.5 -311.5q0 -188 116.5 -311t287.5 -123q170 0 269 82.5t118 206.5v20h-365v236h625v-305q-18 -76 -52.5 -145.5t-91 -132.5t-128.5 -109t-169 -73.5t-208 -27.5z" />
    <glyph glyph-name="aacute.alt" horiz-adv-x="1275" 
d="M666 1409h295l-269 -319h-227zM545 -27q-129 0 -235.5 65t-170 184.5t-63.5 269.5q0 222 133.5 369t335.5 147q192 0 301 -154v127h250v-670q0 -53 25 -78.5t61 -25.5q20 0 43 10l26 -219q-65 -21 -123 -21q-79 0 -146 39t-103 121q-54 -79 -140 -121.5t-194 -42.5z
M586 207q113 0 186.5 82.5t73.5 202.5t-73.5 201t-186.5 81t-186.5 -81t-73.5 -201t73.5 -202.5t186.5 -82.5z" />
    <glyph glyph-name="abreve.alt" horiz-adv-x="1275" 
d="M598 1069q-134 0 -221.5 92t-87.5 236h176q0 -79 37.5 -120.5t95.5 -41.5q59 0 96 41t37 121h178q0 -144 -87.5 -236t-223.5 -92zM545 -27q-129 0 -235.5 65t-170 184.5t-63.5 269.5q0 222 133.5 369t335.5 147q192 0 301 -154v127h250v-670q0 -53 25 -78.5t61 -25.5
q20 0 43 10l26 -219q-65 -21 -123 -21q-79 0 -146 39t-103 121q-54 -79 -140 -121.5t-194 -42.5zM586 207q113 0 186.5 82.5t73.5 202.5t-73.5 201t-186.5 81t-186.5 -81t-73.5 -201t73.5 -202.5t186.5 -82.5z" />
    <glyph glyph-name="acircumflex.alt" horiz-adv-x="1275" 
d="M487 1409h226l243 -319h-237l-119 174l-119 -174h-237zM545 -27q-129 0 -235.5 65t-170 184.5t-63.5 269.5q0 222 133.5 369t335.5 147q192 0 301 -154v127h250v-670q0 -53 25 -78.5t61 -25.5q20 0 43 10l26 -219q-65 -21 -123 -21q-79 0 -146 39t-103 121
q-54 -79 -140 -121.5t-194 -42.5zM586 207q113 0 186.5 82.5t73.5 202.5t-73.5 201t-186.5 81t-186.5 -81t-73.5 -201t73.5 -202.5t186.5 -82.5z" />
    <glyph glyph-name="adieresis.alt" horiz-adv-x="1275" 
d="M281 1247q0 56 38 95.5t93 39.5q57 0 96 -39.5t39 -95.5t-39 -94.5t-96 -38.5q-55 0 -93 38.5t-38 94.5zM653 1247q0 56 38.5 95.5t92.5 39.5q56 0 96 -40t40 -95t-40 -94t-96 -39q-54 0 -92.5 39t-38.5 94zM545 -27q-129 0 -235.5 65t-170 184.5t-63.5 269.5
q0 222 133.5 369t335.5 147q192 0 301 -154v127h250v-670q0 -53 25 -78.5t61 -25.5q20 0 43 10l26 -219q-65 -21 -123 -21q-79 0 -146 39t-103 121q-54 -79 -140 -121.5t-194 -42.5zM586 207q113 0 186.5 82.5t73.5 202.5t-73.5 201t-186.5 81t-186.5 -81t-73.5 -201
t73.5 -202.5t186.5 -82.5z" />
    <glyph glyph-name="agrave.alt" horiz-adv-x="1275" 
d="M532 1409l201 -319h-227l-268 319h294zM545 -27q-129 0 -235.5 65t-170 184.5t-63.5 269.5q0 222 133.5 369t335.5 147q192 0 301 -154v127h250v-670q0 -53 25 -78.5t61 -25.5q20 0 43 10l26 -219q-65 -21 -123 -21q-79 0 -146 39t-103 121q-54 -79 -140 -121.5
t-194 -42.5zM586 207q113 0 186.5 82.5t73.5 202.5t-73.5 201t-186.5 81t-186.5 -81t-73.5 -201t73.5 -202.5t186.5 -82.5z" />
    <glyph glyph-name="amacron.alt" horiz-adv-x="1275" 
d="M295 1350h608v-185h-608v185zM545 -27q-129 0 -235.5 65t-170 184.5t-63.5 269.5q0 222 133.5 369t335.5 147q192 0 301 -154v127h250v-670q0 -53 25 -78.5t61 -25.5q20 0 43 10l26 -219q-65 -21 -123 -21q-79 0 -146 39t-103 121q-54 -79 -140 -121.5t-194 -42.5z
M586 207q113 0 186.5 82.5t73.5 202.5t-73.5 201t-186.5 81t-186.5 -81t-73.5 -201t73.5 -202.5t186.5 -82.5z" />
    <glyph glyph-name="aogonek.alt" horiz-adv-x="1275" 
d="M545 -27q-129 0 -235.5 65t-170 184.5t-63.5 269.5q0 222 133.5 369t335.5 147q192 0 301 -154v127h250v-670q0 -53 25 -78.5t61 -25.5q20 0 43 10l26 -219q-213 -99 -213 -207q0 -31 20 -48t52 -17q54 0 107 45l73 -117q-36 -41 -93 -66.5t-126 -25.5q-96 0 -159.5 49
t-63.5 137q0 146 170 250q-96 42 -139 139q-54 -79 -140 -121.5t-194 -42.5zM586 207q113 0 186.5 82.5t73.5 202.5t-73.5 201t-186.5 81t-186.5 -81t-73.5 -201t73.5 -202.5t186.5 -82.5z" />
    <glyph glyph-name="aring.alt" horiz-adv-x="1275" 
d="M600 1069q-104 0 -175 69.5t-71 168.5t71 168t175 69t175 -69t71 -168t-71 -168.5t-175 -69.5zM602 1206q42 0 70 28.5t28 72.5t-28 73t-70 29t-71 -29t-29 -73t29 -72.5t71 -28.5zM545 -27q-129 0 -235.5 65t-170 184.5t-63.5 269.5q0 222 133.5 369t335.5 147
q192 0 301 -154v127h250v-670q0 -53 25 -78.5t61 -25.5q20 0 43 10l26 -219q-65 -21 -123 -21q-79 0 -146 39t-103 121q-54 -79 -140 -121.5t-194 -42.5zM586 207q113 0 186.5 82.5t73.5 202.5t-73.5 201t-186.5 81t-186.5 -81t-73.5 -201t73.5 -202.5t186.5 -82.5z" />
    <glyph glyph-name="atilde.alt" horiz-adv-x="1275" 
d="M760 1106q-50 0 -103.5 23.5t-102.5 47t-89 23.5q-20 0 -36 -7.5t-31 -25.5t-23 -29.5t-23 -37.5l-123 100q74 180 211 180q50 0 103.5 -24t102.5 -48t89 -24q26 0 48.5 17t34 34t30.5 51l123 -102q-74 -178 -211 -178zM545 -27q-129 0 -235.5 65t-170 184.5t-63.5 269.5
q0 222 133.5 369t335.5 147q192 0 301 -154v127h250v-670q0 -53 25 -78.5t61 -25.5q20 0 43 10l26 -219q-65 -21 -123 -21q-79 0 -146 39t-103 121q-54 -79 -140 -121.5t-194 -42.5zM586 207q113 0 186.5 82.5t73.5 202.5t-73.5 201t-186.5 81t-186.5 -81t-73.5 -201
t73.5 -202.5t186.5 -82.5z" />
    <glyph glyph-name="jdotless.alt" horiz-adv-x="530" 
d="M-4 -428h-59v238h49q153 0 153 161v1010h250v-1012q0 -183 -104.5 -290t-288.5 -107z" />
    <glyph glyph-name="jcircumflex.alt" horiz-adv-x="530" 
d="M154 1409h225l244 -319h-238l-119 174l-119 -174h-237zM-4 -428h-59v238h49q153 0 153 161v1010h250v-1012q0 -183 -104.5 -290t-288.5 -107z" />
    <glyph glyph-name="lacute.alt" horiz-adv-x="530" 
d="M336 1837h295l-269 -319h-227zM139 0v1409h250v-1409h-250z" />
    <glyph glyph-name="lcaron.alt" horiz-adv-x="530" 
d="M139 0v1409h250v-1409h-250zM719 1409l-86 -340h-182l41 340h227z" />
    <glyph glyph-name="lcommaaccent.alt" horiz-adv-x="530" 
d="M139 0v1409h250v-1409h-250zM387 -104l-117 -308h-194l65 308h246z" />
    <glyph glyph-name="ldot.alt" horiz-adv-x="757" 
d="M139 0v1409h250v-1409h-250zM498 612q0 60 43 104t104 44q60 0 103 -44t43 -104t-43 -102.5t-103 -42.5q-61 0 -104 42.5t-43 102.5z" />
    <glyph glyph-name="lslash.alt" horiz-adv-x="530" 
d="M139 0v598l-116 -45v213l116 45v598h250v-500l119 47v-213l-119 -47v-696h-250z" />
    <glyph glyph-name="yacute.alt" horiz-adv-x="1087" 
d="M610 1409h295l-268 -319h-227zM543 -401h-252l162 407l-441 975h275l282 -666l240 666h252z" />
    <glyph glyph-name="ycircumflex.alt" horiz-adv-x="1087" 
d="M432 1409h225l244 -319h-237l-119 174l-119 -174h-238zM543 -401h-252l162 407l-441 975h275l282 -666l240 666h252z" />
    <glyph glyph-name="ydieresis.alt" horiz-adv-x="1087" 
d="M225 1247q0 56 38 95.5t93 39.5q57 0 96.5 -39.5t39.5 -95.5t-39.5 -94.5t-96.5 -38.5q-55 0 -93 38.5t-38 94.5zM598 1247q0 56 38.5 95.5t92.5 39.5q55 0 95 -40t40 -95t-39.5 -94t-95.5 -39q-54 0 -92.5 39t-38.5 94zM543 -401h-252l162 407l-441 975h275l282 -666
l240 666h252z" />
    <glyph glyph-name="ygrave.alt" horiz-adv-x="1087" 
d="M477 1409l201 -319h-227l-269 319h295zM543 -401h-252l162 407l-441 975h275l282 -666l240 666h252z" />
    <glyph glyph-name="i.loclTRK" horiz-adv-x="530" 
d="M264 1112q-61 0 -103 43t-42 105q0 60 42 102.5t103 42.5q60 0 104 -42.5t44 -102.5q0 -61 -44 -104.5t-104 -43.5zM389 0h-250v981h250v-981z" />
    <glyph glyph-name="fl.alt" horiz-adv-x="1226" 
d="M51 760v221h160v20q0 202 116.5 318.5t303.5 116.5q136 0 229 -37h227v-1399h-249v1153q-71 49 -183 49q-85 0 -138.5 -52t-53.5 -146v-23h211v-221h-211v-760h-252v760h-160z" />
    <glyph glyph-name="commaaccent.alt" 
d="M270 1102l117 307h199l-68 -307h-248z" />
    <glyph glyph-name="caroncomb.alt" 
d="M559 1409l-86 -340h-182l41 340h227z" />
    <glyph glyph-name="commaaccent" 
d="M539 -104l-117 -308h-195l66 308h246z" />
    </font>
</defs>
</svg>
