<?xml version="1.0" standalone="no"?>
<!DOCTYPE svg PUBLIC "-//W3C//DTD SVG 1.1//EN" "http://www.w3.org/Graphics/SVG/1.1/DTD/svg11.dtd" >
<svg xmlns="http://www.w3.org/2000/svg" xmlns:xlink="http://www.w3.org/1999/xlink" version="1.1">
<metadata>
Created by FontForge 20170731 at Sat Feb 11 11:56:35 2023
 By Aleksey,,,
Copyright 2021-2022 Indian Type Foundry. All rights reserved.
</metadata>
<defs>
<font id="ElevanceSans-Regular" horiz-adv-x="819" >
  <font-face 
    font-family="Elevance Sans"
    font-weight="400"
    font-stretch="normal"
    units-per-em="2048"
    panose-1="0 0 0 0 0 0 0 0 0 0"
    ascent="1638"
    descent="-410"
    x-height="981"
    cap-height="1313"
    bbox="-444 -424 3043 1896"
    underline-thickness="102"
    underline-position="-307"
    unicode-range="U+0020-FB02"
  />
<missing-glyph horiz-adv-x="1245" 
d="M1053 0h-858v1313h858v-1313zM311 1200v-1087h625v1087h-625z" />
    <glyph glyph-name="fi" unicode="fi" horiz-adv-x="1134" 
d="M70 872v109h149v78q0 181 104 277t283 96q110 0 202 -34.5t153 -92.5l-68 -93q-117 107 -283 107q-134 0 -202 -68.5t-68 -197.5v-72h612v-981h-123v872h-489v-872h-121v872h-149z" />
    <glyph glyph-name="fl" unicode="fl" horiz-adv-x="1134" 
d="M829 0v1264q-88 55 -229 55q-124 0 -192 -73.5t-68 -205.5v-59h252v-109h-252v-872h-121v872h-149v109h149v63q0 188 102 288t271 100q146 0 260 -52h100v-1380h-123z" />
    <glyph glyph-name=".notdef" horiz-adv-x="1245" 
d="M1053 0h-858v1313h858v-1313zM311 1200v-1087h625v1087h-625z" />
    <glyph glyph-name=".null" horiz-adv-x="0" 
 />
    <glyph glyph-name="nonmarkingreturn" horiz-adv-x="682" 
 />
    <glyph glyph-name="space" unicode=" " horiz-adv-x="487" 
 />
    <glyph glyph-name="exclam" unicode="!" horiz-adv-x="555" 
d="M227 381l-14 932h135l-16 -932h-105zM276 -14q-38 0 -66 28t-28 66q0 40 28 68t66 28q39 0 68 -28.5t29 -67.5q0 -38 -29 -66t-68 -28z" />
    <glyph glyph-name="quotedbl" unicode="&#x22;" horiz-adv-x="573" 
d="M223 1409l-24 -397h-80l-23 397h127zM477 1409l-22 -397h-82l-21 397h125z" />
    <glyph glyph-name="numbersign" unicode="#" horiz-adv-x="1173" 
d="M168 0l80 393h-230l17 96h233l68 340h-234l19 95h235l78 387h109l-78 -387h358l78 387h109l-78 -387h225l-18 -95h-228l-67 -340h227l-18 -96h-230l-80 -393h-108l80 393h-359l-80 -393h-108zM377 489h358l68 340h-359z" />
    <glyph glyph-name="dollar" unicode="$" horiz-adv-x="1120" 
d="M324 25q-83 20 -232 112l55 107q90 -60 204 -93.5t218 -33.5q147 0 240.5 65.5t93.5 184.5q0 68 -42.5 115t-110.5 73.5t-150.5 48t-165 46.5t-150.5 60t-110.5 98.5t-42.5 152.5q0 144 108.5 241t282.5 111v166h111v-166q208 -9 348 -105l-61 -98q-136 90 -349 90
q-138 0 -224.5 -67t-86.5 -168q0 -52 26.5 -92t71 -65.5t102 -46t121.5 -37.5t128 -35.5t121.5 -44.5t102 -60t71 -87t26.5 -120q0 -166 -111 -262.5t-286 -110.5v-170h-111v166q-121 3 -198 25z" />
    <glyph glyph-name="percent" unicode="%" horiz-adv-x="1576" 
d="M385 688q-139 0 -233.5 94t-94.5 230q0 137 92.5 230t235.5 93q141 0 234.5 -93.5t93.5 -229.5t-94.5 -230t-233.5 -94zM387 0h-108l909 1313h112zM385 774q95 0 165.5 65.5t70.5 172.5t-70.5 172t-165.5 65t-165 -65t-70 -172q0 -108 70 -173t165 -65zM1192 -23
q-141 0 -234.5 94t-93.5 230t94.5 230t233.5 94t233.5 -94t94.5 -230q0 -137 -92.5 -230.5t-235.5 -93.5zM1192 63q95 0 165 65t70 173t-70 173t-165 65t-165.5 -65.5t-70.5 -172.5t71 -172.5t165 -65.5z" />
    <glyph glyph-name="ampersand" unicode="&#x26;" horiz-adv-x="1267" 
d="M537 -23q-124 0 -224.5 41t-162.5 125.5t-62 198.5q0 236 315 363l-30 30q-133 144 -133 285q0 129 97 222t245 93q142 0 237.5 -91.5t95.5 -217.5q0 -241 -321 -362l346 -359q58 93 82 221l14 72l107 -18l-15 -72q-35 -168 -110 -283l172 -178l-82 -76l-160 168
q-162 -162 -411 -162zM461 803l57 -60q150 55 216.5 124t66.5 155q0 81 -62 143t-157 62q-97 0 -162.5 -62t-65.5 -143q0 -53 22 -103.5t85 -115.5zM207 346q0 -123 96.5 -192.5t239.5 -69.5q201 0 329 131l-391 408q-274 -96 -274 -277z" />
    <glyph glyph-name="quotesingle" unicode="'" horiz-adv-x="319" 
d="M223 1409l-24 -397h-80l-23 397h127z" />
    <glyph glyph-name="parenleft" unicode="(" horiz-adv-x="624" 
d="M606 -225l-74 -72q-191 170 -301 391.5t-110 474.5q0 252 110 473.5t301 391.5l74 -70q-171 -157 -267.5 -366t-96.5 -429q0 -222 96.5 -430.5t267.5 -363.5z" />
    <glyph glyph-name="parenright" unicode=")" horiz-adv-x="624" 
d="M94 -297l-76 72q172 155 268.5 363.5t96.5 430.5q0 221 -96.5 429.5t-268.5 365.5l76 70q191 -170 301.5 -391.5t110.5 -473.5q0 -253 -110 -474.5t-302 -391.5z" />
    <glyph glyph-name="asterisk" unicode="*" horiz-adv-x="778" 
d="M514 854l-125 195l-125 -195l-88 64l143 182l-223 57l33 105l217 -86l-12 233h108l-12 -233l217 86l35 -105l-223 -57l143 -182z" />
    <glyph glyph-name="plus" unicode="+" horiz-adv-x="1032" 
d="M125 606v109h334v362h116v-362h332v-109h-332v-360h-116v360h-334z" />
    <glyph glyph-name="comma" unicode="," horiz-adv-x="354" 
d="M207 176q41 0 68.5 -27t27.5 -67q0 -32 -29 -92l-137 -248h-78l117 254q-63 23 -63 86q0 40 27 67t67 27z" />
    <glyph glyph-name="hyphen" unicode="-" horiz-adv-x="602" 
d="M63 545h476v-109h-476v109z" />
    <glyph glyph-name="period" unicode="." horiz-adv-x="364" 
d="M217 -14q-38 0 -66 28t-28 66q0 40 28 68t66 28q40 0 68 -28t28 -68q0 -38 -28 -66t-68 -28z" />
    <glyph glyph-name="slash" unicode="/" horiz-adv-x="792" 
d="M35 0l598 1313h125l-598 -1313h-125z" />
    <glyph glyph-name="zero" unicode="0" horiz-adv-x="1198" 
d="M600 -23q-134 0 -243 88t-170.5 243.5t-61.5 348.5q0 192 61 347t169 243t241 88q136 0 245 -88t170.5 -243t61.5 -347q1 -193 -60 -348.5t-169.5 -243.5t-243.5 -88zM598 90q154 0 254 160t100 407t-100.5 406.5t-255.5 159.5q-152 0 -250 -159t-98 -407
q0 -163 44.5 -292.5t124.5 -202t181 -72.5z" />
    <glyph glyph-name="one" unicode="1" horiz-adv-x="806" 
d="M543 0h-121v1161l-260 -254l-72 82l334 324h119v-1313z" />
    <glyph glyph-name="two" unicode="2" horiz-adv-x="989" 
d="M43 0v98l530 510q95 92 138 171t43 171q0 110 -81.5 191.5t-209.5 81.5q-212 0 -322 -209l-96 63q62 117 167 187.5t255 70.5q179 0 293 -112.5t114 -270.5q0 -112 -48 -205.5t-167 -207.5l-448 -430h682v-109h-850z" />
    <glyph glyph-name="three" unicode="3" horiz-adv-x="1011" 
d="M455 -23q-140 0 -242.5 50.5t-179.5 154.5l90 82q71 -92 151.5 -133t184.5 -41q156 0 240.5 84.5t84.5 212.5q0 135 -90.5 215t-292.5 80h-86v82l410 440h-633v109h785v-105l-402 -426q430 -36 430 -395q0 -83 -28.5 -156.5t-83 -130.5t-142 -90t-196.5 -33z" />
    <glyph glyph-name="four" unicode="4" horiz-adv-x="1095" 
d="M57 412l660 901h104v-901h209v-109h-209v-303h-119v303h-645v109zM182 412h520v714z" />
    <glyph glyph-name="five" unicode="5" horiz-adv-x="1099" 
d="M526 88q154 0 241 88t87 219q0 135 -83.5 226.5t-242.5 91.5q-100 0 -167 -21t-138 -67l-59 37l110 651h631v-109h-532l-78 -444q96 57 250 57q105 0 188 -34t134.5 -93t78.5 -134.5t27 -162.5q0 -85 -29 -159.5t-84 -132.5t-141 -92t-193 -34q-140 0 -242.5 50.5
t-179.5 154.5l89 82q73 -92 152 -133t181 -41z" />
    <glyph glyph-name="six" unicode="6" horiz-adv-x="1144" 
d="M582 -23q-192 0 -324.5 130t-132.5 319q0 106 38 197t136 225l340 465h141l-342 -475q64 24 142 24q200 0 325 -126t125 -310q0 -192 -128.5 -320.5t-319.5 -128.5zM580 758q-144 0 -238 -94.5t-94 -237.5q0 -145 94 -240.5t238 -95.5q141 0 235 95.5t94 240.5
q0 142 -94 237t-235 95z" />
    <glyph glyph-name="seven" unicode="7" horiz-adv-x="899" 
d="M301 0h-131l543 1204h-688v109h819v-99z" />
    <glyph glyph-name="eight" unicode="8" horiz-adv-x="1085" 
d="M543 -23q-189 0 -313 112.5t-124 281.5q0 120 71.5 214t191.5 136q-94 39 -148.5 114.5t-54.5 170.5q0 142 107 235.5t270 93.5t270 -93.5t107 -235.5q0 -95 -54.5 -170.5t-148.5 -114.5q120 -42 191 -135t71 -215q0 -169 -124.5 -281.5t-311.5 -112.5zM545 768
q110 0 182 65t72 164q0 100 -72 166t-182 66t-184 -66t-74 -166q0 -98 74 -163.5t184 -65.5zM545 84q135 0 223 83.5t88 209.5q0 125 -88 207t-223 82q-136 0 -226 -82t-90 -207q0 -126 90 -209.5t226 -83.5z" />
    <glyph glyph-name="nine" unicode="9" horiz-adv-x="1144" 
d="M565 1329q191 0 323 -129.5t132 -318.5q0 -105 -38 -195t-136 -225l-340 -467h-141l342 475q-62 -27 -140 -27q-200 0 -326 127.5t-126 311.5q0 191 129 319.5t321 128.5zM565 547q145 0 239.5 94.5t94.5 239.5t-94.5 239t-239.5 94q-141 0 -235 -94.5t-94 -238.5
t94 -239t235 -95z" />
    <glyph glyph-name="colon" unicode=":" horiz-adv-x="364" 
d="M217 750q-38 0 -66 28t-28 66q0 40 28 68t66 28q40 0 68 -28t28 -68q0 -38 -28 -66t-68 -28zM217 -14q-38 0 -66 28t-28 66q0 40 28 68t66 28q40 0 68 -28t28 -68q0 -38 -28 -66t-68 -28z" />
    <glyph glyph-name="semicolon" unicode=";" horiz-adv-x="364" 
d="M217 750q-38 0 -66 28t-28 66q0 40 28 68t66 28q40 0 68 -28t28 -68q0 -38 -28 -66t-68 -28zM211 176q42 0 70 -27t28 -67q0 -37 -30 -92l-136 -248h-77l116 254q-63 23 -63 86q0 40 27 67t65 27z" />
    <glyph glyph-name="less" unicode="&#x3c;" horiz-adv-x="1079" 
d="M934 336v-123l-784 401v97l784 399v-121l-645 -325z" />
    <glyph glyph-name="equal" unicode="=" horiz-adv-x="1032" 
d="M125 766v111h782v-111h-782zM125 444v111h782v-111h-782z" />
    <glyph glyph-name="greater" unicode="&#x3e;" horiz-adv-x="1079" 
d="M150 336l643 328l-643 325v121l784 -399v-97l-784 -401v123z" />
    <glyph glyph-name="question" unicode="?" horiz-adv-x="978" 
d="M385 381l-6 295h35q80 0 145.5 25t107 66t63.5 92t22 106q0 120 -83.5 188t-201.5 68q-82 0 -159.5 -38.5t-135.5 -115.5l-90 76q74 95 177 143.5t212 48.5q105 0 194 -41t146 -126.5t57 -200.5q0 -144 -99.5 -254.5t-276.5 -128.5l-3 -203h-104zM446 -14q-38 0 -66 28
t-28 66q0 40 28 68t66 28q40 0 68.5 -28t28.5 -68q0 -38 -28.5 -66t-68.5 -28z" />
    <glyph glyph-name="at" unicode="@" horiz-adv-x="1738" 
d="M799 174q-122 0 -205.5 97.5t-83.5 256.5q0 178 104 300t254 122q166 0 226 -157l6 135h100l-24 -428q-11 -228 131 -228q105 0 164 102t59 259q0 122 -49.5 234.5t-134.5 195.5t-206.5 132.5t-258.5 49.5t-262 -53.5t-214.5 -144t-142.5 -216t-53 -262.5
q0 -136 53 -260.5t142.5 -215.5t214.5 -145t262 -54q109 0 181 19.5t144 61.5l45 -84q-147 -94 -370 -94q-157 0 -300.5 61.5t-247.5 165t-165.5 246.5t-61.5 299t61.5 299t165.5 246.5t247.5 165t300.5 61.5q155 0 295.5 -57.5t239.5 -153t157.5 -225.5t58.5 -270
q0 -125 -38 -228t-115 -167t-181 -64q-80 0 -138.5 45.5t-76.5 143.5q-39 -90 -111.5 -140.5t-172.5 -50.5zM813 272q121 0 193.5 93.5t72.5 226.5q0 111 -55 185.5t-145 74.5q-113 0 -190 -90.5t-77 -222.5q0 -113 58.5 -190t142.5 -77z" />
    <glyph glyph-name="A" unicode="A" horiz-adv-x="1318" 
d="M1145 0l-156 373h-670l-155 -373h-129l553 1313h143l553 -1313h-139zM365 483h579l-289 697z" />
    <glyph glyph-name="B" unicode="B" horiz-adv-x="1239" 
d="M195 0v1311h514q160 0 271.5 -99t111.5 -243q0 -74 -33.5 -136t-77 -96.5t-92.5 -54.5q109 -32 181.5 -115.5t72.5 -208.5q0 -148 -114.5 -253t-285.5 -105h-548zM692 1200h-375v-473h377q115 0 194 68.5t79 167.5t-80 168t-195 69zM727 621h-410v-510h408
q122 0 206.5 74.5t84.5 181.5q0 106 -84 180t-205 74z" />
    <glyph glyph-name="C" unicode="C" horiz-adv-x="1290" 
d="M1235 1184l-80 -97q-163 130 -375 130q-145 0 -268.5 -75.5t-195.5 -205.5t-72 -283q0 -151 72.5 -279t200 -203t280.5 -75q217 0 362 123l78 -88q-91 -82 -200 -118t-249 -36q-139 0 -264 53.5t-214 144.5t-141 215.5t-52 262.5q0 139 52.5 265t141 217.5t211.5 145.5
t258 54q145 0 254.5 -37t200.5 -114z" />
    <glyph glyph-name="D" unicode="D" horiz-adv-x="1419" 
d="M195 0v1311h370q330 0 534 -181.5t204 -474.5t-196.5 -474t-514.5 -181h-397zM573 1196h-254v-1081h254q272 0 437.5 148t165.5 392t-165.5 392.5t-437.5 148.5z" />
    <glyph glyph-name="E" unicode="E" horiz-adv-x="1095" 
d="M195 0v1313h817v-115h-695v-483h613v-115h-613v-485h695v-115h-817z" />
    <glyph glyph-name="F" unicode="F" horiz-adv-x="1067" 
d="M195 0v1311h794v-115h-672v-498h590v-114h-590v-584h-122z" />
    <glyph glyph-name="G" unicode="G" horiz-adv-x="1382" 
d="M803 -23q-202 0 -360 91t-242 244.5t-84 340.5q0 140 53 266.5t142.5 217.5t213 144.5t258.5 53.5q145 0 254.5 -37t200.5 -114l-78 -92q-163 127 -377 127q-110 0 -209.5 -44t-172 -119.5t-115.5 -180.5t-43 -222q0 -115 41 -217.5t114 -178.5t181.5 -120.5t236.5 -44.5
q189 0 336 84v393h-373v111h492v-569q-194 -134 -469 -134z" />
    <glyph glyph-name="H" unicode="H" horiz-adv-x="1456" 
d="M1141 0v602h-824v-602h-122v1313h122v-596h824v596h121v-1313h-121z" />
    <glyph glyph-name="I" unicode="I" horiz-adv-x="512" 
d="M195 0v1313h122v-1313h-122z" />
    <glyph glyph-name="J" unicode="J" horiz-adv-x="858" 
d="M35 111l86 86q77 -101 205 -101q111 0 173 70.5t62 208.5v938h121v-942q0 -100 -27.5 -177t-76.5 -123.5t-112 -70t-138 -23.5q-91 0 -170 36t-123 98z" />
    <glyph glyph-name="K" unicode="K" horiz-adv-x="1169" 
d="M317 0h-122v1313h122v-651l644 651h155l-651 -662l676 -651h-170l-654 629v-629z" />
    <glyph glyph-name="L" unicode="L" horiz-adv-x="1064" 
d="M195 0v1313h122v-1198h713v-115h-835z" />
    <glyph glyph-name="M" unicode="M" horiz-adv-x="1695" 
d="M850 266l-533 844v-1110h-122v1313h139l522 -832l520 832h125v-1313h-123v1102z" />
    <glyph glyph-name="N" unicode="N" horiz-adv-x="1456" 
d="M1137 0l-828 1120v-1120h-123v1313h133l830 -1123v1123h121v-1313h-133z" />
    <glyph glyph-name="O" unicode="O" horiz-adv-x="1562" 
d="M782 1335q180 0 333.5 -91.5t243 -249t89.5 -341.5q0 -183 -89.5 -339t-242.5 -246.5t-334 -90.5q-136 0 -259 53.5t-212 144t-141.5 216t-52.5 262.5q0 139 52.5 265t141.5 217.5t212 145.5t259 54zM782 96q146 0 270 74.5t196.5 203t72.5 279.5q0 153 -72.5 283
t-196.5 205.5t-270 75.5t-270 -75.5t-196 -205.5t-72 -283q0 -113 42.5 -216t114.5 -178t172 -119t209 -44z" />
    <glyph glyph-name="P" unicode="P" horiz-adv-x="1224" 
d="M195 0v1313h452q217 0 348 -109.5t131 -290.5q0 -180 -132.5 -289.5t-352.5 -109.5h-324v-514h-122zM657 1202h-340v-577h340q154 0 249 79t95 209t-95 209.5t-249 79.5z" />
    <glyph glyph-name="Q" unicode="Q" horiz-adv-x="1562" 
d="M782 -23q-136 0 -259 53.5t-212 144t-141.5 216t-52.5 262.5q0 139 52.5 265t141.5 217.5t212 145.5t259 54q180 0 333.5 -91.5t243 -249t89.5 -341.5q0 -137 -51.5 -260t-143.5 -217l207 -207l-84 -84l-213 213q-174 -121 -381 -121zM782 96q160 0 293 90l-213 213
l84 84l221 -221q154 167 154 391q0 153 -72.5 283t-196.5 205.5t-270 75.5t-270 -75.5t-196 -205.5t-72 -283q0 -113 42.5 -216t114.5 -178t172 -119t209 -44z" />
    <glyph glyph-name="R" unicode="R" horiz-adv-x="1228" 
d="M195 0v1313h452q202 0 325.5 -104t123.5 -275q0 -144 -90.5 -241.5t-245.5 -127.5l354 -565h-143l-344 555h-310v-555h-122zM657 1202h-340v-536h340q140 0 226 73.5t86 194.5t-86 194.5t-226 73.5z" />
    <glyph glyph-name="S" unicode="S" horiz-adv-x="1120" 
d="M324 0q-81 23 -234 115l62 108q91 -61 202 -95t215 -34q147 0 240.5 65.5t93.5 184.5q0 53 -26.5 93.5t-71 67t-102.5 48t-122 40.5t-128 39.5t-122 50t-102.5 67.5t-71 97t-26.5 134q0 154 125 254t319 100q244 0 404 -108l-61 -101q-156 95 -347 95q-137 0 -224 -68
t-87 -168q0 -56 26.5 -100t71 -73t102 -52t121.5 -42t128 -39.5t121.5 -48t102 -63t71 -90t26.5 -123.5q0 -93 -37 -166t-101.5 -118.5t-148 -69t-180.5 -23.5q-145 0 -239 23z" />
    <glyph glyph-name="T" unicode="T" horiz-adv-x="1040" 
d="M1020 1198h-438v-1198h-123v1198h-441v115h1002v-115z" />
    <glyph glyph-name="U" unicode="U" horiz-adv-x="1339" 
d="M176 492v821h123v-824q0 -177 102 -285t269 -108q168 0 269 107.5t101 285.5v824h125v-821q0 -232 -136.5 -373.5t-360.5 -141.5q-222 0 -357 141.5t-135 373.5z" />
    <glyph glyph-name="V" unicode="V" horiz-adv-x="1241" 
d="M176 1313l449 -1176l450 1176h127l-510 -1313h-143l-512 1313h139z" />
    <glyph glyph-name="W" unicode="W" horiz-adv-x="1970" 
d="M1784 1313h131l-426 -1313h-148l-356 1155l-358 -1155h-146l-426 1313h135l365 -1159l356 1159h154l358 -1155z" />
    <glyph glyph-name="X" unicode="X" horiz-adv-x="1155" 
d="M213 1313l373 -541l375 541h135l-443 -639l465 -674h-151l-396 573l-397 -573h-137l465 674l-443 639h154z" />
    <glyph glyph-name="Y" unicode="Y" horiz-adv-x="1146" 
d="M512 0v449l-494 864h140l417 -735l420 735h133l-493 -864v-449h-123z" />
    <glyph glyph-name="Z" unicode="Z" horiz-adv-x="1118" 
d="M78 115l803 1083h-799v115h954v-115l-805 -1083h809v-115h-962v115z" />
    <glyph glyph-name="bracketleft" unicode="[" horiz-adv-x="641" 
d="M199 -266v1675h387v-109h-267v-1458h267v-108h-387z" />
    <glyph glyph-name="backslash" unicode="\" horiz-adv-x="792" 
d="M758 0h-125l-598 1313h125z" />
    <glyph glyph-name="bracketright" unicode="]" horiz-adv-x="641" 
d="M442 -266h-387v108h267v1458h-267v109h387v-1675z" />
    <glyph glyph-name="asciicircum" unicode="^" horiz-adv-x="1032" 
d="M469 1313h102l316 -656h-115l-252 531l-258 -531h-115z" />
    <glyph glyph-name="underscore" unicode="_" horiz-adv-x="831" 
d="M-18 -41h868v-94h-868v94z" />
    <glyph glyph-name="grave" unicode="`" horiz-adv-x="784" 
d="M276 1409l201 -319h-112l-238 319h149z" />
    <glyph glyph-name="a" unicode="a" horiz-adv-x="1273" 
d="M586 -23q-134 0 -244 68t-173 186t-63 261q0 142 62 259t172 185t246 68q125 0 225 -61.5t158 -166.5v205h121v-981h-121v209q-59 -107 -158.5 -169.5t-224.5 -62.5zM600 90q159 0 264 118t105 286t-104.5 282.5t-264.5 114.5t-265.5 -115t-105.5 -282q0 -168 106 -286
t265 -118z" />
    <glyph glyph-name="b" unicode="b" horiz-adv-x="1273" 
d="M686 1004q135 0 245.5 -68t173 -186t62.5 -261q0 -142 -61.5 -259t-172 -185t-247.5 -68q-124 0 -222.5 60t-158.5 166v-203h-121v1409h121v-635q61 106 159 168t222 62zM678 891q-161 0 -267 -118t-106 -286t106 -282.5t267 -114.5q160 0 264.5 114.5t104.5 282.5
t-105 286t-264 118z" />
    <glyph glyph-name="c" unicode="c" horiz-adv-x="995" 
d="M889 788q-114 103 -283 103q-164 0 -270.5 -114.5t-106.5 -282.5t106.5 -286t268.5 -118q179 0 287 105l63 -89q-58 -61 -152 -95t-202 -34q-139 0 -252.5 69.5t-177.5 187.5t-64 258q0 214 143.5 363t356.5 149q109 0 201.5 -34.5t153.5 -95.5z" />
    <glyph glyph-name="d" unicode="d" horiz-adv-x="1273" 
d="M586 -23q-134 0 -244 68t-173 186t-63 261q0 142 62 259t172 185t246 68q125 0 225 -61.5t158 -166.5v633h121v-1409h-121v209q-59 -107 -158.5 -169.5t-224.5 -62.5zM600 90q159 0 264 118t105 286t-104.5 282.5t-264.5 114.5t-265.5 -115t-105.5 -282q0 -168 106 -286
t265 -118z" />
    <glyph glyph-name="e" unicode="e" horiz-adv-x="1138" 
d="M610 -23q-143 0 -259.5 69.5t-180.5 187t-64 258.5q0 105 36.5 199.5t99.5 163t152 109t190 40.5q132 0 241 -67t170.5 -180t61.5 -247q0 -40 -6 -55h-820q12 -158 118.5 -263.5t264.5 -105.5q89 0 169.5 31.5t134.5 85.5l67 -84q-65 -66 -164 -104t-211 -38zM586 897
q-140 0 -237 -95.5t-116 -244.5h699q-23 159 -116.5 249.5t-229.5 90.5z" />
    <glyph glyph-name="f" unicode="f" horiz-adv-x="641" 
d="M70 872v109h149v162q0 138 73.5 213.5t196.5 75.5q142 0 218 -89l-68 -86q-55 62 -143 62q-75 0 -115.5 -47t-40.5 -135v-156h264v-109h-264v-872h-121v872h-149z" />
    <glyph glyph-name="g" unicode="g" horiz-adv-x="1269" 
d="M252 -207q149 -106 342 -106q180 0 275.5 95.5t95.5 278.5v158q-59 -106 -158 -167.5t-223 -61.5q-134 0 -243.5 66.5t-172 183t-62.5 258.5q0 213 137.5 358t340.5 145q125 0 224 -59.5t157 -163.5v203h120v-911q0 -247 -130 -370.5t-357 -123.5q-259 0 -412 121z
M598 104q159 0 263 115.5t104 280.5t-104 278t-263 113q-158 0 -263.5 -113.5t-105.5 -277.5q0 -165 105.5 -280.5t263.5 -115.5z" />
    <glyph glyph-name="h" unicode="h" horiz-adv-x="1163" 
d="M184 0v1409h121v-586q45 85 125.5 133t187.5 48q175 0 280.5 -109t105.5 -289v-606h-121v584q0 142 -77.5 224.5t-211.5 82.5t-211.5 -82.5t-77.5 -224.5v-584h-121z" />
    <glyph glyph-name="i" unicode="i" horiz-adv-x="489" 
d="M244 1186q-34 0 -58 24t-24 58t24 58t58 24t59 -24t25 -58t-25 -58t-59 -24zM305 0h-121v981h121v-981z" />
    <glyph glyph-name="j" unicode="j" horiz-adv-x="489" 
d="M244 1186q-34 0 -58 24t-24 58t24 58t58 24t59 -24t25 -58t-25 -58t-59 -24zM49 -424q-107 0 -182 62l59 90q51 -41 119 -41q67 0 103 45t36 131v1118h121v-1110q0 -141 -65.5 -218t-190.5 -77z" />
    <glyph glyph-name="k" unicode="k" horiz-adv-x="1030" 
d="M305 0h-121v1409h121v-872l522 444h162l-551 -469l578 -512h-166l-545 483v-483z" />
    <glyph glyph-name="l" unicode="l" horiz-adv-x="538" 
d="M453 104l16 -106q-47 -14 -84 -14q-86 0 -143.5 60t-57.5 179v1186h121v-1186q0 -67 29 -97t72 -30q26 0 47 8z" />
    <glyph glyph-name="m" unicode="m" horiz-adv-x="1798" 
d="M305 0h-121v981h121v-158q44 85 120 133t177 48q122 0 211 -60.5t129 -167.5q38 105 122.5 166.5t201.5 61.5q169 0 270.5 -108.5t101.5 -289.5v-606h-120v584q0 142 -73 224.5t-200 82.5t-200.5 -83t-73.5 -224v-584h-121v584q0 142 -72.5 224.5t-199.5 82.5t-200 -82.5
t-73 -224.5v-584z" />
    <glyph glyph-name="n" unicode="n" horiz-adv-x="1163" 
d="M184 0v981h121v-158q45 85 125.5 133t187.5 48q175 0 280.5 -109t105.5 -289v-606h-121v584q0 142 -77.5 224.5t-211.5 82.5t-211.5 -82.5t-77.5 -224.5v-584h-121z" />
    <glyph glyph-name="o" unicode="o" horiz-adv-x="1198" 
d="M598 -23q-137 0 -250.5 69.5t-177.5 187.5t-64 258q0 105 38 199.5t103 163t156.5 109t194.5 40.5q138 0 251 -68.5t177 -186t64 -257.5t-63.5 -258t-177 -187.5t-251.5 -69.5zM600 90q159 0 264 118t105 286t-104.5 282.5t-264.5 114.5t-265.5 -115t-105.5 -282
q0 -168 106 -286t265 -118z" />
    <glyph glyph-name="p" unicode="p" horiz-adv-x="1273" 
d="M305 -401h-121v1382h121v-207q61 106 159 168t222 62q135 0 245.5 -68t173 -186t62.5 -261q0 -142 -61.5 -259t-172 -185t-247.5 -68q-124 0 -222.5 60t-158.5 166v-604zM678 90q160 0 264.5 114.5t104.5 282.5t-105 286t-264 118q-161 0 -267 -118t-106 -286t106 -282.5
t267 -114.5z" />
    <glyph glyph-name="q" unicode="q" horiz-adv-x="1273" 
d="M586 -23q-134 0 -244 68t-173 186t-63 261q0 142 62 259t172 185t246 68q125 0 225 -61.5t158 -166.5v205h121v-1382h-121v610q-59 -107 -158.5 -169.5t-224.5 -62.5zM600 90q159 0 264 118t105 286t-104.5 282.5t-264.5 114.5t-265.5 -115t-105.5 -282q0 -168 106 -286
t265 -118z" />
    <glyph glyph-name="r" unicode="r" horiz-adv-x="729" 
d="M184 0v981h121v-145q37 79 102 123.5t150 44.5q92 0 143 -39l-51 -113q-53 37 -125 37q-101 0 -160 -83t-59 -226v-580h-121z" />
    <glyph glyph-name="s" unicode="s" horiz-adv-x="894" 
d="M438 -23q-196 0 -368 101l49 102q167 -96 327 -96q119 0 182.5 46.5t63.5 125.5q0 53 -32 90t-83.5 58t-113 38.5t-123.5 38.5t-113.5 50.5t-83.5 83.5t-32 128q0 111 95 186t257 75q158 0 325 -80l-47 -101q-136 72 -274 72q-108 0 -172 -41.5t-64 -108.5
q0 -47 25 -81.5t66 -54t93 -38t107 -31.5t107 -36.5t93 -52t66 -77.5t25 -114q0 -128 -100 -205.5t-275 -77.5z" />
    <glyph glyph-name="t" unicode="t" horiz-adv-x="729" 
d="M66 872v109h153v233h121v-233h291v-109h-289v-608q0 -174 156 -174q87 0 137 53l59 -92q-74 -74 -207 -74q-130 0 -199 72t-69 209v614h-153z" />
    <glyph glyph-name="u" unicode="u" horiz-adv-x="1163" 
d="M287 981v-553q0 -148 80.5 -238t212.5 -90q135 0 216 90t81 238v553h122v-565q0 -193 -115 -310.5t-304 -117.5q-187 0 -300.5 117t-113.5 311v565h121z" />
    <glyph glyph-name="v" unicode="v" horiz-adv-x="995" 
d="M575 0h-155l-385 981h133l334 -868l334 868h125z" />
    <glyph glyph-name="w" unicode="w" horiz-adv-x="1609" 
d="M518 0h-139l-326 981h131l267 -842l288 842h133l287 -842l268 842h129l-325 -981h-148l-282 823z" />
    <glyph glyph-name="x" unicode="x" horiz-adv-x="989" 
d="M35 0l383 502l-365 479h152l297 -387l297 387h137l-367 -479l385 -502h-151l-316 412l-315 -412h-137z" />
    <glyph glyph-name="y" unicode="y" horiz-adv-x="995" 
d="M414 -147l51 135l-442 993h129l368 -844l318 844h123l-445 -1171q-44 -115 -109.5 -174.5t-166.5 -59.5q-115 0 -205 78l59 94q65 -59 154 -59q56 0 94.5 37t71.5 127z" />
    <glyph glyph-name="z" unicode="z" horiz-adv-x="966" 
d="M86 109l629 763h-617v109h770v-109l-628 -763h641v-109h-795v109z" />
    <glyph glyph-name="braceleft" unicode="{" horiz-adv-x="679" 
d="M84 518v107q100 0 138 41.5t38 140.5v334q0 121 67 194.5t203 73.5h95v-109h-74q-170 0 -170 -172v-348q0 -196 -162 -209q162 -13 162 -209v-348q0 -172 170 -172h74v-108h-95q-136 0 -203 73.5t-67 194.5v334q0 100 -37.5 141t-138.5 41z" />
    <glyph glyph-name="bar" unicode="|" horiz-adv-x="514" 
d="M317 -401h-118v1810h118v-1810z" />
    <glyph glyph-name="braceright" unicode="}" horiz-adv-x="679" 
d="M598 518q-102 0 -139 -40.5t-37 -141.5v-334q0 -121 -67.5 -194.5t-202.5 -73.5h-97v108h74q172 0 172 172v348q0 196 160 209q-160 13 -160 209v348q0 172 -172 172h-74v109h97q135 0 202.5 -73.5t67.5 -194.5v-334q0 -100 37.5 -141t138.5 -41v-107z" />
    <glyph glyph-name="asciitilde" unicode="~" horiz-adv-x="1032" 
d="M125 575v119q111 76 211 76q54 0 104.5 -16.5t83.5 -36.5t79.5 -36.5t92.5 -16.5q116 0 211 65v-117q-91 -61 -207 -61q-53 0 -104 16.5t-85 36.5t-81 36.5t-92 16.5q-123 0 -213 -82z" />
    <glyph glyph-name="nbspace" unicode="&#xa0;" horiz-adv-x="454" 
 />
    <glyph glyph-name="exclamdown" unicode="&#xa1;" horiz-adv-x="555" 
d="M279 813q-40 0 -68.5 28t-28.5 68q0 38 28.5 66.5t68.5 28.5q38 0 66 -28.5t28 -66.5q0 -40 -28 -68t-66 -28zM342 -324h-135l16 932h103z" />
    <glyph glyph-name="cent" unicode="&#xa2;" horiz-adv-x="1028" 
d="M889 944q-111 105 -283 105q-164 0 -270.5 -115.5t-106.5 -284.5q0 -167 106.5 -284t268.5 -117q180 0 287 104l63 -88q-108 -114 -311 -127v-160h-108v162q-187 25 -308 169t-121 341q0 194 121 338t308 170v162h110v-160q198 -12 316 -127z" />
    <glyph glyph-name="sterling" unicode="&#xa3;" horiz-adv-x="1081" 
d="M94 111h58q120 0 120 151v305h-141v92h141v277q0 181 108.5 291t287.5 110q121 0 209 -48t141 -128l-82 -78q-104 142 -264 142q-131 0 -204 -83t-73 -214v-269h502v-92h-502v-309q0 -124 -90 -147h731v-111h-942v111z" />
    <glyph glyph-name="currency" unicode="&#xa4;" horiz-adv-x="1091" 
d="M545 193q-155 0 -269 100l-143 -137l-78 80l146 141q-76 116 -76 252q0 138 76 250l-146 139l78 80l141 -135q116 98 271 98q156 0 270 -100l143 137l78 -80l-147 -141q74 -110 74 -248q0 -137 -74 -250l147 -143l-78 -80l-145 137q-118 -100 -268 -100zM545 301
q131 0 219 96t88 232q0 135 -88 230t-219 95q-132 0 -220.5 -95t-88.5 -230q0 -137 88.5 -232.5t220.5 -95.5z" />
    <glyph glyph-name="yen" unicode="&#xa5;" horiz-adv-x="1146" 
d="M635 0h-123v420h-379v94h342l-125 219h-217v92h164l-279 488h140l417 -746l420 746h133l-278 -488h164v-92h-217l-125 -219h342v-94h-379v-420z" />
    <glyph glyph-name="brokenbar" unicode="&#xa6;" horiz-adv-x="514" 
d="M317 1409v-747h-118v747h118zM317 346v-747h-118v747h118z" />
    <glyph glyph-name="section" unicode="&#xa7;" horiz-adv-x="1329" 
d="M1087 1147l-88 -84q-48 66 -143 112t-203 46q-138 0 -222.5 -59t-84.5 -156q0 -51 29 -90t77.5 -65t112 -47.5t133.5 -41t140 -40.5t133.5 -50.5t112 -67.5t77.5 -95.5t29 -129.5q0 -75 -39.5 -139.5t-108.5 -104.5q74 -77 74 -186q0 -171 -124 -272t-337 -101
q-163 0 -286 58t-195 157l88 82q146 -182 395 -182q155 0 243.5 66.5t88.5 176.5q0 72 -46.5 123.5t-121 82t-164.5 55.5t-180 53.5t-164.5 65.5t-121 101t-46.5 152q0 71 42.5 134.5t125.5 101.5q-94 78 -94 196q0 151 121 243.5t319 92.5q140 0 255.5 -53.5t172.5 -134.5z
M272 569q0 -67 46 -115t125 -78t163 -53t184 -54.5t164 -67.5q49 29 79 74t30 98q0 60 -32 107t-82 75.5t-122 55t-139.5 43.5t-147.5 42.5t-134 51.5q-63 -25 -98.5 -72t-35.5 -107z" />
    <glyph glyph-name="dieresis" unicode="&#xa8;" 
d="M174 1266q0 31 23 54t55 23q33 0 56.5 -23t23.5 -54q0 -34 -23 -57t-57 -23q-32 0 -55 23t-23 57zM487 1266q0 31 23 54t55 23t56 -23t24 -54q0 -33 -23.5 -56.5t-56.5 -23.5q-32 0 -55 23t-23 57z" />
    <glyph glyph-name="copyright" unicode="&#xa9;" horiz-adv-x="1695" 
d="M850 1393q148 0 283 -58.5t233 -157t156.5 -234.5t58.5 -284q0 -198 -98.5 -367t-267 -267.5t-365.5 -98.5q-200 0 -369 98.5t-267.5 267.5t-98.5 367t98.5 367t267.5 268t369 99zM850 1305q-174 0 -321.5 -86.5t-233.5 -234.5t-86 -322q0 -175 86 -323.5t233.5 -234.5
t321.5 -86q129 0 247 51t204 137t137 205.5t51 250.5q0 130 -51 249.5t-137 205.5t-204 137t-247 51zM1167 987l-63 -80q-52 50 -111 73.5t-139 23.5q-138 0 -236 -101.5t-98 -245.5q0 -143 98.5 -242.5t247.5 -99.5q146 0 248 97l60 -76q-127 -121 -314 -121
q-188 0 -317 129t-129 313q0 185 128 316t310 131q102 0 177 -28t138 -89z" />
    <glyph glyph-name="ordfeminine" unicode="&#xaa;" horiz-adv-x="847" 
d="M383 647q-131 0 -221 96.5t-90 241.5q0 144 88 242t221 98q79 0 142 -37t100 -102v125h104v-652h-104v127q-37 -65 -100 -102t-140 -37zM399 739q97 0 160.5 72t63.5 174t-63.5 172t-160.5 70q-96 0 -159.5 -70t-63.5 -172q0 -101 64 -173.5t159 -72.5z" />
    <glyph glyph-name="guillemotleft" unicode="&#xab;" horiz-adv-x="1001" 
d="M84 498l371 370l69 -69l-301 -301l301 -303l-69 -68zM475 498l373 370l67 -69l-299 -301l299 -303l-67 -68z" />
    <glyph glyph-name="logicalnot" unicode="&#xac;" horiz-adv-x="1067" 
d="M928 322h-115v284h-670v109h785v-393z" />
    <glyph glyph-name="softhyphen" unicode="&#xad;" horiz-adv-x="602" 
d="M63 545h476v-109h-476v109z" />
    <glyph glyph-name="registered" unicode="&#xae;" horiz-adv-x="995" 
d="M500 1417q185 0 311.5 -132.5t126.5 -319.5q0 -191 -124 -319t-314 -128q-185 0 -313 131t-128 316q0 187 128 319.5t313 132.5zM500 1337q-151 0 -254 -108.5t-103 -263.5q0 -152 103 -260.5t254 -108.5q154 0 255 105.5t101 263.5q0 155 -103 263.5t-253 108.5z
M330 729v479h180q31 0 58 -5.5t56.5 -19t46.5 -43t17 -71.5q0 -62 -37.5 -93t-91.5 -38l158 -209h-103l-149 205h-47v-205h-88zM506 1133h-88v-129h88q42 0 66 13t24 52q0 38 -24 51t-66 13z" />
    <glyph glyph-name="macron" unicode="&#xaf;" 
d="M135 1319h547v-98h-547v98z" />
    <glyph glyph-name="degree" unicode="&#xb0;" horiz-adv-x="700" 
d="M348 682q-139 0 -234.5 95t-95.5 229q0 138 94 232.5t238 94.5q150 0 240 -93.5t90 -233.5q0 -137 -92 -230.5t-240 -93.5zM348 770q103 0 170.5 65.5t67.5 170.5q0 111 -68.5 175t-165.5 64q-96 0 -166.5 -65t-70.5 -174q0 -105 70 -170.5t163 -65.5z" />
    <glyph glyph-name="plusminus" unicode="&#xb1;" horiz-adv-x="1032" 
d="M125 649v109h334v352h116v-352h332v-109h-332v-352h-116v352h-334zM125 0v111h782v-111h-782z" />
    <glyph glyph-name="twosuperior" unicode="&#xb2;" horiz-adv-x="577" 
d="M68 657v74l256 236q84 75 84 153q0 49 -34.5 84t-90.5 35q-101 0 -150 -100l-70 47q68 139 228 139q94 0 153.5 -57.5t59.5 -139.5q0 -58 -26.5 -107t-92.5 -106l-190 -178h315v-80h-442z" />
    <glyph glyph-name="threesuperior" unicode="&#xb3;" horiz-adv-x="577" 
d="M279 647q-146 0 -218 101l64 63q62 -82 156 -82q67 0 104 36.5t37 92.5q0 59 -41.5 94t-128.5 35h-51v49l190 195h-297v82h406v-72l-191 -192q107 -10 157 -61.5t50 -131.5q0 -90 -62 -149.5t-175 -59.5z" />
    <glyph glyph-name="acute" unicode="&#xb4;" 
d="M584 1409h151l-237 -319h-115z" />
    <glyph glyph-name="paragraph" unicode="&#xb6;" horiz-adv-x="1095" 
d="M557 1313h344v-1714h-100v1605h-121v-1605h-137v882q-207 10 -328 128t-121 298q0 186 124 296t339 110z" />
    <glyph glyph-name="periodcentered" unicode="&#xb7;" 
d="M328 637q0 33 24 58.5t58 25.5q33 0 57.5 -25.5t24.5 -58.5q0 -34 -24 -58t-58 -24q-35 0 -58.5 24t-23.5 58z" />
    <glyph glyph-name="cedilla" unicode="&#xb8;" 
d="M383 0h96l-149 -362l-103 45z" />
    <glyph glyph-name="onesuperior" unicode="&#xb9;" horiz-adv-x="577" 
d="M350 657h-96v543l-119 -115l-57 64l174 164h98v-656z" />
    <glyph glyph-name="ordmasculine" unicode="&#xba;" horiz-adv-x="798" 
d="M399 647q-137 0 -232 99t-95 239q0 141 95 241.5t232 100.5q138 0 233 -100.5t95 -241.5q0 -140 -94.5 -239t-233.5 -99zM399 741q97 0 160.5 71.5t63.5 172.5q0 102 -63.5 172t-160.5 70q-96 0 -159.5 -70t-63.5 -172q0 -101 64 -172.5t159 -71.5z" />
    <glyph glyph-name="guillemotright" unicode="&#xbb;" horiz-adv-x="1001" 
d="M475 799l70 69l370 -370l-370 -371l-70 68l301 303zM84 799l70 69l370 -370l-370 -371l-70 68l301 303z" />
    <glyph glyph-name="onequarter" unicode="&#xbc;" horiz-adv-x="1359" 
d="M350 657h-96v543l-119 -115l-57 64l174 164h98v-656zM188 0l916 1313h108l-911 -1313h-113zM811 221l324 434h86v-434h98v-86h-98v-135h-91v135h-319v86zM901 221h229v309z" />
    <glyph glyph-name="onehalf" unicode="&#xbd;" horiz-adv-x="1359" 
d="M350 657h-96v543l-119 -115l-57 64l174 164h98v-656zM141 0l916 1313h108l-911 -1313h-113zM850 0v74l256 235q84 75 84 154q0 49 -34.5 84t-90.5 35q-100 0 -150 -101l-69 47q68 140 227 140q94 0 153.5 -57.5t59.5 -139.5q0 -58 -26.5 -107t-92.5 -106l-190 -178h315
v-80h-442z" />
    <glyph glyph-name="threequarters" unicode="&#xbe;" horiz-adv-x="1359" 
d="M279 647q-146 0 -218 101l64 63q62 -82 156 -82q67 0 104 36.5t37 92.5q0 59 -41.5 94t-128.5 35h-51v49l190 195h-297v82h406v-72l-191 -192q107 -10 157 -61.5t50 -131.5q0 -90 -62 -149.5t-175 -59.5zM219 0l916 1313h108l-909 -1313h-115zM811 221l324 434h86v-434
h98v-86h-98v-135h-91v135h-319v86zM901 221h229v309z" />
    <glyph glyph-name="questiondown" unicode="&#xbf;" horiz-adv-x="978" 
d="M532 1001q38 0 66.5 -28t28.5 -66q0 -39 -28.5 -67.5t-66.5 -28.5q-40 0 -68 28t-28 68q0 38 28 66t68 28zM594 606l6 -295h-35q-80 0 -145.5 -24.5t-107 -66t-63.5 -92t-22 -105.5q0 -120 83.5 -188t201.5 -68q82 0 159.5 38.5t135.5 114.5l90 -76q-74 -95 -177 -143.5
t-212 -48.5q-105 0 -194 41t-146 126.5t-57 200.5q0 144 99.5 254.5t276.5 128.5l2 203h105z" />
    <glyph glyph-name="Agrave" unicode="&#xc0;" horiz-adv-x="1318" 
d="M530 1741l201 -320h-113l-237 320h149zM1145 0l-156 373h-670l-155 -373h-129l553 1313h143l553 -1313h-139zM365 483h579l-289 697z" />
    <glyph glyph-name="Aacute" unicode="&#xc1;" horiz-adv-x="1318" 
d="M786 1741h152l-238 -320h-114zM1145 0l-156 373h-670l-155 -373h-129l553 1313h143l553 -1313h-139zM365 483h579l-289 697z" />
    <glyph glyph-name="Acircumflex" unicode="&#xc2;" horiz-adv-x="1318" 
d="M602 1741h115l250 -320h-119l-189 236l-188 -236h-117zM1145 0l-156 373h-670l-155 -373h-129l553 1313h143l553 -1313h-139zM365 483h579l-289 697z" />
    <glyph glyph-name="Atilde" unicode="&#xc3;" horiz-adv-x="1318" 
d="M801 1468q-40 0 -81 20t-69.5 43.5t-66 43.5t-70.5 20q-39 0 -65 -28t-56 -84l-61 47q66 162 186 162q41 0 81.5 -19.5t69 -43t65 -43t69.5 -19.5q41 0 68.5 29t52.5 83l61 -49q-61 -162 -184 -162zM1145 0l-156 373h-670l-155 -373h-129l553 1313h143l553 -1313h-139z
M365 483h579l-289 697z" />
    <glyph glyph-name="Adieresis" unicode="&#xc4;" horiz-adv-x="1318" 
d="M424 1597q0 31 23 54.5t55 23.5q33 0 56.5 -23.5t23.5 -54.5q0 -34 -23 -56.5t-57 -22.5q-32 0 -55 23t-23 56zM737 1597q0 31 23 54.5t55 23.5t56 -23.5t24 -54.5q0 -33 -23.5 -56t-56.5 -23t-55.5 23t-22.5 56zM1145 0l-156 373h-670l-155 -373h-129l553 1313h143
l553 -1313h-139zM365 483h579l-289 697z" />
    <glyph glyph-name="Aring" unicode="&#xc5;" horiz-adv-x="1318" 
d="M659 1401q-93 0 -157 62.5t-64 152.5t64 152.5t157 62.5q95 0 158.5 -62.5t63.5 -152.5t-63.5 -152.5t-158.5 -62.5zM662 1485q55 0 93 37t38 94q0 58 -38 95.5t-93 37.5t-95.5 -38t-40.5 -95t40 -94t96 -37zM1145 0l-156 373h-670l-155 -373h-129l553 1313h143
l553 -1313h-139zM365 483h579l-289 697z" />
    <glyph glyph-name="AE" unicode="&#xc6;" horiz-adv-x="1671" 
d="M825 0v373h-503l-183 -373h-127l641 1313h934v-115h-639v-483h557v-115h-557v-485h639v-115h-762zM729 1202l-352 -719h448v719h-96z" />
    <glyph glyph-name="Ccedilla" unicode="&#xc7;" horiz-adv-x="1290" 
d="M1235 1184l-80 -97q-163 130 -375 130q-145 0 -268.5 -75.5t-195.5 -205.5t-72 -283q0 -151 72.5 -279t200 -203t280.5 -75q217 0 362 123l78 -88q-160 -145 -416 -154l-141 -339l-102 45l145 297q-170 16 -309 109.5t-218 242t-79 321.5q0 139 52.5 265t141 217.5
t211.5 145.5t258 54q145 0 254.5 -37t200.5 -114z" />
    <glyph glyph-name="Egrave" unicode="&#xc8;" horiz-adv-x="1095" 
d="M475 1741l201 -320h-113l-237 320h149zM195 0v1313h817v-115h-695v-483h613v-115h-613v-485h695v-115h-817z" />
    <glyph glyph-name="Eacute" unicode="&#xc9;" horiz-adv-x="1095" 
d="M729 1741h152l-238 -320h-115zM195 0v1313h817v-115h-695v-483h613v-115h-613v-485h695v-115h-817z" />
    <glyph glyph-name="Ecircumflex" unicode="&#xca;" horiz-adv-x="1095" 
d="M545 1741h114l250 -320h-118l-189 236l-188 -236h-117zM195 0v1313h817v-115h-695v-483h613v-115h-613v-485h695v-115h-817z" />
    <glyph glyph-name="Edieresis" unicode="&#xcb;" horiz-adv-x="1095" 
d="M367 1597q0 31 22.5 54.5t54.5 23.5q33 0 56.5 -23.5t23.5 -54.5q0 -34 -23 -56.5t-57 -22.5q-32 0 -54.5 22.5t-22.5 56.5zM680 1597q0 31 23 54.5t55 23.5t56 -23.5t24 -54.5q0 -33 -23.5 -56t-56.5 -23q-32 0 -55 23t-23 56zM195 0v1313h817v-115h-695v-483h613v-115
h-613v-485h695v-115h-817z" />
    <glyph glyph-name="Igrave" unicode="&#xcc;" horiz-adv-x="512" 
d="M127 1741l201 -320h-113l-238 320h150zM195 0v1313h122v-1313h-122z" />
    <glyph glyph-name="Iacute" unicode="&#xcd;" horiz-adv-x="512" 
d="M383 1741h152l-238 -320h-115zM195 0v1313h122v-1313h-122z" />
    <glyph glyph-name="Icircumflex" unicode="&#xce;" horiz-adv-x="512" 
d="M199 1741h114l250 -320h-119l-188 236l-188 -236h-117zM195 0v1313h122v-1313h-122z" />
    <glyph glyph-name="Idieresis" unicode="&#xcf;" horiz-adv-x="512" 
d="M20 1597q0 31 23 54.5t55 23.5q33 0 56.5 -23.5t23.5 -54.5q0 -34 -23 -56.5t-57 -22.5q-32 0 -55 23t-23 56zM334 1597q0 31 23 54.5t55 23.5t56 -23.5t24 -54.5q0 -33 -23.5 -56t-56.5 -23q-32 0 -55 23t-23 56zM195 0v1313h122v-1313h-122z" />
    <glyph glyph-name="Eth" unicode="&#xd0;" horiz-adv-x="1419" 
d="M195 0v604h-170v107h170v600h370q330 0 534 -181.5t204 -474.5t-196.5 -474t-514.5 -181h-397zM573 1196h-254v-485h338v-107h-338v-489h254q272 0 437.5 148t165.5 392t-165.5 392.5t-437.5 148.5z" />
    <glyph glyph-name="Ntilde" unicode="&#xd1;" horiz-adv-x="1456" 
d="M887 1468q-40 0 -81 20t-69.5 43.5t-66 43.5t-70.5 20q-39 0 -65 -28t-56 -84l-61 47q66 162 186 162q41 0 81.5 -19.5t69 -43t65 -43t69.5 -19.5q41 0 68.5 29t52.5 83l61 -49q-61 -162 -184 -162zM1137 0l-828 1120v-1120h-123v1313h133l830 -1123v1123h121v-1313h-133
z" />
    <glyph glyph-name="Ograve" unicode="&#xd2;" horiz-adv-x="1562" 
d="M653 1741l201 -320h-113l-237 320h149zM782 1335q180 0 333.5 -91.5t243 -249t89.5 -341.5q0 -183 -89.5 -339t-242.5 -246.5t-334 -90.5q-136 0 -259 53.5t-212 144t-141.5 216t-52.5 262.5q0 139 52.5 265t141.5 217.5t212 145.5t259 54zM782 96q146 0 270 74.5
t196.5 203t72.5 279.5q0 153 -72.5 283t-196.5 205.5t-270 75.5t-270 -75.5t-196 -205.5t-72 -283q0 -113 42.5 -216t114.5 -178t172 -119t209 -44z" />
    <glyph glyph-name="Oacute" unicode="&#xd3;" horiz-adv-x="1562" 
d="M909 1741h152l-238 -320h-114zM782 1335q180 0 333.5 -91.5t243 -249t89.5 -341.5q0 -183 -89.5 -339t-242.5 -246.5t-334 -90.5q-136 0 -259 53.5t-212 144t-141.5 216t-52.5 262.5q0 139 52.5 265t141.5 217.5t212 145.5t259 54zM782 96q146 0 270 74.5t196.5 203
t72.5 279.5q0 153 -72.5 283t-196.5 205.5t-270 75.5t-270 -75.5t-196 -205.5t-72 -283q0 -113 42.5 -216t114.5 -178t172 -119t209 -44z" />
    <glyph glyph-name="Ocircumflex" unicode="&#xd4;" horiz-adv-x="1562" 
d="M725 1741h115l250 -320h-119l-189 236l-188 -236h-117zM782 1335q180 0 333.5 -91.5t243 -249t89.5 -341.5q0 -183 -89.5 -339t-242.5 -246.5t-334 -90.5q-136 0 -259 53.5t-212 144t-141.5 216t-52.5 262.5q0 139 52.5 265t141.5 217.5t212 145.5t259 54zM782 96
q146 0 270 74.5t196.5 203t72.5 279.5q0 153 -72.5 283t-196.5 205.5t-270 75.5t-270 -75.5t-196 -205.5t-72 -283q0 -113 42.5 -216t114.5 -178t172 -119t209 -44z" />
    <glyph glyph-name="Otilde" unicode="&#xd5;" horiz-adv-x="1562" 
d="M924 1468q-40 0 -81 20t-69.5 43.5t-66 43.5t-70.5 20q-39 0 -65 -28t-56 -84l-61 47q66 162 186 162q41 0 81.5 -19.5t69 -43t65 -43t69.5 -19.5q41 0 68.5 29t52.5 83l61 -49q-61 -162 -184 -162zM782 1335q180 0 333.5 -91.5t243 -249t89.5 -341.5q0 -183 -89.5 -339
t-242.5 -246.5t-334 -90.5q-136 0 -259 53.5t-212 144t-141.5 216t-52.5 262.5q0 139 52.5 265t141.5 217.5t212 145.5t259 54zM782 96q146 0 270 74.5t196.5 203t72.5 279.5q0 153 -72.5 283t-196.5 205.5t-270 75.5t-270 -75.5t-196 -205.5t-72 -283q0 -113 42.5 -216
t114.5 -178t172 -119t209 -44z" />
    <glyph glyph-name="Odieresis" unicode="&#xd6;" horiz-adv-x="1562" 
d="M547 1597q0 31 23 54.5t55 23.5q33 0 56.5 -23.5t23.5 -54.5q0 -34 -23 -56.5t-57 -22.5q-33 0 -55.5 23t-22.5 56zM860 1597q0 31 23 54.5t55 23.5t56 -23.5t24 -54.5q0 -33 -23.5 -56t-56.5 -23q-32 0 -55 23t-23 56zM782 1335q180 0 333.5 -91.5t243 -249t89.5 -341.5
q0 -183 -89.5 -339t-242.5 -246.5t-334 -90.5q-136 0 -259 53.5t-212 144t-141.5 216t-52.5 262.5q0 139 52.5 265t141.5 217.5t212 145.5t259 54zM782 96q146 0 270 74.5t196.5 203t72.5 279.5q0 153 -72.5 283t-196.5 205.5t-270 75.5t-270 -75.5t-196 -205.5t-72 -283
q0 -113 42.5 -216t114.5 -178t172 -119t209 -44z" />
    <glyph glyph-name="multiply" unicode="&#xd7;" horiz-adv-x="1032" 
d="M260 324l-80 79l256 256l-254 254l82 82l254 -254l254 256l82 -79l-256 -256l254 -254l-84 -82l-252 254z" />
    <glyph glyph-name="Oslash" unicode="&#xd8;" horiz-adv-x="1562" 
d="M246 -43l116 172q-114 94 -179.5 231t-65.5 293q0 139 52.5 265t141.5 217.5t212 145.5t259 54q180 0 336 -94l115 168l80 -53l-117 -170q118 -95 185 -234.5t67 -298.5q0 -183 -89.5 -339t-242.5 -246.5t-334 -90.5q-186 0 -342 97l-116 -170zM244 653q0 -124 50 -234
t138 -188l619 910q-121 76 -269 76q-146 0 -270 -75.5t-196 -205.5t-72 -283zM782 96q146 0 270 74.5t196.5 203t72.5 279.5q0 128 -51.5 240t-141.5 192l-620 -911q127 -78 274 -78z" />
    <glyph glyph-name="Ugrave" unicode="&#xd9;" horiz-adv-x="1339" 
d="M543 1741l200 -320h-112l-238 320h150zM176 492v821h123v-824q0 -177 102 -285t269 -108q168 0 269 107.5t101 285.5v824h125v-821q0 -232 -136.5 -373.5t-360.5 -141.5q-222 0 -357 141.5t-135 373.5z" />
    <glyph glyph-name="Uacute" unicode="&#xda;" horiz-adv-x="1339" 
d="M797 1741h151l-237 -320h-115zM176 492v821h123v-824q0 -177 102 -285t269 -108q168 0 269 107.5t101 285.5v824h125v-821q0 -232 -136.5 -373.5t-360.5 -141.5q-222 0 -357 141.5t-135 373.5z" />
    <glyph glyph-name="Ucircumflex" unicode="&#xdb;" horiz-adv-x="1339" 
d="M612 1741h115l250 -320h-119l-188 236l-189 -236h-116zM176 492v821h123v-824q0 -177 102 -285t269 -108q168 0 269 107.5t101 285.5v824h125v-821q0 -232 -136.5 -373.5t-360.5 -141.5q-222 0 -357 141.5t-135 373.5z" />
    <glyph glyph-name="Udieresis" unicode="&#xdc;" horiz-adv-x="1339" 
d="M434 1597q0 31 23 54.5t55 23.5q33 0 56.5 -23.5t23.5 -54.5q0 -34 -23 -56.5t-57 -22.5q-32 0 -55 23t-23 56zM748 1597q0 31 22.5 54.5t54.5 23.5t56 -23.5t24 -54.5q0 -33 -23.5 -56t-56.5 -23q-32 0 -54.5 22.5t-22.5 56.5zM176 492v821h123v-824q0 -177 102 -285
t269 -108q168 0 269 107.5t101 285.5v824h125v-821q0 -232 -136.5 -373.5t-360.5 -141.5q-222 0 -357 141.5t-135 373.5z" />
    <glyph glyph-name="Yacute" unicode="&#xdd;" horiz-adv-x="1146" 
d="M700 1741h152l-238 -320h-114zM512 0v449l-494 864h140l417 -735l420 735h133l-493 -864v-449h-123z" />
    <glyph glyph-name="Thorn" unicode="&#xde;" horiz-adv-x="1224" 
d="M317 0h-122v1313h122v-228h330q217 0 348 -109t131 -290q0 -180 -132.5 -289.5t-352.5 -109.5h-324v-287zM657 975h-340v-578h340q154 0 249 80t95 209q0 131 -94.5 210t-249.5 79z" />
    <glyph glyph-name="germandbls" unicode="&#xdf;" horiz-adv-x="1206" 
d="M596 1319q-142 0 -216.5 -86t-74.5 -246v-987h-121v989q0 208 110 325.5t300 117.5q184 0 294.5 -103.5t110.5 -271.5q0 -101 -48 -179.5t-134 -123.5q123 -38 193.5 -131t70.5 -234q0 -187 -121.5 -299.5t-308.5 -112.5q-149 0 -233 41l37 109q73 -37 192 -37
q138 0 224.5 83t86.5 218q0 136 -85 216.5t-248 80.5h-138v105h125q125 0 195 77.5t70 182.5q0 119 -74.5 192.5t-206.5 73.5z" />
    <glyph glyph-name="agrave" unicode="&#xe0;" horiz-adv-x="1273" 
d="M475 1409l201 -319h-113l-237 319h149zM586 -23q-134 0 -244 68t-173 186t-63 261q0 142 62 259t172 185t246 68q125 0 225 -61.5t158 -166.5v205h121v-981h-121v209q-59 -107 -158.5 -169.5t-224.5 -62.5zM600 90q159 0 264 118t105 286t-104.5 282.5t-264.5 114.5
t-265.5 -115t-105.5 -282q0 -168 106 -286t265 -118z" />
    <glyph glyph-name="aacute" unicode="&#xe1;" horiz-adv-x="1273" 
d="M731 1409h152l-238 -319h-115zM586 -23q-134 0 -244 68t-173 186t-63 261q0 142 62 259t172 185t246 68q125 0 225 -61.5t158 -166.5v205h121v-981h-121v209q-59 -107 -158.5 -169.5t-224.5 -62.5zM600 90q159 0 264 118t105 286t-104.5 282.5t-264.5 114.5t-265.5 -115
t-105.5 -282q0 -168 106 -286t265 -118z" />
    <glyph glyph-name="acircumflex" unicode="&#xe2;" horiz-adv-x="1273" 
d="M547 1409h115l249 -319h-118l-189 235l-188 -235h-117zM586 -23q-134 0 -244 68t-173 186t-63 261q0 142 62 259t172 185t246 68q125 0 225 -61.5t158 -166.5v205h121v-981h-121v209q-59 -107 -158.5 -169.5t-224.5 -62.5zM600 90q159 0 264 118t105 286t-104.5 282.5
t-264.5 114.5t-265.5 -115t-105.5 -282q0 -168 106 -286t265 -118z" />
    <glyph glyph-name="atilde" unicode="&#xe3;" horiz-adv-x="1273" 
d="M745 1137q-40 0 -81 20t-69.5 43.5t-65.5 43.5t-70 20q-39 0 -65 -28t-56 -85l-62 47q66 162 187 162q41 0 81.5 -19.5t69 -43t65 -43t69.5 -19.5q41 0 68 29t52 84l62 -50q-60 -161 -185 -161zM586 -23q-134 0 -244 68t-173 186t-63 261q0 142 62 259t172 185t246 68
q125 0 225 -61.5t158 -166.5v205h121v-981h-121v209q-59 -107 -158.5 -169.5t-224.5 -62.5zM600 90q159 0 264 118t105 286t-104.5 282.5t-264.5 114.5t-265.5 -115t-105.5 -282q0 -168 106 -286t265 -118z" />
    <glyph glyph-name="adieresis" unicode="&#xe4;" horiz-adv-x="1273" 
d="M369 1266q0 31 22.5 54t54.5 23q33 0 56.5 -23t23.5 -54q0 -34 -23 -57t-57 -23q-32 0 -54.5 23t-22.5 57zM682 1266q0 31 23 54t55 23t56 -23t24 -54q0 -33 -23.5 -56.5t-56.5 -23.5q-32 0 -55 23t-23 57zM586 -23q-134 0 -244 68t-173 186t-63 261q0 142 62 259
t172 185t246 68q125 0 225 -61.5t158 -166.5v205h121v-981h-121v209q-59 -107 -158.5 -169.5t-224.5 -62.5zM600 90q159 0 264 118t105 286t-104.5 282.5t-264.5 114.5t-265.5 -115t-105.5 -282q0 -168 106 -286t265 -118z" />
    <glyph glyph-name="aring" unicode="&#xe5;" horiz-adv-x="1273" 
d="M604 1069q-93 0 -157 62.5t-64 152.5t64 152.5t157 62.5q94 0 157.5 -62.5t63.5 -152.5t-63.5 -152.5t-157.5 -62.5zM606 1153q55 0 93 37t38 94q0 58 -38 95.5t-93 37.5t-95 -38t-40 -95t40 -94t95 -37zM586 -23q-134 0 -244 68t-173 186t-63 261q0 142 62 259t172 185
t246 68q125 0 225 -61.5t158 -166.5v205h121v-981h-121v209q-59 -107 -158.5 -169.5t-224.5 -62.5zM600 90q159 0 264 118t105 286t-104.5 282.5t-264.5 114.5t-265.5 -115t-105.5 -282q0 -168 106 -286t265 -118z" />
    <glyph glyph-name="ae" unicode="&#xe6;" horiz-adv-x="1994" 
d="M586 -23q-134 0 -244 68t-173 186t-63 261q0 142 62 259t172 185t246 68q125 0 224 -60.5t159 -165.5v203h116v-199q60 102 157 162t214 60q126 0 231.5 -67t165.5 -180.5t60 -246.5q0 -27 -4 -51h-822q11 -159 117.5 -266t265.5 -107q90 0 170.5 31t135.5 86l65 -84
q-63 -66 -161 -104t-203 -38q-125 0 -228 62t-164 168v-207h-116v207q-60 -106 -159.5 -168t-223.5 -62zM1444 897q-143 0 -241 -98t-116 -250h703q-22 162 -115.5 255t-230.5 93zM600 90q159 0 264 118t105 286t-104.5 282.5t-264.5 114.5t-265.5 -115t-105.5 -282
q0 -168 106 -286t265 -118z" />
    <glyph glyph-name="ccedilla" unicode="&#xe7;" horiz-adv-x="995" 
d="M889 788q-114 103 -283 103q-164 0 -270.5 -114.5t-106.5 -282.5t106.5 -286t268.5 -118q179 0 287 105l63 -89q-94 -101 -276 -124l-141 -344l-103 45l146 294q-203 9 -338.5 158t-135.5 357q0 214 143.5 363t356.5 149q109 0 201.5 -34.5t153.5 -95.5z" />
    <glyph glyph-name="egrave" unicode="&#xe8;" horiz-adv-x="1138" 
d="M457 1409l200 -319h-112l-238 319h150zM610 -23q-143 0 -259.5 69.5t-180.5 187t-64 258.5q0 105 36.5 199.5t99.5 163t152 109t190 40.5q132 0 241 -67t170.5 -180t61.5 -247q0 -40 -6 -55h-820q12 -158 118.5 -263.5t264.5 -105.5q89 0 169.5 31.5t134.5 85.5l67 -84
q-65 -66 -164 -104t-211 -38zM586 897q-140 0 -237 -95.5t-116 -244.5h699q-23 159 -116.5 249.5t-229.5 90.5z" />
    <glyph glyph-name="eacute" unicode="&#xe9;" horiz-adv-x="1138" 
d="M711 1409h151l-237 -319h-115zM610 -23q-143 0 -259.5 69.5t-180.5 187t-64 258.5q0 105 36.5 199.5t99.5 163t152 109t190 40.5q132 0 241 -67t170.5 -180t61.5 -247q0 -40 -6 -55h-820q12 -158 118.5 -263.5t264.5 -105.5q89 0 169.5 31.5t134.5 85.5l67 -84
q-65 -66 -164 -104t-211 -38zM586 897q-140 0 -237 -95.5t-116 -244.5h699q-23 159 -116.5 249.5t-229.5 90.5z" />
    <glyph glyph-name="ecircumflex" unicode="&#xea;" horiz-adv-x="1138" 
d="M528 1409h115l250 -319h-119l-188 235l-189 -235h-116zM610 -23q-143 0 -259.5 69.5t-180.5 187t-64 258.5q0 105 36.5 199.5t99.5 163t152 109t190 40.5q132 0 241 -67t170.5 -180t61.5 -247q0 -40 -6 -55h-820q12 -158 118.5 -263.5t264.5 -105.5q89 0 169.5 31.5
t134.5 85.5l67 -84q-65 -66 -164 -104t-211 -38zM586 897q-140 0 -237 -95.5t-116 -244.5h699q-23 159 -116.5 249.5t-229.5 90.5z" />
    <glyph glyph-name="edieresis" unicode="&#xeb;" horiz-adv-x="1138" 
d="M350 1266q0 31 23 54t55 23q33 0 56.5 -23t23.5 -54q0 -34 -23 -57t-57 -23q-32 0 -55 23t-23 57zM664 1266q0 31 22.5 54t54.5 23t56 -23t24 -54q0 -33 -23.5 -56.5t-56.5 -23.5q-32 0 -54.5 23t-22.5 57zM610 -23q-143 0 -259.5 69.5t-180.5 187t-64 258.5
q0 105 36.5 199.5t99.5 163t152 109t190 40.5q132 0 241 -67t170.5 -180t61.5 -247q0 -40 -6 -55h-820q12 -158 118.5 -263.5t264.5 -105.5q89 0 169.5 31.5t134.5 85.5l67 -84q-65 -66 -164 -104t-211 -38zM586 897q-140 0 -237 -95.5t-116 -244.5h699
q-23 159 -116.5 249.5t-229.5 90.5z" />
    <glyph glyph-name="igrave" unicode="&#xec;" horiz-adv-x="489" 
d="M117 1409l200 -319h-112l-238 319h150zM305 981v-981h-121v981h121z" />
    <glyph glyph-name="iacute" unicode="&#xed;" horiz-adv-x="489" 
d="M371 1409h151l-237 -319h-115zM305 981v-981h-121v981h121z" />
    <glyph glyph-name="icircumflex" unicode="&#xee;" horiz-adv-x="489" 
d="M186 1409h115l250 -319h-119l-188 235l-189 -235h-116zM305 981v-981h-121v981h121z" />
    <glyph glyph-name="idieresis" unicode="&#xef;" horiz-adv-x="489" 
d="M8 1266q0 31 23 54t55 23q33 0 56.5 -23t23.5 -54q0 -34 -23 -57t-57 -23q-32 0 -55 23t-23 57zM322 1266q0 31 22.5 54t54.5 23t56 -23t24 -54q0 -33 -23.5 -56.5t-56.5 -23.5q-32 0 -54.5 23t-22.5 57zM305 981v-981h-121v981h121z" />
    <glyph glyph-name="eth" unicode="&#xf0;" horiz-adv-x="1198" 
d="M598 961q96 0 182.5 -41t141.5 -107q-83 219 -279 393l-164 -92l-43 76l135 76q-84 63 -163 100l79 76q98 -46 191 -117l139 78l43 -76l-110 -61q156 -144 248 -336.5t92 -405.5q0 -252 -136.5 -399.5t-355.5 -147.5q-137 0 -250.5 66.5t-177.5 180.5t-64 249
q0 206 141.5 347t350.5 141zM600 90q159 0 264 111.5t105 271.5q0 162 -104.5 271.5t-264.5 109.5t-265.5 -109.5t-105.5 -271.5q0 -160 106 -271.5t265 -111.5z" />
    <glyph glyph-name="ntilde" unicode="&#xf1;" horiz-adv-x="1163" 
d="M735 1137q-40 0 -81 20t-69.5 43.5t-65.5 43.5t-70 20q-39 0 -65 -28t-56 -85l-62 47q66 162 187 162q41 0 81.5 -19.5t68.5 -43t64.5 -43t69.5 -19.5q41 0 68.5 29t52.5 84l62 -50q-60 -161 -185 -161zM184 0v981h121v-158q45 85 125.5 133t187.5 48q175 0 280.5 -109
t105.5 -289v-606h-121v584q0 142 -77.5 224.5t-211.5 82.5t-211.5 -82.5t-77.5 -224.5v-584h-121z" />
    <glyph glyph-name="ograve" unicode="&#xf2;" horiz-adv-x="1198" 
d="M471 1409l201 -319h-113l-237 319h149zM598 -23q-137 0 -250.5 69.5t-177.5 187.5t-64 258q0 105 38 199.5t103 163t156.5 109t194.5 40.5q138 0 251 -68.5t177 -186t64 -257.5t-63.5 -258t-177 -187.5t-251.5 -69.5zM600 90q159 0 264 118t105 286t-104.5 282.5
t-264.5 114.5t-265.5 -115t-105.5 -282q0 -168 106 -286t265 -118z" />
    <glyph glyph-name="oacute" unicode="&#xf3;" horiz-adv-x="1198" 
d="M725 1409h152l-238 -319h-115zM598 -23q-137 0 -250.5 69.5t-177.5 187.5t-64 258q0 105 38 199.5t103 163t156.5 109t194.5 40.5q138 0 251 -68.5t177 -186t64 -257.5t-63.5 -258t-177 -187.5t-251.5 -69.5zM600 90q159 0 264 118t105 286t-104.5 282.5t-264.5 114.5
t-265.5 -115t-105.5 -282q0 -168 106 -286t265 -118z" />
    <glyph glyph-name="ocircumflex" unicode="&#xf4;" horiz-adv-x="1198" 
d="M543 1409h114l250 -319h-119l-188 235l-188 -235h-117zM598 -23q-137 0 -250.5 69.5t-177.5 187.5t-64 258q0 105 38 199.5t103 163t156.5 109t194.5 40.5q138 0 251 -68.5t177 -186t64 -257.5t-63.5 -258t-177 -187.5t-251.5 -69.5zM600 90q159 0 264 118t105 286
t-104.5 282.5t-264.5 114.5t-265.5 -115t-105.5 -282q0 -168 106 -286t265 -118z" />
    <glyph glyph-name="otilde" unicode="&#xf5;" horiz-adv-x="1198" 
d="M741 1137q-40 0 -81 20t-69.5 43.5t-65.5 43.5t-70 20q-39 0 -65 -28t-56 -85l-62 47q66 162 187 162q41 0 81.5 -19.5t68.5 -43t64.5 -43t69.5 -19.5q41 0 68.5 29t52.5 84l62 -50q-60 -161 -185 -161zM598 -23q-137 0 -250.5 69.5t-177.5 187.5t-64 258q0 105 38 199.5
t103 163t156.5 109t194.5 40.5q138 0 251 -68.5t177 -186t64 -257.5t-63.5 -258t-177 -187.5t-251.5 -69.5zM600 90q159 0 264 118t105 286t-104.5 282.5t-264.5 114.5t-265.5 -115t-105.5 -282q0 -168 106 -286t265 -118z" />
    <glyph glyph-name="odieresis" unicode="&#xf6;" horiz-adv-x="1198" 
d="M365 1266q0 31 22.5 54t54.5 23q33 0 56.5 -23t23.5 -54q0 -34 -23 -57t-57 -23q-32 0 -54.5 23t-22.5 57zM678 1266q0 31 23 54t55 23t56 -23t24 -54q0 -33 -23.5 -56.5t-56.5 -23.5q-32 0 -55 23t-23 57zM598 -23q-137 0 -250.5 69.5t-177.5 187.5t-64 258
q0 105 38 199.5t103 163t156.5 109t194.5 40.5q138 0 251 -68.5t177 -186t64 -257.5t-63.5 -258t-177 -187.5t-251.5 -69.5zM600 90q159 0 264 118t105 286t-104.5 282.5t-264.5 114.5t-265.5 -115t-105.5 -282q0 -168 106 -286t265 -118z" />
    <glyph glyph-name="divide" unicode="&#xf7;" horiz-adv-x="1032" 
d="M510 932q-38 0 -66 28t-28 66q0 40 28 68t66 28q40 0 68 -28t28 -68q0 -38 -28 -66t-68 -28zM907 606h-782v109h782v-109zM510 199q-38 0 -66 27t-28 65q0 40 28 69t66 29q40 0 68 -29t28 -69q0 -38 -28 -65t-68 -27z" />
    <glyph glyph-name="oslash" unicode="&#xf8;" horiz-adv-x="1241" 
d="M621 -23q-130 0 -246 66l-94 -137l-72 51l94 137q-84 71 -131 175t-47 223q0 140 64.5 257.5t178.5 186t253 68.5q138 0 253 -70l99 143l71 -49l-100 -145q81 -72 126.5 -174t45.5 -217q0 -214 -142.5 -364.5t-352.5 -150.5zM246 494q0 -88 32.5 -166.5t90.5 -134.5
l442 647q-82 51 -188 51q-163 0 -270 -115t-107 -282zM995 494q0 178 -114 292l-443 -647q84 -49 185 -49q160 0 266 118t106 286z" />
    <glyph glyph-name="ugrave" unicode="&#xf9;" horiz-adv-x="1163" 
d="M455 1409l200 -319h-112l-238 319h150zM287 981v-553q0 -148 80.5 -238t212.5 -90q135 0 216 90t81 238v553h122v-565q0 -193 -115 -310.5t-304 -117.5q-187 0 -300.5 117t-113.5 311v565h121z" />
    <glyph glyph-name="uacute" unicode="&#xfa;" horiz-adv-x="1163" 
d="M709 1409h151l-237 -319h-115zM287 981v-553q0 -148 80.5 -238t212.5 -90q135 0 216 90t81 238v553h122v-565q0 -193 -115 -310.5t-304 -117.5q-187 0 -300.5 117t-113.5 311v565h121z" />
    <glyph glyph-name="ucircumflex" unicode="&#xfb;" horiz-adv-x="1163" 
d="M524 1409h115l250 -319h-119l-188 235l-189 -235h-117zM287 981v-553q0 -148 80.5 -238t212.5 -90q135 0 216 90t81 238v553h122v-565q0 -193 -115 -310.5t-304 -117.5q-187 0 -300.5 117t-113.5 311v565h121z" />
    <glyph glyph-name="udieresis" unicode="&#xfc;" horiz-adv-x="1163" 
d="M346 1266q0 31 23 54t55 23q33 0 56.5 -23t23.5 -54q0 -34 -23 -57t-57 -23q-32 0 -55 23t-23 57zM659 1266q0 31 23 54t55 23t56 -23t24 -54q0 -33 -23.5 -56.5t-56.5 -23.5q-32 0 -55 23t-23 57zM287 981v-553q0 -148 80.5 -238t212.5 -90q135 0 216 90t81 238v553h122
v-565q0 -193 -115 -310.5t-304 -117.5q-187 0 -300.5 117t-113.5 311v565h121z" />
    <glyph glyph-name="yacute" unicode="&#xfd;" horiz-adv-x="995" 
d="M625 1409h151l-237 -319h-115zM414 -147l51 135l-442 993h129l368 -844l318 844h123l-445 -1171q-44 -115 -109.5 -174.5t-166.5 -59.5q-115 0 -205 78l59 94q65 -59 154 -59q56 0 94.5 37t71.5 127z" />
    <glyph glyph-name="thorn" unicode="&#xfe;" horiz-adv-x="1273" 
d="M686 1004q135 0 245.5 -68t173 -186t62.5 -261q0 -142 -61.5 -259t-172 -185t-247.5 -68q-123 0 -221 56.5t-160 156.5v-591h-121v1810h121v-623q62 101 160 159.5t221 58.5zM678 891q-161 0 -267 -118t-106 -286t106 -282.5t267 -114.5q160 0 264.5 114.5t104.5 282.5
t-105 286t-264 118z" />
    <glyph glyph-name="ydieresis" unicode="&#xff;" horiz-adv-x="995" 
d="M264 1266q0 31 23 54t55 23q33 0 56.5 -23t23.5 -54q0 -34 -23 -57t-57 -23q-32 0 -55 23t-23 57zM578 1266q0 31 22.5 54t54.5 23t56 -23t24 -54q0 -33 -23.5 -56.5t-56.5 -23.5q-32 0 -54.5 23t-22.5 57zM414 -147l51 135l-442 993h129l368 -844l318 844h123
l-445 -1171q-44 -115 -109.5 -174.5t-166.5 -59.5q-115 0 -205 78l59 94q65 -59 154 -59q56 0 94.5 37t71.5 127z" />
    <glyph glyph-name="Amacron" unicode="&#x100;" horiz-adv-x="1318" 
d="M385 1651h547v-99h-547v99zM1145 0l-156 373h-670l-155 -373h-129l553 1313h143l553 -1313h-139zM365 483h579l-289 697z" />
    <glyph glyph-name="amacron" unicode="&#x101;" horiz-adv-x="1273" 
d="M330 1319h547v-98h-547v98zM586 -23q-134 0 -244 68t-173 186t-63 261q0 142 62 259t172 185t246 68q125 0 225 -61.5t158 -166.5v205h121v-981h-121v209q-59 -107 -158.5 -169.5t-224.5 -62.5zM600 90q159 0 264 118t105 286t-104.5 282.5t-264.5 114.5t-265.5 -115
t-105.5 -282q0 -168 106 -286t265 -118z" />
    <glyph glyph-name="Abreve" unicode="&#x102;" horiz-adv-x="1318" 
d="M657 1401q-122 0 -200 83.5t-78 223.5h98q0 -104 51 -159.5t129 -55.5q79 0 131 55.5t52 159.5h98q0 -140 -78.5 -223.5t-202.5 -83.5zM1145 0l-156 373h-670l-155 -373h-129l553 1313h143l553 -1313h-139zM365 483h579l-289 697z" />
    <glyph glyph-name="abreve" unicode="&#x103;" horiz-adv-x="1273" 
d="M602 1069q-122 0 -200 83.5t-78 223.5h98q0 -104 51 -159.5t129 -55.5q79 0 130.5 55.5t51.5 159.5h99q0 -140 -78.5 -223.5t-202.5 -83.5zM586 -23q-134 0 -244 68t-173 186t-63 261q0 142 62 259t172 185t246 68q125 0 225 -61.5t158 -166.5v205h121v-981h-121v209
q-59 -107 -158.5 -169.5t-224.5 -62.5zM600 90q159 0 264 118t105 286t-104.5 282.5t-264.5 114.5t-265.5 -115t-105.5 -282q0 -168 106 -286t265 -118z" />
    <glyph glyph-name="Aogonek" unicode="&#x104;" horiz-adv-x="1318" 
d="M1335 -328q-79 -82 -200 -82q-83 0 -133 41.5t-50 112.5q0 148 191 262l-154 367h-670l-155 -373h-129l553 1313h143l553 -1313q-225 -119 -225 -238q0 -34 25.5 -54.5t66.5 -20.5q73 0 139 55zM365 483h579l-289 697z" />
    <glyph glyph-name="aogonek" unicode="&#x105;" horiz-adv-x="1273" 
d="M586 -23q-134 0 -244 68t-173 186t-63 261q0 142 62 259t172 185t246 68q125 0 225 -61.5t158 -166.5v205h121v-979l2 -2q-226 -120 -226 -238q0 -34 25.5 -54.5t66.5 -20.5q74 0 140 55l45 -70q-79 -82 -201 -82q-83 0 -132.5 41.5t-49.5 112.5q0 154 209 274v191
q-59 -107 -158.5 -169.5t-224.5 -62.5zM600 90q159 0 264 118t105 286t-104.5 282.5t-264.5 114.5t-265.5 -115t-105.5 -282q0 -168 106 -286t265 -118z" />
    <glyph glyph-name="Cacute" unicode="&#x106;" horiz-adv-x="1290" 
d="M907 1741h152l-238 -320h-114zM1235 1184l-80 -97q-163 130 -375 130q-145 0 -268.5 -75.5t-195.5 -205.5t-72 -283q0 -151 72.5 -279t200 -203t280.5 -75q217 0 362 123l78 -88q-91 -82 -200 -118t-249 -36q-139 0 -264 53.5t-214 144.5t-141 215.5t-52 262.5
q0 139 52.5 265t141 217.5t211.5 145.5t258 54q145 0 254.5 -37t200.5 -114z" />
    <glyph glyph-name="cacute" unicode="&#x107;" horiz-adv-x="995" 
d="M731 1409h152l-238 -319h-115zM889 788q-114 103 -283 103q-164 0 -270.5 -114.5t-106.5 -282.5t106.5 -286t268.5 -118q179 0 287 105l63 -89q-58 -61 -152 -95t-202 -34q-139 0 -252.5 69.5t-177.5 187.5t-64 258q0 214 143.5 363t356.5 149q109 0 201.5 -34.5
t153.5 -95.5z" />
    <glyph glyph-name="Ccircumflex" unicode="&#x108;" horiz-adv-x="1290" 
d="M723 1741h115l249 -320h-118l-189 236l-188 -236h-117zM1235 1184l-80 -97q-163 130 -375 130q-145 0 -268.5 -75.5t-195.5 -205.5t-72 -283q0 -151 72.5 -279t200 -203t280.5 -75q217 0 362 123l78 -88q-91 -82 -200 -118t-249 -36q-139 0 -264 53.5t-214 144.5
t-141 215.5t-52 262.5q0 139 52.5 265t141 217.5t211.5 145.5t258 54q145 0 254.5 -37t200.5 -114z" />
    <glyph glyph-name="ccircumflex" unicode="&#x109;" horiz-adv-x="995" 
d="M549 1409h115l249 -319h-118l-189 235l-188 -235h-117zM889 788q-114 103 -283 103q-164 0 -270.5 -114.5t-106.5 -282.5t106.5 -286t268.5 -118q179 0 287 105l63 -89q-58 -61 -152 -95t-202 -34q-139 0 -252.5 69.5t-177.5 187.5t-64 258q0 214 143.5 363t356.5 149
q109 0 201.5 -34.5t153.5 -95.5z" />
    <glyph glyph-name="Cdotaccent" unicode="&#x10a;" horiz-adv-x="1290" 
d="M698 1599q0 34 23.5 58t58.5 24q34 0 58 -24t24 -58t-24 -57.5t-58 -23.5q-35 0 -58.5 23.5t-23.5 57.5zM1235 1184l-80 -97q-163 130 -375 130q-145 0 -268.5 -75.5t-195.5 -205.5t-72 -283q0 -151 72.5 -279t200 -203t280.5 -75q217 0 362 123l78 -88
q-91 -82 -200 -118t-249 -36q-139 0 -264 53.5t-214 144.5t-141 215.5t-52 262.5q0 139 52.5 265t141 217.5t211.5 145.5t258 54q145 0 254.5 -37t200.5 -114z" />
    <glyph glyph-name="cdotaccent" unicode="&#x10b;" horiz-adv-x="995" 
d="M524 1268q0 34 23.5 58t58.5 24q34 0 58 -24t24 -58t-24 -58t-58 -24q-35 0 -58.5 24t-23.5 58zM889 788q-114 103 -283 103q-164 0 -270.5 -114.5t-106.5 -282.5t106.5 -286t268.5 -118q179 0 287 105l63 -89q-58 -61 -152 -95t-202 -34q-139 0 -252.5 69.5
t-177.5 187.5t-64 258q0 214 143.5 363t356.5 149q109 0 201.5 -34.5t153.5 -95.5z" />
    <glyph glyph-name="Ccaron" unicode="&#x10c;" horiz-adv-x="1290" 
d="M838 1421h-115l-248 320h117l188 -236l189 236h118zM1235 1184l-80 -97q-163 130 -375 130q-145 0 -268.5 -75.5t-195.5 -205.5t-72 -283q0 -151 72.5 -279t200 -203t280.5 -75q217 0 362 123l78 -88q-91 -82 -200 -118t-249 -36q-139 0 -264 53.5t-214 144.5t-141 215.5
t-52 262.5q0 139 52.5 265t141 217.5t211.5 145.5t258 54q145 0 254.5 -37t200.5 -114z" />
    <glyph glyph-name="ccaron" unicode="&#x10d;" horiz-adv-x="995" 
d="M664 1090h-115l-248 319h117l188 -235l189 235h118zM889 788q-114 103 -283 103q-164 0 -270.5 -114.5t-106.5 -282.5t106.5 -286t268.5 -118q179 0 287 105l63 -89q-58 -61 -152 -95t-202 -34q-139 0 -252.5 69.5t-177.5 187.5t-64 258q0 214 143.5 363t356.5 149
q109 0 201.5 -34.5t153.5 -95.5z" />
    <glyph glyph-name="Dcaron" unicode="&#x10e;" horiz-adv-x="1419" 
d="M768 1421h-115l-247 320h116l189 -236l188 236h119zM195 0v1311h370q330 0 534 -181.5t204 -474.5t-196.5 -474t-514.5 -181h-397zM573 1196h-254v-1081h254q272 0 437.5 148t165.5 392t-165.5 392.5t-437.5 148.5z" />
    <glyph glyph-name="dcaron" unicode="&#x10f;" horiz-adv-x="1273" 
d="M586 -23q-134 0 -244 68t-173 186t-63 261q0 142 62 259t172 185t246 68q125 0 225 -61.5t158 -166.5v633h121v-1409h-121v209q-59 -107 -158.5 -169.5t-224.5 -62.5zM1343 1409l-71 -340h-94l41 340h124zM600 90q159 0 264 118t105 286t-104.5 282.5t-264.5 114.5
t-265.5 -115t-105.5 -282q0 -168 106 -286t265 -118z" />
    <glyph glyph-name="Dcroat" unicode="&#x110;" horiz-adv-x="1419" 
d="M195 0v604h-170v107h170v600h370q330 0 534 -181.5t204 -474.5t-196.5 -474t-514.5 -181h-397zM573 1196h-254v-485h338v-107h-338v-489h254q272 0 437.5 148t165.5 392t-165.5 392.5t-437.5 148.5z" />
    <glyph glyph-name="dcroat" unicode="&#x111;" horiz-adv-x="1273" 
d="M586 -23q-134 0 -244 68t-173 186t-63 261q0 142 62 259t172 185t246 68q125 0 225 -61.5t158 -166.5v404h-307v98h307v131h121v-131h118v-98h-118v-1180h-121v209q-59 -107 -158.5 -169.5t-224.5 -62.5zM600 90q159 0 264 118t105 286t-104.5 282.5t-264.5 114.5
t-265.5 -115t-105.5 -282q0 -168 106 -286t265 -118z" />
    <glyph glyph-name="Emacron" unicode="&#x112;" horiz-adv-x="1095" 
d="M328 1651h546v-99h-546v99zM195 0v1313h817v-115h-695v-483h613v-115h-613v-485h695v-115h-817z" />
    <glyph glyph-name="emacron" unicode="&#x113;" horiz-adv-x="1138" 
d="M311 1319h547v-98h-547v98zM610 -23q-143 0 -259.5 69.5t-180.5 187t-64 258.5q0 105 36.5 199.5t99.5 163t152 109t190 40.5q132 0 241 -67t170.5 -180t61.5 -247q0 -40 -6 -55h-820q12 -158 118.5 -263.5t264.5 -105.5q89 0 169.5 31.5t134.5 85.5l67 -84
q-65 -66 -164 -104t-211 -38zM586 897q-140 0 -237 -95.5t-116 -244.5h699q-23 159 -116.5 249.5t-229.5 90.5z" />
    <glyph glyph-name="Ebreve" unicode="&#x114;" horiz-adv-x="1095" 
d="M600 1401q-122 0 -200 83.5t-78 223.5h98q0 -104 51 -159.5t129 -55.5q79 0 130.5 55.5t51.5 159.5h99q0 -140 -78.5 -223.5t-202.5 -83.5zM195 0v1313h817v-115h-695v-483h613v-115h-613v-485h695v-115h-817z" />
    <glyph glyph-name="ebreve" unicode="&#x115;" horiz-adv-x="1138" 
d="M584 1069q-122 0 -200.5 83.5t-78.5 223.5h98q0 -104 51.5 -159.5t129.5 -55.5q79 0 130.5 55.5t51.5 159.5h98q0 -140 -78 -223.5t-202 -83.5zM610 -23q-143 0 -259.5 69.5t-180.5 187t-64 258.5q0 105 36.5 199.5t99.5 163t152 109t190 40.5q132 0 241 -67t170.5 -180
t61.5 -247q0 -40 -6 -55h-820q12 -158 118.5 -263.5t264.5 -105.5q89 0 169.5 31.5t134.5 85.5l67 -84q-65 -66 -164 -104t-211 -38zM586 897q-140 0 -237 -95.5t-116 -244.5h699q-23 159 -116.5 249.5t-229.5 90.5z" />
    <glyph glyph-name="Edotaccent" unicode="&#x116;" horiz-adv-x="1095" 
d="M520 1599q0 34 23.5 58t58.5 24q34 0 58 -24t24 -58t-24 -57.5t-58 -23.5q-35 0 -58.5 23.5t-23.5 57.5zM195 0v1313h817v-115h-695v-483h613v-115h-613v-485h695v-115h-817z" />
    <glyph glyph-name="edotaccent" unicode="&#x117;" horiz-adv-x="1138" 
d="M504 1268q0 34 23.5 58t58.5 24q34 0 58 -24t24 -58t-24 -58t-58 -24q-35 0 -58.5 24t-23.5 58zM610 -23q-143 0 -259.5 69.5t-180.5 187t-64 258.5q0 105 36.5 199.5t99.5 163t152 109t190 40.5q132 0 241 -67t170.5 -180t61.5 -247q0 -40 -6 -55h-820
q12 -158 118.5 -263.5t264.5 -105.5q89 0 169.5 31.5t134.5 85.5l67 -84q-65 -66 -164 -104t-211 -38zM586 897q-140 0 -237 -95.5t-116 -244.5h699q-23 159 -116.5 249.5t-229.5 90.5z" />
    <glyph glyph-name="Eogonek" unicode="&#x118;" horiz-adv-x="1095" 
d="M195 0v1313h817v-115h-695v-483h613v-115h-613v-485h695v-115q-226 -120 -226 -238q0 -34 26 -54.5t67 -20.5q73 0 139 55l45 -70q-79 -82 -201 -82q-83 0 -132.5 41.5t-49.5 112.5q0 141 178 256h-663z" />
    <glyph glyph-name="eogonek" unicode="&#x119;" horiz-adv-x="1138" 
d="M825 -328q-79 -82 -200 -82q-83 0 -133 41.5t-50 112.5q0 126 146 233q-208 9 -345 158t-137 357q0 105 36.5 199.5t99.5 163t152 109t190 40.5q132 0 241 -67t170.5 -180t61.5 -247q0 -40 -6 -55h-820q12 -158 118.5 -263.5t264.5 -105.5q89 0 169.5 31.5t134.5 85.5
l67 -84q-81 -84 -213 -119q-223 -120 -223 -238q0 -34 25.5 -54.5t66.5 -20.5q73 0 139 55zM586 897q-140 0 -237 -95.5t-116 -244.5h699q-23 159 -116.5 249.5t-229.5 90.5z" />
    <glyph glyph-name="Ecaron" unicode="&#x11a;" horiz-adv-x="1095" 
d="M659 1421h-114l-248 320h117l188 -236l189 236h118zM195 0v1313h817v-115h-695v-483h613v-115h-613v-485h695v-115h-817z" />
    <glyph glyph-name="ecaron" unicode="&#x11b;" horiz-adv-x="1138" 
d="M643 1090h-115l-247 319h116l189 -235l188 235h119zM610 -23q-143 0 -259.5 69.5t-180.5 187t-64 258.5q0 105 36.5 199.5t99.5 163t152 109t190 40.5q132 0 241 -67t170.5 -180t61.5 -247q0 -40 -6 -55h-820q12 -158 118.5 -263.5t264.5 -105.5q89 0 169.5 31.5
t134.5 85.5l67 -84q-65 -66 -164 -104t-211 -38zM586 897q-140 0 -237 -95.5t-116 -244.5h699q-23 159 -116.5 249.5t-229.5 90.5z" />
    <glyph glyph-name="Gcircumflex" unicode="&#x11c;" horiz-adv-x="1382" 
d="M711 1741h114l250 -320h-119l-188 236l-188 -236h-117zM803 -23q-202 0 -360 91t-242 244.5t-84 340.5q0 140 53 266.5t142.5 217.5t213 144.5t258.5 53.5q145 0 254.5 -37t200.5 -114l-78 -92q-163 127 -377 127q-110 0 -209.5 -44t-172 -119.5t-115.5 -180.5t-43 -222
q0 -115 41 -217.5t114 -178.5t181.5 -120.5t236.5 -44.5q189 0 336 84v393h-373v111h492v-569q-194 -134 -469 -134z" />
    <glyph glyph-name="gcircumflex" unicode="&#x11d;" horiz-adv-x="1269" 
d="M557 1409h115l250 -319h-119l-189 235l-188 -235h-117zM252 -207q149 -106 342 -106q180 0 275.5 95.5t95.5 278.5v158q-59 -106 -158 -167.5t-223 -61.5q-134 0 -243.5 66.5t-172 183t-62.5 258.5q0 213 137.5 358t340.5 145q125 0 224 -59.5t157 -163.5v203h120v-911
q0 -247 -130 -370.5t-357 -123.5q-259 0 -412 121zM598 104q159 0 263 115.5t104 280.5t-104 278t-263 113q-158 0 -263.5 -113.5t-105.5 -277.5q0 -165 105.5 -280.5t263.5 -115.5z" />
    <glyph glyph-name="Gbreve" unicode="&#x11e;" horiz-adv-x="1382" 
d="M766 1401q-122 0 -200.5 83.5t-78.5 223.5h99q0 -104 51 -159.5t129 -55.5q79 0 130.5 55.5t51.5 159.5h99q0 -140 -78.5 -223.5t-202.5 -83.5zM803 -23q-202 0 -360 91t-242 244.5t-84 340.5q0 140 53 266.5t142.5 217.5t213 144.5t258.5 53.5q145 0 254.5 -37
t200.5 -114l-78 -92q-163 127 -377 127q-110 0 -209.5 -44t-172 -119.5t-115.5 -180.5t-43 -222q0 -115 41 -217.5t114 -178.5t181.5 -120.5t236.5 -44.5q189 0 336 84v393h-373v111h492v-569q-194 -134 -469 -134z" />
    <glyph glyph-name="gbreve" unicode="&#x11f;" horiz-adv-x="1269" 
d="M612 1069q-122 0 -200 83.5t-78 223.5h98q0 -104 51 -159.5t129 -55.5q79 0 131 55.5t52 159.5h98q0 -140 -78.5 -223.5t-202.5 -83.5zM252 -207q149 -106 342 -106q180 0 275.5 95.5t95.5 278.5v158q-59 -106 -158 -167.5t-223 -61.5q-134 0 -243.5 66.5t-172 183
t-62.5 258.5q0 213 137.5 358t340.5 145q125 0 224 -59.5t157 -163.5v203h120v-911q0 -247 -130 -370.5t-357 -123.5q-259 0 -412 121zM598 104q159 0 263 115.5t104 280.5t-104 278t-263 113q-158 0 -263.5 -113.5t-105.5 -277.5q0 -165 105.5 -280.5t263.5 -115.5z" />
    <glyph glyph-name="Gdotaccent" unicode="&#x120;" horiz-adv-x="1382" 
d="M686 1599q0 34 23.5 58t58.5 24q34 0 58 -24t24 -58t-24 -57.5t-58 -23.5q-35 0 -58.5 23.5t-23.5 57.5zM803 -23q-202 0 -360 91t-242 244.5t-84 340.5q0 140 53 266.5t142.5 217.5t213 144.5t258.5 53.5q145 0 254.5 -37t200.5 -114l-78 -92q-163 127 -377 127
q-110 0 -209.5 -44t-172 -119.5t-115.5 -180.5t-43 -222q0 -115 41 -217.5t114 -178.5t181.5 -120.5t236.5 -44.5q189 0 336 84v393h-373v111h492v-569q-194 -134 -469 -134z" />
    <glyph glyph-name="gdotaccent" unicode="&#x121;" horiz-adv-x="1269" 
d="M532 1268q0 34 23.5 58t58.5 24q34 0 58 -24t24 -58t-24 -58t-58 -24q-35 0 -58.5 24t-23.5 58zM252 -207q149 -106 342 -106q180 0 275.5 95.5t95.5 278.5v158q-59 -106 -158 -167.5t-223 -61.5q-134 0 -243.5 66.5t-172 183t-62.5 258.5q0 213 137.5 358t340.5 145
q125 0 224 -59.5t157 -163.5v203h120v-911q0 -247 -130 -370.5t-357 -123.5q-259 0 -412 121zM598 104q159 0 263 115.5t104 280.5t-104 278t-263 113q-158 0 -263.5 -113.5t-105.5 -277.5q0 -165 105.5 -280.5t263.5 -115.5z" />
    <glyph glyph-name="Gcommaaccent" unicode="&#x122;" horiz-adv-x="1382" 
d="M803 -23q-202 0 -360 91t-242 244.5t-84 340.5q0 140 53 266.5t142.5 217.5t213 144.5t258.5 53.5q145 0 254.5 -37t200.5 -114l-78 -92q-163 127 -377 127q-110 0 -209.5 -44t-172 -119.5t-115.5 -180.5t-43 -222q0 -115 41 -217.5t114 -178.5t181.5 -120.5t236.5 -44.5
q189 0 336 84v393h-373v111h492v-569q-194 -134 -469 -134zM836 -104l-107 -275h-98l76 275h129z" />
    <glyph glyph-name="gcommaaccent" unicode="&#x123;" horiz-adv-x="1269" 
d="M537 1102l108 274h103l-74 -274h-137zM252 -207q149 -106 342 -106q180 0 275.5 95.5t95.5 278.5v158q-59 -106 -158 -167.5t-223 -61.5q-134 0 -243.5 66.5t-172 183t-62.5 258.5q0 213 137.5 358t340.5 145q125 0 224 -59.5t157 -163.5v203h120v-911
q0 -247 -130 -370.5t-357 -123.5q-259 0 -412 121zM598 104q159 0 263 115.5t104 280.5t-104 278t-263 113q-158 0 -263.5 -113.5t-105.5 -277.5q0 -165 105.5 -280.5t263.5 -115.5z" />
    <glyph glyph-name="Hcircumflex" unicode="&#x124;" horiz-adv-x="1456" 
d="M672 1741h114l250 -320h-118l-189 236l-188 -236h-117zM1141 0v602h-824v-602h-122v1313h122v-596h824v596h121v-1313h-121z" />
    <glyph glyph-name="hcircumflex" unicode="&#x125;" horiz-adv-x="1163" 
d="M344 1896h115l250 -319h-119l-189 235l-188 -235h-117zM184 0v1409h121v-586q45 85 125.5 133t187.5 48q175 0 280.5 -109t105.5 -289v-606h-121v584q0 142 -77.5 224.5t-211.5 82.5t-211.5 -82.5t-77.5 -224.5v-584h-121z" />
    <glyph glyph-name="Hbar" unicode="&#x126;" horiz-adv-x="1490" 
d="M334 0h-121v993h-127v97h127v223h121v-223h823v223h123v-223h125v-97h-125v-993h-123v602h-823v-602zM334 717h823v276h-823v-276z" />
    <glyph glyph-name="hbar" unicode="&#x127;" horiz-adv-x="1163" 
d="M184 0v1176h-118v96h118v137h121v-137h305v-96h-305v-353q45 85 125.5 133t187.5 48q175 0 280.5 -109t105.5 -289v-606h-121v584q0 142 -77.5 224.5t-211.5 82.5t-211.5 -82.5t-77.5 -224.5v-584h-121z" />
    <glyph glyph-name="Itilde" unicode="&#x128;" horiz-adv-x="512" 
d="M397 1468q-40 0 -81 20t-69.5 43.5t-65.5 43.5t-70 20q-39 0 -65 -28t-56 -84l-62 47q66 162 187 162q41 0 81.5 -19.5t68.5 -43t64.5 -43t69.5 -19.5q41 0 68.5 29t52.5 83l62 -49q-61 -162 -185 -162zM195 0v1313h122v-1313h-122z" />
    <glyph glyph-name="itilde" unicode="&#x129;" horiz-adv-x="489" 
d="M385 1137q-40 0 -81 20t-69.5 43.5t-66 43.5t-70.5 20q-39 0 -65 -28t-56 -85l-61 47q66 162 186 162q41 0 81.5 -19.5t69 -43t65 -43t69.5 -19.5q41 0 68.5 29t52.5 84l61 -50q-60 -161 -184 -161zM305 981v-981h-121v981h121z" />
    <glyph glyph-name="Imacron" unicode="&#x12a;" horiz-adv-x="512" 
d="M-18 1651h546v-99h-546v99zM195 0v1313h122v-1313h-122z" />
    <glyph glyph-name="imacron" unicode="&#x12b;" horiz-adv-x="489" 
d="M-31 1319h547v-98h-547v98zM305 981v-981h-121v981h121z" />
    <glyph glyph-name="Ibreve" unicode="&#x12c;" horiz-adv-x="512" 
d="M254 1401q-122 0 -200.5 83.5t-78.5 223.5h99q0 -104 51 -159.5t129 -55.5q79 0 130.5 55.5t51.5 159.5h99q0 -140 -78.5 -223.5t-202.5 -83.5zM195 0v1313h122v-1313h-122z" />
    <glyph glyph-name="ibreve" unicode="&#x12d;" horiz-adv-x="489" 
d="M242 1069q-122 0 -200.5 83.5t-78.5 223.5h98q0 -104 51.5 -159.5t129.5 -55.5q79 0 130.5 55.5t51.5 159.5h98q0 -140 -78 -223.5t-202 -83.5zM305 981v-981h-121v981h121z" />
    <glyph glyph-name="Iogonek" unicode="&#x12e;" horiz-adv-x="512" 
d="M369 -328q-79 -82 -201 -82q-83 0 -132.5 41.5t-49.5 112.5q0 154 209 274v1295h122v-1313q-225 -119 -225 -238q0 -34 25.5 -54.5t66.5 -20.5q74 0 140 55z" />
    <glyph glyph-name="iogonek" unicode="&#x12f;" horiz-adv-x="489" 
d="M162 1268q0 34 23.5 58t58.5 24q34 0 58 -24t24 -58t-24 -58t-58 -24q-35 0 -58.5 24t-23.5 58zM305 981v-981q-225 -119 -225 -238q0 -34 25.5 -54.5t66.5 -20.5q73 0 139 55l45 -70q-79 -82 -200 -82q-83 0 -133 41.5t-50 112.5q0 154 211 276v961h121z" />
    <glyph glyph-name="Idotaccent" unicode="&#x130;" horiz-adv-x="512" 
d="M174 1599q0 34 23.5 58t58.5 24q34 0 58 -24t24 -58t-24 -57.5t-58 -23.5q-35 0 -58.5 23.5t-23.5 57.5zM195 0v1313h122v-1313h-122z" />
    <glyph glyph-name="idotless" unicode="&#x131;" horiz-adv-x="489" 
d="M305 981v-981h-121v981h121z" />
    <glyph glyph-name="IJ" unicode="&#x132;" horiz-adv-x="1370" 
d="M195 0v1313h122v-1313h-122zM547 111l86 86q77 -101 205 -101q111 0 173 70.5t62 208.5v938h121v-942q0 -100 -27.5 -177t-76.5 -123.5t-112 -70t-138 -23.5q-91 0 -170 36t-123 98z" />
    <glyph glyph-name="ij" unicode="&#x133;" horiz-adv-x="976" 
d="M244 1186q-34 0 -58 24t-24 58t24 58t58 24t59 -24t25 -58t-25 -58t-59 -24zM733 1186q-34 0 -58 24t-24 58t24 58t58 24t59 -24t25 -58t-25 -58t-59 -24zM305 0h-121v981h121v-981zM539 -424q-108 0 -183 62l60 90q51 -41 119 -41q67 0 103 45t36 131v1118h121v-1110
q0 -141 -65.5 -218t-190.5 -77z" />
    <glyph glyph-name="Jcircumflex" unicode="&#x134;" horiz-adv-x="858" 
d="M563 1739h115l250 -320h-119l-188 236l-189 -236h-117zM35 111l86 86q77 -101 205 -101q111 0 173 70.5t62 208.5v938h121v-942q0 -100 -27.5 -177t-76.5 -123.5t-112 -70t-138 -23.5q-91 0 -170 36t-123 98z" />
    <glyph glyph-name="jcircumflex" unicode="&#x135;" horiz-adv-x="489" 
d="M186 1409h115l250 -319h-119l-188 235l-189 -235h-116zM305 981v-1110q0 -141 -65.5 -218t-190.5 -77q-107 0 -182 62l59 90q51 -41 119 -41q67 0 103 45t36 131v1118h121z" />
    <glyph glyph-name="Kcommaaccent" unicode="&#x136;" horiz-adv-x="1169" 
d="M317 0h-122v1313h122v-651l644 651h155l-651 -662l676 -651h-170l-654 629v-629zM698 -104l-106 -275h-98l75 275h129z" />
    <glyph glyph-name="kcommaaccent" unicode="&#x137;" horiz-adv-x="1030" 
d="M305 0h-121v1409h121v-872l522 444h162l-551 -469l578 -512h-166l-545 483v-483zM614 -104l-106 -275h-98l75 275h129z" />
    <glyph glyph-name="Lacute" unicode="&#x139;" horiz-adv-x="1064" 
d="M381 1741h151l-237 -320h-115zM195 0v1313h122v-1198h713v-115h-835z" />
    <glyph glyph-name="lacute" unicode="&#x13a;" horiz-adv-x="532" 
d="M373 1837h151l-237 -319h-115zM453 104l16 -106q-47 -14 -84 -14q-86 0 -143.5 60t-57.5 179v1186h121v-1186q0 -67 29 -97t72 -30q26 0 47 8z" />
    <glyph glyph-name="Lcommaaccent" unicode="&#x13b;" horiz-adv-x="1064" 
d="M195 0v1313h122v-1198h713v-115h-835zM682 -104l-107 -275h-98l76 275h129z" />
    <glyph glyph-name="lcommaaccent" unicode="&#x13c;" horiz-adv-x="532" 
d="M453 104l16 -106q-47 -14 -84 -14q-86 0 -143.5 60t-57.5 179v1186h121v-1186q0 -67 29 -97t72 -30q26 0 47 8zM410 -104l-107 -275h-98l76 275h129z" />
    <glyph glyph-name="Lcaron" unicode="&#x13d;" horiz-adv-x="1064" 
d="M195 0v1313h122v-1198h713v-115h-835zM735 1313l-71 -340h-95l41 340h125z" />
    <glyph glyph-name="lcaron" unicode="&#x13e;" horiz-adv-x="532" 
d="M453 104l16 -106q-47 -14 -84 -14q-86 0 -143.5 60t-57.5 179v1186h121v-1186q0 -67 29 -97t72 -30q26 0 47 8zM543 1409l-72 -340h-94l41 340h125z" />
    <glyph glyph-name="Ldot" unicode="&#x13f;" horiz-adv-x="1064" 
d="M195 0v1313h122v-1198h713v-115h-835zM655 659q0 33 24 58.5t58 25.5q33 0 57.5 -25.5t24.5 -58.5q0 -34 -24 -57.5t-58 -23.5q-35 0 -58.5 23.5t-23.5 57.5z" />
    <glyph glyph-name="ldot" unicode="&#x140;" horiz-adv-x="579" 
d="M453 104l16 -106q-47 -14 -84 -14q-86 0 -143.5 60t-57.5 179v1186h121v-1186q0 -67 29 -97t72 -30q26 0 47 8zM455 637q0 33 24 58.5t58 25.5q33 0 57 -25.5t24 -58.5q0 -34 -23.5 -58t-57.5 -24q-35 0 -58.5 24t-23.5 58z" />
    <glyph glyph-name="Lslash" unicode="&#x141;" horiz-adv-x="1064" 
d="M195 0v584l-154 -49v108l154 49v621h122v-584l258 82v-106l-258 -82v-508h713v-115h-835z" />
    <glyph glyph-name="lslash" unicode="&#x142;" horiz-adv-x="512" 
d="M453 104l16 -106q-47 -14 -84 -14q-86 0 -143.5 60t-57.5 179v475l-125 -51v109l125 51v602h121v-551l164 68v-109l-164 -67v-527q0 -67 29 -97t72 -30q26 0 47 8z" />
    <glyph glyph-name="Nacute" unicode="&#x143;" horiz-adv-x="1456" 
d="M872 1741h152l-238 -320h-114zM1137 0l-828 1120v-1120h-123v1313h133l830 -1123v1123h121v-1313h-133z" />
    <glyph glyph-name="nacute" unicode="&#x144;" horiz-adv-x="1163" 
d="M721 1409h151l-237 -319h-115zM184 0v981h121v-158q45 85 125.5 133t187.5 48q175 0 280.5 -109t105.5 -289v-606h-121v584q0 142 -77.5 224.5t-211.5 82.5t-211.5 -82.5t-77.5 -224.5v-584h-121z" />
    <glyph glyph-name="Ncommaaccent" unicode="&#x145;" horiz-adv-x="1456" 
d="M1137 0l-828 1120v-1120h-123v1313h133l830 -1123v1123h121v-1313h-133zM784 -104l-106 -275h-98l75 275h129z" />
    <glyph glyph-name="ncommaaccent" unicode="&#x146;" horiz-adv-x="1163" 
d="M184 0v981h121v-158q45 85 125.5 133t187.5 48q175 0 280.5 -109t105.5 -289v-606h-121v584q0 142 -77.5 224.5t-211.5 82.5t-211.5 -82.5t-77.5 -224.5v-584h-121zM649 -104l-106 -275h-99l76 275h129z" />
    <glyph glyph-name="Ncaron" unicode="&#x147;" horiz-adv-x="1456" 
d="M803 1421h-115l-248 320h117l188 -236l189 236h119zM1137 0l-828 1120v-1120h-123v1313h133l830 -1123v1123h121v-1313h-133z" />
    <glyph glyph-name="ncaron" unicode="&#x148;" horiz-adv-x="1163" 
d="M651 1090h-114l-248 319h117l188 -235l188 235h119zM184 0v981h121v-158q45 85 125.5 133t187.5 48q175 0 280.5 -109t105.5 -289v-606h-121v584q0 142 -77.5 224.5t-211.5 82.5t-211.5 -82.5t-77.5 -224.5v-584h-121z" />
    <glyph glyph-name="Omacron" unicode="&#x14c;" horiz-adv-x="1562" 
d="M508 1651h547v-99h-547v99zM782 1335q180 0 333.5 -91.5t243 -249t89.5 -341.5q0 -183 -89.5 -339t-242.5 -246.5t-334 -90.5q-136 0 -259 53.5t-212 144t-141.5 216t-52.5 262.5q0 139 52.5 265t141.5 217.5t212 145.5t259 54zM782 96q146 0 270 74.5t196.5 203
t72.5 279.5q0 153 -72.5 283t-196.5 205.5t-270 75.5t-270 -75.5t-196 -205.5t-72 -283q0 -113 42.5 -216t114.5 -178t172 -119t209 -44z" />
    <glyph glyph-name="omacron" unicode="&#x14d;" horiz-adv-x="1198" 
d="M326 1319h546v-98h-546v98zM598 -23q-137 0 -250.5 69.5t-177.5 187.5t-64 258q0 105 38 199.5t103 163t156.5 109t194.5 40.5q138 0 251 -68.5t177 -186t64 -257.5t-63.5 -258t-177 -187.5t-251.5 -69.5zM600 90q159 0 264 118t105 286t-104.5 282.5t-264.5 114.5
t-265.5 -115t-105.5 -282q0 -168 106 -286t265 -118z" />
    <glyph glyph-name="Obreve" unicode="&#x14e;" horiz-adv-x="1562" 
d="M780 1401q-122 0 -200 83.5t-78 223.5h98q0 -104 51 -159.5t129 -55.5q79 0 131 55.5t52 159.5h98q0 -140 -78.5 -223.5t-202.5 -83.5zM782 1335q180 0 333.5 -91.5t243 -249t89.5 -341.5q0 -183 -89.5 -339t-242.5 -246.5t-334 -90.5q-136 0 -259 53.5t-212 144
t-141.5 216t-52.5 262.5q0 139 52.5 265t141.5 217.5t212 145.5t259 54zM782 96q146 0 270 74.5t196.5 203t72.5 279.5q0 153 -72.5 283t-196.5 205.5t-270 75.5t-270 -75.5t-196 -205.5t-72 -283q0 -113 42.5 -216t114.5 -178t172 -119t209 -44z" />
    <glyph glyph-name="obreve" unicode="&#x14f;" horiz-adv-x="1198" 
d="M598 1069q-122 0 -200.5 83.5t-78.5 223.5h99q0 -104 51 -159.5t129 -55.5q79 0 130.5 55.5t51.5 159.5h99q0 -140 -78.5 -223.5t-202.5 -83.5zM598 -23q-137 0 -250.5 69.5t-177.5 187.5t-64 258q0 105 38 199.5t103 163t156.5 109t194.5 40.5q138 0 251 -68.5t177 -186
t64 -257.5t-63.5 -258t-177 -187.5t-251.5 -69.5zM600 90q159 0 264 118t105 286t-104.5 282.5t-264.5 114.5t-265.5 -115t-105.5 -282q0 -168 106 -286t265 -118z" />
    <glyph glyph-name="Ohungarumlaut" unicode="&#x150;" horiz-adv-x="1562" 
d="M756 1741h135l-234 -320h-102zM1038 1741h140l-238 -320h-102zM782 1335q180 0 333.5 -91.5t243 -249t89.5 -341.5q0 -183 -89.5 -339t-242.5 -246.5t-334 -90.5q-136 0 -259 53.5t-212 144t-141.5 216t-52.5 262.5q0 139 52.5 265t141.5 217.5t212 145.5t259 54zM782 96
q146 0 270 74.5t196.5 203t72.5 279.5q0 153 -72.5 283t-196.5 205.5t-270 75.5t-270 -75.5t-196 -205.5t-72 -283q0 -113 42.5 -216t114.5 -178t172 -119t209 -44z" />
    <glyph glyph-name="ohungarumlaut" unicode="&#x151;" horiz-adv-x="1198" 
d="M573 1409h136l-234 -319h-102zM856 1409h139l-237 -319h-103zM598 -23q-137 0 -250.5 69.5t-177.5 187.5t-64 258q0 105 38 199.5t103 163t156.5 109t194.5 40.5q138 0 251 -68.5t177 -186t64 -257.5t-63.5 -258t-177 -187.5t-251.5 -69.5zM600 90q159 0 264 118t105 286
t-104.5 282.5t-264.5 114.5t-265.5 -115t-105.5 -282q0 -168 106 -286t265 -118z" />
    <glyph glyph-name="OE" unicode="&#x152;" horiz-adv-x="2220" 
d="M1321 0v285q-87 -141 -229 -224.5t-310 -83.5q-136 0 -259 53.5t-212 144t-141.5 216t-52.5 262.5q0 139 52.5 265t141.5 217.5t212 145.5t259 54q169 0 311 -83.5t228 -225.5v287h817v-115h-696v-483h614v-115h-614v-485h696v-115h-817zM782 96q146 0 270 74.5
t196.5 203t72.5 279.5q0 153 -72.5 283t-196.5 205.5t-270 75.5t-270 -75.5t-196 -205.5t-72 -283q0 -113 42.5 -216t114.5 -178t172 -119t209 -44z" />
    <glyph glyph-name="oe" unicode="&#x153;" horiz-adv-x="1996" 
d="M598 -23q-137 0 -250.5 69.5t-177.5 187.5t-64 258q0 105 38 199.5t103 163t156.5 109t194.5 40.5q143 0 257.5 -77t172.5 -204q59 128 168.5 204.5t247.5 76.5q132 0 240.5 -67t169.5 -180t61 -247q0 -27 -4 -51h-821q11 -159 117.5 -266t265.5 -107q90 0 170 31t135 86
l65 -84q-63 -66 -163.5 -104t-211.5 -38q-147 0 -262.5 77.5t-175.5 207.5q-60 -129 -174.5 -207t-257.5 -78zM1446 897q-143 0 -240.5 -98t-115.5 -250h702q-22 163 -115 255.5t-231 92.5zM600 90q159 0 264 118t105 286t-104.5 282.5t-264.5 114.5t-265.5 -115
t-105.5 -282q0 -168 106 -286t265 -118z" />
    <glyph glyph-name="Racute" unicode="&#x154;" horiz-adv-x="1228" 
d="M741 1741h152l-238 -320h-114zM195 0v1313h452q202 0 325.5 -104t123.5 -275q0 -144 -90.5 -241.5t-245.5 -127.5l354 -565h-143l-344 555h-310v-555h-122zM657 1202h-340v-536h340q140 0 226 73.5t86 194.5t-86 194.5t-226 73.5z" />
    <glyph glyph-name="racute" unicode="&#x155;" horiz-adv-x="729" 
d="M557 1409h152l-238 -319h-115zM184 0v981h121v-145q37 79 102 123.5t150 44.5q92 0 143 -39l-51 -113q-53 37 -125 37q-101 0 -160 -83t-59 -226v-580h-121z" />
    <glyph glyph-name="Rcommaaccent" unicode="&#x156;" horiz-adv-x="1228" 
d="M195 0v1313h452q202 0 325.5 -104t123.5 -275q0 -144 -90.5 -241.5t-245.5 -127.5l354 -565h-143l-344 555h-310v-555h-122zM657 1202h-340v-536h340q140 0 226 73.5t86 194.5t-86 194.5t-226 73.5zM682 -104l-107 -275h-98l76 275h129z" />
    <glyph glyph-name="rcommaaccent" unicode="&#x157;" horiz-adv-x="729" 
d="M184 0v981h121v-145q37 79 102 123.5t150 44.5q92 0 143 -39l-51 -113q-53 37 -125 37q-101 0 -160 -83t-59 -226v-580h-121zM309 -104l-106 -275h-99l76 275h129z" />
    <glyph glyph-name="Rcaron" unicode="&#x158;" horiz-adv-x="1228" 
d="M672 1421h-115l-248 320h117l188 -236l189 236h119zM195 0v1313h452q202 0 325.5 -104t123.5 -275q0 -144 -90.5 -241.5t-245.5 -127.5l354 -565h-143l-344 555h-310v-555h-122zM657 1202h-340v-536h340q140 0 226 73.5t86 194.5t-86 194.5t-226 73.5z" />
    <glyph glyph-name="rcaron" unicode="&#x159;" horiz-adv-x="729" 
d="M487 1090h-114l-248 319h117l188 -235l188 235h119zM184 0v981h121v-145q37 79 102 123.5t150 44.5q92 0 143 -39l-51 -113q-53 37 -125 37q-101 0 -160 -83t-59 -226v-580h-121z" />
    <glyph glyph-name="Sacute" unicode="&#x15a;" horiz-adv-x="1120" 
d="M688 1741h152l-238 -320h-115zM324 0q-81 23 -234 115l62 108q91 -61 202 -95t215 -34q147 0 240.5 65.5t93.5 184.5q0 53 -26.5 93.5t-71 67t-102.5 48t-122 40.5t-128 39.5t-122 50t-102.5 67.5t-71 97t-26.5 134q0 154 125 254t319 100q244 0 404 -108l-61 -101
q-156 95 -347 95q-137 0 -224 -68t-87 -168q0 -56 26.5 -100t71 -73t102 -52t121.5 -42t128 -39.5t121.5 -48t102 -63t71 -90t26.5 -123.5q0 -93 -37 -166t-101.5 -118.5t-148 -69t-180.5 -23.5q-145 0 -239 23z" />
    <glyph glyph-name="sacute" unicode="&#x15b;" horiz-adv-x="894" 
d="M575 1409h152l-238 -319h-114zM438 -23q-196 0 -368 101l49 102q167 -96 327 -96q119 0 182.5 46.5t63.5 125.5q0 53 -32 90t-83.5 58t-113 38.5t-123.5 38.5t-113.5 50.5t-83.5 83.5t-32 128q0 111 95 186t257 75q158 0 325 -80l-47 -101q-136 72 -274 72
q-108 0 -172 -41.5t-64 -108.5q0 -47 25 -81.5t66 -54t93 -38t107 -31.5t107 -36.5t93 -52t66 -77.5t25 -114q0 -128 -100 -205.5t-275 -77.5z" />
    <glyph glyph-name="Scircumflex" unicode="&#x15c;" horiz-adv-x="1120" 
d="M504 1741h114l250 -320h-118l-189 236l-188 -236h-117zM324 0q-81 23 -234 115l62 108q91 -61 202 -95t215 -34q147 0 240.5 65.5t93.5 184.5q0 53 -26.5 93.5t-71 67t-102.5 48t-122 40.5t-128 39.5t-122 50t-102.5 67.5t-71 97t-26.5 134q0 154 125 254t319 100
q244 0 404 -108l-61 -101q-156 95 -347 95q-137 0 -224 -68t-87 -168q0 -56 26.5 -100t71 -73t102 -52t121.5 -42t128 -39.5t121.5 -48t102 -63t71 -90t26.5 -123.5q0 -93 -37 -166t-101.5 -118.5t-148 -69t-180.5 -23.5q-145 0 -239 23z" />
    <glyph glyph-name="scircumflex" unicode="&#x15d;" horiz-adv-x="894" 
d="M391 1409h115l250 -319h-119l-188 235l-189 -235h-117zM438 -23q-196 0 -368 101l49 102q167 -96 327 -96q119 0 182.5 46.5t63.5 125.5q0 53 -32 90t-83.5 58t-113 38.5t-123.5 38.5t-113.5 50.5t-83.5 83.5t-32 128q0 111 95 186t257 75q158 0 325 -80l-47 -101
q-136 72 -274 72q-108 0 -172 -41.5t-64 -108.5q0 -47 25 -81.5t66 -54t93 -38t107 -31.5t107 -36.5t93 -52t66 -77.5t25 -114q0 -128 -100 -205.5t-275 -77.5z" />
    <glyph glyph-name="Scedilla" unicode="&#x15e;" horiz-adv-x="1120" 
d="M324 0q-81 23 -234 115l62 108q91 -61 202 -95t215 -34q147 0 240.5 65.5t93.5 184.5q0 53 -26.5 93.5t-71 67t-102.5 48t-122 40.5t-128 39.5t-122 50t-102.5 67.5t-71 97t-26.5 134q0 154 125 254t319 100q244 0 404 -108l-61 -101q-156 95 -347 95q-137 0 -224 -68
t-87 -168q0 -56 26.5 -100t71 -73t102 -52t121.5 -42t128 -39.5t121.5 -48t102 -63t71 -90t26.5 -123.5q0 -88 -33.5 -159t-92.5 -116.5t-135.5 -71t-166.5 -30.5l-141 -339l-103 45l146 294q-118 6 -180 23z" />
    <glyph glyph-name="scedilla" unicode="&#x15f;" horiz-adv-x="894" 
d="M813 260q0 -118 -86 -194t-238 -86l-141 -342l-102 45l145 297q-171 12 -321 98l49 102q167 -96 327 -96q119 0 182.5 46.5t63.5 125.5q0 53 -32 90t-83.5 58t-113 38.5t-123.5 38.5t-113.5 50.5t-83.5 83.5t-32 128q0 111 95 186t257 75q158 0 325 -80l-47 -101
q-136 72 -274 72q-108 0 -172 -41.5t-64 -108.5q0 -47 25 -81.5t66 -54t93 -38t107 -31.5t107 -36.5t93 -52t66 -77.5t25 -114z" />
    <glyph glyph-name="Scaron" unicode="&#x160;" horiz-adv-x="1120" 
d="M618 1421h-114l-248 320h117l188 -236l189 236h118zM324 0q-81 23 -234 115l62 108q91 -61 202 -95t215 -34q147 0 240.5 65.5t93.5 184.5q0 53 -26.5 93.5t-71 67t-102.5 48t-122 40.5t-128 39.5t-122 50t-102.5 67.5t-71 97t-26.5 134q0 154 125 254t319 100
q244 0 404 -108l-61 -101q-156 95 -347 95q-137 0 -224 -68t-87 -168q0 -56 26.5 -100t71 -73t102 -52t121.5 -42t128 -39.5t121.5 -48t102 -63t71 -90t26.5 -123.5q0 -93 -37 -166t-101.5 -118.5t-148 -69t-180.5 -23.5q-145 0 -239 23z" />
    <glyph glyph-name="scaron" unicode="&#x161;" horiz-adv-x="894" 
d="M506 1090h-115l-248 319h117l189 -235l188 235h119zM438 -23q-196 0 -368 101l49 102q167 -96 327 -96q119 0 182.5 46.5t63.5 125.5q0 53 -32 90t-83.5 58t-113 38.5t-123.5 38.5t-113.5 50.5t-83.5 83.5t-32 128q0 111 95 186t257 75q158 0 325 -80l-47 -101
q-136 72 -274 72q-108 0 -172 -41.5t-64 -108.5q0 -47 25 -81.5t66 -54t93 -38t107 -31.5t107 -36.5t93 -52t66 -77.5t25 -114q0 -128 -100 -205.5t-275 -77.5z" />
    <glyph glyph-name="Tcedilla" unicode="&#x162;" horiz-adv-x="1040" 
d="M473 0h-14v1198h-441v115h1002v-115h-438v-1198h-13l-149 -362l-103 45z" />
    <glyph glyph-name="tcedilla" unicode="&#x163;" horiz-adv-x="729" 
d="M66 872v109h153v233h121v-233h291v-109h-289v-608q0 -174 156 -174q87 0 137 53l59 -92q-60 -60 -164 -71l-141 -342l-102 45l145 299q-103 14 -158 84t-55 192v614h-153z" />
    <glyph glyph-name="Tcaron" unicode="&#x164;" horiz-adv-x="1040" 
d="M578 1421h-115l-248 320h117l188 -236l189 236h118zM1020 1198h-438v-1198h-123v1198h-441v115h1002v-115z" />
    <glyph glyph-name="tcaron" unicode="&#x165;" horiz-adv-x="729" 
d="M584 1409l-72 -340h-94l41 340h125zM66 872v109h153v233h121v-233h291v-109h-289v-608q0 -174 156 -174q87 0 137 53l59 -92q-74 -74 -207 -74q-130 0 -199 72t-69 209v614h-153z" />
    <glyph glyph-name="Tbar" unicode="&#x166;" horiz-adv-x="1040" 
d="M213 694h246v504h-441v115h1002v-115h-438v-504h243v-98h-243v-596h-123v596h-246v98z" />
    <glyph glyph-name="tbar" unicode="&#x167;" horiz-adv-x="729" 
d="M76 543h143v329h-153v109h153v233h121v-233h291v-109h-289v-329h221v-103h-221v-176q0 -174 156 -174q87 0 137 53l59 -92q-74 -74 -207 -74q-130 0 -199 72t-69 209v182h-143v103z" />
    <glyph glyph-name="Utilde" unicode="&#x168;" horiz-adv-x="1339" 
d="M811 1468q-40 0 -81 20t-69.5 43.5t-66 43.5t-70.5 20q-39 0 -65 -28t-56 -84l-61 47q66 162 186 162q41 0 81.5 -19.5t69 -43t65 -43t69.5 -19.5q41 0 68.5 29t52.5 83l61 -49q-61 -162 -184 -162zM176 492v821h123v-824q0 -177 102 -285t269 -108q168 0 269 107.5
t101 285.5v824h125v-821q0 -232 -136.5 -373.5t-360.5 -141.5q-222 0 -357 141.5t-135 373.5z" />
    <glyph glyph-name="utilde" unicode="&#x169;" horiz-adv-x="1163" 
d="M723 1137q-40 0 -81 20t-69.5 43.5t-66 43.5t-70.5 20q-39 0 -65 -28t-56 -85l-61 47q66 162 186 162q41 0 81.5 -19.5t69 -43t65 -43t69.5 -19.5q41 0 68.5 29t52.5 84l61 -50q-60 -161 -184 -161zM287 981v-553q0 -148 80.5 -238t212.5 -90q135 0 216 90t81 238v553
h122v-565q0 -193 -115 -310.5t-304 -117.5q-187 0 -300.5 117t-113.5 311v565h121z" />
    <glyph glyph-name="Umacron" unicode="&#x16a;" horiz-adv-x="1339" 
d="M395 1651h547v-99h-547v99zM176 492v821h123v-824q0 -177 102 -285t269 -108q168 0 269 107.5t101 285.5v824h125v-821q0 -232 -136.5 -373.5t-360.5 -141.5q-222 0 -357 141.5t-135 373.5z" />
    <glyph glyph-name="umacron" unicode="&#x16b;" horiz-adv-x="1163" 
d="M307 1319h547v-98h-547v98zM287 981v-553q0 -148 80.5 -238t212.5 -90q135 0 216 90t81 238v553h122v-565q0 -193 -115 -310.5t-304 -117.5q-187 0 -300.5 117t-113.5 311v565h121z" />
    <glyph glyph-name="Ubreve" unicode="&#x16c;" horiz-adv-x="1339" 
d="M668 1401q-122 0 -200.5 83.5t-78.5 223.5h98q0 -104 51.5 -159.5t129.5 -55.5q79 0 130.5 55.5t51.5 159.5h98q0 -140 -78 -223.5t-202 -83.5zM176 492v821h123v-824q0 -177 102 -285t269 -108q168 0 269 107.5t101 285.5v824h125v-821q0 -232 -136.5 -373.5
t-360.5 -141.5q-222 0 -357 141.5t-135 373.5z" />
    <glyph glyph-name="ubreve" unicode="&#x16d;" horiz-adv-x="1163" 
d="M580 1069q-122 0 -200.5 83.5t-78.5 223.5h98q0 -104 51.5 -159.5t129.5 -55.5q79 0 130.5 55.5t51.5 159.5h98q0 -140 -78 -223.5t-202 -83.5zM287 981v-553q0 -148 80.5 -238t212.5 -90q135 0 216 90t81 238v553h122v-565q0 -193 -115 -310.5t-304 -117.5
q-187 0 -300.5 117t-113.5 311v565h121z" />
    <glyph glyph-name="Uring" unicode="&#x16e;" horiz-adv-x="1339" 
d="M670 1401q-93 0 -157 62.5t-64 152.5t64 152.5t157 62.5q94 0 157.5 -62.5t63.5 -152.5t-63.5 -152.5t-157.5 -62.5zM672 1485q55 0 93 37t38 94q0 58 -38 95.5t-93 37.5t-95 -38t-40 -95t40 -94t95 -37zM176 492v821h123v-824q0 -177 102 -285t269 -108q168 0 269 107.5
t101 285.5v824h125v-821q0 -232 -136.5 -373.5t-360.5 -141.5q-222 0 -357 141.5t-135 373.5z" />
    <glyph glyph-name="uring" unicode="&#x16f;" horiz-adv-x="1163" 
d="M582 1069q-93 0 -157.5 62.5t-64.5 152.5t64.5 152.5t157.5 62.5q94 0 157.5 -62.5t63.5 -152.5t-63.5 -152.5t-157.5 -62.5zM584 1153q55 0 93 37t38 94q0 58 -38 95.5t-93 37.5t-95 -38t-40 -95t40 -94t95 -37zM287 981v-553q0 -148 80.5 -238t212.5 -90q135 0 216 90
t81 238v553h122v-565q0 -193 -115 -310.5t-304 -117.5q-187 0 -300.5 117t-113.5 311v565h121z" />
    <glyph glyph-name="Uhungarumlaut" unicode="&#x170;" horiz-adv-x="1339" 
d="M645 1741h135l-233 -320h-103zM928 1741h139l-238 -320h-102zM176 492v821h123v-824q0 -177 102 -285t269 -108q168 0 269 107.5t101 285.5v824h125v-821q0 -232 -136.5 -373.5t-360.5 -141.5q-222 0 -357 141.5t-135 373.5z" />
    <glyph glyph-name="uhungarumlaut" unicode="&#x171;" horiz-adv-x="1163" 
d="M557 1409h135l-233 -319h-103zM840 1409h139l-238 -319h-102zM287 981v-553q0 -148 80.5 -238t212.5 -90q135 0 216 90t81 238v553h122v-565q0 -193 -115 -310.5t-304 -117.5q-187 0 -300.5 117t-113.5 311v565h121z" />
    <glyph glyph-name="Uogonek" unicode="&#x172;" horiz-adv-x="1339" 
d="M176 492v821h123v-824q0 -177 102 -285t269 -108q168 0 269 107.5t101 285.5v824h125v-821q0 -186 -90 -316.5t-246 -175.5q-225 -119 -225 -238q0 -34 25.5 -54.5t66.5 -20.5q74 0 140 55l45 -70q-79 -82 -201 -82q-83 0 -132.5 41.5t-49.5 112.5q0 126 145 233
q-212 9 -339.5 149t-127.5 366z" />
    <glyph glyph-name="uogonek" unicode="&#x173;" horiz-adv-x="1163" 
d="M287 981v-553q0 -148 80.5 -238t212.5 -90q135 0 216 90t81 238v553h122v-565q0 -163 -84 -274t-227 -142q-223 -120 -223 -238q0 -34 25.5 -54.5t66.5 -20.5q73 0 139 55l45 -70q-79 -82 -200 -82q-83 0 -133 41.5t-50 112.5q0 138 164 248q-163 17 -259.5 131.5
t-96.5 292.5v565h121z" />
    <glyph glyph-name="Wcircumflex" unicode="&#x174;" horiz-adv-x="1970" 
d="M930 1741h114l250 -320h-118l-189 236l-188 -236h-117zM1784 1313h131l-426 -1313h-148l-356 1155l-358 -1155h-146l-426 1313h135l365 -1159l356 1159h154l358 -1155z" />
    <glyph glyph-name="wcircumflex" unicode="&#x175;" horiz-adv-x="1609" 
d="M748 1409h114l250 -319h-119l-188 235l-189 -235h-116zM518 0h-139l-326 981h131l267 -842l288 842h133l287 -842l268 842h129l-325 -981h-148l-282 823z" />
    <glyph glyph-name="Ycircumflex" unicode="&#x176;" horiz-adv-x="1146" 
d="M516 1741h115l250 -320h-119l-189 236l-188 -236h-117zM512 0v449l-494 864h140l417 -735l420 735h133l-493 -864v-449h-123z" />
    <glyph glyph-name="ycircumflex" unicode="&#x177;" horiz-adv-x="995" 
d="M442 1409h115l250 -319h-119l-188 235l-189 -235h-116zM414 -147l51 135l-442 993h129l368 -844l318 844h123l-445 -1171q-44 -115 -109.5 -174.5t-166.5 -59.5q-115 0 -205 78l59 94q65 -59 154 -59q56 0 94.5 37t71.5 127z" />
    <glyph glyph-name="Ydieresis" unicode="&#x178;" horiz-adv-x="1146" 
d="M338 1597q0 31 23 54.5t55 23.5q33 0 56.5 -23.5t23.5 -54.5q0 -34 -23 -56.5t-57 -22.5q-32 0 -55 23t-23 56zM651 1597q0 31 23 54.5t55 23.5t56 -23.5t24 -54.5q0 -33 -23.5 -56t-56.5 -23t-55.5 23t-22.5 56zM512 0v449l-494 864h140l417 -735l420 735h133l-493 -864
v-449h-123z" />
    <glyph glyph-name="Zacute" unicode="&#x179;" horiz-adv-x="1118" 
d="M686 1741h152l-238 -320h-115zM78 115l803 1083h-799v115h954v-115l-805 -1083h809v-115h-962v115z" />
    <glyph glyph-name="zacute" unicode="&#x17a;" horiz-adv-x="966" 
d="M610 1409h152l-238 -319h-114zM86 109l629 763h-617v109h770v-109l-628 -763h641v-109h-795v109z" />
    <glyph glyph-name="Zdotaccent" unicode="&#x17b;" horiz-adv-x="1118" 
d="M477 1599q0 34 23.5 58t58.5 24q34 0 58 -24t24 -58t-24 -57.5t-58 -23.5q-35 0 -58.5 23.5t-23.5 57.5zM78 115l803 1083h-799v115h954v-115l-805 -1083h809v-115h-962v115z" />
    <glyph glyph-name="zdotaccent" unicode="&#x17c;" horiz-adv-x="966" 
d="M401 1268q0 34 23.5 58t58.5 24q34 0 58 -24t24 -58t-24 -58t-58 -24q-35 0 -58.5 24t-23.5 58zM86 109l629 763h-617v109h770v-109l-628 -763h641v-109h-795v109z" />
    <glyph glyph-name="Zcaron" unicode="&#x17d;" horiz-adv-x="1118" 
d="M616 1421h-114l-248 320h117l188 -236l189 236h118zM78 115l803 1083h-799v115h954v-115l-805 -1083h809v-115h-962v115z" />
    <glyph glyph-name="zcaron" unicode="&#x17e;" horiz-adv-x="966" 
d="M541 1090h-115l-248 319h117l188 -235l189 235h119zM86 109l629 763h-617v109h770v-109l-628 -763h641v-109h-795v109z" />
    <glyph glyph-name="florin" unicode="&#x192;" horiz-adv-x="876" 
d="M354 -121v772h-151v101h151v391q0 138 73 213.5t196 75.5q140 0 219 -89l-68 -86q-58 62 -143 62q-75 0 -115.5 -47t-40.5 -135v-385h268v-101h-268v-762q0 -142 -66 -219.5t-190 -77.5q-102 0 -182 62l59 90q48 -39 121 -39q65 0 101 44.5t36 129.5z" />
    <glyph glyph-name="Scommaaccent" unicode="&#x218;" horiz-adv-x="1120" 
d="M324 0q-81 23 -234 115l62 108q91 -61 202 -95t215 -34q147 0 240.5 65.5t93.5 184.5q0 53 -26.5 93.5t-71 67t-102.5 48t-122 40.5t-128 39.5t-122 50t-102.5 67.5t-71 97t-26.5 134q0 154 125 254t319 100q244 0 404 -108l-61 -101q-156 95 -347 95q-137 0 -224 -68
t-87 -168q0 -56 26.5 -100t71 -73t102 -52t121.5 -42t128 -39.5t121.5 -48t102 -63t71 -90t26.5 -123.5q0 -93 -37 -166t-101.5 -118.5t-148 -69t-180.5 -23.5q-145 0 -239 23zM627 -104l-107 -275h-98l76 275h129z" />
    <glyph glyph-name="scommaaccent" unicode="&#x219;" horiz-adv-x="894" 
d="M438 -23q-196 0 -368 101l49 102q167 -96 327 -96q119 0 182.5 46.5t63.5 125.5q0 53 -32 90t-83.5 58t-113 38.5t-123.5 38.5t-113.5 50.5t-83.5 83.5t-32 128q0 111 95 186t257 75q158 0 325 -80l-47 -101q-136 72 -274 72q-108 0 -172 -41.5t-64 -108.5
q0 -47 25 -81.5t66 -54t93 -38t107 -31.5t107 -36.5t93 -52t66 -77.5t25 -114q0 -128 -100 -205.5t-275 -77.5zM514 -104l-106 -275h-99l76 275h129z" />
    <glyph glyph-name="Tcommaaccent" unicode="&#x21a;" horiz-adv-x="1040" 
d="M1020 1198h-438v-1198h-123v1198h-441v115h1002v-115zM586 -104l-107 -275h-98l76 275h129z" />
    <glyph glyph-name="tcommaaccent" unicode="&#x21b;" horiz-adv-x="729" 
d="M66 872v109h153v233h121v-233h291v-109h-289v-608q0 -174 156 -174q87 0 137 53l59 -92q-74 -74 -207 -74q-130 0 -199 72t-69 209v614h-153zM555 -104l-106 -275h-99l76 275h129z" />
    <glyph glyph-name="jdotless" unicode="&#x237;" horiz-adv-x="489" 
d="M305 981v-1110q0 -141 -65.5 -218t-190.5 -77q-107 0 -182 62l59 90q51 -41 119 -41q67 0 103 45t36 131v1118h121z" />
    <glyph glyph-name="circumflex" unicode="&#x2c6;" 
d="M352 1409h115l250 -319h-119l-188 235l-189 -235h-117z" />
    <glyph glyph-name="caron" unicode="&#x2c7;" 
d="M467 1090h-115l-248 319h117l189 -235l188 235h119z" />
    <glyph glyph-name="breve" unicode="&#x2d8;" 
d="M410 1069q-122 0 -200.5 83.5t-78.5 223.5h98q0 -104 51.5 -159.5t129.5 -55.5q79 0 130.5 55.5t51.5 159.5h98q0 -140 -78 -223.5t-202 -83.5z" />
    <glyph glyph-name="dotaccent" unicode="&#x2d9;" 
d="M328 1268q0 34 23.5 58t58.5 24q34 0 58 -24t24 -58t-24 -58t-58 -24q-35 0 -58.5 24t-23.5 58z" />
    <glyph glyph-name="ring" unicode="&#x2da;" 
d="M410 1069q-93 0 -157.5 62.5t-64.5 152.5t64.5 152.5t157.5 62.5q94 0 157.5 -62.5t63.5 -152.5t-63.5 -152.5t-157.5 -62.5zM412 1153q55 0 93 37t38 94q0 58 -38 95.5t-93 37.5t-95.5 -38t-40.5 -95t40 -94t96 -37z" />
    <glyph glyph-name="ogonek" unicode="&#x2db;" 
d="M485 47l70 -47q-225 -119 -225 -238q0 -34 25.5 -54.5t66.5 -20.5q73 0 139 55l45 -70q-79 -82 -200 -82q-83 0 -133 41.5t-50 112.5q0 172 262 303z" />
    <glyph glyph-name="tilde" unicode="&#x2dc;" 
d="M551 1137q-40 0 -81 20t-69.5 43.5t-66 43.5t-70.5 20q-39 0 -65 -28t-56 -85l-61 47q66 162 186 162q41 0 81.5 -19.5t69 -43t65 -43t69.5 -19.5q41 0 68.5 29t52.5 84l61 -50q-60 -161 -184 -161z" />
    <glyph glyph-name="hungarumlaut" unicode="&#x2dd;" 
d="M432 1409h135l-233 -319h-103zM715 1409h139l-238 -319h-102z" />
    <glyph glyph-name="gravecomb" unicode="&#x300;" horiz-adv-x="784" 
d="M217 1409l201 -319h-113l-237 319h149z" />
    <glyph glyph-name="acutecomb" unicode="&#x301;" 
d="M584 1409h151l-237 -319h-115z" />
    <glyph glyph-name="circumflexcomb" unicode="&#x302;" 
d="M352 1409h115l250 -319h-119l-188 235l-189 -235h-117z" />
    <glyph glyph-name="tildecomb" unicode="&#x303;" 
d="M551 1137q-40 0 -81 20t-69.5 43.5t-66 43.5t-70.5 20q-39 0 -65 -28t-56 -85l-61 47q66 162 186 162q41 0 81.5 -19.5t69 -43t65 -43t69.5 -19.5q41 0 68.5 29t52.5 84l61 -50q-60 -161 -184 -161z" />
    <glyph glyph-name="macroncomb" unicode="&#x304;" 
d="M135 1319h547v-98h-547v98z" />
    <glyph glyph-name="brevecomb" unicode="&#x306;" 
d="M410 1069q-122 0 -200.5 83.5t-78.5 223.5h98q0 -104 51.5 -159.5t129.5 -55.5q79 0 130.5 55.5t51.5 159.5h98q0 -140 -78 -223.5t-202 -83.5z" />
    <glyph glyph-name="dotaccentcomb" unicode="&#x307;" 
d="M328 1268q0 34 23.5 58t58.5 24q34 0 58 -24t24 -58t-24 -58t-58 -24q-35 0 -58.5 24t-23.5 58z" />
    <glyph glyph-name="dieresiscomb" unicode="&#x308;" 
d="M174 1266q0 31 23 54t55 23q33 0 56.5 -23t23.5 -54q0 -34 -23 -57t-57 -23q-32 0 -55 23t-23 57zM487 1266q0 31 23 54t55 23t56 -23t24 -54q0 -33 -23.5 -56.5t-56.5 -23.5q-32 0 -55 23t-23 57z" />
    <glyph glyph-name="ringcomb" unicode="&#x30a;" 
d="M410 1069q-93 0 -157.5 62.5t-64.5 152.5t64.5 152.5t157.5 62.5q94 0 157.5 -62.5t63.5 -152.5t-63.5 -152.5t-157.5 -62.5zM412 1153q55 0 93 37t38 94q0 58 -38 95.5t-93 37.5t-95.5 -38t-40.5 -95t40 -94t96 -37z" />
    <glyph glyph-name="hungarumlautcomb" unicode="&#x30b;" 
d="M432 1409h135l-233 -319h-103zM715 1409h139l-238 -319h-102z" />
    <glyph glyph-name="caroncomb" unicode="&#x30c;" 
d="M467 1090h-115l-248 319h117l189 -235l188 235h119z" />
    <glyph glyph-name="commaaccentcomb" unicode="&#x326;" 
d="M477 -104l-106 -275h-99l76 275h129z" />
    <glyph glyph-name="cedillacomb" unicode="&#x327;" 
d="M383 0h96l-149 -362l-103 45z" />
    <glyph glyph-name="ogonekcomb" unicode="&#x328;" 
d="M485 47l70 -47q-225 -119 -225 -238q0 -34 25.5 -54.5t66.5 -20.5q73 0 139 55l45 -70q-79 -82 -200 -82q-83 0 -133 41.5t-50 112.5q0 172 262 303z" />
    <glyph glyph-name="strokeshortcomb" unicode="&#x335;" horiz-adv-x="763" 
d="M113 582h487v-103h-487v103z" />
    <glyph glyph-name="Delta" unicode="&#x394;" horiz-adv-x="1353" 
d="M53 0l551 1313h144l552 -1313h-1247zM225 111h893l-446 1069z" />
    <glyph glyph-name="Omega" unicode="&#x3a9;" horiz-adv-x="1492" 
d="M745 1217q-150 0 -271.5 -67t-191 -188t-69.5 -274q0 -107 34 -201.5t94 -166t131 -125.5t157 -95v-100h-529v111l328 -2q-162 104 -252 252t-90 335q0 129 50 246.5t136 204t209.5 137.5t263.5 51t264 -51t210.5 -137.5t137 -204t50.5 -246.5q0 -187 -90.5 -335
t-251.5 -252l326 2v-111h-527v100q86 41 157 95t131 125.5t94 166t34 201.5q0 232 -152.5 380.5t-382.5 148.5z" />
    <glyph glyph-name="mu" unicode="&#x3bc;" horiz-adv-x="1216" 
d="M319 981v-553q0 -148 81 -238t214 -90q134 0 215.5 90t81.5 238v553h121v-565q0 -194 -114.5 -311t-303.5 -117q-182 0 -295 110v-481h-118v1364h118z" />
    <glyph glyph-name="pi" unicode="&#x3c0;" horiz-adv-x="1210" 
d="M59 872v109h1076v-109h-181v-620q0 -75 28.5 -110.5t88.5 -35.5h64v-106h-80q-221 0 -221 244v628h-492v-870h-123v870h-160z" />
    <glyph glyph-name="Wgrave" unicode="&#x1e80;" horiz-adv-x="1970" 
d="M858 1741l201 -320h-113l-237 320h149zM1784 1313h131l-426 -1313h-148l-356 1155l-358 -1155h-146l-426 1313h135l365 -1159l356 1159h154l358 -1155z" />
    <glyph glyph-name="wgrave" unicode="&#x1e81;" horiz-adv-x="1609" 
d="M678 1409l201 -319h-113l-238 319h150zM518 0h-139l-326 981h131l267 -842l288 842h133l287 -842l268 842h129l-325 -981h-148l-282 823z" />
    <glyph glyph-name="Wacute" unicode="&#x1e82;" horiz-adv-x="1970" 
d="M1112 1741h152l-238 -320h-115zM1784 1313h131l-426 -1313h-148l-356 1155l-358 -1155h-146l-426 1313h135l365 -1159l356 1159h154l358 -1155z" />
    <glyph glyph-name="wacute" unicode="&#x1e83;" horiz-adv-x="1609" 
d="M932 1409h151l-237 -319h-115zM518 0h-139l-326 981h131l267 -842l288 842h133l287 -842l268 842h129l-325 -981h-148l-282 823z" />
    <glyph glyph-name="Wdieresis" unicode="&#x1e84;" horiz-adv-x="1970" 
d="M752 1597q0 31 22.5 54.5t54.5 23.5q33 0 56.5 -23.5t23.5 -54.5q0 -34 -23 -56.5t-57 -22.5q-32 0 -54.5 22.5t-22.5 56.5zM1065 1597q0 31 23 54.5t55 23.5t56 -23.5t24 -54.5q0 -33 -23.5 -56t-56.5 -23t-55.5 23t-22.5 56zM1784 1313h131l-426 -1313h-148l-356 1155
l-358 -1155h-146l-426 1313h135l365 -1159l356 1159h154l358 -1155z" />
    <glyph glyph-name="wdieresis" unicode="&#x1e85;" horiz-adv-x="1609" 
d="M569 1266q0 31 23 54t55 23q33 0 56.5 -23t23.5 -54q0 -34 -23 -57t-57 -23q-32 0 -55 23t-23 57zM883 1266q0 31 23 54t55 23t55.5 -23t23.5 -54q0 -34 -23 -57t-56 -23q-32 0 -55 23t-23 57zM518 0h-139l-326 981h131l267 -842l288 842h133l287 -842l268 842h129
l-325 -981h-148l-282 823z" />
    <glyph glyph-name="Ygrave" unicode="&#x1ef2;" horiz-adv-x="1146" 
d="M446 1741l201 -320h-112l-238 320h149zM512 0v449l-494 864h140l417 -735l420 735h133l-493 -864v-449h-123z" />
    <glyph glyph-name="ygrave" unicode="&#x1ef3;" horiz-adv-x="995" 
d="M371 1409l200 -319h-112l-238 319h150zM414 -147l51 135l-442 993h129l368 -844l318 844h123l-445 -1171q-44 -115 -109.5 -174.5t-166.5 -59.5q-115 0 -205 78l59 94q65 -59 154 -59q56 0 94.5 37t71.5 127z" />
    <glyph glyph-name="endash" unicode="&#x2013;" horiz-adv-x="989" 
d="M63 545h861v-109h-861v109z" />
    <glyph glyph-name="emdash" unicode="&#x2014;" horiz-adv-x="2013" 
d="M63 545h1885v-109h-1885v109z" />
    <glyph glyph-name="quoteleft" unicode="&#x2018;" horiz-adv-x="305" 
d="M119 1012q-37 0 -62.5 24.5t-25.5 59.5q0 36 28 84l127 229h70l-109 -235q26 -9 42 -30t16 -48q0 -35 -24.5 -59.5t-61.5 -24.5z" />
    <glyph glyph-name="quoteright" unicode="&#x2019;" horiz-adv-x="305" 
d="M184 1411q38 0 63 -25t25 -61q0 -37 -28 -82l-127 -229h-70l109 233q-58 25 -58 78q0 35 25.5 60.5t60.5 25.5z" />
    <glyph glyph-name="quotesinglbase" unicode="&#x201a;" horiz-adv-x="346" 
d="M145 -238h-69l108 236q-25 9 -41 30t-16 48q0 36 25 61t61 25q38 0 63 -25t25 -61q0 -34 -29 -84z" />
    <glyph glyph-name="quotedblleft" unicode="&#x201c;" horiz-adv-x="579" 
d="M395 1012q-38 0 -63 24t-25 60q0 32 27 84l127 229h71l-108 -235q25 -9 40 -30t15 -48q0 -35 -24.5 -59.5t-59.5 -24.5zM119 1012q-37 0 -62.5 24.5t-25.5 59.5q0 36 28 84l127 229h70l-109 -235q26 -9 42 -30t16 -48q0 -35 -24.5 -59.5t-61.5 -24.5z" />
    <glyph glyph-name="quotedblright" unicode="&#x201d;" horiz-adv-x="579" 
d="M203 1411q38 0 63 -25t25 -61q0 -33 -27 -82l-127 -229h-71l108 233q-26 11 -41.5 31.5t-15.5 46.5q0 36 25 61t61 25zM477 1411q38 0 63 -25t25 -61q0 -37 -28 -82l-127 -229h-70l109 233q-58 25 -58 78q0 35 25.5 60.5t60.5 25.5z" />
    <glyph glyph-name="quotedblbase" unicode="&#x201e;" horiz-adv-x="626" 
d="M145 -238h-69l108 236q-25 9 -41 30t-16 48q0 36 25 61t61 25q38 0 63 -25t25 -61q0 -34 -29 -84zM424 -238h-70l109 236q-25 9 -41 30t-16 48q0 36 25 61t61 25q38 0 63 -25t25 -61q0 -34 -29 -84z" />
    <glyph glyph-name="dagger" unicode="&#x2020;" horiz-adv-x="886" 
d="M383 -401v1269h-324v109h324v432h121v-432h323v-109h-323v-1269h-121z" />
    <glyph glyph-name="daggerdbl" unicode="&#x2021;" horiz-adv-x="886" 
d="M59 31v108h324v729h-324v109h324v432h121v-432h323v-109h-323v-729h323v-108h-323v-432h-121v432h-324z" />
    <glyph glyph-name="bullet" unicode="&#x2022;" horiz-adv-x="743" 
d="M373 279q-100 0 -168 67.5t-68 165.5t68 165.5t168 67.5q97 0 164 -67.5t67 -165.5t-67 -165.5t-164 -67.5z" />
    <glyph glyph-name="ellipsis" unicode="&#x2026;" horiz-adv-x="1130" 
d="M979 -14q-38 0 -66 28t-28 66q0 40 28 68t66 28q40 0 68 -28t28 -68q0 -38 -28 -66t-68 -28zM147 -14q-37 0 -65.5 28t-28.5 66q0 39 28.5 67.5t65.5 28.5q40 0 69.5 -28.5t29.5 -67.5q0 -38 -29.5 -66t-69.5 -28zM563 -14q-37 0 -65.5 28t-28.5 66q0 39 28.5 67.5
t65.5 28.5q40 0 68 -28t28 -68q0 -38 -28 -66t-68 -28z" />
    <glyph glyph-name="perthousand" unicode="&#x2030;" horiz-adv-x="2324" 
d="M385 688q-139 0 -233.5 94t-94.5 230q0 137 92.5 230t235.5 93q141 0 234.5 -93.5t93.5 -229.5t-94.5 -230t-233.5 -94zM387 0h-108l909 1313h112zM385 774q95 0 165.5 65.5t70.5 172.5t-70.5 172t-165.5 65t-165 -65t-70 -172q0 -108 70 -173t165 -65zM1192 -23
q-141 0 -234.5 94t-93.5 230t94.5 230t233.5 94t233.5 -94t94.5 -230q0 -137 -92.5 -230.5t-235.5 -93.5zM1939 -23q-143 0 -236 93.5t-93 230.5q0 136 95 230t234 94q137 0 231.5 -94.5t94.5 -229.5q0 -137 -92.5 -230.5t-233.5 -93.5zM1192 63q95 0 165 65t70 173t-70 173
t-165 65t-165.5 -65.5t-70.5 -172.5t71 -172.5t165 -65.5zM1937 63q95 0 165.5 65.5t70.5 172.5t-70.5 172.5t-165.5 65.5q-94 0 -163.5 -65t-69.5 -173q0 -107 70 -172.5t163 -65.5z" />
    <glyph glyph-name="guilsinglleft" unicode="&#x2039;" horiz-adv-x="610" 
d="M84 498l371 370l71 -73l-297 -297l297 -299l-71 -72z" />
    <glyph glyph-name="guilsinglright" unicode="&#x203a;" horiz-adv-x="610" 
d="M84 795l72 73l370 -370l-370 -371l-72 72l299 299z" />
    <glyph glyph-name="fraction" unicode="&#x2044;" horiz-adv-x="133" 
d="M-444 0l915 1313h107l-910 -1313h-112z" />
    <glyph glyph-name="zero.superior" unicode="&#x2070;" horiz-adv-x="577" 
d="M289 647q-108 0 -179 95.5t-71 242.5q0 146 70.5 243t177.5 97q108 0 179 -96.5t71 -243.5t-70 -242.5t-178 -95.5zM289 729q69 0 112 71.5t43 184.5t-43 183.5t-112 70.5t-112.5 -71t-43.5 -183q0 -113 43 -184.5t113 -71.5z" />
    <glyph glyph-name="four.superior" unicode="&#x2074;" horiz-adv-x="577" 
d="M348 657v136h-319v86l323 434h88v-434h97v-86h-97v-136h-92zM121 879h227v309z" />
    <glyph glyph-name="Euro" unicode="&#x20ac;" horiz-adv-x="1318" 
d="M819 -23q-227 0 -403 134t-238 344h-160l29 94h111q-8 47 -8 104q0 62 8 111h-140l29 94h133q64 210 237 343.5t392 133.5q145 0 254.5 -37t200.5 -114l-74 -90q-166 127 -379 127q-170 0 -306.5 -100.5t-195.5 -262.5h666l-27 -94h-665q-11 -64 -11 -111q0 -30 9 -104
h614l-27 -94h-561q58 -162 197.5 -262.5t320.5 -100.5q222 0 367 123l74 -84q-173 -154 -447 -154z" />
    <glyph glyph-name="litre" unicode="&#x2113;" horiz-adv-x="794" 
d="M707 143q-106 -166 -269 -166q-119 0 -185.5 73.5t-66.5 213.5v88l-131 -78v134l131 73v615q0 167 67 251.5t189 84.5q129 0 203 -85t74 -243q0 -180 -103 -343.5t-307 -322.5v-166q0 -182 140 -182q115 0 188 131zM309 1116v-545q291 255 291 539q0 102 -41 155.5
t-108 53.5q-72 0 -107 -48t-35 -155z" />
    <glyph glyph-name="trademark" unicode="&#x2122;" horiz-adv-x="1701" 
d="M291 596v627h-219v90h542v-90h-223v-627h-100zM1114 774l-299 397l2 -575h-98v717h102l297 -398l293 398h96v-717h-98l2 575z" />
    <glyph glyph-name="partialdiff" unicode="&#x2202;" horiz-adv-x="1232" 
d="M616 1004q92 0 174 -43.5t136 -112.5q-73 174 -212.5 310t-287.5 208l80 76q123 -59 231 -150.5t191.5 -205.5t131.5 -254.5t48 -286.5q0 -261 -136.5 -414.5t-355.5 -153.5q-138 0 -251 70t-176.5 188.5t-63.5 258.5q0 216 140.5 363t350.5 147zM618 90q159 0 264 118
t105 288q0 169 -104.5 285t-264.5 116t-266 -116t-106 -285t106.5 -287.5t265.5 -118.5z" />
    <glyph glyph-name="product" unicode="&#x220f;" horiz-adv-x="1208" 
d="M850 1198h-490v-1599h-122v1599h-160v115h1052v-115h-159v-1599h-121v1599z" />
    <glyph glyph-name="summation" unicode="&#x2211;" horiz-adv-x="997" 
d="M676 573v-104l-490 -750h777v-120h-926v131l514 796l-514 762v121h926v-119h-770z" />
    <glyph glyph-name="minus" unicode="&#x2212;" horiz-adv-x="1032" 
d="M125 606v109h782v-109h-782z" />
    <glyph glyph-name="divisionslash" unicode="&#x2215;" horiz-adv-x="133" 
d="M-444 0l915 1313h107l-910 -1313h-112z" />
    <glyph glyph-name="radical" unicode="&#x221a;" horiz-adv-x="1130" 
d="M686 0h-164l-291 870h-194v111h295l274 -864l363 1292h125z" />
    <glyph glyph-name="infinity" unicode="&#x221e;" horiz-adv-x="1067" 
d="M973 659q0 -114 -63 -187t-165 -73q-81 0 -130.5 36.5t-82.5 101.5q-37 -69 -91.5 -103.5t-116.5 -34.5q-103 0 -166.5 73t-63.5 183q0 114 61 187t158 73q81 0 130.5 -36t82.5 -101q37 69 94 103t123 34q103 0 166.5 -72t63.5 -184zM186 655q0 -71 39.5 -115t106.5 -44
q103 0 168 116q-39 104 -58 135q-46 74 -125 74q-57 0 -94 -46.5t-37 -119.5zM737 821q-119 0 -180 -110q3 -9 11.5 -31.5t12.5 -32t12.5 -29.5t14 -29t15 -25t17.5 -23.5t20 -18t24 -15t27 -8t32 -3.5q55 0 96.5 47t41.5 112q0 70 -42.5 118t-101.5 48z" />
    <glyph glyph-name="integral" unicode="&#x222b;" horiz-adv-x="876" 
d="M354 -121v1264q0 138 73 213.5t196 75.5q140 0 219 -89l-68 -86q-58 62 -143 62q-75 0 -115.5 -47t-40.5 -135v-1248q0 -142 -66 -219.5t-190 -77.5q-102 0 -182 62l59 90q48 -39 121 -39q65 0 101 44.5t36 129.5z" />
    <glyph glyph-name="approxequal" unicode="&#x2248;" horiz-adv-x="1032" 
d="M125 737v119q111 76 211 76q54 0 104.5 -16.5t83.5 -37t79.5 -37t92.5 -16.5q115 0 211 66v-119q-96 -61 -207 -61q-53 0 -104 16.5t-85 36.5t-81 36.5t-92 16.5q-121 0 -213 -80zM125 414v118q111 76 211 76q54 0 104.5 -16.5t83.5 -36.5t79.5 -36.5t92.5 -16.5
q116 0 211 65v-118q-97 -62 -207 -62q-53 0 -104 16.5t-85 37t-81 37t-92 16.5q-121 0 -213 -80z" />
    <glyph glyph-name="notequal" unicode="&#x2260;" horiz-adv-x="1032" 
d="M225 242l121 202h-221v111h289l125 211h-414v111h481l121 202h104l-120 -202h196v-111h-262l-127 -211h389v-111h-454l-121 -202h-107z" />
    <glyph glyph-name="lessequal" unicode="&#x2264;" horiz-adv-x="1032" 
d="M907 377v-121l-782 391v98l782 390v-121l-643 -318zM125 0v111h782v-111h-782z" />
    <glyph glyph-name="greaterequal" unicode="&#x2265;" horiz-adv-x="1032" 
d="M125 377l643 319l-643 318v121l782 -390v-98l-782 -391v121zM907 0h-782v111h782v-111z" />
    <glyph glyph-name="lozenge" unicode="&#x25ca;" horiz-adv-x="1021" 
d="M928 655l-348 -655h-138l-348 655l348 658h138zM799 655l-289 551l-291 -551l291 -549z" />
    <glyph glyph-name="ITF" unicode="&#xf8ff;" horiz-adv-x="3235" 
d="M195 0v1313h405v-1313h-405zM684 930v383h406v-383h-406zM1171 0v1313h406v-1313h-406zM1663 930v383h403v-383h-403zM2150 0v1313h404v-1313h-404zM2640 930v383h403v-383h-403zM2640 465v381h403v-381h-403z" />
    <glyph glyph-name="G.alt" horiz-adv-x="1529" 
d="M780 -23q-137 0 -258.5 49t-211 136t-141.5 214.5t-52 276.5q0 138 56 265t149.5 218t220 145t262.5 54q282 0 465 -151l-80 -92q-160 127 -383 127q-148 0 -277.5 -75.5t-207.5 -206.5t-78 -284q0 -125 42.5 -230.5t115 -177t171 -111.5t209.5 -40q220 0 358 125
t150 316v86h-489v114h614v-229q-12 -105 -59 -198.5t-125 -168t-194.5 -118.5t-256.5 -44z" />
    <glyph glyph-name="a.alt" horiz-adv-x="1292" 
d="M586 -23q-134 0 -244 68t-173 186t-63 261q0 142 62 259t172 185t246 68q126 0 225.5 -62t157.5 -170v209h121v-758q0 -66 29 -96.5t71 -30.5q28 0 47 8l18 -106q-47 -14 -86 -14q-80 0 -135.5 53t-62.5 156q-61 -101 -161 -158.5t-224 -57.5zM600 90q159 0 264 118
t105 286t-104.5 282.5t-264.5 114.5t-265.5 -115t-105.5 -282q0 -168 106 -286t265 -118z" />
    <glyph glyph-name="j.alt" horiz-adv-x="489" 
d="M244 1186q-34 0 -58 24t-24 58t24 58t58 24t59 -24t25 -58t-25 -58t-59 -24zM16 -424h-34v115h30q172 0 172 174v1116h121v-1112q0 -139 -76.5 -216t-212.5 -77z" />
    <glyph glyph-name="l.alt" horiz-adv-x="489" 
d="M184 0v1409h121v-1409h-121z" />
    <glyph glyph-name="y.alt" horiz-adv-x="995" 
d="M414 -401h-123l166 407l-434 975h129l362 -829l324 829h123z" />
    <glyph glyph-name="ampersand.alt" horiz-adv-x="1251" 
d="M1065 668l96 -58l-196 -307l235 -248l-86 -78l-217 228q-173 -225 -410 -225q-170 0 -279.5 92t-109.5 252q0 128 89.5 226.5t234.5 158.5q-78 81 -118 154t-40 157q0 142 99.5 228.5t246.5 86.5q175 0 324 -108l-64 -97q-132 93 -258 93q-99 0 -163 -54t-64 -149
q0 -63 33 -121t104 -133l363 -381zM219 328q0 -112 76 -176t197 -64q176 0 327 201l-317 334q-124 -42 -203.5 -117.5t-79.5 -177.5z" />
    <glyph glyph-name="Gbreve.alt" horiz-adv-x="1529" 
d="M764 1401q-122 0 -200.5 83.5t-78.5 223.5h99q0 -104 51 -159.5t129 -55.5q79 0 130.5 55.5t51.5 159.5h98q0 -140 -78 -223.5t-202 -83.5zM780 -23q-137 0 -258.5 49t-211 136t-141.5 214.5t-52 276.5q0 138 56 265t149.5 218t220 145t262.5 54q282 0 465 -151l-80 -92
q-160 127 -383 127q-148 0 -277.5 -75.5t-207.5 -206.5t-78 -284q0 -125 42.5 -230.5t115 -177t171 -111.5t209.5 -40q220 0 358 125t150 316v86h-489v114h614v-229q-12 -105 -59 -198.5t-125 -168t-194.5 -118.5t-256.5 -44z" />
    <glyph glyph-name="Gcircumflex.alt" horiz-adv-x="1529" 
d="M709 1741h114l250 -320h-119l-188 236l-188 -236h-117zM780 -23q-137 0 -258.5 49t-211 136t-141.5 214.5t-52 276.5q0 138 56 265t149.5 218t220 145t262.5 54q282 0 465 -151l-80 -92q-160 127 -383 127q-148 0 -277.5 -75.5t-207.5 -206.5t-78 -284
q0 -125 42.5 -230.5t115 -177t171 -111.5t209.5 -40q220 0 358 125t150 316v86h-489v114h614v-229q-12 -105 -59 -198.5t-125 -168t-194.5 -118.5t-256.5 -44z" />
    <glyph glyph-name="Gcommaaccent.alt" horiz-adv-x="1529" 
d="M780 -23q-137 0 -258.5 49t-211 136t-141.5 214.5t-52 276.5q0 138 56 265t149.5 218t220 145t262.5 54q282 0 465 -151l-80 -92q-160 127 -383 127q-148 0 -277.5 -75.5t-207.5 -206.5t-78 -284q0 -125 42.5 -230.5t115 -177t171 -111.5t209.5 -40q220 0 358 125
t150 316v86h-489v114h614v-229q-12 -105 -59 -198.5t-125 -168t-194.5 -118.5t-256.5 -44zM831 -104l-106 -275h-98l75 275h129z" />
    <glyph glyph-name="Gdotaccent.alt" horiz-adv-x="1529" 
d="M684 1599q0 34 23.5 58t58.5 24q34 0 58 -24t24 -58t-24 -57.5t-58 -23.5q-35 0 -58.5 23.5t-23.5 57.5zM780 -23q-137 0 -258.5 49t-211 136t-141.5 214.5t-52 276.5q0 138 56 265t149.5 218t220 145t262.5 54q282 0 465 -151l-80 -92q-160 127 -383 127
q-148 0 -277.5 -75.5t-207.5 -206.5t-78 -284q0 -125 42.5 -230.5t115 -177t171 -111.5t209.5 -40q220 0 358 125t150 316v86h-489v114h614v-229q-12 -105 -59 -198.5t-125 -168t-194.5 -118.5t-256.5 -44z" />
    <glyph glyph-name="aacute.alt" horiz-adv-x="1292" 
d="M737 1409h152l-238 -319h-114zM586 -23q-134 0 -244 68t-173 186t-63 261q0 142 62 259t172 185t246 68q126 0 225.5 -62t157.5 -170v209h121v-758q0 -66 29 -96.5t71 -30.5q28 0 47 8l18 -106q-47 -14 -86 -14q-80 0 -135.5 53t-62.5 156q-61 -101 -161 -158.5
t-224 -57.5zM600 90q159 0 264 118t105 286t-104.5 282.5t-264.5 114.5t-265.5 -115t-105.5 -282q0 -168 106 -286t265 -118z" />
    <glyph glyph-name="abreve.alt" horiz-adv-x="1292" 
d="M610 1069q-122 0 -200 83.5t-78 223.5h98q0 -104 51 -159.5t129 -55.5q79 0 131 55.5t52 159.5h98q0 -140 -78.5 -223.5t-202.5 -83.5zM586 -23q-134 0 -244 68t-173 186t-63 261q0 142 62 259t172 185t246 68q126 0 225.5 -62t157.5 -170v209h121v-758q0 -66 29 -96.5
t71 -30.5q28 0 47 8l18 -106q-47 -14 -86 -14q-80 0 -135.5 53t-62.5 156q-61 -101 -161 -158.5t-224 -57.5zM600 90q159 0 264 118t105 286t-104.5 282.5t-264.5 114.5t-265.5 -115t-105.5 -282q0 -168 106 -286t265 -118z" />
    <glyph glyph-name="acircumflex.alt" horiz-adv-x="1292" 
d="M555 1409h115l250 -319h-119l-189 235l-188 -235h-117zM586 -23q-134 0 -244 68t-173 186t-63 261q0 142 62 259t172 185t246 68q126 0 225.5 -62t157.5 -170v209h121v-758q0 -66 29 -96.5t71 -30.5q28 0 47 8l18 -106q-47 -14 -86 -14q-80 0 -135.5 53t-62.5 156
q-61 -101 -161 -158.5t-224 -57.5zM600 90q159 0 264 118t105 286t-104.5 282.5t-264.5 114.5t-265.5 -115t-105.5 -282q0 -168 106 -286t265 -118z" />
    <glyph glyph-name="adieresis.alt" horiz-adv-x="1292" 
d="M377 1266q0 31 23 54t55 23q33 0 56.5 -23t23.5 -54q0 -34 -23 -57t-57 -23q-32 0 -55 23t-23 57zM690 1266q0 31 23 54t55 23t56 -23t24 -54q0 -33 -23.5 -56.5t-56.5 -23.5q-32 0 -55 23t-23 57zM586 -23q-134 0 -244 68t-173 186t-63 261q0 142 62 259t172 185t246 68
q126 0 225.5 -62t157.5 -170v209h121v-758q0 -66 29 -96.5t71 -30.5q28 0 47 8l18 -106q-47 -14 -86 -14q-80 0 -135.5 53t-62.5 156q-61 -101 -161 -158.5t-224 -57.5zM600 90q159 0 264 118t105 286t-104.5 282.5t-264.5 114.5t-265.5 -115t-105.5 -282q0 -168 106 -286
t265 -118z" />
    <glyph glyph-name="agrave.alt" horiz-adv-x="1292" 
d="M483 1409l201 -319h-113l-237 319h149zM586 -23q-134 0 -244 68t-173 186t-63 261q0 142 62 259t172 185t246 68q126 0 225.5 -62t157.5 -170v209h121v-758q0 -66 29 -96.5t71 -30.5q28 0 47 8l18 -106q-47 -14 -86 -14q-80 0 -135.5 53t-62.5 156q-61 -101 -161 -158.5
t-224 -57.5zM600 90q159 0 264 118t105 286t-104.5 282.5t-264.5 114.5t-265.5 -115t-105.5 -282q0 -168 106 -286t265 -118z" />
    <glyph glyph-name="amacron.alt" horiz-adv-x="1292" 
d="M338 1319h547v-98h-547v98zM586 -23q-134 0 -244 68t-173 186t-63 261q0 142 62 259t172 185t246 68q126 0 225.5 -62t157.5 -170v209h121v-758q0 -66 29 -96.5t71 -30.5q28 0 47 8l18 -106q-47 -14 -86 -14q-80 0 -135.5 53t-62.5 156q-61 -101 -161 -158.5t-224 -57.5z
M600 90q159 0 264 118t105 286t-104.5 282.5t-264.5 114.5t-265.5 -115t-105.5 -282q0 -168 106 -286t265 -118z" />
    <glyph glyph-name="aogonek.alt" horiz-adv-x="1292" 
d="M586 -23q-134 0 -244 68t-173 186t-63 261q0 142 62 259t172 185t246 68q126 0 225.5 -62t157.5 -170v209h121v-758q0 -66 29 -96.5t71 -30.5q28 0 47 8l18 -106q-225 -119 -225 -238q0 -34 25.5 -54.5t66.5 -20.5q74 0 140 55l45 -70q-79 -82 -201 -82
q-83 0 -132.5 41.5t-49.5 112.5q0 140 174 254q-116 43 -127 197q-61 -101 -161 -158.5t-224 -57.5zM600 90q159 0 264 118t105 286t-104.5 282.5t-264.5 114.5t-265.5 -115t-105.5 -282q0 -168 106 -286t265 -118z" />
    <glyph glyph-name="aring.alt" horiz-adv-x="1292" 
d="M612 1069q-93 0 -157 62.5t-64 152.5t64 152.5t157 62.5q95 0 158.5 -62.5t63.5 -152.5t-63.5 -152.5t-158.5 -62.5zM614 1153q55 0 93 37t38 94q0 58 -38 95.5t-93 37.5t-95 -38t-40 -95t40 -94t95 -37zM586 -23q-134 0 -244 68t-173 186t-63 261q0 142 62 259t172 185
t246 68q126 0 225.5 -62t157.5 -170v209h121v-758q0 -66 29 -96.5t71 -30.5q28 0 47 8l18 -106q-47 -14 -86 -14q-80 0 -135.5 53t-62.5 156q-61 -101 -161 -158.5t-224 -57.5zM600 90q159 0 264 118t105 286t-104.5 282.5t-264.5 114.5t-265.5 -115t-105.5 -282
q0 -168 106 -286t265 -118z" />
    <glyph glyph-name="atilde.alt" horiz-adv-x="1292" 
d="M754 1137q-40 0 -81 20t-69.5 43.5t-66 43.5t-70.5 20q-39 0 -65 -28t-56 -85l-61 47q66 162 186 162q41 0 81.5 -19.5t69 -43t65 -43t69.5 -19.5q41 0 68.5 29t52.5 84l61 -50q-60 -161 -184 -161zM586 -23q-134 0 -244 68t-173 186t-63 261q0 142 62 259t172 185
t246 68q126 0 225.5 -62t157.5 -170v209h121v-758q0 -66 29 -96.5t71 -30.5q28 0 47 8l18 -106q-47 -14 -86 -14q-80 0 -135.5 53t-62.5 156q-61 -101 -161 -158.5t-224 -57.5zM600 90q159 0 264 118t105 286t-104.5 282.5t-264.5 114.5t-265.5 -115t-105.5 -282
q0 -168 106 -286t265 -118z" />
    <glyph glyph-name="jdotless.alt" horiz-adv-x="489" 
d="M16 -424h-34v115h30q172 0 172 174v1116h121v-1112q0 -139 -76.5 -216t-212.5 -77z" />
    <glyph glyph-name="jcircumflex.alt" horiz-adv-x="489" 
d="M186 1409h115l250 -319h-119l-188 235l-189 -235h-116zM16 -424h-34v115h30q172 0 172 174v1116h121v-1112q0 -139 -76.5 -216t-212.5 -77z" />
    <glyph glyph-name="lacute.alt" horiz-adv-x="489" 
d="M373 1837h151l-237 -319h-115zM184 0v1409h121v-1409h-121z" />
    <glyph glyph-name="lcaron.alt" horiz-adv-x="489" 
d="M184 0v1409h121v-1409h-121zM543 1409l-72 -340h-94l41 340h125z" />
    <glyph glyph-name="lcommaaccent.alt" horiz-adv-x="489" 
d="M184 0v1409h121v-1409h-121zM311 -104l-106 -275h-99l76 275h129z" />
    <glyph glyph-name="ldot.alt" horiz-adv-x="557" 
d="M184 0v1409h121v-1409h-121zM444 637q0 33 24 58.5t58 25.5q33 0 57.5 -25.5t24.5 -58.5q0 -34 -24 -58t-58 -24q-35 0 -58.5 24t-23.5 58z" />
    <glyph glyph-name="lslash.alt" horiz-adv-x="489" 
d="M184 0v707l-143 -60v109l143 59v594h121v-543l141 60v-109l-141 -59v-758h-121z" />
    <glyph glyph-name="yacute.alt" horiz-adv-x="995" 
d="M625 1409h151l-237 -319h-115zM414 -401h-123l166 407l-434 975h129l362 -829l324 829h123z" />
    <glyph glyph-name="ycircumflex.alt" horiz-adv-x="995" 
d="M442 1409h115l250 -319h-119l-188 235l-189 -235h-116zM414 -401h-123l166 407l-434 975h129l362 -829l324 829h123z" />
    <glyph glyph-name="ydieresis.alt" horiz-adv-x="995" 
d="M264 1266q0 31 23 54t55 23q33 0 56.5 -23t23.5 -54q0 -34 -23 -57t-57 -23q-32 0 -55 23t-23 57zM578 1266q0 31 22.5 54t54.5 23t56 -23t24 -54q0 -33 -23.5 -56.5t-56.5 -23.5q-32 0 -54.5 23t-22.5 57zM414 -401h-123l166 407l-434 975h129l362 -829l324 829h123z
" />
    <glyph glyph-name="ygrave.alt" horiz-adv-x="995" 
d="M371 1409l200 -319h-112l-238 319h150zM414 -401h-123l166 407l-434 975h129l362 -829l324 829h123z" />
    <glyph glyph-name="i.loclTRK" horiz-adv-x="489" 
d="M244 1186q-34 0 -58 24t-24 58t24 58t58 24t59 -24t25 -58t-25 -58t-59 -24zM305 0h-121v981h121v-981z" />
    <glyph glyph-name="fl.alt" horiz-adv-x="1134" 
d="M829 0v1264q-88 55 -229 55q-124 0 -192 -73.5t-68 -205.5v-59h252v-109h-252v-872h-121v872h-149v109h149v63q0 188 102 288t271 100q146 0 260 -52h100v-1380h-123z" />
    <glyph glyph-name="commaaccent.alt" 
d="M340 1102l109 274h102l-74 -274h-137z" />
    <glyph glyph-name="caroncomb.alt" 
d="M487 1409l-71 -340h-94l40 340h125z" />
    <glyph glyph-name="commaaccent" 
d="M477 -104l-106 -275h-99l76 275h129z" />
    </font>
</defs>
</svg>
