<?xml version="1.0" standalone="no"?>
<!DOCTYPE svg PUBLIC "-//W3C//DTD SVG 1.1//EN" "http://www.w3.org/Graphics/SVG/1.1/DTD/svg11.dtd" >
<svg xmlns="http://www.w3.org/2000/svg" xmlns:xlink="http://www.w3.org/1999/xlink" version="1.1">
<metadata>
Created by FontForge 20170731 at Sat Feb 11 11:56:34 2023
 By Aleksey,,,
Copyright 2021-2022 Indian Type Foundry. All rights reserved.
</metadata>
<defs>
<font id="ElevanceSans-Medium" horiz-adv-x="819" >
  <font-face 
    font-family="Elevance Sans Medium"
    font-weight="500"
    font-stretch="normal"
    units-per-em="2048"
    panose-1="0 0 0 0 0 0 0 0 0 0"
    ascent="1638"
    descent="-410"
    x-height="981"
    cap-height="1313"
    bbox="-459 -428 3023 1964"
    underline-thickness="102"
    underline-position="-307"
    unicode-range="U+0020-FB02"
  />
<missing-glyph horiz-adv-x="1228" 
d="M1057 0h-883v1313h883v-1313zM346 1149v-985h539v985h-539z" />
    <glyph glyph-name="fi" unicode="fi" horiz-adv-x="1177" 
d="M61 819v162h154v49q0 192 115 298t315 106q238 0 381 -129l-94 -142q-52 46 -126 73.5t-153 27.5q-125 0 -190.5 -61t-65.5 -179v-43h619v-981h-182v819h-437v-819h-182v819h-154z" />
    <glyph glyph-name="fl" unicode="fl" horiz-adv-x="1177" 
d="M61 819v162h154v43q0 195 109 302.5t286 107.5q146 0 248 -45h158v-1389h-182v1212q-84 52 -207 52q-106 0 -168 -63t-62 -177v-43h234v-162h-234v-819h-182v819h-154z" />
    <glyph glyph-name=".notdef" horiz-adv-x="1228" 
d="M1057 0h-883v1313h883v-1313zM346 1149v-985h539v985h-539z" />
    <glyph glyph-name=".null" horiz-adv-x="0" 
 />
    <glyph glyph-name="nonmarkingreturn" horiz-adv-x="682" 
 />
    <glyph glyph-name="space" unicode=" " horiz-adv-x="464" 
 />
    <glyph glyph-name="exclam" unicode="!" horiz-adv-x="571" 
d="M213 424l-25 889h199l-25 -889h-149zM285 -18q-53 0 -90 36t-37 88q0 53 37.5 91.5t89.5 38.5t89.5 -38.5t37.5 -91.5q0 -52 -37 -88t-90 -36z" />
    <glyph glyph-name="quotedbl" unicode="&#x22;" horiz-adv-x="649" 
d="M268 1409l-26 -422h-127l-23 422h176zM557 1409l-27 -422h-127l-22 422h176z" />
    <glyph glyph-name="numbersign" unicode="#" horiz-adv-x="1206" 
d="M160 0l76 373h-220l27 135h219l64 305h-222l27 135h221l74 363h156l-74 -363h311l74 363h156l-74 -363h215l-27 -135h-215l-63 -305h217l-27 -135h-217l-76 -373h-155l75 373h-311l-76 -373h-155zM418 508h311l64 305h-312z" />
    <glyph glyph-name="dollar" unicode="$" horiz-adv-x="1128" 
d="M315 23q-86 21 -235 116l80 156q87 -56 199.5 -89.5t211.5 -33.5q125 0 204 53.5t79 151.5q0 46 -25 81t-67.5 57t-97.5 39.5t-116 33.5t-121.5 33.5t-115.5 44.5t-97.5 62.5t-67.5 91t-25 126.5q0 148 107 246.5t278 120.5v174h158v-172q203 -15 346 -119l-90 -145
q-65 43 -155 67.5t-185 24.5q-116 0 -189.5 -53.5t-73.5 -137.5q0 -50 31.5 -88t83 -60t117.5 -43.5t135 -38.5t135 -45.5t117.5 -63t83 -92t31.5 -132.5q0 -163 -107.5 -261.5t-279.5 -123.5v-178h-158v172q-129 6 -191 25z" />
    <glyph glyph-name="percent" unicode="%" horiz-adv-x="1589" 
d="M387 682q-139 0 -236.5 95.5t-97.5 232.5q0 139 93.5 233t240.5 94q146 0 241 -94.5t95 -232.5q0 -136 -98 -232t-238 -96zM420 0h-150l897 1313h152zM387 799q84 0 146.5 58.5t62.5 152.5q0 95 -63 153t-146 58q-84 0 -145.5 -57.5t-61.5 -153.5q0 -95 62 -153t145 -58z
M1202 -25q-146 0 -241 95t-95 233q0 136 98 232t238 96q138 0 236 -96t98 -232q0 -139 -93.5 -233.5t-240.5 -94.5zM1200 92q84 0 146.5 58t62.5 153t-62.5 153t-146.5 58t-145.5 -58.5t-61.5 -152.5q0 -95 62.5 -153t144.5 -58z" />
    <glyph glyph-name="ampersand" unicode="&#x26;" horiz-adv-x="1296" 
d="M545 -25q-126 0 -229.5 43.5t-167.5 131t-64 202.5q0 236 283 357q-136 142 -136 292q0 140 104 238t261 98q148 0 251 -95t103 -228q0 -121 -68 -209t-223 -156l277 -276q37 66 59 164l19 79l162 -30l-19 -78q-35 -145 -100 -254l168 -168l-123 -119l-154 156
q-160 -148 -403 -148zM504 805l37 -37q125 48 180 105.5t55 130.5q0 68 -50.5 119t-129.5 51q-82 0 -135 -52t-53 -121q0 -100 96 -196zM264 362q0 -105 83 -165t208 -60q169 0 279 101l-349 350q-104 -38 -162.5 -91t-58.5 -135z" />
    <glyph glyph-name="quotesingle" unicode="'" horiz-adv-x="360" 
d="M268 1409l-26 -422h-127l-23 422h176z" />
    <glyph glyph-name="parenleft" unicode="(" horiz-adv-x="653" 
d="M635 -205l-115 -104q-194 177 -302.5 398.5t-108.5 475.5q0 253 109 475.5t302 399.5l115 -105q-164 -153 -254 -351t-90 -419t90 -419t254 -351z" />
    <glyph glyph-name="parenright" unicode=")" horiz-adv-x="653" 
d="M133 -309l-115 104q164 153 254 351t90 419t-90 419t-254 351l115 105q194 -177 303 -399.5t109 -475.5q0 -254 -108.5 -475.5t-303.5 -398.5z" />
    <glyph glyph-name="asterisk" unicode="*" horiz-adv-x="813" 
d="M526 813l-118 191l-121 -191l-119 86l141 174l-217 53l45 142l209 -84l-14 225h147l-14 -225l211 84l45 -142l-217 -53l141 -174z" />
    <glyph glyph-name="plus" unicode="+" horiz-adv-x="1042" 
d="M106 578v163h328v357h174v-357h328v-163h-328v-357h-174v357h-328z" />
    <glyph glyph-name="comma" unicode="," horiz-adv-x="419" 
d="M225 233q55 0 91 -34.5t36 -87.5q0 -55 -37 -119l-145 -254h-107l121 260q-84 30 -84 113q0 53 36.5 87.5t88.5 34.5z" />
    <glyph glyph-name="hyphen" unicode="-" horiz-adv-x="626" 
d="M70 575h487v-157h-487v157z" />
    <glyph glyph-name="period" unicode="." horiz-adv-x="438" 
d="M248 -18q-51 0 -88 36t-37 88q0 53 37 91.5t88 38.5q54 0 91.5 -38.5t37.5 -91.5q0 -52 -37.5 -88t-91.5 -36z" />
    <glyph glyph-name="slash" unicode="/" horiz-adv-x="827" 
d="M31 0l577 1313h189l-580 -1313h-186z" />
    <glyph glyph-name="zero" unicode="0" horiz-adv-x="1204" 
d="M604 -25q-141 0 -254 88t-177 244t-64 350q0 193 63 348.5t174.5 243.5t251.5 88q142 0 256 -88t177.5 -243.5t64.5 -348.5q1 -194 -62 -350t-175.5 -244t-254.5 -88zM602 145q137 0 224 143t87 369q0 225 -88 367.5t-227 142.5q-135 0 -221 -143t-86 -367
q0 -226 87 -369t224 -143z" />
    <glyph glyph-name="one" unicode="1" horiz-adv-x="845" 
d="M606 0h-180v1094l-236 -230l-108 121l342 328h182v-1313z" />
    <glyph glyph-name="two" unicode="2" horiz-adv-x="1007" 
d="M47 0v141l514 494q84 80 123 151.5t39 151.5q0 95 -70 162t-180 67q-192 0 -293 -198l-143 92q63 125 172.5 200.5t271.5 75.5q188 0 305 -115.5t117 -281.5q0 -109 -49 -203t-166 -205l-391 -370h621v-162h-871z" />
    <glyph glyph-name="three" unicode="3" horiz-adv-x="1024" 
d="M461 -25q-285 0 -434 213l133 119q64 -85 137.5 -123.5t169.5 -38.5q138 0 210.5 71t72.5 181q0 120 -80 188t-250 68h-113v115l365 383h-576v162h803v-150l-354 -368q387 -56 387 -398q0 -182 -123.5 -302t-347.5 -120z" />
    <glyph glyph-name="four" unicode="4" horiz-adv-x="1114" 
d="M53 440l652 873h159v-873h199v-161h-199v-279h-176v279h-635v161zM244 440h444v609z" />
    <glyph glyph-name="five" unicode="5" horiz-adv-x="1095" 
d="M518 143q133 0 210 76t77 189q0 116 -73.5 193t-211.5 77q-90 0 -152.5 -19.5t-127.5 -60.5l-84 57l106 658h651v-162h-501l-64 -360q78 43 205 43q205 0 318.5 -121t113.5 -307q0 -187 -124.5 -310t-340.5 -123q-283 0 -434 213l133 121q64 -85 136.5 -124.5
t162.5 -39.5z" />
    <glyph glyph-name="six" unicode="6" horiz-adv-x="1140" 
d="M580 -25q-200 0 -335.5 132.5t-135.5 326.5q0 109 39.5 205.5t150.5 249.5l305 424h209l-319 -453q41 10 86 10q137 0 244 -60t163.5 -159t56.5 -217q0 -196 -132 -327.5t-332 -131.5zM578 719q-123 0 -205 -81.5t-82 -203.5q0 -124 82 -206.5t205 -82.5q122 0 203 82.5
t81 206.5q0 122 -81.5 203.5t-202.5 81.5z" />
    <glyph glyph-name="seven" unicode="7" horiz-adv-x="913" 
d="M346 0h-194l518 1151h-639v162h833v-146z" />
    <glyph glyph-name="eight" unicode="8" horiz-adv-x="1085" 
d="M541 -25q-194 0 -321.5 113t-127.5 285q0 114 65 205t175 139q-86 42 -135.5 116.5t-49.5 167.5q0 146 111.5 241t282.5 95q172 0 284.5 -95t112.5 -241q0 -93 -48.5 -167.5t-133.5 -116.5q110 -48 173.5 -139t63.5 -205q0 -172 -128.5 -285t-323.5 -113zM545 786
q92 0 153.5 56t61.5 141q0 86 -61.5 142.5t-153.5 56.5q-94 0 -156.5 -56.5t-62.5 -142.5q0 -85 62.5 -141t156.5 -56zM545 131q114 0 190 72.5t76 181.5q0 107 -76 179.5t-190 72.5q-117 0 -194 -72t-77 -180q0 -109 77 -181.5t194 -72.5z" />
    <glyph glyph-name="nine" unicode="9" horiz-adv-x="1140" 
d="M563 1325q199 0 334 -133t135 -326q0 -107 -40 -202t-150 -252l-305 -426h-209l319 454q-37 -12 -84 -12q-206 0 -335.5 127.5t-129.5 310.5q0 195 132 327t333 132zM563 580q123 0 206 81.5t83 204.5t-83 205t-206 82q-122 0 -203 -82t-81 -205t81 -204.5t203 -81.5z
" />
    <glyph glyph-name="colon" unicode=":" horiz-adv-x="438" 
d="M248 707q-51 0 -88 37.5t-37 89.5t37 89.5t88 37.5q54 0 91.5 -37t37.5 -90t-37.5 -90t-91.5 -37zM248 -18q-51 0 -88 36t-37 88q0 53 37 91.5t88 38.5q54 0 91.5 -38.5t37.5 -91.5q0 -52 -37.5 -88t-91.5 -36z" />
    <glyph glyph-name="semicolon" unicode=";" horiz-adv-x="438" 
d="M248 707q-51 0 -88 37.5t-37 89.5t37 89.5t88 37.5q54 0 91.5 -37t37.5 -90t-37.5 -90t-91.5 -37zM238 233q55 0 91 -34.5t36 -87.5q0 -55 -37 -119l-146 -254h-106l121 260q-84 30 -84 113q0 53 36.5 87.5t88.5 34.5z" />
    <glyph glyph-name="less" unicode="&#x3c;" horiz-adv-x="1075" 
d="M954 371v-181l-831 398v153l831 394v-179l-630 -292z" />
    <glyph glyph-name="equal" unicode="=" horiz-adv-x="1042" 
d="M106 756v166h830v-166h-830zM106 397v166h830v-166h-830z" />
    <glyph glyph-name="greater" unicode="&#x3e;" horiz-adv-x="1075" 
d="M123 371l631 293l-631 292v179l831 -394v-153l-831 -398v181z" />
    <glyph glyph-name="question" unicode="?" horiz-adv-x="978" 
d="M362 424l-12 293h49q139 0 217 73.5t78 170.5t-65.5 150.5t-161.5 53.5q-74 0 -145 -33.5t-123 -99.5l-136 117q79 93 186 140.5t218 47.5q109 0 199.5 -42t148 -128t57.5 -202q0 -138 -93.5 -246t-262.5 -127l-4 -168h-150zM446 -18q-51 0 -87.5 36t-36.5 88
q0 53 36.5 91.5t87.5 38.5q54 0 91.5 -38.5t37.5 -91.5q0 -52 -37.5 -88t-91.5 -36z" />
    <glyph glyph-name="at" unicode="@" horiz-adv-x="1736" 
d="M793 174q-126 0 -211.5 97.5t-85.5 256.5q0 178 105 300t255 122q153 0 213 -133l6 111h142l-25 -428q-8 -191 117 -191q92 0 143 91.5t51 232.5q0 117 -47.5 224.5t-129.5 187.5t-199 128t-248 48q-132 0 -251.5 -52t-206 -139.5t-137.5 -208t-51 -252.5q0 -174 86 -324
t235 -238.5t325 -88.5q104 0 174 18.5t137 59.5l59 -119q-147 -94 -370 -94q-159 0 -304.5 62.5t-251.5 168t-168.5 251t-62.5 304.5q0 212 106 393.5t287.5 287.5t393.5 106q159 0 302 -58.5t244 -156.5t160.5 -230.5t59.5 -275.5q0 -123 -38.5 -225.5t-119.5 -168
t-191 -65.5q-84 0 -147 41.5t-86 132.5q-81 -176 -270 -176zM821 311q106 0 170 81t64 196q0 97 -49.5 161t-131.5 64q-98 0 -165.5 -78.5t-67.5 -193.5q0 -98 52.5 -164t127.5 -66z" />
    <glyph glyph-name="A" unicode="A" horiz-adv-x="1359" 
d="M1122 0l-135 336h-627l-135 -336h-194l540 1313h217l541 -1313h-207zM428 502h492l-246 612z" />
    <glyph glyph-name="B" unicode="B" horiz-adv-x="1224" 
d="M174 0v1311h520q173 0 289.5 -100.5t116.5 -252.5q0 -106 -59.5 -177t-139.5 -103q106 -32 175 -113t69 -203q0 -151 -115.5 -256.5t-302.5 -105.5h-553zM674 1147h-316v-399h318q100 0 166.5 56.5t66.5 141.5t-67.5 143t-167.5 58zM707 592h-349v-426h347
q104 0 175.5 61t71.5 152t-70.5 152t-174.5 61z" />
    <glyph glyph-name="C" unicode="C" horiz-adv-x="1286" 
d="M1239 1174l-123 -144q-149 125 -346 125q-196 0 -334.5 -146.5t-138.5 -353.5q0 -136 63.5 -249.5t176 -180.5t249.5 -67q96 0 182.5 31.5t149.5 89.5l121 -136q-89 -88 -202.5 -128t-262.5 -40q-187 0 -342.5 91.5t-243.5 247.5t-88 341q0 139 53 265.5t142.5 217.5
t213 145t259.5 54q291 0 471 -163z" />
    <glyph glyph-name="D" unicode="D" horiz-adv-x="1415" 
d="M174 0v1311h401q216 0 384.5 -83t262 -232.5t93.5 -340.5q0 -290 -201 -472.5t-520 -182.5h-420zM580 1137h-218v-963h218q244 0 391 131.5t147 349.5t-147 350t-391 132z" />
    <glyph glyph-name="E" unicode="E" horiz-adv-x="1083" 
d="M174 0v1313h834v-174h-650v-394h568v-174h-568v-397h650v-174h-834z" />
    <glyph glyph-name="F" unicode="F" horiz-adv-x="1058" 
d="M174 0v1311h811v-174h-627v-412h545v-174h-545v-551h-184z" />
    <glyph glyph-name="G" unicode="G" horiz-adv-x="1376" 
d="M784 -25q-201 0 -358.5 91t-241.5 245.5t-84 343.5q0 140 54 267t145 217.5t216 144t261 53.5q289 0 469 -163l-119 -138q-150 123 -350 123q-129 0 -238.5 -65.5t-175 -182t-65.5 -256.5q0 -105 36.5 -198t101.5 -161.5t161.5 -108.5t210.5 -40q159 0 287 70v322h-326
v161h504v-581q-104 -75 -221.5 -109.5t-266.5 -34.5z" />
    <glyph glyph-name="H" unicode="H" horiz-adv-x="1447" 
d="M1090 0v578h-732v-578h-184v1313h184v-561h732v561h184v-1313h-184z" />
    <glyph glyph-name="I" unicode="I" horiz-adv-x="532" 
d="M174 0v1313h184v-1313h-184z" />
    <glyph glyph-name="J" unicode="J" horiz-adv-x="897" 
d="M31 127l127 129q75 -98 190 -98q100 0 153.5 62.5t53.5 185.5v907h184v-903q0 -215 -108 -325t-279 -110q-102 0 -189 42t-132 110z" />
    <glyph glyph-name="K" unicode="K" horiz-adv-x="1206" 
d="M358 0h-184v1313h184v-645l576 645h229l-588 -658l611 -655h-244l-584 627v-627z" />
    <glyph glyph-name="L" unicode="L" horiz-adv-x="1069" 
d="M174 0v1313h184v-1139h680v-174h-864z" />
    <glyph glyph-name="M" unicode="M" horiz-adv-x="1693" 
d="M848 258l-490 760v-1018h-184v1313h211l471 -738l475 738h189v-1313h-185v999z" />
    <glyph glyph-name="N" unicode="N" horiz-adv-x="1447" 
d="M1079 0l-727 1012v-1012h-184v1313h201l727 -1018v1018h184v-1313h-201z" />
    <glyph glyph-name="O" unicode="O" horiz-adv-x="1544" 
d="M772 1337q137 0 261.5 -54.5t214.5 -146t143 -218t53 -265.5q0 -138 -53 -263.5t-143 -216.5t-214.5 -144.5t-261.5 -53.5t-261.5 54t-214.5 145t-143 217t-53 264q0 111 34 215t96 188t144.5 147t185.5 97.5t212 34.5zM772 158q97 0 185.5 39.5t152.5 106t101.5 158
t37.5 191.5q0 136 -63.5 251.5t-173.5 183t-240 67.5q-129 0 -238.5 -67t-173 -182t-63.5 -251q0 -101 37.5 -193t101.5 -158.5t151.5 -106t184.5 -39.5z" />
    <glyph glyph-name="P" unicode="P" horiz-adv-x="1216" 
d="M174 0v1313h459q227 0 364.5 -113.5t137.5 -302.5t-138.5 -303.5t-367.5 -114.5h-271v-479h-184zM649 1147h-291v-502h291q131 0 212 69t81 183q0 113 -81 181.5t-212 68.5z" />
    <glyph glyph-name="Q" unicode="Q" horiz-adv-x="1544" 
d="M772 -25q-137 0 -261.5 54t-214.5 145t-143 217t-53 264q0 111 34 215t96 188t144.5 147t185.5 97.5t212 34.5q137 0 261.5 -54.5t214.5 -146t143 -218t53 -265.5q0 -259 -170 -450l194 -195l-127 -127l-202 203q-170 -109 -367 -109zM772 158q123 0 232 61l-201 201
l127 127l209 -209q110 135 110 315q0 136 -63.5 251.5t-173.5 183t-240 67.5q-129 0 -238.5 -67t-173 -182t-63.5 -251q0 -101 37.5 -193t101.5 -158.5t151.5 -106t184.5 -39.5z" />
    <glyph glyph-name="R" unicode="R" horiz-adv-x="1234" 
d="M174 0v1313h459q217 0 348 -107.5t131 -287.5q0 -138 -81.5 -237t-223.5 -138l328 -543h-215l-306 520h-256v-520h-184zM649 1147h-291v-461h291q121 0 195 64t74 168t-73.5 166.5t-195.5 62.5z" />
    <glyph glyph-name="S" unicode="S" horiz-adv-x="1128" 
d="M313 -2q-86 23 -235 119l88 159q88 -57 197 -90.5t208 -33.5q125 0 204 52t79 150q0 45 -25 79.5t-67.5 58t-97.5 43t-116 38t-121.5 40t-115.5 52.5t-97.5 70.5t-67.5 99t-25 134.5q0 165 132.5 267.5t332.5 102.5q250 0 422 -122l-93 -152q-69 43 -158 71.5t-179 28.5
q-115 0 -188 -54t-73 -138q0 -60 40.5 -104t105 -71t142.5 -50.5t156 -52.5t142.5 -68t105 -105t40.5 -155q0 -95 -39 -171t-106.5 -123.5t-155.5 -72.5t-189 -25q-149 0 -246 23z" />
    <glyph glyph-name="T" unicode="T" horiz-adv-x="1056" 
d="M1036 1139h-415v-1139h-187v1139h-416v174h1018v-174z" />
    <glyph glyph-name="U" unicode="U" horiz-adv-x="1343" 
d="M158 512v801h184v-801q0 -159 91 -256.5t239 -97.5q149 0 238 97t89 257v801h187v-801q0 -243 -142 -390t-374 -147t-372 147t-140 390z" />
    <glyph glyph-name="V" unicode="V" horiz-adv-x="1288" 
d="M242 1313l407 -1108l410 1108h192l-499 -1313h-217l-500 1313h207z" />
    <glyph glyph-name="W" unicode="W" horiz-adv-x="2017" 
d="M1769 1313h197l-422 -1313h-229l-309 1081l-312 -1081h-221l-422 1313h205l328 -1092l313 1092h231l314 -1088z" />
    <glyph glyph-name="X" unicode="X" horiz-adv-x="1218" 
d="M295 1313l326 -484l331 484h207l-436 -635l459 -678h-230l-352 518l-356 -518h-209l461 672l-437 641h236z" />
    <glyph glyph-name="Y" unicode="Y" horiz-adv-x="1202" 
d="M508 0v442l-490 871h209l377 -676l379 676h199l-488 -871v-442h-186z" />
    <glyph glyph-name="Z" unicode="Z" horiz-adv-x="1138" 
d="M76 174l741 965h-731v174h969v-174l-742 -965h750v-174h-987v174z" />
    <glyph glyph-name="bracketleft" unicode="[" horiz-adv-x="657" 
d="M182 -266v1675h424v-162h-241v-1351h241v-162h-424z" />
    <glyph glyph-name="backslash" unicode="\" horiz-adv-x="827" 
d="M797 0h-189l-577 1313h186z" />
    <glyph glyph-name="bracketright" unicode="]" horiz-adv-x="657" 
d="M475 -266h-424v162h242v1351h-242v162h424v-1675z" />
    <glyph glyph-name="asciicircum" unicode="^" horiz-adv-x="1042" 
d="M451 1313h151l320 -656h-166l-230 488l-237 -488h-166z" />
    <glyph glyph-name="underscore" unicode="_" horiz-adv-x="860" 
d="M-12 -41h884v-129h-884v129z" />
    <glyph glyph-name="grave" unicode="`" horiz-adv-x="794" 
d="M301 1409l201 -319h-166l-252 319h217z" />
    <glyph glyph-name="a" unicode="a" horiz-adv-x="1255" 
d="M567 -25q-201 0 -338 148t-137 369q0 144 61 261.5t170 185t244 67.5q225 0 344 -195v170h183v-981h-183v176q-58 -94 -145 -147.5t-199 -53.5zM594 145q136 0 226.5 101t90.5 246q0 146 -90 245t-227 99q-138 0 -229 -99t-91 -245q0 -145 91 -246t229 -101z" />
    <glyph glyph-name="b" unicode="b" horiz-adv-x="1255" 
d="M688 1006q201 0 338 -148t137 -369q0 -144 -61 -261.5t-170 -185t-244 -67.5q-225 0 -344 195v-170h-180v1409h180v-604q58 94 145 147.5t199 53.5zM666 836q-138 0 -230 -101.5t-92 -245.5q0 -146 91.5 -245t230.5 -99q137 0 227 99t90 245q0 145 -90.5 246t-226.5 101z
" />
    <glyph glyph-name="c" unicode="c" horiz-adv-x="997" 
d="M862 739q-108 97 -260 97q-144 0 -236 -98.5t-92 -245.5q0 -145 92.5 -246t233.5 -101q165 0 266 101l95 -133q-59 -64 -156.5 -101t-208.5 -37q-141 0 -257 69.5t-181.5 188t-65.5 259.5t66 259t182.5 186.5t257.5 68.5q115 0 210.5 -37t158.5 -101z" />
    <glyph glyph-name="d" unicode="d" horiz-adv-x="1255" 
d="M567 -25q-201 0 -338 148t-137 369q0 144 61 261.5t170 185t244 67.5q225 0 344 -195v598h183v-1409h-183v176q-58 -94 -145 -147.5t-199 -53.5zM594 145q136 0 226.5 101t90.5 246q0 146 -90 245t-227 99q-138 0 -229 -99t-91 -245q0 -145 91 -246t229 -101z" />
    <glyph glyph-name="e" unicode="e" horiz-adv-x="1132" 
d="M606 -25q-146 0 -264.5 69.5t-184 188t-65.5 259.5t62.5 258.5t174.5 186.5t249 69q135 0 246 -66t174 -180t63 -250q0 -55 -6 -76h-776q18 -130 108.5 -213.5t224.5 -83.5q166 0 275 109l96 -125q-62 -66 -161.5 -106t-215.5 -40zM580 850q-113 0 -192.5 -73
t-104.5 -193h587q-25 126 -102 196t-188 70z" />
    <glyph glyph-name="f" unicode="f" horiz-adv-x="708" 
d="M61 819v162h154v113q0 160 85 250t228 90q159 0 248 -95l-94 -133q-24 26 -61.5 42t-77.5 16q-69 0 -107.5 -44.5t-38.5 -127.5v-111h260v-162h-260v-819h-182v819h-154z" />
    <glyph glyph-name="g" unicode="g" horiz-adv-x="1247" 
d="M262 -158q137 -102 316 -102q155 0 239 81.5t84 237.5v138q-56 -91 -143.5 -143t-198.5 -52q-198 0 -332.5 143.5t-134.5 358.5q0 140 62 254t169 178.5t236 64.5q111 0 199 -48.5t143 -135.5v164h182v-911q0 -131 -39.5 -229.5t-109.5 -155t-157 -84t-191 -27.5
q-268 0 -418 125zM590 172q135 0 223 97t88 237q0 138 -88 234t-223 96t-225.5 -96t-90.5 -234q0 -139 90.5 -236.5t225.5 -97.5z" />
    <glyph glyph-name="h" unicode="h" horiz-adv-x="1167" 
d="M164 0v1409h180v-578q42 83 119 129t178 46q172 0 275.5 -110t103.5 -296v-600h-180v571q0 122 -66.5 193.5t-181.5 71.5t-181.5 -71.5t-66.5 -193.5v-571h-180z" />
    <glyph glyph-name="i" unicode="i" horiz-adv-x="507" 
d="M254 1151q-47 0 -80 33.5t-33 79.5t33 79t80 33q46 0 79.5 -33t33.5 -79t-33.5 -79.5t-79.5 -33.5zM344 0h-180v981h180v-981z" />
    <glyph glyph-name="j" unicode="j" horiz-adv-x="507" 
d="M254 1151q-47 0 -80 33.5t-33 79.5t33 79t80 33q46 0 79.5 -33t33.5 -79t-33.5 -79.5t-79.5 -33.5zM41 -426q-127 0 -211 74l86 135q53 -43 119 -43q61 0 95 43t34 125v1073h180v-1063q0 -162 -78 -253t-225 -91z" />
    <glyph glyph-name="k" unicode="k" horiz-adv-x="1067" 
d="M344 0h-180v1409h180v-856l461 428h229l-493 -459l528 -522h-238l-487 485v-485z" />
    <glyph glyph-name="l" unicode="l" horiz-adv-x="581" 
d="M483 158l21 -160q-56 -18 -101 -18q-102 0 -170.5 71t-68.5 215v1143h180v-1145q0 -60 27 -88.5t67 -28.5q19 0 45 11z" />
    <glyph glyph-name="m" unicode="m" horiz-adv-x="1796" 
d="M344 0h-180v981h180v-156q40 85 115.5 133t173.5 48q118 0 204 -57.5t128 -160.5q37 100 117 159t194 59q171 0 273 -109t102 -297v-600h-183v571q0 122 -62.5 193.5t-172.5 71.5q-109 0 -172.5 -71.5t-63.5 -193.5v-571h-182v571q0 122 -62.5 193.5t-170.5 71.5
q-110 0 -174 -71.5t-64 -193.5v-571z" />
    <glyph glyph-name="n" unicode="n" horiz-adv-x="1167" 
d="M164 0v981h180v-150q42 83 119 129t178 46q172 0 275.5 -110t103.5 -296v-600h-180v571q0 122 -66.5 193.5t-181.5 71.5t-181.5 -71.5t-66.5 -193.5v-571h-180z" />
    <glyph glyph-name="o" unicode="o" horiz-adv-x="1185" 
d="M592 -25q-138 0 -253 69.5t-181 188t-66 259.5q0 214 145 364t355 150q139 0 254.5 -68.5t181.5 -186.5t66 -259t-66 -259.5t-181.5 -188t-254.5 -69.5zM594 145q136 0 226.5 101t90.5 246q0 146 -90 245t-227 99q-138 0 -229 -99t-91 -245q0 -145 91 -246t229 -101z" />
    <glyph glyph-name="p" unicode="p" horiz-adv-x="1255" 
d="M344 -401h-180v1382h180v-176q58 94 145 147.5t199 53.5q201 0 338 -148t137 -369q0 -144 -61 -261.5t-170 -185t-244 -67.5q-225 0 -344 195v-571zM666 145q137 0 227 99t90 245q0 145 -90.5 246t-226.5 101q-138 0 -230 -101.5t-92 -245.5q0 -146 91.5 -245t230.5 -99z
" />
    <glyph glyph-name="q" unicode="q" horiz-adv-x="1255" 
d="M567 -25q-201 0 -338 148t-137 369q0 144 61 261.5t170 185t244 67.5q225 0 344 -195v170h183v-1382h-183v577q-58 -94 -145 -147.5t-199 -53.5zM594 145q136 0 226.5 101t90.5 246q0 146 -90 245t-227 99q-138 0 -229 -99t-91 -245q0 -145 91 -246t229 -101z" />
    <glyph glyph-name="r" unicode="r" horiz-adv-x="770" 
d="M164 0v981h180v-139q79 164 248 164q97 0 149 -43l-75 -170q-55 38 -127 38q-89 0 -142 -71.5t-53 -194.5v-565h-180z" />
    <glyph glyph-name="s" unicode="s" horiz-adv-x="911" 
d="M440 -25q-209 0 -377 99l70 149q175 -90 320 -90q100 0 151 35t51 96q0 40 -24 69t-63 45t-89 32t-102.5 29t-102.5 36.5t-89 54t-63 82t-24 119.5q0 115 99 195t270 80q169 0 344 -84l-72 -150q-133 74 -264 74q-91 0 -141.5 -29.5t-50.5 -83.5q0 -45 30.5 -76.5
t79.5 -49.5t107.5 -33.5t117.5 -37t108 -52t79.5 -85.5t30.5 -131q0 -129 -106.5 -211t-289.5 -82z" />
    <glyph glyph-name="t" unicode="t" horiz-adv-x="776" 
d="M53 819v162h162v244h182v-244h279v-162h-277v-518q0 -156 136 -156q81 0 127 52l83 -138q-88 -84 -235 -84q-140 0 -217.5 82t-77.5 238v524h-162z" />
    <glyph glyph-name="u" unicode="u" horiz-adv-x="1167" 
d="M330 981v-543q0 -129 69 -207.5t183 -78.5q115 0 185.5 78.5t70.5 207.5v543h182v-557q0 -200 -120 -321t-318 -121q-196 0 -315.5 121t-119.5 321v557h183z" />
    <glyph glyph-name="v" unicode="v" horiz-adv-x="1038" 
d="M637 0h-236l-370 981h200l293 -817l297 817h187z" />
    <glyph glyph-name="w" unicode="w" horiz-adv-x="1630" 
d="M569 0h-207l-315 981h195l227 -778l246 778h198l248 -780l230 780h194l-315 -981h-226l-239 750z" />
    <glyph glyph-name="x" unicode="x" horiz-adv-x="1040" 
d="M31 0l379 500l-363 481h225l256 -342l263 342h204l-362 -479l377 -502h-226l-272 362l-276 -362h-205z" />
    <glyph glyph-name="y" unicode="y" horiz-adv-x="1038" 
d="M432 -96l31 84l-445 993h197l330 -766l278 766h185l-424 -1141q-50 -135 -127.5 -200.5t-190.5 -65.5q-64 0 -126.5 24t-108.5 66l84 141q67 -61 155 -61q55 0 92.5 36t69.5 124z" />
    <glyph glyph-name="z" unicode="z" horiz-adv-x="972" 
d="M82 162l561 657h-547v162h781v-162l-562 -657h576v-162h-809v162z" />
    <glyph glyph-name="braceleft" unicode="{" horiz-adv-x="686" 
d="M66 492v159q93 0 129 38.5t36 129.5v311q0 126 72.5 202.5t218.5 76.5h113v-162h-74q-147 0 -147 -147v-314q0 -198 -168 -215q168 -17 168 -215v-313q0 -147 147 -147h74v-162h-113q-146 0 -218.5 76.5t-72.5 201.5v312q0 91 -36 129.5t-129 38.5z" />
    <glyph glyph-name="bar" unicode="|" horiz-adv-x="540" 
d="M358 -401h-176v1810h176v-1810z" />
    <glyph glyph-name="braceright" unicode="}" horiz-adv-x="686" 
d="M621 492q-93 0 -129.5 -38.5t-36.5 -129.5v-312q0 -125 -72.5 -201.5t-218.5 -76.5h-113v162h74q147 0 147 147v313q0 198 168 215q-168 17 -168 215v314q0 147 -147 147h-74v162h113q146 0 218.5 -76.5t72.5 -202.5v-311q0 -91 36.5 -129.5t129.5 -38.5v-159z" />
    <glyph glyph-name="asciitilde" unicode="~" horiz-adv-x="1042" 
d="M106 551v172q115 76 222 76q58 0 112 -16.5t89.5 -37t85.5 -37t100 -16.5q132 0 221 64v-170q-96 -62 -217 -62q-56 0 -111 16.5t-91.5 37t-87 37t-99.5 16.5q-137 0 -224 -80z" />
    <glyph glyph-name="nbspace" unicode="&#xa0;" horiz-adv-x="442" 
 />
    <glyph glyph-name="exclamdown" unicode="&#xa1;" horiz-adv-x="571" 
d="M287 752q-53 0 -91 37.5t-38 91.5q0 51 38 88t91 37q52 0 88.5 -37t36.5 -88q0 -54 -36.5 -91.5t-88.5 -37.5zM383 -326h-199l25 889h149z" />
    <glyph glyph-name="cent" unicode="&#xa2;" horiz-adv-x="1019" 
d="M862 899q-107 96 -260 96q-144 0 -236 -98.5t-92 -245.5q0 -145 92.5 -245.5t233.5 -100.5q165 0 266 101l95 -134q-50 -54 -128.5 -89t-170.5 -44v-164h-158v168q-180 32 -296 175t-116 333q0 189 116 330.5t296 175.5v168h158v-162q195 -21 305 -135z" />
    <glyph glyph-name="sterling" unicode="&#xa3;" horiz-adv-x="1118" 
d="M109 166h53q63 0 91 39.5t28 116.5v241h-140v129h140v232q0 186 109 300.5t298 114.5q240 0 361 -176l-115 -116q-95 122 -238 122q-112 0 -172.5 -71t-60.5 -185v-221h444v-129h-444v-248q0 -67 -26 -104t-68 -45h686v-166h-946v166z" />
    <glyph glyph-name="currency" unicode="&#xa4;" horiz-adv-x="1128" 
d="M563 174q-145 0 -258 86l-137 -133l-117 117l139 137q-69 116 -69 246q0 129 69 245l-139 136l117 118l135 -133q117 84 260 84q147 0 260 -86l140 135l114 -118l-141 -140q68 -111 68 -241t-68 -244l141 -139l-114 -117l-140 133q-117 -86 -260 -86zM563 334
q118 0 198.5 86t80.5 207q0 122 -80.5 207.5t-198.5 85.5q-119 0 -199.5 -85.5t-80.5 -207.5q0 -121 80.5 -207t199.5 -86z" />
    <glyph glyph-name="yen" unicode="&#xa5;" horiz-adv-x="1202" 
d="M694 0h-186v381h-363v129h326l-106 188h-220v129h148l-275 486h209l377 -695l379 695h199l-273 -486h148v-129h-219l-107 -188h326v-129h-363v-381z" />
    <glyph glyph-name="brokenbar" unicode="&#xa6;" horiz-adv-x="540" 
d="M358 1409v-747h-176v747h176zM358 346v-747h-176v747h176z" />
    <glyph glyph-name="section" unicode="&#xa7;" horiz-adv-x="1386" 
d="M1145 1135l-129 -127q-48 67 -138 111t-196 44q-114 0 -182 -47t-68 -125q0 -43 27.5 -77t73.5 -57t105.5 -42.5t126 -38t132.5 -39.5t125.5 -51t105.5 -68t73.5 -95t27.5 -128q0 -152 -139 -243q75 -75 75 -191q0 -174 -131 -280.5t-348 -106.5q-176 0 -301 60.5
t-197 162.5l134 125q133 -174 370 -174q130 0 203.5 53.5t73.5 143.5q0 61 -44 105t-114 71t-155 50.5t-170.5 52t-155.5 66.5t-114 103t-44 152q0 69 41 132t117 103q-94 81 -94 201q0 158 127.5 257t330.5 99q148 0 268 -56.5t183 -145.5zM369 551q0 -53 36 -92.5
t101.5 -66t134 -46.5t158 -46.5t149.5 -53.5q84 51 84 141q0 56 -34 98t-97.5 70.5t-128 48.5t-154 45.5t-145.5 48.5q-104 -46 -104 -147z" />
    <glyph glyph-name="dieresis" unicode="&#xa8;" 
d="M135 1257q0 42 30.5 73.5t72.5 31.5q44 0 75 -31.5t31 -73.5q0 -44 -31 -74t-75 -30q-43 0 -73 30t-30 74zM475 1257q0 42 31.5 73.5t73.5 31.5t73 -31.5t31 -73.5q0 -44 -30.5 -74t-73.5 -30t-74 30t-31 74z" />
    <glyph glyph-name="copyright" unicode="&#xa9;" horiz-adv-x="1677" 
d="M840 1399q150 0 286.5 -59t235.5 -158.5t158 -237t59 -287.5q0 -201 -99.5 -371t-269.5 -269t-370 -99q-151 0 -288.5 58.5t-237 157.5t-158 236t-58.5 287t58.5 287.5t158 237t237 158.5t288.5 59zM840 1280q-167 0 -309.5 -83.5t-225 -226.5t-82.5 -311
q0 -126 49 -240.5t131.5 -197t197 -131.5t239.5 -49q167 0 309.5 82.5t225.5 225t83 310.5t-83 311t-225.5 226.5t-309.5 83.5zM1157 975l-88 -109q-92 86 -223 86q-121 0 -203 -85.5t-82 -209.5q0 -122 83 -206t210 -84q131 0 225 88l80 -109q-120 -123 -311 -123
q-185 0 -311.5 126.5t-126.5 307.5q0 182 125.5 310.5t304.5 128.5q196 0 317 -121z" />
    <glyph glyph-name="ordfeminine" unicode="&#xaa;" horiz-adv-x="821" 
d="M356 645q-126 0 -213.5 95t-87.5 243q0 146 86 245t213 99q144 0 219 -121v105h150v-652h-150v107q-75 -121 -217 -121zM389 780q79 0 130.5 58.5t51.5 144.5q0 85 -51.5 143t-130.5 58t-131.5 -58t-52.5 -143t52.5 -144t131.5 -59z" />
    <glyph glyph-name="guillemotleft" unicode="&#xab;" horiz-adv-x="1044" 
d="M78 502l379 379l98 -99l-281 -280l281 -283l-98 -96zM489 502l381 379l97 -99l-281 -280l281 -283l-97 -96z" />
    <glyph glyph-name="logicalnot" unicode="&#xac;" horiz-adv-x="1067" 
d="M950 293h-168v285h-663v163h831v-448z" />
    <glyph glyph-name="softhyphen" unicode="&#xad;" horiz-adv-x="626" 
d="M70 575h487v-157h-487v157z" />
    <glyph glyph-name="registered" unicode="&#xae;" horiz-adv-x="1085" 
d="M545 1462q132 0 243.5 -66.5t175.5 -180t64 -246.5q0 -136 -63 -249t-174 -178t-246 -65q-203 0 -345.5 144.5t-142.5 347.5t142.5 348t345.5 145zM545 1360q-159 0 -270 -114.5t-111 -276.5q0 -161 111 -275t270 -114q162 0 271.5 112t109.5 277q0 162 -111 276.5
t-270 114.5zM352 721v504h207q82 0 138.5 -35t56.5 -115q0 -113 -123 -139l147 -215h-133l-135 207h-39v-207h-119zM549 1133h-80v-121h80q41 0 62.5 13.5t21.5 47.5q0 60 -84 60z" />
    <glyph glyph-name="macron" unicode="&#xaf;" 
d="M121 1333h575v-139h-575v139z" />
    <glyph glyph-name="degree" unicode="&#xb0;" horiz-adv-x="727" 
d="M360 666q-141 0 -241.5 97.5t-100.5 235.5q0 142 97 240t247 98q155 0 250 -97.5t95 -240.5q0 -140 -99 -236.5t-248 -96.5zM362 786q90 0 150.5 59.5t60.5 153.5q0 99 -61 157t-147 58t-148.5 -59t-62.5 -156q0 -96 62 -154.5t146 -58.5z" />
    <glyph glyph-name="plusminus" unicode="&#xb1;" horiz-adv-x="1042" 
d="M106 668v163h328v338h174v-338h328v-163h-328v-338h-174v338h-328zM106 0v166h830v-166h-830z" />
    <glyph glyph-name="twosuperior" unicode="&#xb2;" horiz-adv-x="585" 
d="M63 657v103l246 211q80 69 80 137q0 43 -29 72.5t-77 29.5q-93 0 -140 -98l-92 64q31 66 92 108.5t154 42.5q100 0 161.5 -59t61.5 -144q0 -62 -28.5 -113t-100.5 -106l-158 -139h289v-109h-459z" />
    <glyph glyph-name="threesuperior" unicode="&#xb3;" horiz-adv-x="585" 
d="M279 645q-154 0 -226 105l86 84q56 -74 140 -74q58 0 89 30t31 76q0 51 -37 81t-108 30h-61v61l172 164h-275v111h422v-94l-176 -164q98 -13 145 -64t47 -129q0 -94 -65.5 -155.5t-183.5 -61.5z" />
    <glyph glyph-name="acute" unicode="&#xb4;" 
d="M522 1409h219l-252 -319h-167z" />
    <glyph glyph-name="paragraph" unicode="&#xb6;" horiz-adv-x="1132" 
d="M551 1313h407v-1714h-137v1552h-116v-1552h-189v884q-198 15 -313 132t-115 292q0 186 124 296t339 110z" />
    <glyph glyph-name="periodcentered" unicode="&#xb7;" 
d="M297 625q0 46 33 80t80 34q46 0 79 -34t33 -80t-33 -78.5t-79 -32.5q-47 0 -80 32.5t-33 78.5z" />
    <glyph glyph-name="cedilla" unicode="&#xb8;" 
d="M362 0h136l-158 -381l-141 62z" />
    <glyph glyph-name="onesuperior" unicode="&#xb9;" horiz-adv-x="585" 
d="M381 657h-135v504l-107 -102l-76 86l179 168h139v-656z" />
    <glyph glyph-name="ordmasculine" unicode="&#xba;" horiz-adv-x="778" 
d="M389 645q-139 0 -236.5 99.5t-97.5 240.5q0 142 97.5 243t236.5 101t236.5 -101t97.5 -243q0 -141 -97.5 -240.5t-236.5 -99.5zM389 784q79 0 130.5 58t51.5 143t-51.5 143t-130.5 58t-131.5 -58t-52.5 -143t52.5 -143t131.5 -58z" />
    <glyph glyph-name="guillemotright" unicode="&#xbb;" horiz-adv-x="1044" 
d="M489 782l99 99l379 -379l-379 -379l-99 96l281 283zM78 782l96 99l381 -379l-381 -379l-96 96l280 283z" />
    <glyph glyph-name="onequarter" unicode="&#xbc;" horiz-adv-x="1351" 
d="M381 657h-135v504l-107 -102l-76 86l179 168h139v-656zM176 0l901 1313h148l-895 -1313h-154zM788 236l318 419h123v-419h90v-117h-90v-119h-123v119h-318v117zM909 236h197v262z" />
    <glyph glyph-name="onehalf" unicode="&#xbd;" horiz-adv-x="1351" 
d="M381 657h-135v504l-107 -102l-76 86l179 168h139v-656zM127 0l901 1313h148l-895 -1313h-154zM829 0v102l246 211q80 69 80 138q0 43 -29 72.5t-77 29.5q-93 0 -140 -98l-92 63q31 66 92.5 109t153.5 43q100 0 161.5 -59t61.5 -144q0 -62 -28.5 -113t-100.5 -106
l-158 -139h289v-109h-459z" />
    <glyph glyph-name="threequarters" unicode="&#xbe;" horiz-adv-x="1351" 
d="M279 645q-154 0 -226 105l86 84q56 -74 140 -74q58 0 89 30t31 76q0 51 -37 81t-108 30h-61v61l172 164h-275v111h422v-94l-176 -164q98 -13 145 -64t47 -129q0 -94 -65.5 -155.5t-183.5 -61.5zM201 0l901 1313h147l-895 -1313h-153zM788 236l318 419h123v-419h90v-117
h-90v-119h-123v119h-318v117zM909 236h197v262z" />
    <glyph glyph-name="questiondown" unicode="&#xbf;" horiz-adv-x="978" 
d="M532 1006q51 0 88 -36.5t37 -88.5q0 -53 -37 -91t-88 -38q-54 0 -91.5 38t-37.5 91q0 52 37.5 88.5t91.5 36.5zM616 563l13 -293h-49q-139 0 -217 -73t-78 -170t65.5 -151t161.5 -54q74 0 145 33.5t123 99.5l135 -117q-79 -93 -185.5 -140.5t-217.5 -47.5
q-81 0 -153.5 25t-129 71t-90 118t-33.5 159q0 89 38.5 167t121.5 135t197 70l4 168h149z" />
    <glyph glyph-name="Agrave" unicode="&#xc0;" horiz-adv-x="1359" 
d="M580 1741l200 -320h-166l-252 320h218zM1122 0l-135 336h-627l-135 -336h-194l540 1313h217l541 -1313h-207zM428 502h492l-246 612z" />
    <glyph glyph-name="Aacute" unicode="&#xc1;" horiz-adv-x="1359" 
d="M778 1741h219l-252 -320h-167zM1122 0l-135 336h-627l-135 -336h-194l540 1313h217l541 -1313h-207zM428 502h492l-246 612z" />
    <glyph glyph-name="Acircumflex" unicode="&#xc2;" horiz-adv-x="1359" 
d="M596 1741h168l246 -320h-174l-156 207l-156 -207h-174zM1122 0l-135 336h-627l-135 -336h-194l540 1313h217l541 -1313h-207zM428 502h492l-246 612z" />
    <glyph glyph-name="Atilde" unicode="&#xc3;" horiz-adv-x="1359" 
d="M829 1454q-50 0 -104.5 28t-105 55.5t-91.5 27.5q-10 0 -19 -2.5t-16 -5.5t-14.5 -11t-12 -13t-12 -16.5t-10.5 -17t-11 -20.5t-11 -21l-90 74q69 170 198 170q40 0 83 -17.5t74 -39t70 -39t72 -17.5q8 0 16 2t14 4t13 7t11 8.5t10 12t9 12.5t9 14.5t8 15t8.5 17
t8.5 16.5l90 -74q-67 -170 -197 -170zM1122 0l-135 336h-627l-135 -336h-194l540 1313h217l541 -1313h-207zM428 502h492l-246 612z" />
    <glyph glyph-name="Adieresis" unicode="&#xc4;" horiz-adv-x="1359" 
d="M406 1589q0 42 30 73.5t72 31.5q44 0 75 -31.5t31 -73.5q0 -44 -31 -74t-75 -30q-43 0 -72.5 30t-29.5 74zM745 1589q0 42 31.5 73.5t73.5 31.5t73 -31.5t31 -73.5q0 -44 -30.5 -74t-73.5 -30t-74 30t-31 74zM1122 0l-135 336h-627l-135 -336h-194l540 1313h217
l541 -1313h-207zM428 502h492l-246 612z" />
    <glyph glyph-name="Aring" unicode="&#xc5;" horiz-adv-x="1359" 
d="M680 1401q-98 0 -166 65.5t-68 159.5t68 159.5t166 65.5q99 0 166 -65.5t67 -159.5t-67 -159.5t-166 -65.5zM682 1516q47 0 79 30.5t32 79.5t-32.5 81t-78.5 32q-47 0 -80 -32t-33 -81q0 -48 33 -79t80 -31zM1122 0l-135 336h-627l-135 -336h-194l540 1313h217l541 -1313
h-207zM428 502h492l-246 612z" />
    <glyph glyph-name="AE" unicode="&#xc6;" horiz-adv-x="1689" 
d="M829 0v336h-467l-157 -336h-195l617 1313h987v-174h-600v-394h518v-174h-518v-397h600v-174h-785zM741 1149l-303 -647h391v647h-88z" />
    <glyph glyph-name="Ccedilla" unicode="&#xc7;" horiz-adv-x="1286" 
d="M1239 1174l-123 -144q-149 125 -346 125q-196 0 -334.5 -146.5t-138.5 -353.5q0 -136 63.5 -249.5t176 -180.5t249.5 -67q96 0 182.5 31.5t149.5 89.5l121 -136q-157 -154 -414 -166l-147 -358l-141 62l153 299q-126 15 -235.5 74.5t-187.5 148.5t-122.5 206.5
t-44.5 245.5q0 139 53 265.5t142.5 217.5t213 145t259.5 54q291 0 471 -163z" />
    <glyph glyph-name="Egrave" unicode="&#xc8;" horiz-adv-x="1083" 
d="M489 1741l201 -320h-166l-252 320h217zM174 0v1313h834v-174h-650v-394h568v-174h-568v-397h650v-174h-834z" />
    <glyph glyph-name="Eacute" unicode="&#xc9;" horiz-adv-x="1083" 
d="M688 1741h219l-252 -320h-168zM174 0v1313h834v-174h-650v-394h568v-174h-568v-397h650v-174h-834z" />
    <glyph glyph-name="Ecircumflex" unicode="&#xca;" horiz-adv-x="1083" 
d="M506 1741h168l246 -320h-175l-155 207l-156 -207h-174zM174 0v1313h834v-174h-650v-394h568v-174h-568v-397h650v-174h-834z" />
    <glyph glyph-name="Edieresis" unicode="&#xcb;" horiz-adv-x="1083" 
d="M315 1589q0 42 30.5 73.5t72.5 31.5q44 0 75 -31.5t31 -73.5q0 -44 -31 -74t-75 -30q-43 0 -73 30t-30 74zM655 1589q0 42 31.5 73.5t73.5 31.5t73 -31.5t31 -73.5q0 -44 -30.5 -74t-73.5 -30t-74 30t-31 74zM174 0v1313h834v-174h-650v-394h568v-174h-568v-397h650v-174
h-834z" />
    <glyph glyph-name="Igrave" unicode="&#xcc;" horiz-adv-x="532" 
d="M166 1741l201 -320h-166l-252 320h217zM174 0v1313h184v-1313h-184z" />
    <glyph glyph-name="Iacute" unicode="&#xcd;" horiz-adv-x="532" 
d="M365 1741h219l-252 -320h-168zM174 0v1313h184v-1313h-184z" />
    <glyph glyph-name="Icircumflex" unicode="&#xce;" horiz-adv-x="532" 
d="M182 1741h168l246 -320h-174l-156 207l-155 -207h-174zM174 0v1313h184v-1313h-184z" />
    <glyph glyph-name="Idieresis" unicode="&#xcf;" horiz-adv-x="532" 
d="M-8 1589q0 42 30 73.5t72 31.5q44 0 75.5 -31.5t31.5 -73.5q0 -44 -31 -74t-76 -30q-43 0 -72.5 30t-29.5 74zM332 1589q0 42 31 73.5t73 31.5t73.5 -31.5t31.5 -73.5q0 -44 -31 -74t-74 -30t-73.5 30t-30.5 74zM174 0v1313h184v-1313h-184z" />
    <glyph glyph-name="Eth" unicode="&#xd0;" horiz-adv-x="1415" 
d="M174 0v584h-154v155h154v572h401q216 0 384.5 -83t262 -232.5t93.5 -340.5q0 -290 -201 -472.5t-520 -182.5h-420zM580 1137h-218v-398h302v-155h-302v-410h218q244 0 391 131.5t147 349.5t-147 350t-391 132z" />
    <glyph glyph-name="Ntilde" unicode="&#xd1;" horiz-adv-x="1447" 
d="M874 1454q-50 0 -104.5 28t-105 55.5t-91.5 27.5q-10 0 -19 -2.5t-16 -5.5t-14.5 -11t-12 -13t-12 -16.5t-10.5 -17t-11 -20.5t-11 -21l-90 74q69 170 198 170q40 0 83 -17.5t74 -39t70 -39t72 -17.5q8 0 16 2t14 4t13 7t11 8.5t10 12t9 12.5t9 14.5t8 15t8.5 17
t8.5 16.5l90 -74q-67 -170 -197 -170zM1079 0l-727 1012v-1012h-184v1313h201l727 -1018v1018h184v-1313h-201z" />
    <glyph glyph-name="Ograve" unicode="&#xd2;" horiz-adv-x="1544" 
d="M672 1741l200 -320h-165l-252 320h217zM772 1337q137 0 261.5 -54.5t214.5 -146t143 -218t53 -265.5q0 -138 -53 -263.5t-143 -216.5t-214.5 -144.5t-261.5 -53.5t-261.5 54t-214.5 145t-143 217t-53 264q0 111 34 215t96 188t144.5 147t185.5 97.5t212 34.5zM772 158
q97 0 185.5 39.5t152.5 106t101.5 158t37.5 191.5q0 136 -63.5 251.5t-173.5 183t-240 67.5q-129 0 -238.5 -67t-173 -182t-63.5 -251q0 -101 37.5 -193t101.5 -158.5t151.5 -106t184.5 -39.5z" />
    <glyph glyph-name="Oacute" unicode="&#xd3;" horiz-adv-x="1544" 
d="M870 1741h220l-252 -320h-168zM772 1337q137 0 261.5 -54.5t214.5 -146t143 -218t53 -265.5q0 -138 -53 -263.5t-143 -216.5t-214.5 -144.5t-261.5 -53.5t-261.5 54t-214.5 145t-143 217t-53 264q0 111 34 215t96 188t144.5 147t185.5 97.5t212 34.5zM772 158
q97 0 185.5 39.5t152.5 106t101.5 158t37.5 191.5q0 136 -63.5 251.5t-173.5 183t-240 67.5q-129 0 -238.5 -67t-173 -182t-63.5 -251q0 -101 37.5 -193t101.5 -158.5t151.5 -106t184.5 -39.5z" />
    <glyph glyph-name="Ocircumflex" unicode="&#xd4;" horiz-adv-x="1544" 
d="M688 1741h168l246 -320h-174l-156 207l-156 -207h-174zM772 1337q137 0 261.5 -54.5t214.5 -146t143 -218t53 -265.5q0 -138 -53 -263.5t-143 -216.5t-214.5 -144.5t-261.5 -53.5t-261.5 54t-214.5 145t-143 217t-53 264q0 111 34 215t96 188t144.5 147t185.5 97.5
t212 34.5zM772 158q97 0 185.5 39.5t152.5 106t101.5 158t37.5 191.5q0 136 -63.5 251.5t-173.5 183t-240 67.5q-129 0 -238.5 -67t-173 -182t-63.5 -251q0 -101 37.5 -193t101.5 -158.5t151.5 -106t184.5 -39.5z" />
    <glyph glyph-name="Otilde" unicode="&#xd5;" horiz-adv-x="1544" 
d="M922 1454q-50 0 -104.5 28t-105 55.5t-91.5 27.5q-9 0 -17 -1.5t-15.5 -5.5t-13 -7.5t-12 -11.5t-10 -12.5t-10 -15.5t-9.5 -16t-10 -18.5t-10 -18.5l-90 74q69 170 199 170q40 0 83 -17.5t74 -39t70 -39t72 -17.5q9 0 17.5 1.5t16 6t13 8t12 11.5t10 12.5t10 16t9 16.5
t9.5 18.5t9 18.5l90 -74q-67 -170 -196 -170zM772 1337q137 0 261.5 -54.5t214.5 -146t143 -218t53 -265.5q0 -138 -53 -263.5t-143 -216.5t-214.5 -144.5t-261.5 -53.5t-261.5 54t-214.5 145t-143 217t-53 264q0 111 34 215t96 188t144.5 147t185.5 97.5t212 34.5zM772 158
q97 0 185.5 39.5t152.5 106t101.5 158t37.5 191.5q0 136 -63.5 251.5t-173.5 183t-240 67.5q-129 0 -238.5 -67t-173 -182t-63.5 -251q0 -101 37.5 -193t101.5 -158.5t151.5 -106t184.5 -39.5z" />
    <glyph glyph-name="Odieresis" unicode="&#xd6;" horiz-adv-x="1544" 
d="M498 1589q0 42 30 73.5t72 31.5q44 0 75.5 -31.5t31.5 -73.5q0 -44 -31 -74t-76 -30q-43 0 -72.5 30t-29.5 74zM838 1589q0 42 31 73.5t73 31.5t73.5 -31.5t31.5 -73.5q0 -44 -31 -74t-74 -30t-73.5 30t-30.5 74zM772 1337q137 0 261.5 -54.5t214.5 -146t143 -218
t53 -265.5q0 -138 -53 -263.5t-143 -216.5t-214.5 -144.5t-261.5 -53.5t-261.5 54t-214.5 145t-143 217t-53 264q0 111 34 215t96 188t144.5 147t185.5 97.5t212 34.5zM772 158q97 0 185.5 39.5t152.5 106t101.5 158t37.5 191.5q0 136 -63.5 251.5t-173.5 183t-240 67.5
q-129 0 -238.5 -67t-173 -182t-63.5 -251q0 -101 37.5 -193t101.5 -158.5t151.5 -106t184.5 -39.5z" />
    <glyph glyph-name="multiply" unicode="&#xd7;" horiz-adv-x="1042" 
d="M268 287l-118 119l251 251l-249 250l120 123l250 -250l252 252l121 -121l-252 -252l250 -247l-123 -123l-250 250z" />
    <glyph glyph-name="Oslash" unicode="&#xd8;" horiz-adv-x="1544" 
d="M227 -25l111 162q-111 96 -174.5 231t-63.5 287q0 111 34 215t96 188t144.5 147t185.5 97.5t212 34.5q173 0 322 -84l106 156l111 -72l-109 -159q113 -96 177.5 -233t64.5 -292q0 -138 -53 -263.5t-143 -216.5t-214.5 -144.5t-261.5 -53.5q-178 0 -328 86l-108 -157z
M297 655q0 -104 39 -197.5t108 -162.5l547 805q-104 55 -219 55q-129 0 -238.5 -67t-173 -182t-63.5 -251zM772 158q97 0 185.5 39.5t152.5 106t101.5 158t37.5 191.5q0 107 -40.5 203t-112.5 166l-547 -805q100 -59 223 -59z" />
    <glyph glyph-name="Ugrave" unicode="&#xd9;" horiz-adv-x="1343" 
d="M571 1741l201 -320h-166l-252 320h217zM158 512v801h184v-801q0 -159 91 -256.5t239 -97.5q149 0 238 97t89 257v801h187v-801q0 -243 -142 -390t-374 -147t-372 147t-140 390z" />
    <glyph glyph-name="Uacute" unicode="&#xda;" horiz-adv-x="1343" 
d="M770 1741h219l-252 -320h-168zM158 512v801h184v-801q0 -159 91 -256.5t239 -97.5q149 0 238 97t89 257v801h187v-801q0 -243 -142 -390t-374 -147t-372 147t-140 390z" />
    <glyph glyph-name="Ucircumflex" unicode="&#xdb;" horiz-adv-x="1343" 
d="M588 1741h168l245 -320h-174l-155 207l-156 -207h-174zM158 512v801h184v-801q0 -159 91 -256.5t239 -97.5q149 0 238 97t89 257v801h187v-801q0 -243 -142 -390t-374 -147t-372 147t-140 390z" />
    <glyph glyph-name="Udieresis" unicode="&#xdc;" horiz-adv-x="1343" 
d="M397 1589q0 42 30.5 73.5t72.5 31.5q44 0 75 -31.5t31 -73.5q0 -44 -31 -74t-75 -30q-43 0 -73 30t-30 74zM737 1589q0 42 31.5 73.5t73.5 31.5t73 -31.5t31 -73.5q0 -44 -30.5 -74t-73.5 -30t-74 30t-31 74zM158 512v801h184v-801q0 -159 91 -256.5t239 -97.5
q149 0 238 97t89 257v801h187v-801q0 -243 -142 -390t-374 -147t-372 147t-140 390z" />
    <glyph glyph-name="Yacute" unicode="&#xdd;" horiz-adv-x="1202" 
d="M700 1741h220l-252 -320h-168zM508 0v442l-490 871h209l377 -676l379 676h199l-488 -871v-442h-186z" />
    <glyph glyph-name="Thorn" unicode="&#xde;" horiz-adv-x="1216" 
d="M358 0h-184v1313h184v-217h275q227 0 364.5 -113.5t137.5 -302.5t-138.5 -303.5t-367.5 -114.5h-271v-262zM649 930h-291v-502h291q131 0 212 69t81 183q0 113 -81 181.5t-212 68.5z" />
    <glyph glyph-name="germandbls" unicode="&#xdf;" horiz-adv-x="1200" 
d="M592 1264q-119 0 -183.5 -73t-64.5 -212v-979h-180v979q0 211 115 333t311 122q192 0 308 -108.5t116 -281.5q0 -184 -162 -284q116 -45 180 -137.5t64 -225.5q0 -190 -124 -306t-313 -116q-134 0 -213 37l48 162q59 -29 151 -29q119 0 193.5 71t74.5 187
q0 119 -75.5 190t-219.5 71h-114v151h100q109 0 168 66t59 157q0 100 -62.5 163t-176.5 63z" />
    <glyph glyph-name="agrave" unicode="&#xe0;" horiz-adv-x="1255" 
d="M504 1409l201 -319h-166l-252 319h217zM567 -25q-201 0 -338 148t-137 369q0 144 61 261.5t170 185t244 67.5q225 0 344 -195v170h183v-981h-183v176q-58 -94 -145 -147.5t-199 -53.5zM594 145q136 0 226.5 101t90.5 246q0 146 -90 245t-227 99q-138 0 -229 -99t-91 -245
q0 -145 91 -246t229 -101z" />
    <glyph glyph-name="aacute" unicode="&#xe1;" horiz-adv-x="1255" 
d="M702 1409h220l-252 -319h-168zM567 -25q-201 0 -338 148t-137 369q0 144 61 261.5t170 185t244 67.5q225 0 344 -195v170h183v-981h-183v176q-58 -94 -145 -147.5t-199 -53.5zM594 145q136 0 226.5 101t90.5 246q0 146 -90 245t-227 99q-138 0 -229 -99t-91 -245
q0 -145 91 -246t229 -101z" />
    <glyph glyph-name="acircumflex" unicode="&#xe2;" horiz-adv-x="1255" 
d="M520 1409h168l246 -319h-174l-156 206l-155 -206h-175zM567 -25q-201 0 -338 148t-137 369q0 144 61 261.5t170 185t244 67.5q225 0 344 -195v170h183v-981h-183v176q-58 -94 -145 -147.5t-199 -53.5zM594 145q136 0 226.5 101t90.5 246q0 146 -90 245t-227 99
q-138 0 -229 -99t-91 -245q0 -145 91 -246t229 -101z" />
    <glyph glyph-name="atilde" unicode="&#xe3;" horiz-adv-x="1255" 
d="M754 1122q-50 0 -104.5 28t-105 55.5t-91.5 27.5q-9 0 -17 -1.5t-15.5 -5.5t-13 -7.5t-12 -11.5t-10 -12.5t-10 -15.5t-9.5 -16t-10 -18.5t-10 -18.5l-90 74q69 170 199 170q40 0 83 -17.5t74 -39t70 -39t72 -17.5q9 0 17.5 1.5t16 6t13 8t12 11.5t10 12.5t10 16t9 16.5
t9.5 18.5t9 18.5l90 -74q-67 -170 -196 -170zM567 -25q-201 0 -338 148t-137 369q0 144 61 261.5t170 185t244 67.5q225 0 344 -195v170h183v-981h-183v176q-58 -94 -145 -147.5t-199 -53.5zM594 145q136 0 226.5 101t90.5 246q0 146 -90 245t-227 99q-138 0 -229 -99
t-91 -245q0 -145 91 -246t229 -101z" />
    <glyph glyph-name="adieresis" unicode="&#xe4;" horiz-adv-x="1255" 
d="M330 1257q0 42 30 73.5t72 31.5q44 0 75.5 -31.5t31.5 -73.5q0 -44 -31 -74t-76 -30q-43 0 -72.5 30t-29.5 74zM670 1257q0 42 31 73.5t73 31.5t73.5 -31.5t31.5 -73.5q0 -44 -31 -74t-74 -30t-73.5 30t-30.5 74zM567 -25q-201 0 -338 148t-137 369q0 144 61 261.5
t170 185t244 67.5q225 0 344 -195v170h183v-981h-183v176q-58 -94 -145 -147.5t-199 -53.5zM594 145q136 0 226.5 101t90.5 246q0 146 -90 245t-227 99q-138 0 -229 -99t-91 -245q0 -145 91 -246t229 -101z" />
    <glyph glyph-name="aring" unicode="&#xe5;" horiz-adv-x="1255" 
d="M604 1069q-98 0 -165.5 65.5t-67.5 159.5t67.5 160t165.5 66q99 0 166.5 -66t67.5 -160t-67.5 -159.5t-166.5 -65.5zM606 1184q47 0 79 30.5t32 79.5t-32.5 81t-78.5 32q-47 0 -79.5 -32t-32.5 -81q0 -48 32.5 -79t79.5 -31zM567 -25q-201 0 -338 148t-137 369
q0 144 61 261.5t170 185t244 67.5q225 0 344 -195v170h183v-981h-183v176q-58 -94 -145 -147.5t-199 -53.5zM594 145q136 0 226.5 101t90.5 246q0 146 -90 245t-227 99q-138 0 -229 -99t-91 -245q0 -145 91 -246t229 -101z" />
    <glyph glyph-name="ae" unicode="&#xe6;" horiz-adv-x="1941" 
d="M567 -25q-201 0 -338 148t-137 369q0 144 61 261.5t170 185t244 67.5q111 0 199 -50.5t145 -142.5v168h172v-158q60 87 146 135t188 48q122 0 226.5 -66t165.5 -180.5t61 -249.5q0 -38 -4 -66h-781q15 -133 106.5 -220t225.5 -87q172 0 281 109l94 -125
q-59 -65 -157.5 -105.5t-198.5 -40.5q-108 0 -200 51t-153 140v-166h-172v174q-58 -93 -146 -146t-198 -53zM1391 850q-118 0 -199 -78.5t-102 -204.5h596q-23 134 -102 208.5t-193 74.5zM594 145q136 0 226.5 101t90.5 246q0 146 -90 245t-227 99q-138 0 -229 -99t-91 -245
q0 -145 91 -246t229 -101z" />
    <glyph glyph-name="ccedilla" unicode="&#xe7;" horiz-adv-x="997" 
d="M862 739q-108 97 -260 97q-144 0 -236 -98.5t-92 -245.5q0 -145 92.5 -246t233.5 -101q165 0 266 101l95 -133q-98 -106 -281 -131l-150 -363l-141 62l154 296q-195 22 -323 168.5t-128 346.5q0 141 66 259t182.5 186.5t257.5 68.5q115 0 210.5 -37t158.5 -101z" />
    <glyph glyph-name="egrave" unicode="&#xe8;" horiz-adv-x="1132" 
d="M477 1409l201 -319h-166l-252 319h217zM606 -25q-146 0 -264.5 69.5t-184 188t-65.5 259.5t62.5 258.5t174.5 186.5t249 69q135 0 246 -66t174 -180t63 -250q0 -55 -6 -76h-776q18 -130 108.5 -213.5t224.5 -83.5q166 0 275 109l96 -125q-62 -66 -161.5 -106t-215.5 -40z
M580 850q-113 0 -192.5 -73t-104.5 -193h587q-25 126 -102 196t-188 70z" />
    <glyph glyph-name="eacute" unicode="&#xe9;" horiz-adv-x="1132" 
d="M676 1409h219l-252 -319h-168zM606 -25q-146 0 -264.5 69.5t-184 188t-65.5 259.5t62.5 258.5t174.5 186.5t249 69q135 0 246 -66t174 -180t63 -250q0 -55 -6 -76h-776q18 -130 108.5 -213.5t224.5 -83.5q166 0 275 109l96 -125q-62 -66 -161.5 -106t-215.5 -40zM580 850
q-113 0 -192.5 -73t-104.5 -193h587q-25 126 -102 196t-188 70z" />
    <glyph glyph-name="ecircumflex" unicode="&#xea;" horiz-adv-x="1132" 
d="M494 1409h168l245 -319h-174l-155 206l-156 -206h-174zM606 -25q-146 0 -264.5 69.5t-184 188t-65.5 259.5t62.5 258.5t174.5 186.5t249 69q135 0 246 -66t174 -180t63 -250q0 -55 -6 -76h-776q18 -130 108.5 -213.5t224.5 -83.5q166 0 275 109l96 -125
q-62 -66 -161.5 -106t-215.5 -40zM580 850q-113 0 -192.5 -73t-104.5 -193h587q-25 126 -102 196t-188 70z" />
    <glyph glyph-name="edieresis" unicode="&#xeb;" horiz-adv-x="1132" 
d="M303 1257q0 42 30.5 73.5t72.5 31.5q44 0 75 -31.5t31 -73.5q0 -44 -31 -74t-75 -30q-43 0 -73 30t-30 74zM643 1257q0 42 31.5 73.5t73.5 31.5t73 -31.5t31 -73.5q0 -44 -30.5 -74t-73.5 -30t-74 30t-31 74zM606 -25q-146 0 -264.5 69.5t-184 188t-65.5 259.5
t62.5 258.5t174.5 186.5t249 69q135 0 246 -66t174 -180t63 -250q0 -55 -6 -76h-776q18 -130 108.5 -213.5t224.5 -83.5q166 0 275 109l96 -125q-62 -66 -161.5 -106t-215.5 -40zM580 850q-113 0 -192.5 -73t-104.5 -193h587q-25 126 -102 196t-188 70z" />
    <glyph glyph-name="igrave" unicode="&#xec;" horiz-adv-x="507" 
d="M154 1409l200 -319h-166l-251 319h217zM344 981v-981h-180v981h180z" />
    <glyph glyph-name="iacute" unicode="&#xed;" horiz-adv-x="507" 
d="M352 1409h219l-252 -319h-167zM344 981v-981h-180v981h180z" />
    <glyph glyph-name="icircumflex" unicode="&#xee;" horiz-adv-x="507" 
d="M170 1409h168l246 -319h-174l-156 206l-156 -206h-174zM344 981v-981h-180v981h180z" />
    <glyph glyph-name="idieresis" unicode="&#xef;" horiz-adv-x="507" 
d="M-20 1257q0 42 30 73.5t72 31.5q44 0 75 -31.5t31 -73.5q0 -44 -31 -74t-75 -30q-43 0 -72.5 30t-29.5 74zM319 1257q0 42 31.5 73.5t73.5 31.5t73 -31.5t31 -73.5q0 -44 -30.5 -74t-73.5 -30t-74 30t-31 74zM344 981v-981h-180v981h180z" />
    <glyph glyph-name="eth" unicode="&#xf0;" horiz-adv-x="1185" 
d="M592 961q137 0 254 -105q-72 165 -223 309l-160 -90l-60 103l123 69q-78 57 -153 94l121 115q103 -50 192 -121l137 78l60 -102l-103 -58q146 -143 230 -328t84 -388q0 -257 -139 -409.5t-363 -152.5q-138 0 -253 66.5t-181 181.5t-66 252q0 208 144 347t356 139z
M594 145q137 0 227 95.5t90 234.5q0 140 -90 234t-227 94q-139 0 -229.5 -94t-90.5 -234q0 -139 91 -234.5t229 -95.5z" />
    <glyph glyph-name="ntilde" unicode="&#xf1;" horiz-adv-x="1167" 
d="M733 1122q-50 0 -104.5 28t-105 55.5t-91.5 27.5q-10 0 -19 -2.5t-16 -5.5t-14.5 -11t-12 -13t-12 -16.5t-10.5 -17t-11 -20.5t-11 -21l-90 74q69 170 198 170q40 0 83 -17.5t74 -39t70 -39t72 -17.5q8 0 16 2t14 4t13 7t11 8.5t10 12t9 12.5t9 14.5t8 15t8.5 17
t8.5 16.5l90 -74q-67 -170 -197 -170zM164 0v981h180v-150q42 83 119 129t178 46q172 0 275.5 -110t103.5 -296v-600h-180v571q0 122 -66.5 193.5t-181.5 71.5t-181.5 -71.5t-66.5 -193.5v-571h-180z" />
    <glyph glyph-name="ograve" unicode="&#xf2;" horiz-adv-x="1185" 
d="M494 1409l200 -319h-166l-252 319h218zM592 -25q-138 0 -253 69.5t-181 188t-66 259.5q0 214 145 364t355 150q139 0 254.5 -68.5t181.5 -186.5t66 -259t-66 -259.5t-181.5 -188t-254.5 -69.5zM594 145q136 0 226.5 101t90.5 246q0 146 -90 245t-227 99q-138 0 -229 -99
t-91 -245q0 -145 91 -246t229 -101z" />
    <glyph glyph-name="oacute" unicode="&#xf3;" horiz-adv-x="1185" 
d="M692 1409h219l-252 -319h-167zM592 -25q-138 0 -253 69.5t-181 188t-66 259.5q0 214 145 364t355 150q139 0 254.5 -68.5t181.5 -186.5t66 -259t-66 -259.5t-181.5 -188t-254.5 -69.5zM594 145q136 0 226.5 101t90.5 246q0 146 -90 245t-227 99q-138 0 -229 -99t-91 -245
q0 -145 91 -246t229 -101z" />
    <glyph glyph-name="ocircumflex" unicode="&#xf4;" horiz-adv-x="1185" 
d="M510 1409h168l246 -319h-174l-156 206l-156 -206h-174zM592 -25q-138 0 -253 69.5t-181 188t-66 259.5q0 214 145 364t355 150q139 0 254.5 -68.5t181.5 -186.5t66 -259t-66 -259.5t-181.5 -188t-254.5 -69.5zM594 145q136 0 226.5 101t90.5 246q0 146 -90 245t-227 99
q-138 0 -229 -99t-91 -245q0 -145 91 -246t229 -101z" />
    <glyph glyph-name="otilde" unicode="&#xf5;" horiz-adv-x="1185" 
d="M743 1122q-50 0 -104.5 28t-105 55.5t-91.5 27.5q-10 0 -19 -2.5t-16 -5.5t-14.5 -11t-12 -13t-12 -16.5t-10.5 -17t-11 -20.5t-11 -21l-90 74q69 170 198 170q40 0 83 -17.5t74 -39t70 -39t72 -17.5q8 0 16 2t14 4t13 7t11 8.5t10 12t9 12.5t9 14.5t8 15t8.5 17
t8.5 16.5l90 -74q-67 -170 -197 -170zM592 -25q-138 0 -253 69.5t-181 188t-66 259.5q0 214 145 364t355 150q139 0 254.5 -68.5t181.5 -186.5t66 -259t-66 -259.5t-181.5 -188t-254.5 -69.5zM594 145q136 0 226.5 101t90.5 246q0 146 -90 245t-227 99q-138 0 -229 -99
t-91 -245q0 -145 91 -246t229 -101z" />
    <glyph glyph-name="odieresis" unicode="&#xf6;" horiz-adv-x="1185" 
d="M319 1257q0 42 30.5 73.5t72.5 31.5q44 0 75 -31.5t31 -73.5q0 -44 -31 -74t-75 -30q-43 0 -73 30t-30 74zM659 1257q0 42 31.5 73.5t73.5 31.5t73 -31.5t31 -73.5q0 -44 -30.5 -74t-73.5 -30t-74 30t-31 74zM592 -25q-138 0 -253 69.5t-181 188t-66 259.5q0 214 145 364
t355 150q139 0 254.5 -68.5t181.5 -186.5t66 -259t-66 -259.5t-181.5 -188t-254.5 -69.5zM594 145q136 0 226.5 101t90.5 246q0 146 -90 245t-227 99q-138 0 -229 -99t-91 -245q0 -145 91 -246t229 -101z" />
    <glyph glyph-name="divide" unicode="&#xf7;" horiz-adv-x="1042" 
d="M516 913q-52 0 -88.5 37t-36.5 90t36.5 90t88.5 37q53 0 91 -37.5t38 -89.5t-38 -89.5t-91 -37.5zM936 578h-830v163h830v-163zM516 150q-53 0 -89 36t-36 88q0 53 36.5 91t88.5 38t90.5 -38.5t38.5 -90.5t-38 -88t-91 -36z" />
    <glyph glyph-name="oslash" unicode="&#xf8;" horiz-adv-x="1228" 
d="M614 -25q-128 0 -239 60l-84 -125l-96 65l86 125q-83 72 -130 174.5t-47 217.5q0 141 67 259t184.5 186.5t258.5 68.5q125 0 242 -60l90 131l96 -65l-90 -133q81 -72 126.5 -172t45.5 -215q0 -141 -67 -259.5t-184.5 -188t-258.5 -69.5zM287 492q0 -144 92 -246l381 557
q-71 33 -146 33q-141 0 -234 -99t-93 -245zM942 492q0 145 -90 241l-379 -555q71 -33 141 -33q141 0 234.5 101.5t93.5 245.5z" />
    <glyph glyph-name="ugrave" unicode="&#xf9;" horiz-adv-x="1167" 
d="M483 1409l201 -319h-166l-252 319h217zM330 981v-543q0 -129 69 -207.5t183 -78.5q115 0 185.5 78.5t70.5 207.5v543h182v-557q0 -200 -120 -321t-318 -121q-196 0 -315.5 121t-119.5 321v557h183z" />
    <glyph glyph-name="uacute" unicode="&#xfa;" horiz-adv-x="1167" 
d="M682 1409h219l-252 -319h-168zM330 981v-543q0 -129 69 -207.5t183 -78.5q115 0 185.5 78.5t70.5 207.5v543h182v-557q0 -200 -120 -321t-318 -121q-196 0 -315.5 121t-119.5 321v557h183z" />
    <glyph glyph-name="ucircumflex" unicode="&#xfb;" horiz-adv-x="1167" 
d="M500 1409h168l245 -319h-174l-155 206l-156 -206h-174zM330 981v-543q0 -129 69 -207.5t183 -78.5q115 0 185.5 78.5t70.5 207.5v543h182v-557q0 -200 -120 -321t-318 -121q-196 0 -315.5 121t-119.5 321v557h183z" />
    <glyph glyph-name="udieresis" unicode="&#xfc;" horiz-adv-x="1167" 
d="M309 1257q0 42 30.5 73.5t72.5 31.5q44 0 75 -31.5t31 -73.5q0 -44 -31 -74t-75 -30q-43 0 -73 30t-30 74zM649 1257q0 42 31.5 73.5t73.5 31.5t73 -31.5t31 -73.5q0 -44 -30.5 -74t-73.5 -30t-74 30t-31 74zM330 981v-543q0 -129 69 -207.5t183 -78.5q115 0 185.5 78.5
t70.5 207.5v543h182v-557q0 -200 -120 -321t-318 -121q-196 0 -315.5 121t-119.5 321v557h183z" />
    <glyph glyph-name="yacute" unicode="&#xfd;" horiz-adv-x="1038" 
d="M618 1409h220l-252 -319h-168zM432 -96l31 84l-445 993h197l330 -766l278 766h185l-424 -1141q-50 -135 -127.5 -200.5t-190.5 -65.5q-64 0 -126.5 24t-108.5 66l84 141q67 -61 155 -61q55 0 92.5 36t69.5 124z" />
    <glyph glyph-name="thorn" unicode="&#xfe;" horiz-adv-x="1255" 
d="M688 1006q201 0 338 -148t137 -369q0 -144 -61 -261.5t-170 -185t-244 -67.5q-110 0 -197.5 45t-146.5 125v-546h-180v1810h180v-582q59 84 146.5 131.5t197.5 47.5zM666 836q-138 0 -230 -101.5t-92 -245.5q0 -146 91.5 -245t230.5 -99q137 0 227 99t90 245
q0 145 -90.5 246t-226.5 101z" />
    <glyph glyph-name="ydieresis" unicode="&#xff;" horiz-adv-x="1038" 
d="M246 1257q0 42 30 73.5t72 31.5q44 0 75.5 -31.5t31.5 -73.5q0 -44 -31 -74t-76 -30q-43 0 -72.5 30t-29.5 74zM586 1257q0 42 31 73.5t73 31.5t73.5 -31.5t31.5 -73.5q0 -44 -31 -74t-74 -30t-73.5 30t-30.5 74zM432 -96l31 84l-445 993h197l330 -766l278 766h185
l-424 -1141q-50 -135 -127.5 -200.5t-190.5 -65.5q-64 0 -126.5 24t-108.5 66l84 141q67 -61 155 -61q55 0 92.5 36t69.5 124z" />
    <glyph glyph-name="Amacron" unicode="&#x100;" horiz-adv-x="1359" 
d="M391 1665h576v-139h-576v139zM1122 0l-135 336h-627l-135 -336h-194l540 1313h217l541 -1313h-207zM428 502h492l-246 612z" />
    <glyph glyph-name="amacron" unicode="&#x101;" horiz-adv-x="1255" 
d="M315 1333h576v-139h-576v139zM567 -25q-201 0 -338 148t-137 369q0 144 61 261.5t170 185t244 67.5q225 0 344 -195v170h183v-981h-183v176q-58 -94 -145 -147.5t-199 -53.5zM594 145q136 0 226.5 101t90.5 246q0 146 -90 245t-227 99q-138 0 -229 -99t-91 -245
q0 -145 91 -246t229 -101z" />
    <glyph glyph-name="Abreve" unicode="&#x102;" horiz-adv-x="1359" 
d="M678 1401q-128 0 -210.5 87t-82.5 230h135q0 -92 44.5 -141t113.5 -49q70 0 115 48.5t45 141.5h135q0 -143 -83 -230t-212 -87zM1122 0l-135 336h-627l-135 -336h-194l540 1313h217l541 -1313h-207zM428 502h492l-246 612z" />
    <glyph glyph-name="abreve" unicode="&#x103;" horiz-adv-x="1255" 
d="M602 1069q-128 0 -210.5 87t-82.5 230h135q0 -92 44.5 -141t113.5 -49q70 0 115 48.5t45 141.5h135q0 -143 -83 -230t-212 -87zM567 -25q-201 0 -338 148t-137 369q0 144 61 261.5t170 185t244 67.5q225 0 344 -195v170h183v-981h-183v176q-58 -94 -145 -147.5
t-199 -53.5zM594 145q136 0 226.5 101t90.5 246q0 146 -90 245t-227 99q-138 0 -229 -99t-91 -245q0 -145 91 -246t229 -101z" />
    <glyph glyph-name="Aogonek" unicode="&#x104;" horiz-adv-x="1359" 
d="M1346 -344q-79 -82 -207 -82q-94 0 -149.5 45.5t-55.5 126.5q0 150 186 258l-133 332h-627l-135 -336h-194l540 1313h217l541 -1313q-118 -47 -181 -104t-63 -117q0 -32 22.5 -52t59.5 -20q60 0 119 51zM428 502h492l-246 612z" />
    <glyph glyph-name="aogonek" unicode="&#x105;" horiz-adv-x="1255" 
d="M567 -25q-201 0 -338 148t-137 369q0 144 61 261.5t170 185t244 67.5q225 0 344 -195v170h183v-981q-118 -47 -181 -104t-63 -117q0 -32 22.5 -52t59.5 -20q60 0 119 51l59 -102q-79 -82 -207 -82q-94 0 -149.5 45.5t-55.5 126.5q0 157 213 272v158q-58 -94 -145 -147.5
t-199 -53.5zM594 145q136 0 226.5 101t90.5 246q0 146 -90 245t-227 99q-138 0 -229 -99t-91 -245q0 -145 91 -246t229 -101z" />
    <glyph glyph-name="Cacute" unicode="&#x106;" horiz-adv-x="1286" 
d="M866 1741h219l-251 -320h-168zM1239 1174l-123 -144q-149 125 -346 125q-196 0 -334.5 -146.5t-138.5 -353.5q0 -136 63.5 -249.5t176 -180.5t249.5 -67q96 0 182.5 31.5t149.5 89.5l121 -136q-89 -88 -202.5 -128t-262.5 -40q-187 0 -342.5 91.5t-243.5 247.5t-88 341
q0 139 53 265.5t142.5 217.5t213 145t259.5 54q291 0 471 -163z" />
    <glyph glyph-name="cacute" unicode="&#x107;" horiz-adv-x="997" 
d="M696 1409h219l-251 -319h-168zM862 739q-108 97 -260 97q-144 0 -236 -98.5t-92 -245.5q0 -145 92.5 -246t233.5 -101q165 0 266 101l95 -133q-59 -64 -156.5 -101t-208.5 -37q-141 0 -257 69.5t-181.5 188t-65.5 259.5t66 259t182.5 186.5t257.5 68.5q115 0 210.5 -37
t158.5 -101z" />
    <glyph glyph-name="Ccircumflex" unicode="&#x108;" horiz-adv-x="1286" 
d="M684 1741h168l246 -320h-174l-156 207l-156 -207h-174zM1239 1174l-123 -144q-149 125 -346 125q-196 0 -334.5 -146.5t-138.5 -353.5q0 -136 63.5 -249.5t176 -180.5t249.5 -67q96 0 182.5 31.5t149.5 89.5l121 -136q-89 -88 -202.5 -128t-262.5 -40q-187 0 -342.5 91.5
t-243.5 247.5t-88 341q0 139 53 265.5t142.5 217.5t213 145t259.5 54q291 0 471 -163z" />
    <glyph glyph-name="ccircumflex" unicode="&#x109;" horiz-adv-x="997" 
d="M514 1409h168l246 -319h-174l-156 206l-156 -206h-174zM862 739q-108 97 -260 97q-144 0 -236 -98.5t-92 -245.5q0 -145 92.5 -246t233.5 -101q165 0 266 101l95 -133q-59 -64 -156.5 -101t-208.5 -37q-141 0 -257 69.5t-181.5 188t-65.5 259.5t66 259t182.5 186.5
t257.5 68.5q115 0 210.5 -37t158.5 -101z" />
    <glyph glyph-name="Cdotaccent" unicode="&#x10a;" horiz-adv-x="1286" 
d="M655 1595q0 46 33 79.5t80 33.5q46 0 79.5 -33.5t33.5 -79.5t-33.5 -79t-79.5 -33q-47 0 -80 33t-33 79zM1239 1174l-123 -144q-149 125 -346 125q-196 0 -334.5 -146.5t-138.5 -353.5q0 -136 63.5 -249.5t176 -180.5t249.5 -67q96 0 182.5 31.5t149.5 89.5l121 -136
q-89 -88 -202.5 -128t-262.5 -40q-187 0 -342.5 91.5t-243.5 247.5t-88 341q0 139 53 265.5t142.5 217.5t213 145t259.5 54q291 0 471 -163z" />
    <glyph glyph-name="cdotaccent" unicode="&#x10b;" horiz-adv-x="997" 
d="M485 1264q0 46 33 79t80 33q46 0 79.5 -33t33.5 -79t-33.5 -79.5t-79.5 -33.5q-47 0 -80 33.5t-33 79.5zM862 739q-108 97 -260 97q-144 0 -236 -98.5t-92 -245.5q0 -145 92.5 -246t233.5 -101q165 0 266 101l95 -133q-59 -64 -156.5 -101t-208.5 -37q-141 0 -257 69.5
t-181.5 188t-65.5 259.5t66 259t182.5 186.5t257.5 68.5q115 0 210.5 -37t158.5 -101z" />
    <glyph glyph-name="Ccaron" unicode="&#x10c;" horiz-adv-x="1286" 
d="M852 1421h-168l-246 320h174l156 -207l156 207h174zM1239 1174l-123 -144q-149 125 -346 125q-196 0 -334.5 -146.5t-138.5 -353.5q0 -136 63.5 -249.5t176 -180.5t249.5 -67q96 0 182.5 31.5t149.5 89.5l121 -136q-89 -88 -202.5 -128t-262.5 -40q-187 0 -342.5 91.5
t-243.5 247.5t-88 341q0 139 53 265.5t142.5 217.5t213 145t259.5 54q291 0 471 -163z" />
    <glyph glyph-name="ccaron" unicode="&#x10d;" horiz-adv-x="997" 
d="M682 1090h-168l-246 319h174l156 -207l156 207h174zM862 739q-108 97 -260 97q-144 0 -236 -98.5t-92 -245.5q0 -145 92.5 -246t233.5 -101q165 0 266 101l95 -133q-59 -64 -156.5 -101t-208.5 -37q-141 0 -257 69.5t-181.5 188t-65.5 259.5t66 259t182.5 186.5
t257.5 68.5q115 0 210.5 -37t158.5 -101z" />
    <glyph glyph-name="Dcaron" unicode="&#x10e;" horiz-adv-x="1415" 
d="M793 1421h-168l-246 320h174l156 -207l155 207h174zM174 0v1311h401q216 0 384.5 -83t262 -232.5t93.5 -340.5q0 -290 -201 -472.5t-520 -182.5h-420zM580 1137h-218v-963h218q244 0 391 131.5t147 349.5t-147 350t-391 132z" />
    <glyph glyph-name="dcaron" unicode="&#x10f;" horiz-adv-x="1255" 
d="M567 -25q-201 0 -338 148t-137 369q0 144 61 261.5t170 185t244 67.5q225 0 344 -195v598h183v-1409h-183v176q-58 -94 -145 -147.5t-199 -53.5zM1380 1409l-77 -340h-136l41 340h172zM594 145q136 0 226.5 101t90.5 246q0 146 -90 245t-227 99q-138 0 -229 -99t-91 -245
q0 -145 91 -246t229 -101z" />
    <glyph glyph-name="Dcroat" unicode="&#x110;" horiz-adv-x="1415" 
d="M174 0v584h-154v155h154v572h401q216 0 384.5 -83t262 -232.5t93.5 -340.5q0 -290 -201 -472.5t-520 -182.5h-420zM580 1137h-218v-398h302v-155h-302v-410h218q244 0 391 131.5t147 349.5t-147 350t-391 132z" />
    <glyph glyph-name="dcroat" unicode="&#x111;" horiz-adv-x="1255" 
d="M567 -25q-201 0 -338 148t-137 369q0 144 61 261.5t170 185t244 67.5q225 0 344 -195v342h-282v139h282v117h183v-117h110v-139h-110v-1153h-183v176q-58 -94 -145 -147.5t-199 -53.5zM594 145q136 0 226.5 101t90.5 246q0 146 -90 245t-227 99q-138 0 -229 -99t-91 -245
q0 -145 91 -246t229 -101z" />
    <glyph glyph-name="Emacron" unicode="&#x112;" horiz-adv-x="1083" 
d="M301 1665h576v-139h-576v139zM174 0v1313h834v-174h-650v-394h568v-174h-568v-397h650v-174h-834z" />
    <glyph glyph-name="emacron" unicode="&#x113;" horiz-adv-x="1132" 
d="M289 1333h575v-139h-575v139zM606 -25q-146 0 -264.5 69.5t-184 188t-65.5 259.5t62.5 258.5t174.5 186.5t249 69q135 0 246 -66t174 -180t63 -250q0 -55 -6 -76h-776q18 -130 108.5 -213.5t224.5 -83.5q166 0 275 109l96 -125q-62 -66 -161.5 -106t-215.5 -40zM580 850
q-113 0 -192.5 -73t-104.5 -193h587q-25 126 -102 196t-188 70z" />
    <glyph glyph-name="Ebreve" unicode="&#x114;" horiz-adv-x="1083" 
d="M588 1401q-128 0 -210.5 87t-82.5 230h135q0 -92 44.5 -141t113.5 -49q70 0 115 48.5t45 141.5h135q0 -143 -83 -230t-212 -87zM174 0v1313h834v-174h-650v-394h568v-174h-568v-397h650v-174h-834z" />
    <glyph glyph-name="ebreve" unicode="&#x115;" horiz-adv-x="1132" 
d="M575 1069q-128 0 -210 87t-82 230h135q0 -92 44.5 -141t112.5 -49q70 0 115 48.5t45 141.5h135q0 -143 -83 -230t-212 -87zM606 -25q-146 0 -264.5 69.5t-184 188t-65.5 259.5t62.5 258.5t174.5 186.5t249 69q135 0 246 -66t174 -180t63 -250q0 -55 -6 -76h-776
q18 -130 108.5 -213.5t224.5 -83.5q166 0 275 109l96 -125q-62 -66 -161.5 -106t-215.5 -40zM580 850q-113 0 -192.5 -73t-104.5 -193h587q-25 126 -102 196t-188 70z" />
    <glyph glyph-name="Edotaccent" unicode="&#x116;" horiz-adv-x="1083" 
d="M477 1595q0 46 33 79.5t80 33.5q46 0 79 -33.5t33 -79.5t-33 -79t-79 -33q-47 0 -80 33t-33 79zM174 0v1313h834v-174h-650v-394h568v-174h-568v-397h650v-174h-834z" />
    <glyph glyph-name="edotaccent" unicode="&#x117;" horiz-adv-x="1132" 
d="M465 1264q0 46 33 79t80 33q46 0 79 -33t33 -79t-33 -79.5t-79 -33.5q-47 0 -80 33.5t-33 79.5zM606 -25q-146 0 -264.5 69.5t-184 188t-65.5 259.5t62.5 258.5t174.5 186.5t249 69q135 0 246 -66t174 -180t63 -250q0 -55 -6 -76h-776q18 -130 108.5 -213.5t224.5 -83.5
q166 0 275 109l96 -125q-62 -66 -161.5 -106t-215.5 -40zM580 850q-113 0 -192.5 -73t-104.5 -193h587q-25 126 -102 196t-188 70z" />
    <glyph glyph-name="Eogonek" unicode="&#x118;" horiz-adv-x="1083" 
d="M174 0v1313h834v-174h-650v-394h568v-174h-568v-397h650v-174q-118 -47 -181 -104t-63 -117q0 -32 22.5 -52t59.5 -20q60 0 119 51l59 -102q-79 -82 -207 -82q-94 0 -149.5 45.5t-55.5 126.5q0 145 179 254h-617z" />
    <glyph glyph-name="eogonek" unicode="&#x119;" horiz-adv-x="1132" 
d="M793 -344q-79 -82 -207 -82q-94 0 -149.5 45.5t-55.5 126.5q0 134 149 236q-194 26 -316 170t-122 340q0 141 62.5 258.5t174.5 186.5t249 69q135 0 246 -66t174 -180t63 -250q0 -55 -6 -76h-776q18 -130 108.5 -213.5t224.5 -83.5q166 0 275 109l96 -125
q-82 -86 -211 -123q-240 -97 -240 -219q0 -32 22.5 -52t59.5 -20q60 0 119 51zM580 850q-113 0 -192.5 -73t-104.5 -193h587q-25 126 -102 196t-188 70z" />
    <glyph glyph-name="Ecaron" unicode="&#x11a;" horiz-adv-x="1083" 
d="M674 1421h-168l-246 320h174l156 -207l155 207h175zM174 0v1313h834v-174h-650v-394h568v-174h-568v-397h650v-174h-834z" />
    <glyph glyph-name="ecaron" unicode="&#x11b;" horiz-adv-x="1132" 
d="M662 1090h-168l-246 319h174l156 -207l155 207h174zM606 -25q-146 0 -264.5 69.5t-184 188t-65.5 259.5t62.5 258.5t174.5 186.5t249 69q135 0 246 -66t174 -180t63 -250q0 -55 -6 -76h-776q18 -130 108.5 -213.5t224.5 -83.5q166 0 275 109l96 -125q-62 -66 -161.5 -106
t-215.5 -40zM580 850q-113 0 -192.5 -73t-104.5 -193h587q-25 126 -102 196t-188 70z" />
    <glyph glyph-name="Gcircumflex" unicode="&#x11c;" horiz-adv-x="1376" 
d="M659 1741h168l246 -320h-174l-156 207l-155 -207h-174zM784 -25q-201 0 -358.5 91t-241.5 245.5t-84 343.5q0 140 54 267t145 217.5t216 144t261 53.5q289 0 469 -163l-119 -138q-150 123 -350 123q-129 0 -238.5 -65.5t-175 -182t-65.5 -256.5q0 -105 36.5 -198
t101.5 -161.5t161.5 -108.5t210.5 -40q159 0 287 70v322h-326v161h504v-581q-104 -75 -221.5 -109.5t-266.5 -34.5z" />
    <glyph glyph-name="gcircumflex" unicode="&#x11d;" horiz-adv-x="1247" 
d="M541 1409h168l245 -319h-174l-155 206l-156 -206h-174zM262 -158q137 -102 316 -102q155 0 239 81.5t84 237.5v138q-56 -91 -143.5 -143t-198.5 -52q-198 0 -332.5 143.5t-134.5 358.5q0 140 62 254t169 178.5t236 64.5q111 0 199 -48.5t143 -135.5v164h182v-911
q0 -131 -39.5 -229.5t-109.5 -155t-157 -84t-191 -27.5q-268 0 -418 125zM590 172q135 0 223 97t88 237q0 138 -88 234t-223 96t-225.5 -96t-90.5 -234q0 -139 90.5 -236.5t225.5 -97.5z" />
    <glyph glyph-name="Gbreve" unicode="&#x11e;" horiz-adv-x="1376" 
d="M741 1401q-128 0 -210 87t-82 230h135q0 -92 44.5 -141t112.5 -49q70 0 115 48.5t45 141.5h135q0 -143 -83 -230t-212 -87zM784 -25q-201 0 -358.5 91t-241.5 245.5t-84 343.5q0 140 54 267t145 217.5t216 144t261 53.5q289 0 469 -163l-119 -138q-150 123 -350 123
q-129 0 -238.5 -65.5t-175 -182t-65.5 -256.5q0 -105 36.5 -198t101.5 -161.5t161.5 -108.5t210.5 -40q159 0 287 70v322h-326v161h504v-581q-104 -75 -221.5 -109.5t-266.5 -34.5z" />
    <glyph glyph-name="gbreve" unicode="&#x11f;" horiz-adv-x="1247" 
d="M623 1069q-128 0 -210.5 87t-82.5 230h135q0 -92 44.5 -141t113.5 -49q70 0 114.5 48.5t44.5 141.5h136q0 -143 -83 -230t-212 -87zM262 -158q137 -102 316 -102q155 0 239 81.5t84 237.5v138q-56 -91 -143.5 -143t-198.5 -52q-198 0 -332.5 143.5t-134.5 358.5
q0 140 62 254t169 178.5t236 64.5q111 0 199 -48.5t143 -135.5v164h182v-911q0 -131 -39.5 -229.5t-109.5 -155t-157 -84t-191 -27.5q-268 0 -418 125zM590 172q135 0 223 97t88 237q0 138 -88 234t-223 96t-225.5 -96t-90.5 -234q0 -139 90.5 -236.5t225.5 -97.5z" />
    <glyph glyph-name="Gdotaccent" unicode="&#x120;" horiz-adv-x="1376" 
d="M631 1595q0 46 32.5 79.5t79.5 33.5q46 0 79.5 -33.5t33.5 -79.5t-33.5 -79t-79.5 -33q-47 0 -79.5 33t-32.5 79zM784 -25q-201 0 -358.5 91t-241.5 245.5t-84 343.5q0 140 54 267t145 217.5t216 144t261 53.5q289 0 469 -163l-119 -138q-150 123 -350 123
q-129 0 -238.5 -65.5t-175 -182t-65.5 -256.5q0 -105 36.5 -198t101.5 -161.5t161.5 -108.5t210.5 -40q159 0 287 70v322h-326v161h504v-581q-104 -75 -221.5 -109.5t-266.5 -34.5z" />
    <glyph glyph-name="gdotaccent" unicode="&#x121;" horiz-adv-x="1247" 
d="M512 1264q0 46 33 79t80 33q46 0 79 -33t33 -79t-33 -79.5t-79 -33.5q-47 0 -80 33.5t-33 79.5zM262 -158q137 -102 316 -102q155 0 239 81.5t84 237.5v138q-56 -91 -143.5 -143t-198.5 -52q-198 0 -332.5 143.5t-134.5 358.5q0 140 62 254t169 178.5t236 64.5
q111 0 199 -48.5t143 -135.5v164h182v-911q0 -131 -39.5 -229.5t-109.5 -155t-157 -84t-191 -27.5q-268 0 -418 125zM590 172q135 0 223 97t88 237q0 138 -88 234t-223 96t-225.5 -96t-90.5 -234q0 -139 90.5 -236.5t225.5 -97.5z" />
    <glyph glyph-name="Gcommaaccent" unicode="&#x122;" horiz-adv-x="1376" 
d="M784 -25q-201 0 -358.5 91t-241.5 245.5t-84 343.5q0 140 54 267t145 217.5t216 144t261 53.5q289 0 469 -163l-119 -138q-150 123 -350 123q-129 0 -238.5 -65.5t-175 -182t-65.5 -256.5q0 -105 36.5 -198t101.5 -161.5t161.5 -108.5t210.5 -40q159 0 287 70v322h-326
v161h504v-581q-104 -75 -221.5 -109.5t-266.5 -34.5zM836 -104l-111 -291h-143l69 291h185z" />
    <glyph glyph-name="gcommaaccent" unicode="&#x123;" horiz-adv-x="1247" 
d="M514 1102l113 291h147l-72 -291h-188zM262 -158q137 -102 316 -102q155 0 239 81.5t84 237.5v138q-56 -91 -143.5 -143t-198.5 -52q-198 0 -332.5 143.5t-134.5 358.5q0 140 62 254t169 178.5t236 64.5q111 0 199 -48.5t143 -135.5v164h182v-911q0 -131 -39.5 -229.5
t-109.5 -155t-157 -84t-191 -27.5q-268 0 -418 125zM590 172q135 0 223 97t88 237q0 138 -88 234t-223 96t-225.5 -96t-90.5 -234q0 -139 90.5 -236.5t225.5 -97.5z" />
    <glyph glyph-name="Hcircumflex" unicode="&#x124;" horiz-adv-x="1447" 
d="M641 1741h168l246 -320h-174l-156 207l-156 -207h-174zM1090 0v578h-732v-578h-184v1313h184v-561h732v561h184v-1313h-184z" />
    <glyph glyph-name="hcircumflex" unicode="&#x125;" horiz-adv-x="1167" 
d="M500 1964h168l245 -319h-174l-155 206l-156 -206h-174zM164 0v1409h180v-578q42 83 119 129t178 46q172 0 275.5 -110t103.5 -296v-600h-180v571q0 122 -66.5 193.5t-181.5 71.5t-181.5 -71.5t-66.5 -193.5v-571h-180z" />
    <glyph glyph-name="Hbar" unicode="&#x126;" horiz-adv-x="1472" 
d="M371 0h-185v983h-118v137h118v193h185v-193h731v193h186v-193h117v-137h-117v-983h-186v578h-731v-578zM371 752h731v231h-731v-231z" />
    <glyph glyph-name="hbar" unicode="&#x127;" horiz-adv-x="1167" 
d="M164 0v1145h-113v137h113v127h180v-127h283v-137h-283v-314q42 83 119 129t178 46q172 0 275.5 -110t103.5 -296v-600h-180v571q0 122 -66.5 193.5t-181.5 71.5t-181.5 -71.5t-66.5 -193.5v-571h-180z" />
    <glyph glyph-name="Itilde" unicode="&#x128;" horiz-adv-x="532" 
d="M416 1454q-50 0 -104.5 28t-105 55.5t-91.5 27.5q-9 0 -17 -1.5t-15.5 -5.5t-13 -7.5t-12 -11.5t-10 -12.5t-10 -15.5t-9.5 -16t-10 -18.5t-10 -18.5l-90 74q69 170 199 170q40 0 83 -17.5t74 -39t70 -39t72 -17.5q9 0 17.5 1.5t16 6t13 8t12 11.5t10 12.5t10 16t9 16.5
t9.5 18.5t9 18.5l90 -74q-67 -170 -196 -170zM174 0v1313h184v-1313h-184z" />
    <glyph glyph-name="itilde" unicode="&#x129;" horiz-adv-x="507" 
d="M403 1122q-50 0 -104.5 28t-105 55.5t-91.5 27.5q-10 0 -19 -2.5t-16 -5.5t-14.5 -11t-12 -13t-12 -16.5t-10.5 -17t-11 -20.5t-11 -21l-90 74q69 170 198 170q40 0 83 -17.5t74 -39t70 -39t72 -17.5q8 0 16 2t14 4t13 7t11 8.5t10 12t9 12.5t9 14.5t8 15t8.5 17
t8.5 16.5l90 -74q-67 -170 -197 -170zM344 981v-981h-180v981h180z" />
    <glyph glyph-name="Imacron" unicode="&#x12a;" horiz-adv-x="532" 
d="M-23 1665h576v-139h-576v139zM174 0v1313h184v-1313h-184z" />
    <glyph glyph-name="imacron" unicode="&#x12b;" horiz-adv-x="507" 
d="M-35 1333h576v-139h-576v139zM344 981v-981h-180v981h180z" />
    <glyph glyph-name="Ibreve" unicode="&#x12c;" horiz-adv-x="532" 
d="M264 1401q-128 0 -210.5 87t-82.5 230h135q0 -92 44.5 -141t113.5 -49q70 0 115 48.5t45 141.5h135q0 -143 -83 -230t-212 -87zM174 0v1313h184v-1313h-184z" />
    <glyph glyph-name="ibreve" unicode="&#x12d;" horiz-adv-x="507" 
d="M252 1069q-128 0 -210.5 87t-82.5 230h135q0 -92 44.5 -141t113.5 -49q70 0 115 48.5t45 141.5h135q0 -143 -83 -230t-212 -87zM344 981v-981h-180v981h180z" />
    <glyph glyph-name="Iogonek" unicode="&#x12e;" horiz-adv-x="532" 
d="M375 -344q-79 -82 -207 -82q-94 0 -149.5 45.5t-55.5 126.5q0 158 211 272v1295h184v-1313q-118 -47 -180.5 -104t-62.5 -117q0 -32 22.5 -52t59.5 -20q59 0 118 51z" />
    <glyph glyph-name="iogonek" unicode="&#x12f;" horiz-adv-x="507" 
d="M141 1264q0 46 33 79t80 33q46 0 79.5 -33t33.5 -79t-33.5 -79.5t-79.5 -33.5q-47 0 -80 33.5t-33 79.5zM344 981v-981q-118 -47 -181 -104t-63 -117q0 -32 22.5 -52t59.5 -20q60 0 119 51l59 -102q-79 -82 -206 -82q-94 0 -149.5 45.5t-55.5 126.5q0 160 215 274v961
h180z" />
    <glyph glyph-name="Idotaccent" unicode="&#x130;" horiz-adv-x="532" 
d="M154 1595q0 46 32.5 79.5t79.5 33.5q46 0 79.5 -33.5t33.5 -79.5t-33.5 -79t-79.5 -33q-47 0 -79.5 33t-32.5 79zM174 0v1313h184v-1313h-184z" />
    <glyph glyph-name="idotless" unicode="&#x131;" horiz-adv-x="507" 
d="M344 981v-981h-180v981h180z" />
    <glyph glyph-name="IJ" unicode="&#x132;" horiz-adv-x="1429" 
d="M174 0v1313h184v-1313h-184zM563 127l127 129q75 -98 191 -98q100 0 153 62.5t53 185.5v907h185v-903q0 -215 -108 -325t-279 -110q-102 0 -189.5 42.5t-132.5 109.5z" />
    <glyph glyph-name="ij" unicode="&#x133;" horiz-adv-x="1015" 
d="M254 1151q-47 0 -80 33.5t-33 79.5t33 79t80 33q46 0 79.5 -33t33.5 -79t-33.5 -79.5t-79.5 -33.5zM762 1151q-47 0 -80 33.5t-33 79.5t33 79t80 33q46 0 79 -33t33 -79t-33 -79.5t-79 -33.5zM344 0h-180v981h180v-981zM549 -426q-127 0 -211 74l86 135q53 -43 119 -43
q61 0 95 43t34 125v1073h180v-1063q0 -162 -78 -253t-225 -91z" />
    <glyph glyph-name="Jcircumflex" unicode="&#x134;" horiz-adv-x="897" 
d="M561 1739h168l246 -320h-174l-156 207l-156 -207h-174zM31 127l127 129q75 -98 190 -98q100 0 153.5 62.5t53.5 185.5v907h184v-903q0 -215 -108 -325t-279 -110q-102 0 -189 42t-132 110z" />
    <glyph glyph-name="jcircumflex" unicode="&#x135;" horiz-adv-x="507" 
d="M170 1409h168l246 -319h-174l-156 206l-156 -206h-174zM344 981v-1063q0 -162 -78 -253t-225 -91q-127 0 -211 74l86 135q53 -43 119 -43q61 0 95 43t34 125v1073h180z" />
    <glyph glyph-name="Kcommaaccent" unicode="&#x136;" horiz-adv-x="1206" 
d="M358 0h-184v1313h184v-645l576 645h229l-588 -658l611 -655h-244l-584 627v-627zM729 -104l-111 -291h-143l70 291h184z" />
    <glyph glyph-name="kcommaaccent" unicode="&#x137;" horiz-adv-x="1067" 
d="M344 0h-180v1409h180v-856l461 428h229l-493 -459l528 -522h-238l-487 485v-485zM627 -104l-111 -291h-143l69 291h185z" />
    <glyph glyph-name="Lacute" unicode="&#x139;" horiz-adv-x="1069" 
d="M362 1741h220l-252 -320h-168zM174 0v1313h184v-1139h680v-174h-864z" />
    <glyph glyph-name="lacute" unicode="&#x13a;" horiz-adv-x="567" 
d="M356 1837h219l-251 -319h-168zM483 158l21 -160q-56 -18 -101 -18q-102 0 -170.5 71t-68.5 215v1143h180v-1145q0 -60 27 -88.5t67 -28.5q19 0 45 11z" />
    <glyph glyph-name="Lcommaaccent" unicode="&#x13b;" horiz-adv-x="1069" 
d="M174 0v1313h184v-1139h680v-174h-864zM700 -104l-110 -291h-144l70 291h184z" />
    <glyph glyph-name="lcommaaccent" unicode="&#x13c;" horiz-adv-x="567" 
d="M483 158l21 -160q-56 -18 -101 -18q-102 0 -170.5 71t-68.5 215v1143h180v-1145q0 -60 27 -88.5t67 -28.5q19 0 45 11zM449 -104l-111 -291h-143l69 291h185z" />
    <glyph glyph-name="Lcaron" unicode="&#x13d;" horiz-adv-x="1069" 
d="M174 0v1313h184v-1139h680v-174h-864zM782 1313l-77 -340h-136l41 340h172z" />
    <glyph glyph-name="lcaron" unicode="&#x13e;" horiz-adv-x="567" 
d="M483 158l21 -160q-56 -18 -101 -18q-102 0 -170.5 71t-68.5 215v1143h180v-1145q0 -60 27 -88.5t67 -28.5q19 0 45 11zM621 1409l-78 -340h-135l41 340h172z" />
    <glyph glyph-name="Ldot" unicode="&#x13f;" horiz-adv-x="1069" 
d="M174 0v1313h184v-1139h680v-174h-864zM627 674q0 46 32.5 80t79.5 34q46 0 79.5 -34t33.5 -80t-33.5 -78.5t-79.5 -32.5q-47 0 -79.5 32.5t-32.5 78.5z" />
    <glyph glyph-name="ldot" unicode="&#x140;" horiz-adv-x="667" 
d="M483 158l21 -160q-56 -18 -101 -18q-102 0 -170.5 71t-68.5 215v1143h180v-1145q0 -60 27 -88.5t67 -28.5q19 0 45 11zM477 625q0 46 33 80t80 34q46 0 79 -34t33 -80t-33 -78.5t-79 -32.5q-47 0 -80 32.5t-33 78.5z" />
    <glyph glyph-name="Lslash" unicode="&#x141;" horiz-adv-x="1069" 
d="M174 0v567l-141 -45v158l141 45v588h184v-529l240 76v-158l-240 -75v-453h680v-174h-864z" />
    <glyph glyph-name="lslash" unicode="&#x142;" horiz-adv-x="524" 
d="M483 158l21 -160q-56 -18 -101 -18q-102 0 -170.5 71t-68.5 215v385l-119 -47v156l119 47v602h180v-530l154 61v-158l-154 -61v-457q0 -60 27 -88.5t67 -28.5q19 0 45 11z" />
    <glyph glyph-name="Nacute" unicode="&#x143;" horiz-adv-x="1447" 
d="M823 1741h219l-251 -320h-168zM1079 0l-727 1012v-1012h-184v1313h201l727 -1018v1018h184v-1313h-201z" />
    <glyph glyph-name="nacute" unicode="&#x144;" horiz-adv-x="1167" 
d="M682 1409h219l-252 -319h-168zM164 0v981h180v-150q42 83 119 129t178 46q172 0 275.5 -110t103.5 -296v-600h-180v571q0 122 -66.5 193.5t-181.5 71.5t-181.5 -71.5t-66.5 -193.5v-571h-180z" />
    <glyph glyph-name="Ncommaaccent" unicode="&#x145;" horiz-adv-x="1447" 
d="M1079 0l-727 1012v-1012h-184v1313h201l727 -1018v1018h184v-1313h-201zM817 -104l-110 -291h-144l70 291h184z" />
    <glyph glyph-name="ncommaaccent" unicode="&#x146;" horiz-adv-x="1167" 
d="M164 0v981h180v-150q42 83 119 129t178 46q172 0 275.5 -110t103.5 -296v-600h-180v571q0 122 -66.5 193.5t-181.5 71.5t-181.5 -71.5t-66.5 -193.5v-571h-180zM676 -104l-111 -291h-143l70 291h184z" />
    <glyph glyph-name="Ncaron" unicode="&#x147;" horiz-adv-x="1447" 
d="M809 1421h-168l-246 320h174l156 -207l156 207h174zM1079 0l-727 1012v-1012h-184v1313h201l727 -1018v1018h184v-1313h-201z" />
    <glyph glyph-name="ncaron" unicode="&#x148;" horiz-adv-x="1167" 
d="M668 1090h-168l-246 319h174l156 -207l155 207h174zM164 0v981h180v-150q42 83 119 129t178 46q172 0 275.5 -110t103.5 -296v-600h-180v571q0 122 -66.5 193.5t-181.5 71.5t-181.5 -71.5t-66.5 -193.5v-571h-180z" />
    <glyph glyph-name="Omacron" unicode="&#x14c;" horiz-adv-x="1544" 
d="M483 1665h576v-139h-576v139zM772 1337q137 0 261.5 -54.5t214.5 -146t143 -218t53 -265.5q0 -138 -53 -263.5t-143 -216.5t-214.5 -144.5t-261.5 -53.5t-261.5 54t-214.5 145t-143 217t-53 264q0 111 34 215t96 188t144.5 147t185.5 97.5t212 34.5zM772 158
q97 0 185.5 39.5t152.5 106t101.5 158t37.5 191.5q0 136 -63.5 251.5t-173.5 183t-240 67.5q-129 0 -238.5 -67t-173 -182t-63.5 -251q0 -101 37.5 -193t101.5 -158.5t151.5 -106t184.5 -39.5z" />
    <glyph glyph-name="omacron" unicode="&#x14d;" horiz-adv-x="1185" 
d="M305 1333h576v-139h-576v139zM592 -25q-138 0 -253 69.5t-181 188t-66 259.5q0 214 145 364t355 150q139 0 254.5 -68.5t181.5 -186.5t66 -259t-66 -259.5t-181.5 -188t-254.5 -69.5zM594 145q136 0 226.5 101t90.5 246q0 146 -90 245t-227 99q-138 0 -229 -99t-91 -245
q0 -145 91 -246t229 -101z" />
    <glyph glyph-name="Obreve" unicode="&#x14e;" horiz-adv-x="1544" 
d="M770 1401q-128 0 -210.5 87t-82.5 230h135q0 -92 44.5 -141t113.5 -49q70 0 115 48.5t45 141.5h135q0 -143 -83 -230t-212 -87zM772 1337q137 0 261.5 -54.5t214.5 -146t143 -218t53 -265.5q0 -138 -53 -263.5t-143 -216.5t-214.5 -144.5t-261.5 -53.5t-261.5 54
t-214.5 145t-143 217t-53 264q0 111 34 215t96 188t144.5 147t185.5 97.5t212 34.5zM772 158q97 0 185.5 39.5t152.5 106t101.5 158t37.5 191.5q0 136 -63.5 251.5t-173.5 183t-240 67.5q-129 0 -238.5 -67t-173 -182t-63.5 -251q0 -101 37.5 -193t101.5 -158.5t151.5 -106
t184.5 -39.5z" />
    <glyph glyph-name="obreve" unicode="&#x14f;" horiz-adv-x="1185" 
d="M592 1069q-128 0 -210.5 87t-82.5 230h135q0 -92 44.5 -141t113.5 -49q70 0 115 48.5t45 141.5h135q0 -143 -83 -230t-212 -87zM592 -25q-138 0 -253 69.5t-181 188t-66 259.5q0 214 145 364t355 150q139 0 254.5 -68.5t181.5 -186.5t66 -259t-66 -259.5t-181.5 -188
t-254.5 -69.5zM594 145q136 0 226.5 101t90.5 246q0 146 -90 245t-227 99q-138 0 -229 -99t-91 -245q0 -145 91 -246t229 -101z" />
    <glyph glyph-name="Ohungarumlaut" unicode="&#x150;" horiz-adv-x="1544" 
d="M709 1741h186l-244 -320h-143zM1028 1741h197l-252 -320h-146zM772 1337q137 0 261.5 -54.5t214.5 -146t143 -218t53 -265.5q0 -138 -53 -263.5t-143 -216.5t-214.5 -144.5t-261.5 -53.5t-261.5 54t-214.5 145t-143 217t-53 264q0 111 34 215t96 188t144.5 147
t185.5 97.5t212 34.5zM772 158q97 0 185.5 39.5t152.5 106t101.5 158t37.5 191.5q0 136 -63.5 251.5t-173.5 183t-240 67.5q-129 0 -238.5 -67t-173 -182t-63.5 -251q0 -101 37.5 -193t101.5 -158.5t151.5 -106t184.5 -39.5z" />
    <glyph glyph-name="ohungarumlaut" unicode="&#x151;" horiz-adv-x="1185" 
d="M530 1409h187l-244 -319h-143zM850 1409h197l-252 -319h-146zM592 -25q-138 0 -253 69.5t-181 188t-66 259.5q0 214 145 364t355 150q139 0 254.5 -68.5t181.5 -186.5t66 -259t-66 -259.5t-181.5 -188t-254.5 -69.5zM594 145q136 0 226.5 101t90.5 246q0 146 -90 245
t-227 99q-138 0 -229 -99t-91 -245q0 -145 91 -246t229 -101z" />
    <glyph glyph-name="OE" unicode="&#x152;" horiz-adv-x="2158" 
d="M1249 0v209q-87 -110 -210 -172t-267 -62q-137 0 -261.5 54t-214.5 145t-143 217t-53 264q0 111 34 215t96 188t144.5 147t185.5 97.5t212 34.5q144 0 267 -62.5t210 -172.5v211h834v-174h-649v-394h567v-174h-567v-397h649v-174h-834zM772 158q97 0 185.5 39.5
t152.5 106t101.5 158t37.5 191.5q0 136 -63.5 251.5t-173.5 183t-240 67.5q-129 0 -238.5 -67t-173 -182t-63.5 -251q0 -101 37.5 -193t101.5 -158.5t151.5 -106t184.5 -39.5z" />
    <glyph glyph-name="oe" unicode="&#x153;" horiz-adv-x="1945" 
d="M592 -25q-138 0 -253 69.5t-181 188t-66 259.5q0 214 145 364t355 150q128 0 235.5 -64t171.5 -172q63 109 166 172.5t228 63.5q204 0 342.5 -144t138.5 -352q0 -38 -4 -66h-780q15 -133 106.5 -220t224.5 -87q172 0 281 109l94 -125q-61 -65 -164 -105.5t-215 -40.5
q-132 0 -241.5 65t-174.5 175q-65 -110 -172.5 -175t-236.5 -65zM1395 850q-118 0 -199 -78.5t-102 -204.5h596q-22 134 -101 208.5t-194 74.5zM594 145q136 0 226.5 101t90.5 246q0 146 -90 245t-227 99q-138 0 -229 -99t-91 -245q0 -145 91 -246t229 -101z" />
    <glyph glyph-name="Racute" unicode="&#x154;" horiz-adv-x="1234" 
d="M717 1741h219l-252 -320h-168zM174 0v1313h459q217 0 348 -107.5t131 -287.5q0 -138 -81.5 -237t-223.5 -138l328 -543h-215l-306 520h-256v-520h-184zM649 1147h-291v-461h291q121 0 195 64t74 168t-73.5 166.5t-195.5 62.5z" />
    <glyph glyph-name="racute" unicode="&#x155;" horiz-adv-x="770" 
d="M530 1409h220l-252 -319h-168zM164 0v981h180v-139q79 164 248 164q97 0 149 -43l-75 -170q-55 38 -127 38q-89 0 -142 -71.5t-53 -194.5v-565h-180z" />
    <glyph glyph-name="Rcommaaccent" unicode="&#x156;" horiz-adv-x="1234" 
d="M174 0v1313h459q217 0 348 -107.5t131 -287.5q0 -138 -81.5 -237t-223.5 -138l328 -543h-215l-306 520h-256v-520h-184zM649 1147h-291v-461h291q121 0 195 64t74 168t-73.5 166.5t-195.5 62.5zM711 -104l-111 -291h-143l69 291h185z" />
    <glyph glyph-name="rcommaaccent" unicode="&#x157;" horiz-adv-x="770" 
d="M164 0v981h180v-139q79 164 248 164q97 0 149 -43l-75 -170q-55 38 -127 38q-89 0 -142 -71.5t-53 -194.5v-565h-180zM344 -104l-111 -291h-143l70 291h184z" />
    <glyph glyph-name="Rcaron" unicode="&#x158;" horiz-adv-x="1234" 
d="M702 1421h-167l-246 320h174l155 -207l156 207h174zM174 0v1313h459q217 0 348 -107.5t131 -287.5q0 -138 -81.5 -237t-223.5 -138l328 -543h-215l-306 520h-256v-520h-184zM649 1147h-291v-461h291q121 0 195 64t74 168t-73.5 166.5t-195.5 62.5z" />
    <glyph glyph-name="rcaron" unicode="&#x159;" horiz-adv-x="770" 
d="M516 1090h-168l-246 319h174l156 -207l156 207h174zM164 0v981h180v-139q79 164 248 164q97 0 149 -43l-75 -170q-55 38 -127 38q-89 0 -142 -71.5t-53 -194.5v-565h-180z" />
    <glyph glyph-name="Sacute" unicode="&#x15a;" horiz-adv-x="1128" 
d="M664 1741h219l-252 -320h-168zM313 -2q-86 23 -235 119l88 159q88 -57 197 -90.5t208 -33.5q125 0 204 52t79 150q0 45 -25 79.5t-67.5 58t-97.5 43t-116 38t-121.5 40t-115.5 52.5t-97.5 70.5t-67.5 99t-25 134.5q0 165 132.5 267.5t332.5 102.5q250 0 422 -122
l-93 -152q-69 43 -158 71.5t-179 28.5q-115 0 -188 -54t-73 -138q0 -60 40.5 -104t105 -71t142.5 -50.5t156 -52.5t142.5 -68t105 -105t40.5 -155q0 -95 -39 -171t-106.5 -123.5t-155.5 -72.5t-189 -25q-149 0 -246 23z" />
    <glyph glyph-name="sacute" unicode="&#x15b;" horiz-adv-x="911" 
d="M555 1409h219l-252 -319h-168zM440 -25q-209 0 -377 99l70 149q175 -90 320 -90q100 0 151 35t51 96q0 40 -24 69t-63 45t-89 32t-102.5 29t-102.5 36.5t-89 54t-63 82t-24 119.5q0 115 99 195t270 80q169 0 344 -84l-72 -150q-133 74 -264 74q-91 0 -141.5 -29.5
t-50.5 -83.5q0 -45 30.5 -76.5t79.5 -49.5t107.5 -33.5t117.5 -37t108 -52t79.5 -85.5t30.5 -131q0 -129 -106.5 -211t-289.5 -82z" />
    <glyph glyph-name="Scircumflex" unicode="&#x15c;" horiz-adv-x="1128" 
d="M481 1741h168l246 -320h-174l-156 207l-155 -207h-174zM313 -2q-86 23 -235 119l88 159q88 -57 197 -90.5t208 -33.5q125 0 204 52t79 150q0 45 -25 79.5t-67.5 58t-97.5 43t-116 38t-121.5 40t-115.5 52.5t-97.5 70.5t-67.5 99t-25 134.5q0 165 132.5 267.5t332.5 102.5
q250 0 422 -122l-93 -152q-69 43 -158 71.5t-179 28.5q-115 0 -188 -54t-73 -138q0 -60 40.5 -104t105 -71t142.5 -50.5t156 -52.5t142.5 -68t105 -105t40.5 -155q0 -95 -39 -171t-106.5 -123.5t-155.5 -72.5t-189 -25q-149 0 -246 23z" />
    <glyph glyph-name="scircumflex" unicode="&#x15d;" horiz-adv-x="911" 
d="M373 1409h168l245 -319h-174l-155 206l-156 -206h-174zM440 -25q-209 0 -377 99l70 149q175 -90 320 -90q100 0 151 35t51 96q0 40 -24 69t-63 45t-89 32t-102.5 29t-102.5 36.5t-89 54t-63 82t-24 119.5q0 115 99 195t270 80q169 0 344 -84l-72 -150q-133 74 -264 74
q-91 0 -141.5 -29.5t-50.5 -83.5q0 -45 30.5 -76.5t79.5 -49.5t107.5 -33.5t117.5 -37t108 -52t79.5 -85.5t30.5 -131q0 -129 -106.5 -211t-289.5 -82z" />
    <glyph glyph-name="Scedilla" unicode="&#x15e;" horiz-adv-x="1128" 
d="M313 -2q-86 23 -235 119l88 159q88 -57 197 -90.5t208 -33.5q125 0 204 52t79 150q0 45 -25 79.5t-67.5 58t-97.5 43t-116 38t-121.5 40t-115.5 52.5t-97.5 70.5t-67.5 99t-25 134.5q0 165 132.5 267.5t332.5 102.5q250 0 422 -122l-93 -152q-69 43 -158 71.5t-179 28.5
q-115 0 -188 -54t-73 -138q0 -60 40.5 -104t105 -71t142.5 -50.5t156 -52.5t142.5 -68t105 -105t40.5 -155q0 -116 -57.5 -202.5t-151.5 -132t-215 -55.5l-150 -358l-141 62l151 296q-89 3 -172 21z" />
    <glyph glyph-name="scedilla" unicode="&#x15f;" horiz-adv-x="911" 
d="M836 268q0 -114 -85 -192.5t-235 -95.5l-149 -361l-142 62l152 296q-175 15 -314 97l70 149q175 -90 320 -90q100 0 151 35t51 96q0 40 -24 69t-63 45t-89 32t-102.5 29t-102.5 36.5t-89 54t-63 82t-24 119.5q0 115 99 195t270 80q169 0 344 -84l-72 -150
q-133 74 -264 74q-91 0 -141.5 -29.5t-50.5 -83.5q0 -45 30.5 -76.5t79.5 -49.5t107.5 -33.5t117.5 -37t108 -52t79.5 -85.5t30.5 -131z" />
    <glyph glyph-name="Scaron" unicode="&#x160;" horiz-adv-x="1128" 
d="M649 1421h-168l-245 320h174l155 -207l156 207h174zM313 -2q-86 23 -235 119l88 159q88 -57 197 -90.5t208 -33.5q125 0 204 52t79 150q0 45 -25 79.5t-67.5 58t-97.5 43t-116 38t-121.5 40t-115.5 52.5t-97.5 70.5t-67.5 99t-25 134.5q0 165 132.5 267.5t332.5 102.5
q250 0 422 -122l-93 -152q-69 43 -158 71.5t-179 28.5q-115 0 -188 -54t-73 -138q0 -60 40.5 -104t105 -71t142.5 -50.5t156 -52.5t142.5 -68t105 -105t40.5 -155q0 -95 -39 -171t-106.5 -123.5t-155.5 -72.5t-189 -25q-149 0 -246 23z" />
    <glyph glyph-name="scaron" unicode="&#x161;" horiz-adv-x="911" 
d="M541 1090h-168l-246 319h174l156 -207l155 207h174zM440 -25q-209 0 -377 99l70 149q175 -90 320 -90q100 0 151 35t51 96q0 40 -24 69t-63 45t-89 32t-102.5 29t-102.5 36.5t-89 54t-63 82t-24 119.5q0 115 99 195t270 80q169 0 344 -84l-72 -150q-133 74 -264 74
q-91 0 -141.5 -29.5t-50.5 -83.5q0 -45 30.5 -76.5t79.5 -49.5t107.5 -33.5t117.5 -37t108 -52t79.5 -85.5t30.5 -131q0 -129 -106.5 -211t-289.5 -82z" />
    <glyph glyph-name="Tcedilla" unicode="&#x162;" horiz-adv-x="1056" 
d="M461 0h-27v1139h-416v174h1018v-174h-415v-1139h-25l-158 -381l-141 62z" />
    <glyph glyph-name="tcedilla" unicode="&#x163;" horiz-adv-x="776" 
d="M53 819v162h162v244h182v-244h279v-162h-277v-518q0 -156 136 -156q81 0 127 52l83 -138q-62 -62 -174 -79l-149 -361l-141 62l155 301q-106 21 -163.5 100.5t-57.5 212.5v524h-162z" />
    <glyph glyph-name="Tcaron" unicode="&#x164;" horiz-adv-x="1056" 
d="M612 1421h-168l-245 320h174l155 -207l156 207h174zM1036 1139h-415v-1139h-187v1139h-416v174h1018v-174z" />
    <glyph glyph-name="tcaron" unicode="&#x165;" horiz-adv-x="776" 
d="M682 1409l-78 -340h-135l41 340h172zM53 819v162h162v244h182v-244h279v-162h-277v-518q0 -156 136 -156q81 0 127 52l83 -138q-88 -84 -235 -84q-140 0 -217.5 82t-77.5 238v524h-162z" />
    <glyph glyph-name="Tbar" unicode="&#x166;" horiz-adv-x="1056" 
d="M217 700h217v439h-416v174h1018v-174h-415v-439h217v-137h-217v-563h-187v563h-217v137z" />
    <glyph glyph-name="tbar" unicode="&#x167;" horiz-adv-x="776" 
d="M74 565h141v254h-162v162h162v244h182v-244h279v-162h-277v-254h207v-147h-207v-117q0 -156 136 -156q81 0 127 52l83 -138q-88 -84 -235 -84q-140 0 -217.5 82t-77.5 238v123h-141v147z" />
    <glyph glyph-name="Utilde" unicode="&#x168;" horiz-adv-x="1343" 
d="M821 1454q-50 0 -104.5 28t-105 55.5t-91.5 27.5q-10 0 -19 -2.5t-16 -5.5t-14.5 -11t-12 -13t-12 -16.5t-10.5 -17t-11 -20.5t-11 -21l-90 74q69 170 198 170q40 0 83 -17.5t74 -39t70 -39t72 -17.5q8 0 16 2t14 4t13 7t11 8.5t10 12t9 12.5t9 14.5t8 15t8.5 17
t8.5 16.5l90 -74q-67 -170 -197 -170zM158 512v801h184v-801q0 -159 91 -256.5t239 -97.5q149 0 238 97t89 257v801h187v-801q0 -243 -142 -390t-374 -147t-372 147t-140 390z" />
    <glyph glyph-name="utilde" unicode="&#x169;" horiz-adv-x="1167" 
d="M733 1122q-50 0 -104.5 28t-105 55.5t-91.5 27.5q-10 0 -19 -2.5t-16 -5.5t-14.5 -11t-12 -13t-12 -16.5t-10.5 -17t-11 -20.5t-11 -21l-90 74q69 170 198 170q40 0 83 -17.5t74 -39t70 -39t72 -17.5q8 0 16 2t14 4t13 7t11 8.5t10 12t9 12.5t9 14.5t8 15t8.5 17
t8.5 16.5l90 -74q-67 -170 -197 -170zM330 981v-543q0 -129 69 -207.5t183 -78.5q115 0 185.5 78.5t70.5 207.5v543h182v-557q0 -200 -120 -321t-318 -121q-196 0 -315.5 121t-119.5 321v557h183z" />
    <glyph glyph-name="Umacron" unicode="&#x16a;" horiz-adv-x="1343" 
d="M383 1665h575v-139h-575v139zM158 512v801h184v-801q0 -159 91 -256.5t239 -97.5q149 0 238 97t89 257v801h187v-801q0 -243 -142 -390t-374 -147t-372 147t-140 390z" />
    <glyph glyph-name="umacron" unicode="&#x16b;" horiz-adv-x="1167" 
d="M295 1333h575v-139h-575v139zM330 981v-543q0 -129 69 -207.5t183 -78.5q115 0 185.5 78.5t70.5 207.5v543h182v-557q0 -200 -120 -321t-318 -121q-196 0 -315.5 121t-119.5 321v557h183z" />
    <glyph glyph-name="Ubreve" unicode="&#x16c;" horiz-adv-x="1343" 
d="M670 1401q-128 0 -210.5 87t-82.5 230h135q0 -92 44.5 -141t113.5 -49q70 0 114.5 48.5t44.5 141.5h136q0 -143 -83 -230t-212 -87zM158 512v801h184v-801q0 -159 91 -256.5t239 -97.5q149 0 238 97t89 257v801h187v-801q0 -243 -142 -390t-374 -147t-372 147t-140 390z
" />
    <glyph glyph-name="ubreve" unicode="&#x16d;" horiz-adv-x="1167" 
d="M582 1069q-128 0 -210.5 87t-82.5 230h135q0 -92 44.5 -141t113.5 -49q70 0 114.5 48.5t44.5 141.5h136q0 -143 -83 -230t-212 -87zM330 981v-543q0 -129 69 -207.5t183 -78.5q115 0 185.5 78.5t70.5 207.5v543h182v-557q0 -200 -120 -321t-318 -121q-196 0 -315.5 121
t-119.5 321v557h183z" />
    <glyph glyph-name="Uring" unicode="&#x16e;" horiz-adv-x="1343" 
d="M672 1401q-98 0 -166 65.5t-68 159.5t68 159.5t166 65.5q99 0 166 -65.5t67 -159.5t-67 -159.5t-166 -65.5zM674 1516q47 0 78.5 30.5t31.5 79.5t-32 81t-78 32q-47 0 -80 -32t-33 -81q0 -48 33 -79t80 -31zM158 512v801h184v-801q0 -159 91 -256.5t239 -97.5
q149 0 238 97t89 257v801h187v-801q0 -243 -142 -390t-374 -147t-372 147t-140 390z" />
    <glyph glyph-name="uring" unicode="&#x16f;" horiz-adv-x="1167" 
d="M584 1069q-98 0 -166 65.5t-68 159.5t68 160t166 66q99 0 166 -66t67 -160t-67 -159.5t-166 -65.5zM586 1184q47 0 78.5 30.5t31.5 79.5t-32 81t-78 32q-47 0 -80 -32t-33 -81q0 -48 33 -79t80 -31zM330 981v-543q0 -129 69 -207.5t183 -78.5q115 0 185.5 78.5
t70.5 207.5v543h182v-557q0 -200 -120 -321t-318 -121q-196 0 -315.5 121t-119.5 321v557h183z" />
    <glyph glyph-name="Uhungarumlaut" unicode="&#x170;" horiz-adv-x="1343" 
d="M608 1741h187l-244 -320h-143zM928 1741h196l-252 -320h-145zM158 512v801h184v-801q0 -159 91 -256.5t239 -97.5q149 0 238 97t89 257v801h187v-801q0 -243 -142 -390t-374 -147t-372 147t-140 390z" />
    <glyph glyph-name="uhungarumlaut" unicode="&#x171;" horiz-adv-x="1167" 
d="M520 1409h187l-244 -319h-144zM840 1409h196l-252 -319h-145zM330 981v-543q0 -129 69 -207.5t183 -78.5q115 0 185.5 78.5t70.5 207.5v543h182v-557q0 -200 -120 -321t-318 -121q-196 0 -315.5 121t-119.5 321v557h183z" />
    <glyph glyph-name="Uogonek" unicode="&#x172;" horiz-adv-x="1343" 
d="M158 512v801h184v-801q0 -159 91 -256.5t239 -97.5q149 0 238 97t89 257v801h187v-801q0 -192 -92 -327t-252 -185q-118 -47 -181 -104t-63 -117q0 -32 22.5 -52t59.5 -20q60 0 119 51l59 -102q-79 -82 -207 -82q-94 0 -149.5 45.5t-55.5 126.5q0 133 148 234
q-200 25 -318 167.5t-118 364.5z" />
    <glyph glyph-name="uogonek" unicode="&#x173;" horiz-adv-x="1167" 
d="M330 981v-543q0 -129 69 -207.5t183 -78.5q115 0 185.5 78.5t70.5 207.5v543h182v-557q0 -166 -85.5 -280t-232.5 -148q-113 -47 -172 -103t-59 -114q0 -32 22.5 -52t59.5 -20q60 0 119 51l59 -102q-79 -82 -207 -82q-94 0 -149.5 45.5t-55.5 126.5q0 142 164 244
q-156 29 -246 145t-90 289v557h183z" />
    <glyph glyph-name="Wcircumflex" unicode="&#x174;" horiz-adv-x="2017" 
d="M926 1741h168l245 -320h-174l-155 207l-156 -207h-174zM1769 1313h197l-422 -1313h-229l-309 1081l-312 -1081h-221l-422 1313h205l328 -1092l313 1092h231l314 -1088z" />
    <glyph glyph-name="wcircumflex" unicode="&#x175;" horiz-adv-x="1630" 
d="M731 1409h168l246 -319h-174l-156 206l-156 -206h-174zM569 0h-207l-315 981h195l227 -778l246 778h198l248 -780l230 780h194l-315 -981h-226l-239 750z" />
    <glyph glyph-name="Ycircumflex" unicode="&#x176;" horiz-adv-x="1202" 
d="M518 1741h168l246 -320h-174l-156 207l-156 -207h-174zM508 0v442l-490 871h209l377 -676l379 676h199l-488 -871v-442h-186z" />
    <glyph glyph-name="ycircumflex" unicode="&#x177;" horiz-adv-x="1038" 
d="M436 1409h168l246 -319h-174l-156 206l-155 -206h-175zM432 -96l31 84l-445 993h197l330 -766l278 766h185l-424 -1141q-50 -135 -127.5 -200.5t-190.5 -65.5q-64 0 -126.5 24t-108.5 66l84 141q67 -61 155 -61q55 0 92.5 36t69.5 124z" />
    <glyph glyph-name="Ydieresis" unicode="&#x178;" horiz-adv-x="1202" 
d="M328 1589q0 42 30 73.5t72 31.5q44 0 75.5 -31.5t31.5 -73.5q0 -44 -31 -74t-76 -30q-43 0 -72.5 30t-29.5 74zM668 1589q0 42 31 73.5t73 31.5t73.5 -31.5t31.5 -73.5q0 -44 -31 -74t-74 -30t-73.5 30t-30.5 74zM508 0v442l-490 871h209l377 -676l379 676h199l-488 -871
v-442h-186z" />
    <glyph glyph-name="Zacute" unicode="&#x179;" horiz-adv-x="1138" 
d="M668 1741h219l-252 -320h-168zM76 174l741 965h-731v174h969v-174l-742 -965h750v-174h-987v174z" />
    <glyph glyph-name="zacute" unicode="&#x17a;" horiz-adv-x="972" 
d="M586 1409h219l-252 -319h-168zM82 162l561 657h-547v162h781v-162l-562 -657h576v-162h-809v162z" />
    <glyph glyph-name="Zdotaccent" unicode="&#x17b;" horiz-adv-x="1138" 
d="M457 1595q0 46 32.5 79.5t79.5 33.5q46 0 79.5 -33.5t33.5 -79.5t-33.5 -79t-79.5 -33q-47 0 -79.5 33t-32.5 79zM76 174l741 965h-731v174h969v-174l-742 -965h750v-174h-987v174z" />
    <glyph glyph-name="zdotaccent" unicode="&#x17c;" horiz-adv-x="972" 
d="M375 1264q0 46 32.5 79t79.5 33q46 0 79.5 -33t33.5 -79t-33.5 -79.5t-79.5 -33.5q-47 0 -79.5 33.5t-32.5 79.5zM82 162l561 657h-547v162h781v-162l-562 -657h576v-162h-809v162z" />
    <glyph glyph-name="Zcaron" unicode="&#x17d;" horiz-adv-x="1138" 
d="M653 1421h-168l-245 320h174l155 -207l156 207h174zM76 174l741 965h-731v174h969v-174l-742 -965h750v-174h-987v174z" />
    <glyph glyph-name="zcaron" unicode="&#x17e;" horiz-adv-x="972" 
d="M571 1090h-168l-245 319h174l155 -207l156 207h174zM82 162l561 657h-547v162h781v-162l-562 -657h576v-162h-809v162z" />
    <glyph glyph-name="florin" unicode="&#x192;" horiz-adv-x="956" 
d="M367 -57v659h-160v143h160v349q0 161 84 250.5t227 89.5q159 0 248 -95l-92 -133q-58 58 -140 58q-71 0 -109 -44.5t-38 -127.5v-347h266v-143h-266v-647q0 -163 -78.5 -254.5t-224.5 -91.5q-127 0 -211 74l86 135q51 -41 119 -41q60 0 94.5 42.5t34.5 123.5z" />
    <glyph glyph-name="Scommaaccent" unicode="&#x218;" horiz-adv-x="1128" 
d="M313 -2q-86 23 -235 119l88 159q88 -57 197 -90.5t208 -33.5q125 0 204 52t79 150q0 45 -25 79.5t-67.5 58t-97.5 43t-116 38t-121.5 40t-115.5 52.5t-97.5 70.5t-67.5 99t-25 134.5q0 165 132.5 267.5t332.5 102.5q250 0 422 -122l-93 -152q-69 43 -158 71.5t-179 28.5
q-115 0 -188 -54t-73 -138q0 -60 40.5 -104t105 -71t142.5 -50.5t156 -52.5t142.5 -68t105 -105t40.5 -155q0 -95 -39 -171t-106.5 -123.5t-155.5 -72.5t-189 -25q-149 0 -246 23zM657 -104l-110 -291h-144l70 291h184z" />
    <glyph glyph-name="scommaaccent" unicode="&#x219;" horiz-adv-x="911" 
d="M440 -25q-209 0 -377 99l70 149q175 -90 320 -90q100 0 151 35t51 96q0 40 -24 69t-63 45t-89 32t-102.5 29t-102.5 36.5t-89 54t-63 82t-24 119.5q0 115 99 195t270 80q169 0 344 -84l-72 -150q-133 74 -264 74q-91 0 -141.5 -29.5t-50.5 -83.5q0 -45 30.5 -76.5
t79.5 -49.5t107.5 -33.5t117.5 -37t108 -52t79.5 -85.5t30.5 -131q0 -129 -106.5 -211t-289.5 -82zM549 -104l-111 -291h-143l70 291h184z" />
    <glyph glyph-name="Tcommaaccent" unicode="&#x21a;" horiz-adv-x="1056" 
d="M1036 1139h-415v-1139h-187v1139h-416v174h1018v-174zM621 -104l-111 -291h-143l69 291h185z" />
    <glyph glyph-name="tcommaaccent" unicode="&#x21b;" horiz-adv-x="776" 
d="M53 819v162h162v244h182v-244h279v-162h-277v-518q0 -156 136 -156q81 0 127 52l83 -138q-88 -84 -235 -84q-140 0 -217.5 82t-77.5 238v524h-162zM604 -104l-110 -291h-144l70 291h184z" />
    <glyph glyph-name="jdotless" unicode="&#x237;" horiz-adv-x="507" 
d="M344 981v-1063q0 -162 -78 -253t-225 -91q-127 0 -211 74l86 135q53 -43 119 -43q61 0 95 43t34 125v1073h180z" />
    <glyph glyph-name="circumflex" unicode="&#x2c6;" 
d="M326 1409h168l245 -319h-174l-155 206l-156 -206h-174z" />
    <glyph glyph-name="caron" unicode="&#x2c7;" 
d="M494 1090h-168l-246 319h174l156 -207l155 207h174z" />
    <glyph glyph-name="breve" unicode="&#x2d8;" 
d="M410 1069q-128 0 -210.5 87t-82.5 230h135q0 -92 44.5 -141t113.5 -49q70 0 114.5 48.5t44.5 141.5h136q0 -143 -83 -230t-212 -87z" />
    <glyph glyph-name="dotaccent" unicode="&#x2d9;" 
d="M297 1264q0 46 33 79t80 33q46 0 79 -33t33 -79t-33 -79.5t-79 -33.5q-47 0 -80 33.5t-33 79.5z" />
    <glyph glyph-name="ring" unicode="&#x2da;" 
d="M410 1069q-98 0 -166 65.5t-68 159.5t68 160t166 66q99 0 166 -66t67 -160t-67 -159.5t-166 -65.5zM412 1184q47 0 78.5 30.5t31.5 79.5t-32 81t-78 32q-47 0 -80 -32t-33 -81q0 -48 33 -79t80 -31z" />
    <glyph glyph-name="ogonek" unicode="&#x2db;" 
d="M467 59l98 -59q-118 -47 -180.5 -104t-62.5 -117q0 -32 22 -52t59 -20q60 0 119 51l60 -102q-79 -82 -207 -82q-94 0 -149.5 45.5t-55.5 126.5q0 94 72 170.5t225 142.5z" />
    <glyph glyph-name="tilde" unicode="&#x2dc;" 
d="M559 1122q-50 0 -104.5 28t-105 55.5t-91.5 27.5q-10 0 -19 -2.5t-16 -5.5t-14.5 -11t-12 -13t-12 -16.5t-10.5 -17t-11 -20.5t-11 -21l-91 74q69 170 199 170q40 0 83 -17.5t74 -39t70 -39t72 -17.5q8 0 16 2t14 4t13 7t11 8.5t10 12t9 12.5t9 14.5t8 15t8.5 17
t8.5 16.5l90 -74q-67 -170 -197 -170z" />
    <glyph glyph-name="hungarumlaut" unicode="&#x2dd;" 
d="M387 1409h186l-243 -319h-144zM707 1409h196l-252 -319h-145z" />
    <glyph glyph-name="gravecomb" unicode="&#x300;" horiz-adv-x="794" 
d="M283 1409l200 -319h-166l-251 319h217z" />
    <glyph glyph-name="acutecomb" unicode="&#x301;" 
d="M522 1409h219l-252 -319h-167z" />
    <glyph glyph-name="circumflexcomb" unicode="&#x302;" 
d="M326 1409h168l245 -319h-174l-155 206l-156 -206h-174z" />
    <glyph glyph-name="tildecomb" unicode="&#x303;" 
d="M559 1122q-50 0 -104.5 28t-105 55.5t-91.5 27.5q-10 0 -19 -2.5t-16 -5.5t-14.5 -11t-12 -13t-12 -16.5t-10.5 -17t-11 -20.5t-11 -21l-91 74q69 170 199 170q40 0 83 -17.5t74 -39t70 -39t72 -17.5q8 0 16 2t14 4t13 7t11 8.5t10 12t9 12.5t9 14.5t8 15t8.5 17
t8.5 16.5l90 -74q-67 -170 -197 -170z" />
    <glyph glyph-name="macroncomb" unicode="&#x304;" 
d="M121 1333h575v-139h-575v139z" />
    <glyph glyph-name="brevecomb" unicode="&#x306;" 
d="M410 1069q-128 0 -210.5 87t-82.5 230h135q0 -92 44.5 -141t113.5 -49q70 0 114.5 48.5t44.5 141.5h136q0 -143 -83 -230t-212 -87z" />
    <glyph glyph-name="dotaccentcomb" unicode="&#x307;" 
d="M297 1264q0 46 33 79t80 33q46 0 79 -33t33 -79t-33 -79.5t-79 -33.5q-47 0 -80 33.5t-33 79.5z" />
    <glyph glyph-name="dieresiscomb" unicode="&#x308;" 
d="M135 1257q0 42 30.5 73.5t72.5 31.5q44 0 75 -31.5t31 -73.5q0 -44 -31 -74t-75 -30q-43 0 -73 30t-30 74zM475 1257q0 42 31.5 73.5t73.5 31.5t73 -31.5t31 -73.5q0 -44 -30.5 -74t-73.5 -30t-74 30t-31 74z" />
    <glyph glyph-name="ringcomb" unicode="&#x30a;" 
d="M410 1069q-98 0 -166 65.5t-68 159.5t68 160t166 66q99 0 166 -66t67 -160t-67 -159.5t-166 -65.5zM412 1184q47 0 78.5 30.5t31.5 79.5t-32 81t-78 32q-47 0 -80 -32t-33 -81q0 -48 33 -79t80 -31z" />
    <glyph glyph-name="hungarumlautcomb" unicode="&#x30b;" 
d="M387 1409h186l-243 -319h-144zM707 1409h196l-252 -319h-145z" />
    <glyph glyph-name="caroncomb" unicode="&#x30c;" 
d="M494 1090h-168l-246 319h174l156 -207l155 207h174z" />
    <glyph glyph-name="commaaccentcomb" unicode="&#x326;" 
d="M506 -104l-111 -291h-143l70 291h184z" />
    <glyph glyph-name="cedillacomb" unicode="&#x327;" 
d="M362 0h136l-158 -381l-141 62z" />
    <glyph glyph-name="ogonekcomb" unicode="&#x328;" 
d="M467 59l98 -59q-118 -47 -180.5 -104t-62.5 -117q0 -32 22 -52t59 -20q60 0 119 51l60 -102q-79 -82 -207 -82q-94 0 -149.5 45.5t-55.5 126.5q0 94 72 170.5t225 142.5z" />
    <glyph glyph-name="strokeshortcomb" unicode="&#x335;" horiz-adv-x="800" 
d="M104 596h533v-147h-533v147z" />
    <glyph glyph-name="Delta" unicode="&#x394;" horiz-adv-x="1384" 
d="M43 0l541 1313h217l540 -1313h-1298zM299 166h774l-385 950z" />
    <glyph glyph-name="Omega" unicode="&#x3a9;" horiz-adv-x="1495" 
d="M748 1155q-203 0 -338.5 -133t-135.5 -338q0 -94 30.5 -178.5t83.5 -149t115.5 -113t135.5 -85.5v-158h-545v166l289 -4q-305 214 -305 547q0 168 87 312t242 230t341 86q139 0 263.5 -50.5t212.5 -135.5t139.5 -200.5t51.5 -241.5q0 -168 -79 -306t-224 -241l287 4v-166
h-543v158q73 37 135.5 85.5t115.5 113t83.5 149t30.5 178.5q0 205 -135 338t-338 133z" />
    <glyph glyph-name="mu" unicode="&#x3bc;" horiz-adv-x="1204" 
d="M352 981v-543q0 -129 69.5 -207.5t184.5 -78.5t185.5 78.5t70.5 207.5v543h182v-557q0 -200 -120 -321t-318 -121q-148 0 -254 71v-418h-180v1346h180z" />
    <glyph glyph-name="pi" unicode="&#x3c0;" horiz-adv-x="1230" 
d="M59 819v162h1100v-162h-170v-526q0 -70 25.5 -102.5t81.5 -32.5h63v-158h-92q-262 0 -262 285v534h-406v-817h-184v817h-156z" />
    <glyph glyph-name="Wgrave" unicode="&#x1e80;" horiz-adv-x="2017" 
d="M909 1741l201 -320h-166l-252 320h217zM1769 1313h197l-422 -1313h-229l-309 1081l-312 -1081h-221l-422 1313h205l328 -1092l313 1092h231l314 -1088z" />
    <glyph glyph-name="wgrave" unicode="&#x1e81;" horiz-adv-x="1630" 
d="M715 1409l200 -319h-165l-252 319h217zM569 0h-207l-315 981h195l227 -778l246 778h198l248 -780l230 780h194l-315 -981h-226l-239 750z" />
    <glyph glyph-name="Wacute" unicode="&#x1e82;" horiz-adv-x="2017" 
d="M1108 1741h219l-252 -320h-168zM1769 1313h197l-422 -1313h-229l-309 1081l-312 -1081h-221l-422 1313h205l328 -1092l313 1092h231l314 -1088z" />
    <glyph glyph-name="wacute" unicode="&#x1e83;" horiz-adv-x="1630" 
d="M913 1409h220l-252 -319h-168zM569 0h-207l-315 981h195l227 -778l246 778h198l248 -780l230 780h194l-315 -981h-226l-239 750z" />
    <glyph glyph-name="Wdieresis" unicode="&#x1e84;" horiz-adv-x="2017" 
d="M735 1589q0 42 30.5 73.5t72.5 31.5q44 0 75 -31.5t31 -73.5q0 -44 -31 -74t-75 -30q-43 0 -73 30t-30 74zM1075 1589q0 42 31.5 73.5t73.5 31.5t73 -31.5t31 -73.5q0 -44 -30.5 -74t-73.5 -30t-74 30t-31 74zM1769 1313h197l-422 -1313h-229l-309 1081l-312 -1081h-221
l-422 1313h205l328 -1092l313 1092h231l314 -1088z" />
    <glyph glyph-name="wdieresis" unicode="&#x1e85;" horiz-adv-x="1630" 
d="M541 1257q0 42 30 73.5t72 31.5q44 0 75.5 -31.5t31.5 -73.5q0 -44 -31 -74t-76 -30q-43 0 -72.5 30t-29.5 74zM881 1257q0 42 31 73.5t73 31.5t73.5 -31.5t31.5 -73.5q0 -44 -31 -74t-74 -30t-73.5 30t-30.5 74zM569 0h-207l-315 981h195l227 -778l246 778h198l248 -780
l230 780h194l-315 -981h-226l-239 750z" />
    <glyph glyph-name="Ygrave" unicode="&#x1ef2;" horiz-adv-x="1202" 
d="M502 1741l200 -320h-165l-252 320h217zM508 0v442l-490 871h209l377 -676l379 676h199l-488 -871v-442h-186z" />
    <glyph glyph-name="ygrave" unicode="&#x1ef3;" horiz-adv-x="1038" 
d="M420 1409l201 -319h-166l-252 319h217zM432 -96l31 84l-445 993h197l330 -766l278 766h185l-424 -1141q-50 -135 -127.5 -200.5t-190.5 -65.5q-64 0 -126.5 24t-108.5 66l84 141q67 -61 155 -61q55 0 92.5 36t69.5 124z" />
    <glyph glyph-name="endash" unicode="&#x2013;" horiz-adv-x="999" 
d="M70 575h860v-157h-860v157z" />
    <glyph glyph-name="emdash" unicode="&#x2014;" horiz-adv-x="2023" 
d="M70 575h1884v-157h-1884v157z" />
    <glyph glyph-name="quoteleft" unicode="&#x2018;" horiz-adv-x="370" 
d="M152 987q-46 0 -77.5 31.5t-31.5 75.5q0 48 35 100l125 215h90l-105 -219q32 -12 52 -37.5t20 -58.5q0 -44 -31 -75.5t-77 -31.5z" />
    <glyph glyph-name="quoteright" unicode="&#x2019;" horiz-adv-x="370" 
d="M219 1411q46 0 77.5 -31t31.5 -75q0 -49 -35 -101l-125 -215h-90l104 219q-32 12 -51.5 38t-19.5 59q0 44 31 75t77 31z" />
    <glyph glyph-name="quotesinglbase" unicode="&#x201a;" horiz-adv-x="405" 
d="M188 -219h-90l105 219q-32 12 -52 37.5t-20 58.5q0 44 31.5 75.5t77.5 31.5t77 -31.5t31 -75.5q0 -45 -35 -100z" />
    <glyph glyph-name="quotedblleft" unicode="&#x201c;" horiz-adv-x="675" 
d="M457 987q-46 0 -77.5 31.5t-31.5 75.5q0 47 33 100l125 215h92l-104 -219q31 -12 50 -37.5t19 -58.5q0 -45 -30.5 -76t-75.5 -31zM152 987q-46 0 -77.5 31.5t-31.5 75.5q0 48 35 100l125 215h90l-105 -219q32 -12 52 -37.5t20 -58.5q0 -44 -31 -75.5t-77 -31.5z" />
    <glyph glyph-name="quotedblright" unicode="&#x201d;" horiz-adv-x="675" 
d="M231 1411q46 0 77.5 -31t31.5 -75q0 -48 -33 -101l-125 -215h-92l105 219q-32 12 -51 38t-19 59q0 45 30.5 75.5t75.5 30.5zM537 1411q46 0 77 -31t31 -75q0 -49 -35 -101l-125 -215h-90l105 219q-32 12 -52 38t-20 59q0 44 31.5 75t77.5 31z" />
    <glyph glyph-name="quotedblbase" unicode="&#x201e;" horiz-adv-x="712" 
d="M188 -219h-90l105 219q-32 12 -52 37.5t-20 58.5q0 44 31.5 75.5t77.5 31.5t77 -31.5t31 -75.5q0 -45 -35 -100zM496 -219h-90l104 219q-32 12 -52 37.5t-20 58.5q0 44 31.5 75.5t77.5 31.5q45 0 76.5 -31.5t31.5 -75.5q0 -47 -34 -100z" />
    <glyph glyph-name="dagger" unicode="&#x2020;" horiz-adv-x="940" 
d="M379 -401v1226h-320v162h320v422h182v-422h318v-162h-318v-1226h-182z" />
    <glyph glyph-name="daggerdbl" unicode="&#x2021;" horiz-adv-x="940" 
d="M59 20v162h320v643h-320v162h320v422h182v-422h318v-162h-318v-643h318v-162h-318v-421h-182v421h-320z" />
    <glyph glyph-name="bullet" unicode="&#x2022;" horiz-adv-x="788" 
d="M395 250q-110 0 -186 76.5t-76 185.5t76 185.5t186 76.5q109 0 184.5 -76.5t75.5 -185.5t-75.5 -185.5t-184.5 -76.5z" />
    <glyph glyph-name="ellipsis" unicode="&#x2026;" horiz-adv-x="1306" 
d="M1118 -18q-51 0 -88 36t-37 88q0 53 37 91.5t88 38.5q54 0 91.5 -38.5t37.5 -91.5q0 -52 -37.5 -88t-91.5 -36zM184 -18q-51 0 -88 36t-37 88q0 53 37 91.5t88 38.5q54 0 91.5 -38.5t37.5 -91.5q0 -52 -37.5 -88t-91.5 -36zM651 -18q-51 0 -88 36t-37 88q0 53 37 91.5
t88 38.5q54 0 91.5 -38.5t37.5 -91.5q0 -52 -37.5 -88t-91.5 -36z" />
    <glyph glyph-name="perthousand" unicode="&#x2030;" horiz-adv-x="2344" 
d="M387 682q-139 0 -236.5 95.5t-97.5 232.5q0 139 93.5 233t240.5 94q146 0 241 -94.5t95 -232.5q0 -136 -98 -232t-238 -96zM420 0h-150l897 1313h152zM387 799q84 0 146.5 58.5t62.5 152.5q0 95 -63 153t-146 58q-84 0 -145.5 -57.5t-61.5 -153.5q0 -95 62 -153t145 -58z
M1202 -25q-146 0 -241 95t-95 233q0 136 98 232t238 96q138 0 236 -96t98 -232q0 -139 -93.5 -233.5t-240.5 -94.5zM1958 -25q-147 0 -241.5 94.5t-94.5 233.5q0 136 98 232t238 96q138 0 236 -96t98 -232q0 -139 -94 -233.5t-240 -94.5zM1200 92q84 0 146.5 58t62.5 153
t-62.5 153t-146.5 58t-145.5 -58.5t-61.5 -152.5q0 -95 62.5 -153t144.5 -58zM1956 92q84 0 146.5 58t62.5 153t-62.5 153t-146.5 58t-145.5 -58.5t-61.5 -152.5q0 -95 62.5 -153t144.5 -58z" />
    <glyph glyph-name="guilsinglleft" unicode="&#x2039;" horiz-adv-x="636" 
d="M78 502l379 379l102 -105l-274 -274l274 -275l-102 -104z" />
    <glyph glyph-name="guilsinglright" unicode="&#x203a;" horiz-adv-x="636" 
d="M78 776l102 105l379 -379l-379 -379l-102 104l274 275z" />
    <glyph glyph-name="fraction" unicode="&#x2044;" horiz-adv-x="131" 
d="M-459 0l901 1313h148l-895 -1313h-154z" />
    <glyph glyph-name="zero.superior" unicode="&#x2070;" horiz-adv-x="585" 
d="M295 645q-116 0 -190 95.5t-74 244.5q0 148 73 245t185 97q115 0 189.5 -97t74.5 -245q0 -149 -72.5 -244.5t-185.5 -95.5zM293 760q60 0 96.5 62.5t36.5 162.5q0 101 -36 162t-97 61q-60 0 -97.5 -61.5t-37.5 -161.5q0 -101 36.5 -163t98.5 -62z" />
    <glyph glyph-name="four.superior" unicode="&#x2074;" horiz-adv-x="585" 
d="M340 657v119h-317v117l317 420h123v-420h90v-117h-90v-119h-123zM143 893h197v262z" />
    <glyph glyph-name="Euro" unicode="&#x20ac;" horiz-adv-x="1325" 
d="M817 -25q-222 0 -395 128.5t-240 332.5h-164l39 129h97q-7 51 -7 90q0 37 7 88h-136l39 127h123q67 206 240.5 336.5t390.5 130.5q285 0 465 -163l-111 -132q-147 121 -352 121q-143 0 -258.5 -80t-173.5 -213h580l-37 -127h-582q-6 -43 -6 -88q0 -51 8 -90h539l-39 -129
h-463q58 -131 174.5 -208.5t267.5 -77.5q216 0 342 120l113 -127q-174 -168 -461 -168z" />
    <glyph glyph-name="litre" unicode="&#x2113;" horiz-adv-x="882" 
d="M766 125q-109 -150 -283 -150q-136 0 -213 83t-77 241v31l-132 -68v193l132 61v547q0 179 78 275t216 96q150 0 234 -94.5t84 -266.5q0 -348 -428 -639v-121q0 -168 131 -168q103 0 168 107zM377 1087v-458q120 97 186 213.5t66 240.5q0 89 -34.5 135t-92.5 46
q-125 0 -125 -177z" />
    <glyph glyph-name="trademark" unicode="&#x2122;" horiz-adv-x="1734" 
d="M274 596v594h-211v123h570v-123h-221v-594h-138zM1151 760l-281 366l4 -530h-137v717h140l278 -367l277 367h129v-717h-136l5 530z" />
    <glyph glyph-name="partialdiff" unicode="&#x2202;" horiz-adv-x="1210" 
d="M604 1006q132 0 232 -93q-77 144 -202 255.5t-249 172.5l121 115q169 -82 303.5 -216t215.5 -313.5t81 -371.5q0 -265 -139 -422.5t-363 -157.5q-138 0 -253 70t-181 190t-66 263q0 216 144.5 362t355.5 146zM606 145q137 0 227.5 102.5t90.5 250.5q0 149 -90.5 250.5
t-227.5 101.5t-228 -101.5t-91 -250.5q0 -148 91 -250.5t228 -102.5z" />
    <glyph glyph-name="product" unicode="&#x220f;" horiz-adv-x="1253" 
d="M842 1139h-428v-1540h-187v1540h-153v174h1108v-174h-156v-1540h-184v1540z" />
    <glyph glyph-name="summation" unicode="&#x2211;" horiz-adv-x="1011" 
d="M723 592v-152l-461 -657h719v-184h-948v206l499 721l-499 697v186h948v-182h-715z" />
    <glyph glyph-name="minus" unicode="&#x2212;" horiz-adv-x="1042" 
d="M106 578v163h830v-163h-830z" />
    <glyph glyph-name="divisionslash" unicode="&#x2215;" horiz-adv-x="131" 
d="M-459 0l901 1313h148l-895 -1313h-154z" />
    <glyph glyph-name="radical" unicode="&#x221a;" horiz-adv-x="1169" 
d="M729 0h-240l-272 815h-184v166h332l249 -813l338 1241h185z" />
    <glyph glyph-name="infinity" unicode="&#x221e;" horiz-adv-x="1067" 
d="M983 659q0 -120 -66 -197t-172 -77q-83 0 -133.5 36t-85.5 101q-36 -68 -90 -102.5t-117 -34.5q-105 0 -170 76t-65 194q0 121 64.5 198t168.5 77q81 0 132 -35t86 -98q37 66 93 99.5t120 33.5q105 0 170 -76.5t65 -194.5zM205 655q0 -61 35.5 -99t93.5 -38q90 0 149 98
q-16 40 -22.5 56.5t-23 46.5t-30 43t-35.5 24t-48 11q-51 0 -85 -39.5t-34 -102.5zM735 797q-108 0 -160 -90q41 -102 63 -133q39 -56 101 -56q50 0 86.5 40t36.5 97q0 61 -37 101.5t-90 40.5z" />
    <glyph glyph-name="integral" unicode="&#x222b;" horiz-adv-x="956" 
d="M367 -57v1151q0 161 84 250.5t227 89.5q159 0 248 -95l-92 -133q-58 58 -140 58q-71 0 -109 -44.5t-38 -127.5v-1137q0 -163 -78.5 -254.5t-224.5 -91.5q-127 0 -211 74l86 135q51 -41 119 -41q60 0 94.5 42.5t34.5 123.5z" />
    <glyph glyph-name="approxequal" unicode="&#x2248;" horiz-adv-x="1042" 
d="M106 731v170q109 76 222 76q58 0 112 -16.5t89.5 -37t85.5 -37t100 -16.5q129 0 221 66v-172q-101 -62 -217 -62q-56 0 -111 16.5t-91.5 37t-87 37t-99.5 16.5q-135 0 -224 -78zM106 369v172q114 75 222 75q58 0 112 -16.5t89.5 -36.5t85.5 -36.5t100 -16.5q133 0 221 63
v-170q-94 -61 -217 -61q-56 0 -111 16.5t-91.5 37t-87 37t-99.5 16.5q-137 0 -224 -80z" />
    <glyph glyph-name="notequal" unicode="&#x2260;" horiz-adv-x="1042" 
d="M205 207l106 190h-205v166h300l108 193h-408v166h502l107 190h139l-106 -190h188v-166h-283l-106 -193h389v-166h-483l-107 -190h-141z" />
    <glyph glyph-name="lessequal" unicode="&#x2264;" horiz-adv-x="1042" 
d="M936 459v-180l-830 378v154l830 375v-178l-627 -275zM106 0v166h830v-166h-830z" />
    <glyph glyph-name="greaterequal" unicode="&#x2265;" horiz-adv-x="1042" 
d="M106 459l627 274l-627 275v178l830 -375v-154l-830 -378v180zM936 0h-830v166h830v-166z" />
    <glyph glyph-name="lozenge" unicode="&#x25ca;" horiz-adv-x="1048" 
d="M965 655l-340 -655h-201l-340 655l340 658h201zM770 655l-248 498l-252 -498l252 -495z" />
    <glyph glyph-name="ITF" unicode="&#xf8ff;" horiz-adv-x="3194" 
d="M174 0v1313h406v-1313h-406zM664 930v383h405v-383h-405zM1151 0v1313h405v-1313h-405zM1642 930v383h404v-383h-404zM2130 0v1313h403v-1313h-403zM2619 930v383h404v-383h-404zM2619 465v381h404v-381h-404z" />
    <glyph glyph-name="G.alt" horiz-adv-x="1511" 
d="M770 -25q-184 0 -337 86t-243 242.5t-90 351.5q0 139 56 265.5t149.5 217.5t221.5 145t266 54q291 0 475 -163l-119 -138q-146 123 -354 123q-132 0 -246.5 -66.5t-183 -183t-68.5 -254.5q0 -110 37 -204.5t101 -159t151.5 -101t185.5 -36.5q197 0 317 104.5t134 263.5
v56h-430v172h618v-265q-17 -101 -65.5 -190.5t-126.5 -162t-194 -115t-255 -42.5z" />
    <glyph glyph-name="a.alt" horiz-adv-x="1284" 
d="M567 -25q-201 0 -338 148t-137 369q0 144 61 261.5t170 185t244 67.5q113 0 201 -52.5t143 -146.5v174h183v-717q0 -60 26.5 -88.5t65.5 -28.5q19 0 45 11l22 -160q-56 -18 -102 -18q-79 0 -141.5 45t-85.5 137q-58 -89 -150.5 -138t-206.5 -49zM594 145q136 0 226.5 101
t90.5 246q0 146 -90 245t-227 99q-138 0 -229 -99t-91 -245q0 -145 91 -246t229 -101z" />
    <glyph glyph-name="j.alt" horiz-adv-x="507" 
d="M254 1151q-47 0 -80 33.5t-33 79.5t33 79t80 33q46 0 79.5 -33t33.5 -79t-33.5 -79.5t-79.5 -33.5zM6 -426h-45v172h39q164 0 164 170v1065h180v-1065q0 -160 -89.5 -251t-248.5 -91z" />
    <glyph glyph-name="l.alt" horiz-adv-x="507" 
d="M164 0v1409h180v-1409h-180z" />
    <glyph glyph-name="y.alt" horiz-adv-x="1038" 
d="M475 -401h-184l164 409l-437 973h197l326 -754l282 754h185z" />
    <glyph glyph-name="ampersand.alt" horiz-adv-x="1263" 
d="M1059 682l139 -90l-184 -268l229 -234l-129 -117l-205 211q-176 -204 -405 -204q-178 0 -295 94.5t-117 259.5q0 127 84 225.5t223 153.5q-139 152 -139 295q0 141 106 234t261 93q187 0 344 -116l-90 -142q-131 90 -248 90q-83 0 -136 -44.5t-53 -118.5q0 -102 123 -228
l326 -332zM272 342q0 -94 65 -147.5t171 -53.5q81 0 149 41t136 123l-271 281q-113 -33 -181.5 -94.5t-68.5 -149.5z" />
    <glyph glyph-name="Gbreve.alt" horiz-adv-x="1511" 
d="M754 1401q-128 0 -210.5 87t-82.5 230h135q0 -92 44.5 -141t113.5 -49q70 0 114.5 48.5t44.5 141.5h136q0 -143 -83 -230t-212 -87zM770 -25q-184 0 -337 86t-243 242.5t-90 351.5q0 139 56 265.5t149.5 217.5t221.5 145t266 54q291 0 475 -163l-119 -138
q-146 123 -354 123q-132 0 -246.5 -66.5t-183 -183t-68.5 -254.5q0 -110 37 -204.5t101 -159t151.5 -101t185.5 -36.5q197 0 317 104.5t134 263.5v56h-430v172h618v-265q-17 -101 -65.5 -190.5t-126.5 -162t-194 -115t-255 -42.5z" />
    <glyph glyph-name="Gcircumflex.alt" horiz-adv-x="1511" 
d="M672 1741h168l245 -320h-174l-155 207l-156 -207h-174zM770 -25q-184 0 -337 86t-243 242.5t-90 351.5q0 139 56 265.5t149.5 217.5t221.5 145t266 54q291 0 475 -163l-119 -138q-146 123 -354 123q-132 0 -246.5 -66.5t-183 -183t-68.5 -254.5q0 -110 37 -204.5
t101 -159t151.5 -101t185.5 -36.5q197 0 317 104.5t134 263.5v56h-430v172h618v-265q-17 -101 -65.5 -190.5t-126.5 -162t-194 -115t-255 -42.5z" />
    <glyph glyph-name="Gcommaaccent.alt" horiz-adv-x="1511" 
d="M770 -25q-184 0 -337 86t-243 242.5t-90 351.5q0 139 56 265.5t149.5 217.5t221.5 145t266 54q291 0 475 -163l-119 -138q-146 123 -354 123q-132 0 -246.5 -66.5t-183 -183t-68.5 -254.5q0 -110 37 -204.5t101 -159t151.5 -101t185.5 -36.5q197 0 317 104.5t134 263.5
v56h-430v172h618v-265q-17 -101 -65.5 -190.5t-126.5 -162t-194 -115t-255 -42.5zM848 -104l-111 -291h-143l70 291h184z" />
    <glyph glyph-name="Gdotaccent.alt" horiz-adv-x="1511" 
d="M643 1595q0 46 33 79.5t80 33.5q46 0 79 -33.5t33 -79.5t-33 -79t-79 -33q-47 0 -80 33t-33 79zM770 -25q-184 0 -337 86t-243 242.5t-90 351.5q0 139 56 265.5t149.5 217.5t221.5 145t266 54q291 0 475 -163l-119 -138q-146 123 -354 123q-132 0 -246.5 -66.5t-183 -183
t-68.5 -254.5q0 -110 37 -204.5t101 -159t151.5 -101t185.5 -36.5q197 0 317 104.5t134 263.5v56h-430v172h618v-265q-17 -101 -65.5 -190.5t-126.5 -162t-194 -115t-255 -42.5z" />
    <glyph glyph-name="aacute.alt" horiz-adv-x="1284" 
d="M702 1409h220l-252 -319h-168zM567 -25q-201 0 -338 148t-137 369q0 144 61 261.5t170 185t244 67.5q113 0 201 -52.5t143 -146.5v174h183v-717q0 -60 26.5 -88.5t65.5 -28.5q19 0 45 11l22 -160q-56 -18 -102 -18q-79 0 -141.5 45t-85.5 137q-58 -89 -150.5 -138
t-206.5 -49zM594 145q136 0 226.5 101t90.5 246q0 146 -90 245t-227 99q-138 0 -229 -99t-91 -245q0 -145 91 -246t229 -101z" />
    <glyph glyph-name="abreve.alt" horiz-adv-x="1284" 
d="M602 1069q-128 0 -210.5 87t-82.5 230h135q0 -92 44.5 -141t113.5 -49q70 0 115 48.5t45 141.5h135q0 -143 -83 -230t-212 -87zM567 -25q-201 0 -338 148t-137 369q0 144 61 261.5t170 185t244 67.5q113 0 201 -52.5t143 -146.5v174h183v-717q0 -60 26.5 -88.5
t65.5 -28.5q19 0 45 11l22 -160q-56 -18 -102 -18q-79 0 -141.5 45t-85.5 137q-58 -89 -150.5 -138t-206.5 -49zM594 145q136 0 226.5 101t90.5 246q0 146 -90 245t-227 99q-138 0 -229 -99t-91 -245q0 -145 91 -246t229 -101z" />
    <glyph glyph-name="acircumflex.alt" horiz-adv-x="1284" 
d="M520 1409h168l246 -319h-174l-156 206l-155 -206h-175zM567 -25q-201 0 -338 148t-137 369q0 144 61 261.5t170 185t244 67.5q113 0 201 -52.5t143 -146.5v174h183v-717q0 -60 26.5 -88.5t65.5 -28.5q19 0 45 11l22 -160q-56 -18 -102 -18q-79 0 -141.5 45t-85.5 137
q-58 -89 -150.5 -138t-206.5 -49zM594 145q136 0 226.5 101t90.5 246q0 146 -90 245t-227 99q-138 0 -229 -99t-91 -245q0 -145 91 -246t229 -101z" />
    <glyph glyph-name="adieresis.alt" horiz-adv-x="1284" 
d="M330 1257q0 42 30 73.5t72 31.5q44 0 75.5 -31.5t31.5 -73.5q0 -44 -31 -74t-76 -30q-43 0 -72.5 30t-29.5 74zM670 1257q0 42 31 73.5t73 31.5t73.5 -31.5t31.5 -73.5q0 -44 -31 -74t-74 -30t-73.5 30t-30.5 74zM567 -25q-201 0 -338 148t-137 369q0 144 61 261.5
t170 185t244 67.5q113 0 201 -52.5t143 -146.5v174h183v-717q0 -60 26.5 -88.5t65.5 -28.5q19 0 45 11l22 -160q-56 -18 -102 -18q-79 0 -141.5 45t-85.5 137q-58 -89 -150.5 -138t-206.5 -49zM594 145q136 0 226.5 101t90.5 246q0 146 -90 245t-227 99q-138 0 -229 -99
t-91 -245q0 -145 91 -246t229 -101z" />
    <glyph glyph-name="agrave.alt" horiz-adv-x="1284" 
d="M504 1409l201 -319h-166l-252 319h217zM567 -25q-201 0 -338 148t-137 369q0 144 61 261.5t170 185t244 67.5q113 0 201 -52.5t143 -146.5v174h183v-717q0 -60 26.5 -88.5t65.5 -28.5q19 0 45 11l22 -160q-56 -18 -102 -18q-79 0 -141.5 45t-85.5 137
q-58 -89 -150.5 -138t-206.5 -49zM594 145q136 0 226.5 101t90.5 246q0 146 -90 245t-227 99q-138 0 -229 -99t-91 -245q0 -145 91 -246t229 -101z" />
    <glyph glyph-name="amacron.alt" horiz-adv-x="1284" 
d="M315 1333h576v-139h-576v139zM567 -25q-201 0 -338 148t-137 369q0 144 61 261.5t170 185t244 67.5q113 0 201 -52.5t143 -146.5v174h183v-717q0 -60 26.5 -88.5t65.5 -28.5q19 0 45 11l22 -160q-56 -18 -102 -18q-79 0 -141.5 45t-85.5 137q-58 -89 -150.5 -138
t-206.5 -49zM594 145q136 0 226.5 101t90.5 246q0 146 -90 245t-227 99q-138 0 -229 -99t-91 -245q0 -145 91 -246t229 -101z" />
    <glyph glyph-name="aogonek.alt" horiz-adv-x="1284" 
d="M567 -25q-201 0 -338 148t-137 369q0 144 61 261.5t170 185t244 67.5q113 0 201 -52.5t143 -146.5v174h183v-717q0 -60 26.5 -88.5t65.5 -28.5q19 0 45 11l22 -160q-118 -47 -180.5 -104t-62.5 -117q0 -32 22.5 -52t59.5 -20q59 0 118 51l60 -102q-79 -82 -207 -82
q-94 0 -149.5 45.5t-55.5 126.5q0 150 186 258q-92 45 -120 160q-58 -89 -150.5 -138t-206.5 -49zM594 145q136 0 226.5 101t90.5 246q0 146 -90 245t-227 99q-138 0 -229 -99t-91 -245q0 -145 91 -246t229 -101z" />
    <glyph glyph-name="aring.alt" horiz-adv-x="1284" 
d="M604 1069q-98 0 -165.5 65.5t-67.5 159.5t67.5 160t165.5 66q99 0 166.5 -66t67.5 -160t-67.5 -159.5t-166.5 -65.5zM606 1184q47 0 79 30.5t32 79.5t-32.5 81t-78.5 32q-47 0 -79.5 -32t-32.5 -81q0 -48 32.5 -79t79.5 -31zM567 -25q-201 0 -338 148t-137 369
q0 144 61 261.5t170 185t244 67.5q113 0 201 -52.5t143 -146.5v174h183v-717q0 -60 26.5 -88.5t65.5 -28.5q19 0 45 11l22 -160q-56 -18 -102 -18q-79 0 -141.5 45t-85.5 137q-58 -89 -150.5 -138t-206.5 -49zM594 145q136 0 226.5 101t90.5 246q0 146 -90 245t-227 99
q-138 0 -229 -99t-91 -245q0 -145 91 -246t229 -101z" />
    <glyph glyph-name="atilde.alt" horiz-adv-x="1284" 
d="M754 1122q-50 0 -104.5 28t-105 55.5t-91.5 27.5q-9 0 -17 -1.5t-15.5 -5.5t-13 -7.5t-12 -11.5t-10 -12.5t-10 -15.5t-9.5 -16t-10 -18.5t-10 -18.5l-90 74q69 170 199 170q40 0 83 -17.5t74 -39t70 -39t72 -17.5q9 0 17.5 1.5t16 6t13 8t12 11.5t10 12.5t10 16t9 16.5
t9.5 18.5t9 18.5l90 -74q-67 -170 -196 -170zM567 -25q-201 0 -338 148t-137 369q0 144 61 261.5t170 185t244 67.5q113 0 201 -52.5t143 -146.5v174h183v-717q0 -60 26.5 -88.5t65.5 -28.5q19 0 45 11l22 -160q-56 -18 -102 -18q-79 0 -141.5 45t-85.5 137
q-58 -89 -150.5 -138t-206.5 -49zM594 145q136 0 226.5 101t90.5 246q0 146 -90 245t-227 99q-138 0 -229 -99t-91 -245q0 -145 91 -246t229 -101z" />
    <glyph glyph-name="jdotless.alt" horiz-adv-x="507" 
d="M6 -426h-45v172h39q164 0 164 170v1065h180v-1065q0 -160 -89.5 -251t-248.5 -91z" />
    <glyph glyph-name="jcircumflex.alt" horiz-adv-x="507" 
d="M170 1409h168l246 -319h-174l-156 206l-156 -206h-174zM6 -426h-45v172h39q164 0 164 170v1065h180v-1065q0 -160 -89.5 -251t-248.5 -91z" />
    <glyph glyph-name="lacute.alt" horiz-adv-x="507" 
d="M356 1837h219l-251 -319h-168zM164 0v1409h180v-1409h-180z" />
    <glyph glyph-name="lcaron.alt" horiz-adv-x="507" 
d="M164 0v1409h180v-1409h-180zM621 1409l-78 -340h-135l41 340h172z" />
    <glyph glyph-name="lcommaaccent.alt" horiz-adv-x="507" 
d="M164 0v1409h180v-1409h-180zM346 -104l-110 -291h-144l70 291h184z" />
    <glyph glyph-name="ldot.alt" horiz-adv-x="651" 
d="M164 0v1409h180v-1409h-180zM469 625q0 46 33 80t80 34q46 0 79 -34t33 -80t-33 -78.5t-79 -32.5q-47 0 -80 32.5t-33 78.5z" />
    <glyph glyph-name="lslash.alt" horiz-adv-x="507" 
d="M164 0v657l-131 -53v156l131 53v596h180v-522l131 53v-158l-131 -53v-729h-180z" />
    <glyph glyph-name="yacute.alt" horiz-adv-x="1038" 
d="M618 1409h220l-252 -319h-168zM475 -401h-184l164 409l-437 973h197l326 -754l282 754h185z" />
    <glyph glyph-name="ycircumflex.alt" horiz-adv-x="1038" 
d="M436 1409h168l246 -319h-174l-156 206l-155 -206h-175zM475 -401h-184l164 409l-437 973h197l326 -754l282 754h185z" />
    <glyph glyph-name="ydieresis.alt" horiz-adv-x="1038" 
d="M246 1257q0 42 30 73.5t72 31.5q44 0 75.5 -31.5t31.5 -73.5q0 -44 -31 -74t-76 -30q-43 0 -72.5 30t-29.5 74zM586 1257q0 42 31 73.5t73 31.5t73.5 -31.5t31.5 -73.5q0 -44 -31 -74t-74 -30t-73.5 30t-30.5 74zM475 -401h-184l164 409l-437 973h197l326 -754l282 754
h185z" />
    <glyph glyph-name="ygrave.alt" horiz-adv-x="1038" 
d="M420 1409l201 -319h-166l-252 319h217zM475 -401h-184l164 409l-437 973h197l326 -754l282 754h185z" />
    <glyph glyph-name="i.loclTRK" horiz-adv-x="507" 
d="M254 1151q-47 0 -80 33.5t-33 79.5t33 79t80 33q46 0 79.5 -33t33.5 -79t-33.5 -79.5t-79.5 -33.5zM344 0h-180v981h180v-981z" />
    <glyph glyph-name="fl.alt" horiz-adv-x="1177" 
d="M61 819v162h154v43q0 195 109 302.5t286 107.5q146 0 248 -45h158v-1389h-182v1212q-84 52 -207 52q-106 0 -168 -63t-62 -177v-43h234v-162h-234v-819h-182v819h-154z" />
    <glyph glyph-name="commaaccent.alt" 
d="M307 1102l113 291h147l-71 -291h-189z" />
    <glyph glyph-name="caroncomb.alt" 
d="M516 1409l-78 -340h-135l41 340h172z" />
    <glyph glyph-name="commaaccent" 
d="M506 -104l-111 -291h-143l70 291h184z" />
    </font>
</defs>
</svg>
