<?xml version="1.0" standalone="no"?>
<!DOCTYPE svg PUBLIC "-//W3C//DTD SVG 1.1//EN" "http://www.w3.org/Graphics/SVG/1.1/DTD/svg11.dtd" >
<svg xmlns="http://www.w3.org/2000/svg" xmlns:xlink="http://www.w3.org/1999/xlink" version="1.1">
<metadata>
Created by FontForge 20170731 at Sat Feb 11 11:56:34 2023
 By Aleksey,,,
Copyright 2021-2022 Indian Type Foundry. All rights reserved.
</metadata>
<defs>
<font id="ElevanceSans-Light" horiz-adv-x="819" >
  <font-face 
    font-family="Elevance Sans Light"
    font-weight="300"
    font-stretch="normal"
    units-per-em="2048"
    panose-1="0 0 0 0 0 0 0 0 0 0"
    ascent="1638"
    descent="-410"
    x-height="981"
    cap-height="1313"
    bbox="-432 -422 3062 1837"
    underline-thickness="102"
    underline-position="-307"
    unicode-range="U+0020-FB02"
  />
<missing-glyph horiz-adv-x="1261" 
d="M1049 0h-836v1313h836v-1313zM279 1247v-1181h704v1181h-704z" />
    <glyph glyph-name="fi" unicode="fi" horiz-adv-x="1095" 
d="M78 920v61h145v102q0 171 94 259t252 88q100 0 188.5 -34t141.5 -91l-43 -50q-116 113 -287 113q-140 0 -210 -75t-70 -216v-96h604v-981h-66v920h-538v-920h-66v920h-145z" />
    <glyph glyph-name="fl" unicode="fl" horiz-adv-x="1095" 
d="M827 0v1311q-99 57 -252 57q-141 0 -213.5 -80.5t-72.5 -230.5v-76h268v-61h-268v-920h-66v920h-145v61h145v82q0 181 96 274t256 93q156 0 275 -58h43v-1372h-66z" />
    <glyph glyph-name=".notdef" horiz-adv-x="1261" 
d="M1049 0h-836v1313h836v-1313zM279 1247v-1181h704v1181h-704z" />
    <glyph glyph-name=".null" horiz-adv-x="0" 
 />
    <glyph glyph-name="nonmarkingreturn" horiz-adv-x="682" 
 />
    <glyph glyph-name="space" unicode=" " horiz-adv-x="507" 
 />
    <glyph glyph-name="exclam" unicode="!" horiz-adv-x="538" 
d="M242 342l-9 971h78l-8 -971h-61zM268 -10q-26 0 -45.5 19.5t-19.5 45.5q0 28 19.5 48t45.5 20q28 0 48 -20t20 -48q0 -26 -20 -45.5t-48 -19.5z" />
    <glyph glyph-name="quotedbl" unicode="&#x22;" horiz-adv-x="505" 
d="M180 1409l-20 -377h-39l-21 377h80zM406 1409l-21 -377h-39l-20 377h80z" />
    <glyph glyph-name="numbersign" unicode="#" horiz-adv-x="1144" 
d="M176 0l84 414h-242l11 57h243l76 373h-246l11 57h245l84 410h64l-84 -410h403l84 410h64l-84 -410h237l-10 -57h-237l-76 -373h239l-10 -57h-241l-84 -414h-64l84 414h-403l-84 -414h-64zM336 471h403l76 373h-403z" />
    <glyph glyph-name="dollar" unicode="$" horiz-adv-x="1112" 
d="M332 25q-82 21 -230 112l35 60q95 -63 209 -97t221 -34q166 0 272.5 76.5t106.5 213.5q0 77 -44.5 130.5t-115.5 83t-156.5 52.5t-171.5 47.5t-157 58.5t-115.5 96t-44.5 149q0 141 109.5 238t288.5 104v155h65v-155q211 -6 350 -96l-34 -54q-138 88 -355 88
q-158 0 -258 -80t-100 -196q0 -74 44.5 -126.5t115.5 -81.5t156.5 -52t171.5 -48t157 -59t115.5 -95.5t44.5 -147.5q0 -169 -114 -262t-294 -103v-160h-65v160q-125 3 -207 23z" />
    <glyph glyph-name="percent" unicode="%" horiz-adv-x="1566" 
d="M383 694q-138 0 -230 92.5t-92 227.5t92 227t230 92t230 -92t92 -227t-92 -227.5t-230 -92.5zM356 0h-71l923 1313h76zM383 752q104 0 182 71.5t78 190.5t-78 190.5t-182 71.5t-182 -71.5t-78 -190.5t78 -190.5t182 -71.5zM1184 -20q-138 0 -230 92t-92 227t92 227
t230 92t229.5 -92t91.5 -227t-91.5 -227t-229.5 -92zM1184 37q104 0 182 71.5t78 190.5t-78 190.5t-182 71.5t-182 -71.5t-78 -190.5t78 -190.5t182 -71.5z" />
    <glyph glyph-name="ampersand" unicode="&#x26;" horiz-adv-x="1241" 
d="M530 -20q-123 0 -221 39t-157.5 120t-59.5 193q0 70 27 128t78 102t107 75.5t132 62.5l-63 68q-127 138 -127 270q0 118 92 206.5t229 88.5t227.5 -88.5t90.5 -206.5q0 -116 -88.5 -210t-259.5 -150l405 -434q82 119 105 272l10 66l55 -9l-10 -65q-26 -180 -119 -309
l174 -187l-45 -37l-166 179q-157 -174 -416 -174zM422 801l74 -78q327 112 327 317q0 93 -73 164.5t-183 71.5q-111 0 -185.5 -71.5t-74.5 -164.5q0 -58 22.5 -111t92.5 -128zM154 332q0 -140 107.5 -217.5t268.5 -77.5q234 0 375 160l-426 458q-325 -114 -325 -323z" />
    <glyph glyph-name="quotesingle" unicode="'" horiz-adv-x="280" 
d="M180 1409l-20 -377h-39l-21 377h80z" />
    <glyph glyph-name="parenleft" unicode="(" horiz-adv-x="600" 
d="M582 -246l-39 -41q-189 165 -300.5 386t-111.5 472t111.5 472.5t300.5 386.5l39 -41q-179 -159 -282 -377.5t-103 -440.5t103 -440t282 -377z" />
    <glyph glyph-name="parenright" unicode=")" horiz-adv-x="600" 
d="M57 -287l-39 41q179 159 282 377t103 440t-103 440.5t-282 377.5l39 41q189 -165 300.5 -386.5t111.5 -472.5t-111.5 -472t-300.5 -386z" />
    <glyph glyph-name="asterisk" unicode="*" horiz-adv-x="745" 
d="M504 891l-131 199l-131 -199l-60 43l148 188l-230 62l23 71l223 -86l-10 240h74l-11 -240l224 86l22 -71l-229 -62l147 -188z" />
    <glyph glyph-name="plus" unicode="+" horiz-adv-x="1021" 
d="M141 631v61h338v365h66v-365h338v-61h-338v-365h-66v365h-338z" />
    <glyph glyph-name="comma" unicode="," horiz-adv-x="292" 
d="M188 123q30 0 50 -19.5t20 -46.5q0 -25 -22 -67l-130 -244h-51l113 250q-45 17 -45 61q0 27 19 46.5t46 19.5z" />
    <glyph glyph-name="hyphen" unicode="-" horiz-adv-x="579" 
d="M59 516h461v-61h-461v61z" />
    <glyph glyph-name="period" unicode="." horiz-adv-x="296" 
d="M188 -10q-26 0 -45.5 19.5t-19.5 45.5q0 28 19.5 48t45.5 20q28 0 48 -20t20 -48q0 -26 -20 -45.5t-48 -19.5z" />
    <glyph glyph-name="slash" unicode="/" horiz-adv-x="759" 
d="M39 0l614 1313h68l-615 -1313h-67z" />
    <glyph glyph-name="zero" unicode="0" horiz-adv-x="1193" 
d="M596 -20q-129 0 -233.5 87t-163 242t-58.5 348q0 192 58.5 346.5t163 242t233.5 87.5q130 0 234.5 -87.5t163.5 -242t59 -346.5q0 -193 -59 -348t-163.5 -242t-234.5 -87zM596 41q111 0 200.5 79t140 220t50.5 317t-50.5 316.5t-140 219.5t-200.5 79t-200 -79
t-139 -219.5t-50 -316.5t50 -316.5t139 -220t200 -79.5z" />
    <glyph glyph-name="one" unicode="1" horiz-adv-x="770" 
d="M485 0h-65v1225l-283 -277l-41 45l328 320h61v-1313z" />
    <glyph glyph-name="two" unicode="2" horiz-adv-x="970" 
d="M39 0v57l547 529q102 99 149 187t47 190q0 124 -91.5 216.5t-235.5 92.5q-233 0 -351 -215l-53 35q135 241 404 241q170 0 281.5 -109.5t111.5 -260.5q0 -117 -46.5 -210.5t-168.5 -209.5l-502 -482h739v-61h-831z" />
    <glyph glyph-name="three" unicode="3" horiz-adv-x="1001" 
d="M451 -20q-135 0 -232.5 46.5t-179.5 149.5l49 47q78 -97 164.5 -139.5t198.5 -42.5q174 0 269 96t95 240q0 56 -13 103t-44 90.5t-79 73.5t-123 47.5t-171 17.5h-63v51l450 491h-682v62h764v-62l-444 -481q106 -4 188 -26.5t134.5 -58t86.5 -85.5t48 -104.5t14 -118.5
q0 -79 -27 -149.5t-79 -126.5t-135.5 -88.5t-188.5 -32.5z" />
    <glyph glyph-name="four" unicode="4" horiz-adv-x="1079" 
d="M59 387l670 926h53v-926h219v-61h-219v-326h-65v326h-658v61zM131 387h586v811z" />
    <glyph glyph-name="five" unicode="5" horiz-adv-x="1103" 
d="M532 39q174 0 269.5 99t95.5 245q0 71 -21 134t-62.5 114.5t-112.5 81.5t-164 30q-111 0 -181.5 -22t-148.5 -74l-35 19l113 647h612v-62h-561l-90 -520q114 72 291 72q107 0 190.5 -34.5t134 -94.5t76 -133.5t25.5 -157.5q0 -80 -27.5 -152t-79 -129t-135.5 -91
t-189 -34q-134 0 -231.5 47t-179.5 150l49 47q79 -97 164.5 -139.5t197.5 -42.5z" />
    <glyph glyph-name="six" unicode="6" horiz-adv-x="1148" 
d="M582 -20q-184 0 -312.5 127.5t-128.5 312.5q0 103 36 188t122 201l373 504h78l-365 -500q88 43 195 43q194 0 316 -125.5t122 -310.5q0 -188 -126 -314t-310 -126zM582 795q-163 0 -269 -106t-106 -269q0 -164 106 -271.5t269 -107.5q160 0 265 107.5t105 271.5
q0 163 -105 269t-265 106z" />
    <glyph glyph-name="seven" unicode="7" horiz-adv-x="884" 
d="M258 0h-70l564 1251h-734v62h807v-56z" />
    <glyph glyph-name="eight" unicode="8" horiz-adv-x="1085" 
d="M543 -20q-183 0 -302.5 111t-119.5 280q0 128 79.5 224t211.5 130q-104 31 -166 108t-62 177q0 140 102 231.5t257 91.5t256.5 -91.5t101.5 -231.5q0 -101 -61.5 -177.5t-165.5 -107.5q132 -34 211.5 -130t79.5 -224q0 -169 -119.5 -280t-302.5 -111zM545 752
q126 0 208.5 73.5t82.5 186.5t-82.5 186.5t-208.5 73.5q-128 0 -211.5 -74t-83.5 -186t83.5 -186t211.5 -74zM545 41q153 0 253.5 93.5t100.5 234.5q0 139 -100 230t-254 91q-155 0 -257 -91t-102 -230q0 -141 102 -234.5t257 -93.5z" />
    <glyph glyph-name="nine" unicode="9" horiz-adv-x="1148" 
d="M567 1333q184 0 312.5 -127.5t128.5 -312.5q0 -103 -36 -188t-122 -201l-373 -504h-78l365 500q-88 -43 -195 -43q-194 0 -316 125.5t-122 310.5q0 188 126 314t310 126zM567 518q163 0 269 106t106 269q0 164 -106 271.5t-269 107.5q-160 0 -265 -107.5t-105 -271.5
q0 -163 105 -269t265 -106z" />
    <glyph glyph-name="colon" unicode=":" horiz-adv-x="296" 
d="M188 788q-26 0 -45.5 20t-19.5 46q0 28 19.5 48t45.5 20q28 0 48 -20t20 -48q0 -26 -20 -46t-48 -20zM188 -10q-26 0 -45.5 19.5t-19.5 45.5q0 28 19.5 48t45.5 20q28 0 48 -20t20 -48q0 -26 -20 -45.5t-48 -19.5z" />
    <glyph glyph-name="semicolon" unicode=";" horiz-adv-x="296" 
d="M188 788q-26 0 -45.5 20t-19.5 46q0 28 19.5 48t45.5 20q28 0 48 -20t20 -48q0 -26 -20 -46t-48 -20zM188 123q30 0 50 -19.5t20 -46.5q0 -25 -22 -67l-130 -244h-51l113 250q-45 17 -45 61q0 27 19 46.5t46 19.5z" />
    <glyph glyph-name="less" unicode="&#x3c;" horiz-adv-x="1083" 
d="M913 303v-70l-741 406v45l741 403v-69l-657 -356z" />
    <glyph glyph-name="equal" unicode="=" horiz-adv-x="1021" 
d="M141 774v62h742v-62h-742zM141 487v62h742v-62h-742z" />
    <glyph glyph-name="greater" unicode="&#x3e;" horiz-adv-x="1083" 
d="M172 303l657 359l-657 356v69l741 -403v-45l-741 -406v70z" />
    <glyph glyph-name="question" unicode="?" horiz-adv-x="978" 
d="M406 342l-3 233v62h25q172 0 273.5 99.5t101.5 232.5q0 71 -28 130t-75.5 96t-107.5 57t-125 20q-89 0 -172.5 -43t-147.5 -129l-49 37q69 97 169 146.5t208 49.5q75 0 144.5 -23.5t125 -68t88.5 -115t33 -157.5q0 -70 -26.5 -136.5t-75 -121t-125.5 -90.5t-170 -43
l-2 -236h-61zM446 -10q-26 0 -45.5 19.5t-19.5 45.5q0 28 19.5 48t45.5 20q28 0 48 -20t20 -48q0 -26 -20 -45.5t-48 -19.5z" />
    <glyph glyph-name="at" unicode="@" horiz-adv-x="1740" 
d="M805 174q-119 0 -201 97.5t-82 256.5q0 178 103.5 300t253.5 122q176 0 233 -180l8 158h66l-25 -428q-13 -262 144 -262q79 0 136.5 53.5t85 141.5t27.5 200q0 127 -51.5 243.5t-139.5 202.5t-214 137.5t-268 51.5t-270.5 -55.5t-221.5 -149t-148 -223t-55 -271.5
q0 -140 55 -269t147.5 -223t221.5 -150t271 -56q114 0 190 20.5t150 65.5l30 -53q-147 -94 -370 -94q-154 0 -294.5 60.5t-242.5 162t-162.5 242t-60.5 294.5t60.5 294.5t162.5 242.5t242.5 162.5t294.5 60.5q153 0 291 -56.5t235.5 -150.5t155 -221.5t57.5 -265.5
q0 -127 -37 -230.5t-110.5 -166t-172.5 -62.5q-77 0 -131.5 48.5t-68.5 154.5q-38 -96 -113.5 -150.5t-181.5 -54.5zM807 236q135 0 214 104.5t79 255.5q0 125 -59 209t-158 84q-125 0 -210 -101.5t-85 -250.5q0 -128 63 -214.5t156 -86.5z" />
    <glyph glyph-name="A" unicode="A" horiz-adv-x="1280" 
d="M1165 0l-172 406h-712l-175 -406h-67l563 1313h76l563 -1313h-76zM305 467h662l-330 774z" />
    <glyph glyph-name="B" unicode="B" horiz-adv-x="1251" 
d="M213 0v1311h508q150 0 256 -98t106 -236q0 -109 -62.5 -185t-141.5 -106q111 -32 186.5 -117.5t75.5 -214.5q0 -146 -112.5 -250t-270.5 -104h-545zM711 1249h-432v-540h434q127 0 216 78.5t89 189.5q0 113 -90 192.5t-217 79.5zM745 647h-466v-586h464q137 0 234.5 86
t97.5 207t-96.5 207t-233.5 86z" />
    <glyph glyph-name="C" unicode="C" horiz-adv-x="1294" 
d="M1233 1192l-41 -51q-89 66 -182.5 98.5t-218.5 32.5q-161 0 -298 -83t-216.5 -225.5t-79.5 -310.5q0 -167 80 -307.5t220.5 -222.5t309.5 -82q234 0 389 125l39 -45q-93 -77 -197.5 -109t-236.5 -32q-184 0 -338.5 90t-243 244.5t-88.5 338.5q0 138 52 264t140.5 217
t211 145t256.5 54q138 0 243.5 -34t198.5 -107z" />
    <glyph glyph-name="D" unicode="D" horiz-adv-x="1423" 
d="M213 0v1311h342q333 0 535 -180t202 -476t-192.5 -475.5t-509.5 -179.5h-377zM567 1249h-288v-1188h288q298 0 479 163t181 431t-181 431t-479 163z" />
    <glyph glyph-name="E" unicode="E" horiz-adv-x="1105" 
d="M213 0v1313h803v-62h-737v-565h655v-61h-655v-564h737v-61h-803z" />
    <glyph glyph-name="F" unicode="F" horiz-adv-x="1073" 
d="M213 0v1311h780v-62h-714v-573h632v-62h-632v-614h-66z" />
    <glyph glyph-name="G" unicode="G" horiz-adv-x="1386" 
d="M821 -20q-153 0 -283 53t-218.5 143.5t-138.5 214t-50 262.5q0 138 52 264t140.5 217t211 145t256.5 54q138 0 243.5 -34t198.5 -107l-41 -51q-89 66 -182.5 98.5t-218.5 32.5q-161 0 -298 -83t-216.5 -225.5t-79.5 -310.5q0 -126 45 -238t125 -195t199.5 -131t260.5 -48
q217 0 379 98v459h-415v61h481v-555q-186 -124 -451 -124z" />
    <glyph glyph-name="H" unicode="H" horiz-adv-x="1464" 
d="M1186 0v625h-907v-625h-66v1313h66v-627h907v627h65v-1313h-65z" />
    <glyph glyph-name="I" unicode="I" horiz-adv-x="491" 
d="M213 0v1313h66v-1313h-66z" />
    <glyph glyph-name="J" unicode="J" horiz-adv-x="823" 
d="M39 96l47 45q37 -46 94 -73t125 -27q123 0 191.5 76.5t68.5 228.5v967h66v-979q0 -90 -26 -159.5t-72 -111t-103.5 -62.5t-124.5 -21q-79 0 -152 30.5t-114 85.5z" />
    <glyph glyph-name="K" unicode="K" horiz-adv-x="1134" 
d="M279 0h-66v1313h66v-656l704 656h90l-711 -666l736 -647h-103l-716 631v-631z" />
    <glyph glyph-name="L" unicode="L" horiz-adv-x="1062" 
d="M213 0v1313h66v-1252h745v-61h-811z" />
    <glyph glyph-name="M" unicode="M" horiz-adv-x="1697" 
d="M850 274l-571 922v-1196h-66v1313h74l567 -922l565 922h66v-1313h-66v1196z" />
    <glyph glyph-name="N" unicode="N" horiz-adv-x="1464" 
d="M1188 0l-920 1217v-1217h-65v1313h73l920 -1217v1217h66v-1313h-74z" />
    <glyph glyph-name="O" unicode="O" horiz-adv-x="1581" 
d="M791 1333q134 0 256.5 -54t210.5 -145t140 -217t52 -264q0 -183 -88 -338t-239.5 -245t-331.5 -90q-135 0 -257 53t-210.5 143t-140.5 215t-52 262q0 138 52 264t140.5 217t211 145t256.5 54zM791 41q161 0 298 82t216 223t79 307q0 168 -79 310.5t-216 225.5t-298 83
t-298 -83t-216.5 -225.5t-79.5 -310.5q0 -166 79.5 -307t216.5 -223t298 -82z" />
    <glyph glyph-name="P" unicode="P" horiz-adv-x="1230" 
d="M213 0v1313h446q208 0 334.5 -105.5t126.5 -279.5q0 -172 -128.5 -277.5t-340.5 -105.5h-372v-545h-66zM666 1251h-387v-645h387q175 0 282 88.5t107 233.5q0 147 -106.5 235t-282.5 88z" />
    <glyph glyph-name="Q" unicode="Q" horiz-adv-x="1581" 
d="M791 -20q-135 0 -257 53t-210.5 143t-140.5 215t-52 262q0 138 52 264t140.5 217t211 145t256.5 54t256.5 -54t210.5 -145t140 -217t52 -264q0 -146 -57.5 -275.5t-159.5 -223.5l219 -220l-45 -45l-223 224q-173 -133 -393 -133zM791 41q193 0 348 117l-221 221l45 45
l225 -225q92 86 144 203.5t52 250.5q0 168 -79 310.5t-216 225.5t-298 83t-298 -83t-216.5 -225.5t-79.5 -310.5q0 -166 79.5 -307t216.5 -223t298 -82z" />
    <glyph glyph-name="R" unicode="R" horiz-adv-x="1224" 
d="M213 0v1313h446q189 0 304.5 -100t115.5 -265q0 -149 -99 -246t-267 -114l381 -588h-76l-381 586h-358v-586h-66zM666 1251h-387v-604h387q157 0 252.5 83t95.5 218q0 138 -95.5 220.5t-252.5 82.5z" />
    <glyph glyph-name="S" unicode="S" horiz-adv-x="1112" 
d="M332 2q-79 20 -230 113l35 59q95 -63 209 -97t221 -34q166 0 272.5 77t106.5 214q0 77 -44.5 131t-115.5 84t-156.5 54.5t-171.5 52.5t-157 66t-115.5 106t-44.5 163q0 145 118 243.5t306 98.5q226 0 389 -96l-34 -53q-151 88 -355 88q-158 0 -258 -80t-100 -197
q0 -64 27.5 -114t74 -82t107 -57t127.5 -45t133.5 -39.5t127 -46t107 -60.5t74 -86.5t27.5 -120.5q0 -90 -35 -161t-96.5 -114.5t-141 -66t-172.5 -22.5q-149 0 -235 22z" />
    <glyph glyph-name="T" unicode="T" horiz-adv-x="1024" 
d="M1006 1251h-461v-1251h-66v1251h-461v62h988v-62z" />
    <glyph glyph-name="U" unicode="U" horiz-adv-x="1337" 
d="M193 473v840h65v-846q0 -192 112.5 -309t297.5 -117q186 0 298.5 117t112.5 309v846h66v-840q0 -223 -131 -358t-346 -135t-345 135t-130 358z" />
    <glyph glyph-name="V" unicode="V" horiz-adv-x="1198" 
d="M115 1313l487 -1237l490 1237h67l-522 -1313h-76l-522 1313h76z" />
    <glyph glyph-name="W" unicode="W" horiz-adv-x="1927" 
d="M1798 1313h70l-430 -1313h-74l-399 1221l-402 -1221h-74l-430 1313h72l397 -1219l396 1219h82l397 -1219z" />
    <glyph glyph-name="X" unicode="X" horiz-adv-x="1097" 
d="M137 1313l416 -592l414 592h71l-448 -643l469 -670h-78l-436 621l-434 -621h-72l469 674l-449 639h78z" />
    <glyph glyph-name="Y" unicode="Y" horiz-adv-x="1097" 
d="M516 0v453l-498 860h76l455 -791l457 791h73l-497 -860v-453h-66z" />
    <glyph glyph-name="Z" unicode="Z" horiz-adv-x="1097" 
d="M80 61l860 1190h-860v62h938v-62l-860 -1190h860v-61h-938v61z" />
    <glyph glyph-name="bracketleft" unicode="[" horiz-adv-x="624" 
d="M213 -266v1675h352v-61h-286v-1553h286v-61h-352z" />
    <glyph glyph-name="backslash" unicode="\" horiz-adv-x="759" 
d="M721 0h-68l-614 1313h67z" />
    <glyph glyph-name="bracketright" unicode="]" horiz-adv-x="624" 
d="M412 -266h-353v61h287v1553h-287v61h353v-1675z" />
    <glyph glyph-name="asciicircum" unicode="^" horiz-adv-x="1021" 
d="M487 1313h58l309 -656h-68l-270 570l-278 -570h-68z" />
    <glyph glyph-name="underscore" unicode="_" horiz-adv-x="804" 
d="M-23 -41h850v-61h-850v61z" />
    <glyph glyph-name="grave" unicode="`" horiz-adv-x="774" 
d="M254 1409l201 -319h-64l-225 319h88z" />
    <glyph glyph-name="a" unicode="a" horiz-adv-x="1290" 
d="M604 -20q-207 0 -345 149t-138 363t138 361.5t345 147.5q137 0 247 -70t171 -188v238h65v-981h-65v240q-61 -120 -171 -190t-247 -70zM606 41q180 0 298 132t118 321q0 188 -117.5 317t-298.5 129t-300.5 -129t-119.5 -317q0 -123 53.5 -226.5t150.5 -165t216 -61.5z" />
    <glyph glyph-name="b" unicode="b" horiz-adv-x="1290" 
d="M686 1001q207 0 345 -149t138 -363t-138 -361.5t-345 -147.5q-137 0 -247 68.5t-171 184.5v-233h-65v1409h65v-664q61 118 171 187t247 69zM688 940q-119 0 -216 -61.5t-150.5 -165t-53.5 -226.5q0 -188 119.5 -317t300.5 -129t298.5 129t117.5 317q0 189 -118 321
t-298 132z" />
    <glyph glyph-name="c" unicode="c" horiz-adv-x="993" 
d="M913 831q-119 109 -303 109t-304 -129t-120 -317q0 -123 53.5 -226.5t150.5 -165t216 -61.5q199 0 305 106l39 -47q-59 -59 -149.5 -89.5t-196.5 -30.5q-207 0 -345 149t-138 363q0 140 62 256.5t175 184.5t254 68q105 0 194.5 -32t147.5 -88z" />
    <glyph glyph-name="d" unicode="d" horiz-adv-x="1290" 
d="M604 -20q-207 0 -345 149t-138 363t138 361.5t345 147.5q137 0 247 -70t171 -188v666h65v-1409h-65v240q-61 -120 -171 -190t-247 -70zM606 41q180 0 298 132t118 321q0 188 -117.5 317t-298.5 129t-300.5 -129t-119.5 -317q0 -123 53.5 -226.5t150.5 -165t216 -61.5z
" />
    <glyph glyph-name="e" unicode="e" horiz-adv-x="1142" 
d="M614 -20q-141 0 -254.5 69t-176 185.5t-62.5 257.5q0 214 133.5 361.5t335.5 147.5q130 0 237 -67t166.5 -179.5t59.5 -244.5q0 -21 -4 -37h-863q8 -183 128 -307.5t302 -124.5q96 0 184 32.5t146 90.5l39 -47q-65 -65 -163.5 -101t-207.5 -36zM590 940
q-165 0 -277.5 -115.5t-124.5 -289.5h797q-23 188 -129.5 296.5t-265.5 108.5z" />
    <glyph glyph-name="f" unicode="f" horiz-adv-x="579" 
d="M78 920v61h145v205q0 120 63 182t167 62q124 0 190 -82l-43 -43q-56 63 -147 63q-81 0 -122.5 -49t-41.5 -139v-199h268v-61h-268v-920h-66v920h-145z" />
    <glyph glyph-name="g" unicode="g" horiz-adv-x="1290" 
d="M242 -250q153 -110 366 -110q203 0 308.5 108t105.5 315v177q-61 -120 -171 -190t-247 -70q-207 0 -345 149t-138 363t138 361.5t345 147.5q137 0 247 -70t171 -188v238h65v-911q0 -240 -122.5 -366t-356.5 -126q-247 0 -403 117zM606 41q180 0 298 132t118 321
q0 188 -117.5 317t-298.5 129t-300.5 -129t-119.5 -317q0 -123 53.5 -226.5t150.5 -165t216 -61.5z" />
    <glyph glyph-name="h" unicode="h" horiz-adv-x="1161" 
d="M203 0v1409h65v-598q47 89 131.5 139.5t196.5 50.5q178 0 285.5 -107t107.5 -282v-612h-65v594q0 161 -87 253.5t-241 92.5t-241 -92.5t-87 -253.5v-594h-65z" />
    <glyph glyph-name="i" unicode="i" horiz-adv-x="471" 
d="M236 1217q-23 0 -39.5 16t-16.5 39q0 22 16.5 38.5t39.5 16.5t39 -16.5t16 -38.5q0 -23 -16 -39t-39 -16zM268 0h-65v981h65v-981z" />
    <glyph glyph-name="j" unicode="j" horiz-adv-x="471" 
d="M236 1217q-23 0 -39.5 16t-16.5 39q0 22 16.5 38.5t39.5 16.5t39 -16.5t16 -38.5q0 -23 -16 -39t-39 -16zM55 -422q-53 0 -86.5 12.5t-68.5 38.5l34 49q47 -38 121 -38q72 0 110 46.5t38 135.5v1159h65v-1153q0 -123 -54.5 -186.5t-158.5 -63.5z" />
    <glyph glyph-name="k" unicode="k" horiz-adv-x="995" 
d="M268 0h-65v1409h65v-887l580 459h98l-602 -479l623 -502h-101l-598 481v-481z" />
    <glyph glyph-name="l" unicode="l" horiz-adv-x="499" 
d="M424 57l14 -59q-34 -12 -69 -12q-73 0 -119.5 50t-46.5 146v1227h65v-1223q0 -73 30.5 -105t76.5 -32q28 0 49 8z" />
    <glyph glyph-name="m" unicode="m" horiz-adv-x="1800" 
d="M268 0h-65v981h65v-164q45 87 124 135.5t183 48.5q126 0 217 -61.5t130 -169.5q41 107 127.5 169t205.5 62q168 0 270.5 -107t102.5 -282v-612h-65v594q0 162 -82 254t-226 92t-225.5 -92t-81.5 -254v-594h-65v594q0 162 -82 254t-226 92t-225.5 -92t-81.5 -254v-594z
" />
    <glyph glyph-name="n" unicode="n" horiz-adv-x="1161" 
d="M203 0v981h65v-170q47 89 131.5 139.5t196.5 50.5q178 0 285.5 -107t107.5 -282v-612h-65v594q0 161 -87 253.5t-241 92.5t-241 -92.5t-87 -253.5v-594h-65z" />
    <glyph glyph-name="o" unicode="o" horiz-adv-x="1208" 
d="M604 -20q-207 0 -345 149t-138 363t138 361.5t345 147.5t345 -147.5t138 -361.5t-138 -363t-345 -149zM606 41q180 0 298 132t118 321q0 188 -117.5 317t-298.5 129t-300.5 -129t-119.5 -317q0 -123 53.5 -226.5t150.5 -165t216 -61.5z" />
    <glyph glyph-name="p" unicode="p" horiz-adv-x="1290" 
d="M268 -401h-65v1382h65v-236q61 118 171 187t247 69q207 0 345 -149t138 -363t-138 -361.5t-345 -147.5q-137 0 -247 68.5t-171 184.5v-634zM688 41q181 0 298.5 129t117.5 317q0 189 -118 321t-298 132q-119 0 -216 -61.5t-150.5 -165t-53.5 -226.5q0 -188 119.5 -317
t300.5 -129z" />
    <glyph glyph-name="q" unicode="q" horiz-adv-x="1290" 
d="M604 -20q-207 0 -345 149t-138 363t138 361.5t345 147.5q137 0 247 -70t171 -188v238h65v-1382h-65v641q-61 -120 -171 -190t-247 -70zM606 41q180 0 298 132t118 321q0 188 -117.5 317t-298.5 129t-300.5 -129t-119.5 -317q0 -123 53.5 -226.5t150.5 -165t216 -61.5z
" />
    <glyph glyph-name="r" unicode="r" horiz-adv-x="692" 
d="M203 0v981h65v-152q39 81 104.5 126.5t151.5 45.5q94 0 140 -34l-29 -60q-54 33 -123 33q-113 0 -178.5 -92.5t-65.5 -253.5v-594h-65z" />
    <glyph glyph-name="s" unicode="s" horiz-adv-x="880" 
d="M438 -20q-198 0 -362 102l28 57q162 -98 338 -98q134 0 208.5 56.5t74.5 150.5q0 61 -33.5 103.5t-86.5 66.5t-117.5 43t-129 40t-117.5 49.5t-86.5 80.5t-33.5 125q0 107 92 176t248 69q161 0 307 -77l-27 -56q-132 72 -280 72q-124 0 -199.5 -52t-75.5 -130
q0 -60 33.5 -102.5t86.5 -66.5t117.5 -43t129.5 -40.5t118 -50t86.5 -80t33.5 -123.5q0 -125 -94.5 -198.5t-258.5 -73.5z" />
    <glyph glyph-name="t" unicode="t" horiz-adv-x="686" 
d="M78 920v61h145v225h66v-225h301v-61h-301v-689q0 -93 44.5 -141.5t129.5 -48.5q91 0 147 53l37 -51q-67 -63 -182 -63q-119 0 -180.5 62.5t-61.5 182.5v695h-145z" />
    <glyph glyph-name="u" unicode="u" horiz-adv-x="1161" 
d="M248 981v-563q0 -164 90.5 -264.5t239.5 -100.5q152 0 243.5 100t91.5 265v563h66v-571q0 -189 -110 -303.5t-291 -114.5q-179 0 -287.5 114.5t-108.5 303.5v571h66z" />
    <glyph glyph-name="v" unicode="v" horiz-adv-x="956" 
d="M520 0h-84l-397 981h72l368 -915l369 915h70z" />
    <glyph glyph-name="w" unicode="w" horiz-adv-x="1591" 
d="M473 0h-78l-336 981h72l303 -901l326 901h76l323 -899l303 899h70l-336 -981h-76l-323 891z" />
    <glyph glyph-name="x" unicode="x" horiz-adv-x="942" 
d="M39 0l389 506l-369 475h82l334 -428l332 428h76l-369 -479l389 -502h-82l-354 457l-352 -457h-76z" />
    <glyph glyph-name="y" unicode="y" horiz-adv-x="956" 
d="M397 -195l72 185l-442 991h67l406 -911l350 911h68l-463 -1200q-38 -97 -92.5 -150t-145.5 -53q-102 0 -178 68l37 51q63 -57 149 -57q57 0 96.5 36.5t75.5 128.5z" />
    <glyph glyph-name="z" unicode="z" horiz-adv-x="960" 
d="M90 61l690 859h-680v61h760v-61l-690 -859h700v-61h-780v61z" />
    <glyph glyph-name="braceleft" unicode="{" horiz-adv-x="675" 
d="M100 541v61q108 0 146.5 43t38.5 150v354q0 117 63 188.5t189 71.5h79v-61h-73q-193 0 -193 -193v-379q0 -196 -153 -205q153 -9 153 -204v-379q0 -193 193 -193h73v-61h-79q-126 0 -189 71.5t-63 188.5v354q0 107 -38.5 150t-146.5 43z" />
    <glyph glyph-name="bar" unicode="|" horiz-adv-x="491" 
d="M279 -401h-66v1810h66v-1810z" />
    <glyph glyph-name="braceright" unicode="}" horiz-adv-x="675" 
d="M575 541q-107 0 -145.5 -43t-38.5 -150v-354q0 -117 -63 -188.5t-189 -71.5h-80v61h74q193 0 193 193v379q0 195 153 204q-153 9 -153 205v379q0 193 -193 193h-74v61h80q126 0 189 -71.5t63 -188.5v-354q0 -107 38.5 -150t145.5 -43v-61z" />
    <glyph glyph-name="asciitilde" unicode="~" horiz-adv-x="1021" 
d="M141 598v72q109 75 203 75q49 0 96 -16.5t78 -36.5t74 -36.5t86 -16.5q102 0 205 68v-72q-97 -62 -201 -62q-49 0 -96 16.5t-79 37t-75.5 37t-85.5 16.5q-65 0 -112 -22t-93 -60z" />
    <glyph glyph-name="nbspace" unicode="&#xa0;" horiz-adv-x="466" 
 />
    <glyph glyph-name="exclamdown" unicode="&#xa1;" horiz-adv-x="538" 
d="M270 868q-28 0 -47.5 20t-19.5 48q0 26 19.5 45.5t47.5 19.5q26 0 46 -19.5t20 -45.5q0 -28 -20 -48t-46 -20zM305 -322h-78l9 971h61z" />
    <glyph glyph-name="cent" unicode="&#xa2;" horiz-adv-x="1034" 
d="M913 987q-119 109 -303 109t-304 -129.5t-120 -317.5q0 -123 53.5 -226.5t150.5 -164.5t216 -61q199 0 305 106l39 -47q-115 -115 -323 -121v-155h-66v157q-191 17 -315.5 162.5t-124.5 347.5q0 201 124 345t318 163v158h66v-156q100 -3 184.5 -34.5t140.5 -86.5z" />
    <glyph glyph-name="sterling" unicode="&#xa3;" horiz-adv-x="1046" 
d="M80 61h63q123 0 123 148v360h-143v62h143v315q0 176 107 282.5t276 106.5q116 0 202 -47t138 -129l-53 -41q-51 74 -126 115t-161 41q-148 0 -232.5 -94.5t-84.5 -239.5v-309h557v-62h-557v-364q0 -121 -84 -144h770v-61h-938v61z" />
    <glyph glyph-name="currency" unicode="&#xa4;" horiz-adv-x="1058" 
d="M528 209q-161 0 -276 115l-150 -142l-43 47l152 144q-84 114 -84 256q0 140 82 256l-150 141l43 47l150 -141q112 115 276 115t279 -115l149 141l43 -47l-151 -143q78 -111 78 -254q0 -144 -80 -254l153 -146l-43 -47l-151 144q-114 -117 -277 -117zM528 270
q143 0 237.5 104t94.5 255q0 150 -94.5 253t-237.5 103q-145 0 -240 -103t-95 -253q0 -151 95 -255t240 -104z" />
    <glyph glyph-name="yen" unicode="&#xa5;" horiz-adv-x="1097" 
d="M582 0h-66v453l-2 4h-391v61h354l-141 246h-213v61h178l-283 488h76l455 -791l457 791h73l-282 -488h178v-61h-213l-141 -246h354v-61h-391l-2 -4v-453z" />
    <glyph glyph-name="brokenbar" unicode="&#xa6;" horiz-adv-x="491" 
d="M279 1409v-747h-66v747h66zM279 346v-747h-66v747h66z" />
    <glyph glyph-name="section" unicode="&#xa7;" horiz-adv-x="1275" 
d="M1036 1157l-51 -45q-48 67 -147 113.5t-211 46.5q-162 0 -260.5 -69t-98.5 -183q0 -57 30.5 -101.5t81.5 -74t117.5 -52.5t140.5 -43t147.5 -41t140 -50.5t117.5 -67t81.5 -95t30.5 -130.5q0 -75 -44.5 -140t-113.5 -102q76 -76 76 -186q0 -166 -118.5 -262.5
t-325.5 -96.5q-152 0 -273.5 55.5t-195.5 151.5l49 45q74 -92 181.5 -141t236.5 -49q178 0 279.5 78t101.5 208q0 82 -49 140.5t-127 92t-172.5 60.5t-189.5 55t-173 64t-127 99.5t-49 150.5q0 70 44.5 133.5t133.5 101.5q-96 76 -96 193q0 143 116 230t308 87
q133 0 244.5 -51.5t164.5 -124.5zM186 588q0 -68 41 -119.5t105 -80.5t150 -56.5t167.5 -47.5t167 -53t139.5 -73q59 30 96.5 84.5t37.5 115.5q0 74 -38.5 130t-98 88.5t-142.5 61.5t-161 47.5t-164 47t-142 60.5q-73 -25 -115.5 -80.5t-42.5 -124.5z" />
    <glyph glyph-name="dieresis" unicode="&#xa8;" 
d="M211 1272q0 22 16 38.5t39 16.5t39.5 -16.5t16.5 -38.5q0 -23 -16.5 -39t-39.5 -16t-39 16t-16 39zM498 1272q0 22 16 38.5t39 16.5t39 -16.5t16 -38.5q0 -23 -16 -39t-39 -16t-39 16t-16 39z" />
    <glyph glyph-name="copyright" unicode="&#xa9;" horiz-adv-x="1714" 
d="M858 1386q196 0 363 -97t264.5 -264t97.5 -363q0 -148 -57.5 -282.5t-155 -232t-231.5 -155.5t-281 -58q-148 0 -282.5 58t-232 155.5t-155 232t-57.5 282.5q0 147 57.5 281t155 231t232 154.5t282.5 57.5zM858 1325q-134 0 -256.5 -52.5t-211 -141t-141 -211.5
t-52.5 -258q0 -181 88.5 -334.5t240.5 -242.5t332 -89q178 0 330 89t241 242.5t89 334.5q0 180 -89 333t-241 241.5t-330 88.5zM1178 997l-41 -51q-59 54 -123 79.5t-152 25.5q-156 0 -267.5 -116t-111.5 -278q0 -161 113.5 -274t282.5 -113q159 0 268 103l39 -45
q-70 -64 -144.5 -91.5t-169.5 -27.5q-192 0 -323 130.5t-131 317.5q0 188 129.5 321.5t314.5 133.5q101 0 176 -27t140 -88z" />
    <glyph glyph-name="ordfeminine" unicode="&#xaa;" horiz-adv-x="870" 
d="M406 647q-136 0 -228 99t-92 241t91.5 240t228.5 98q84 0 152.5 -41.5t109.5 -112.5v140h63v-652h-63v144q-41 -71 -109.5 -113.5t-152.5 -42.5zM410 702q112 0 185 83.5t73 201.5t-72.5 198.5t-185.5 80.5q-112 0 -186 -80.5t-74 -198.5q0 -117 74.5 -201t185.5 -84z
" />
    <glyph glyph-name="guillemotleft" unicode="&#xab;" horiz-adv-x="960" 
d="M90 494l365 362l43 -43l-320 -319l320 -322l-43 -43zM463 494l364 362l43 -43l-319 -319l319 -322l-43 -43z" />
    <glyph glyph-name="logicalnot" unicode="&#xac;" horiz-adv-x="1067" 
d="M905 346h-65v285h-676v61h741v-346z" />
    <glyph glyph-name="softhyphen" unicode="&#xad;" horiz-adv-x="579" 
d="M59 516h461v-61h-461v61z" />
    <glyph glyph-name="registered" unicode="&#xae;" horiz-adv-x="913" 
d="M459 1374q167 0 281 -120.5t114 -290.5q0 -176 -111 -292t-284 -116q-169 0 -284.5 119t-115.5 289t115.5 290.5t284.5 120.5zM459 1317q-143 0 -239.5 -103.5t-96.5 -250.5q0 -146 96.5 -248.5t239.5 -102.5q148 0 241 99.5t93 251.5q0 146 -96.5 250t-237.5 104z
M307 735v457h160q24 0 45.5 -3.5t50.5 -15t46.5 -39t17.5 -69.5q0 -65 -40 -93t-93 -32l168 -205h-76l-164 203h-51v-203h-64zM467 1133h-96v-136h96q20 0 34 2t29 8t23 21t8 37t-8 37t-23 21t-29 8t-34 2z" />
    <glyph glyph-name="macron" unicode="&#xaf;" 
d="M147 1305h523v-62h-523v62z" />
    <glyph glyph-name="degree" unicode="&#xb0;" horiz-adv-x="675" 
d="M336 696q-135 0 -226.5 92t-91.5 224q0 135 92 227t230 92q145 0 231 -90.5t86 -228.5q0 -135 -86.5 -225.5t-234.5 -90.5zM336 754q113 0 186.5 71.5t73.5 186.5q0 121 -74 191.5t-182 70.5q-104 0 -182 -71.5t-78 -190.5q0 -115 77.5 -186.5t178.5 -71.5z" />
    <glyph glyph-name="plusminus" unicode="&#xb1;" horiz-adv-x="1021" 
d="M141 631v61h338v365h66v-365h338v-61h-338v-365h-66v365h-338zM141 0v61h742v-61h-742z" />
    <glyph glyph-name="twosuperior" unicode="&#xb2;" horiz-adv-x="571" 
d="M72 657v50l266 256q88 85 88 167q0 56 -39.5 96t-103.5 40q-106 0 -160 -103l-49 31q66 131 211 131q90 0 147 -56.5t57 -135.5q0 -56 -24 -102.5t-84 -104.5l-223 -213h340v-56h-426z" />
    <glyph glyph-name="threesuperior" unicode="&#xb3;" horiz-adv-x="571" 
d="M279 647q-135 0 -211 101l45 40q66 -86 168 -86q78 0 119.5 42t41.5 106q0 67 -45 107t-145 40h-43v39l205 221h-316v56h391v-51l-204 -218q219 -13 219 -194q0 -87 -58.5 -145t-166.5 -58z" />
    <glyph glyph-name="acute" unicode="&#xb4;" 
d="M641 1409h88l-225 -319h-64z" />
    <glyph glyph-name="paragraph" unicode="&#xb6;" horiz-adv-x="1060" 
d="M563 1313h285v-1714h-66v1652h-125v-1652h-92v882q-214 4 -339.5 123t-125.5 303q0 186 124 296t339 110z" />
    <glyph glyph-name="periodcentered" unicode="&#xb7;" 
d="M354 647q0 22 16.5 38.5t39.5 16.5t39 -16.5t16 -38.5q0 -23 -16 -39t-39 -16t-39.5 16t-16.5 39z" />
    <glyph glyph-name="cedilla" unicode="&#xb8;" 
d="M403 0h58l-142 -346l-65 29z" />
    <glyph glyph-name="onesuperior" unicode="&#xb9;" horiz-adv-x="571" 
d="M322 657h-62v578l-129 -125l-39 41l168 162h62v-656z" />
    <glyph glyph-name="ordmasculine" unicode="&#xba;" 
d="M410 647q-137 0 -230.5 98.5t-93.5 239.5t93.5 240.5t230.5 99.5t229 -99.5t92 -240.5t-92 -239.5t-229 -98.5zM410 702q112 0 185 82.5t73 200.5q0 119 -73 200t-185 81t-186 -81.5t-74 -199.5q0 -117 74.5 -200t185.5 -83z" />
    <glyph glyph-name="guillemotright" unicode="&#xbb;" horiz-adv-x="960" 
d="M463 813l43 43l364 -362l-364 -365l-43 43l319 322zM90 813l43 43l365 -362l-365 -365l-43 43l320 322z" />
    <glyph glyph-name="onequarter" unicode="&#xbc;" horiz-adv-x="1368" 
d="M322 657h-62v578l-129 -125l-39 41l168 162h62v-656zM201 0l927 1313h72l-924 -1313h-75zM831 207l330 448h53v-448h105v-57h-105v-150h-61v150h-322v57zM897 207h256v352z" />
    <glyph glyph-name="onehalf" unicode="&#xbd;" horiz-adv-x="1368" 
d="M322 657h-62v578l-129 -125l-39 41l168 162h62v-656zM156 0l927 1313h72l-924 -1313h-75zM868 0v49l267 256q88 85 88 168q0 56 -40 95.5t-104 39.5q-106 0 -159 -102l-50 31q66 131 211 131q90 0 147.5 -57t57.5 -136q0 -56 -24 -102.5t-84 -104.5l-224 -213h340v-55
h-426z" />
    <glyph glyph-name="threequarters" unicode="&#xbe;" horiz-adv-x="1368" 
d="M279 647q-135 0 -211 101l45 40q66 -86 168 -86q78 0 119.5 42t41.5 106q0 67 -45 107t-145 40h-43v39l205 221h-316v56h391v-51l-204 -218q219 -13 219 -194q0 -87 -58.5 -145t-166.5 -58zM238 0l927 1313h72l-924 -1313h-75zM831 207l330 448h53v-448h105v-57h-105
v-150h-61v150h-322v57zM897 207h256v352z" />
    <glyph glyph-name="questiondown" unicode="&#xbf;" horiz-adv-x="978" 
d="M532 997q26 0 46 -19.5t20 -45.5q0 -28 -20 -48t-46 -20q-28 0 -47.5 20t-19.5 48q0 26 19.5 45.5t47.5 19.5zM573 645l2 -233v-62h-24q-172 0 -273.5 -99.5t-101.5 -232.5q0 -71 28 -130t75.5 -96t107.5 -57t125 -20q89 0 172 43t147 129l50 -37q-69 -97 -169 -146.5
t-208 -49.5q-75 0 -144.5 23.5t-125 68t-88.5 115t-33 157.5q0 70 26.5 136.5t75 121.5t125.5 91t170 43l2 235h61z" />
    <glyph glyph-name="Agrave" unicode="&#xc0;" horiz-adv-x="1280" 
d="M485 1741l201 -320h-63l-226 320h88zM1165 0l-172 406h-712l-175 -406h-67l563 1313h76l563 -1313h-76zM305 467h662l-330 774z" />
    <glyph glyph-name="Aacute" unicode="&#xc1;" horiz-adv-x="1280" 
d="M795 1741h88l-226 -320h-63zM1165 0l-172 406h-712l-175 -406h-67l563 1313h76l563 -1313h-76zM305 467h662l-330 774z" />
    <glyph glyph-name="Acircumflex" unicode="&#xc2;" horiz-adv-x="1280" 
d="M606 1741h70l250 -320h-68l-217 262l-217 -262h-68zM1165 0l-172 406h-712l-175 -406h-67l563 1313h76l563 -1313h-76zM305 467h662l-330 774z" />
    <glyph glyph-name="Atilde" unicode="&#xc3;" horiz-adv-x="1280" 
d="M776 1483q-33 0 -64.5 14.5t-56 35t-48.5 40.5t-51.5 34.5t-55.5 14.5q-75 0 -131 -119l-37 27q63 153 176 153q33 0 64 -14.5t55 -35t47.5 -40.5t50.5 -34.5t55 -14.5q82 0 131 119l37 -27q-57 -153 -172 -153zM1165 0l-172 406h-712l-175 -406h-67l563 1313h76
l563 -1313h-76zM305 467h662l-330 774z" />
    <glyph glyph-name="Adieresis" unicode="&#xc4;" horiz-adv-x="1280" 
d="M442 1604q0 22 16.5 38.5t39.5 16.5t39 -16.5t16 -38.5q0 -23 -16 -39.5t-39 -16.5t-39.5 16.5t-16.5 39.5zM729 1604q0 22 16 38.5t39 16.5t39.5 -16.5t16.5 -38.5q0 -23 -16.5 -39.5t-39.5 -16.5t-39 16.5t-16 39.5zM1165 0l-172 406h-712l-175 -406h-67l563 1313h76
l563 -1313h-76zM305 467h662l-330 774z" />
    <glyph glyph-name="Aring" unicode="&#xc5;" horiz-adv-x="1280" 
d="M641 1401q-89 0 -150 60t-61 145t61 144.5t150 59.5q90 0 150.5 -59.5t60.5 -144.5q0 -86 -60.5 -145.5t-150.5 -59.5zM643 1456q63 0 107.5 42.5t44.5 107.5t-44.5 108t-107.5 43t-109.5 -43t-46.5 -108q0 -64 46.5 -107t109.5 -43zM1165 0l-172 406h-712l-175 -406h-67
l563 1313h76l563 -1313h-76zM305 467h662l-330 774z" />
    <glyph glyph-name="AE" unicode="&#xc6;" horiz-adv-x="1652" 
d="M821 0v406h-534l-207 -406h-68l666 1313h885v-62h-676v-565h594v-61h-594v-564h676v-61h-742zM717 1251l-400 -784h504v784h-104z" />
    <glyph glyph-name="Ccedilla" unicode="&#xc7;" horiz-adv-x="1294" 
d="M1233 1192l-41 -51q-89 66 -182.5 98.5t-218.5 32.5q-161 0 -298 -83t-216.5 -225.5t-79.5 -310.5q0 -167 80 -307.5t220.5 -222.5t309.5 -82q234 0 389 125l39 -45q-90 -75 -192 -107t-230 -34l-133 -326l-66 29l142 299q-175 11 -318 103t-225 242t-82 326
q0 138 52 264t140.5 217t211 145t256.5 54q138 0 243.5 -34t198.5 -107z" />
    <glyph glyph-name="Egrave" unicode="&#xc8;" horiz-adv-x="1105" 
d="M459 1741l200 -320h-63l-225 320h88zM213 0v1313h803v-62h-737v-565h655v-61h-655v-564h737v-61h-803z" />
    <glyph glyph-name="Eacute" unicode="&#xc9;" horiz-adv-x="1105" 
d="M768 1741h88l-225 -320h-64zM213 0v1313h803v-62h-737v-565h655v-61h-655v-564h737v-61h-803z" />
    <glyph glyph-name="Ecircumflex" unicode="&#xca;" horiz-adv-x="1105" 
d="M580 1741h69l250 -320h-68l-217 262l-217 -262h-67zM213 0v1313h803v-62h-737v-565h655v-61h-655v-564h737v-61h-803z" />
    <glyph glyph-name="Edieresis" unicode="&#xcb;" horiz-adv-x="1105" 
d="M416 1604q0 22 16 38.5t39 16.5t39 -16.5t16 -38.5q0 -23 -16 -39.5t-39 -16.5t-39 16.5t-16 39.5zM702 1604q0 22 16.5 38.5t39.5 16.5t39 -16.5t16 -38.5q0 -23 -16 -39.5t-39 -16.5t-39.5 16.5t-16.5 39.5zM213 0v1313h803v-62h-737v-565h655v-61h-655v-564h737v-61
h-803z" />
    <glyph glyph-name="Igrave" unicode="&#xcc;" horiz-adv-x="491" 
d="M90 1741l201 -320h-64l-225 320h88zM213 0v1313h66v-1313h-66z" />
    <glyph glyph-name="Iacute" unicode="&#xcd;" horiz-adv-x="491" 
d="M399 1741h88l-225 -320h-63zM213 0v1313h66v-1313h-66z" />
    <glyph glyph-name="Icircumflex" unicode="&#xce;" horiz-adv-x="491" 
d="M211 1741h70l249 -320h-67l-217 262l-217 -262h-68zM213 0v1313h66v-1313h-66z" />
    <glyph glyph-name="Idieresis" unicode="&#xcf;" horiz-adv-x="491" 
d="M47 1604q0 22 16 38.5t39 16.5t39.5 -16.5t16.5 -38.5q0 -23 -16.5 -39.5t-39.5 -16.5t-39 16.5t-16 39.5zM334 1604q0 22 16 38.5t39 16.5t39 -16.5t16 -38.5q0 -23 -16 -39.5t-39 -16.5t-39 16.5t-16 39.5zM213 0v1313h66v-1313h-66z" />
    <glyph glyph-name="Eth" unicode="&#xd0;" horiz-adv-x="1423" 
d="M213 0v625h-184v61h184v625h342q333 0 535 -180t202 -476t-192.5 -475.5t-509.5 -179.5h-377zM567 1249h-288v-563h374v-61h-374v-564h288q298 0 479 163t181 431t-181 431t-479 163z" />
    <glyph glyph-name="Ntilde" unicode="&#xd1;" horiz-adv-x="1464" 
d="M899 1483q-33 0 -64.5 14.5t-56 35t-48.5 40.5t-51.5 34.5t-55.5 14.5q-75 0 -131 -119l-37 27q63 153 176 153q33 0 64 -14.5t55 -35t47.5 -40.5t50.5 -34.5t55 -14.5q82 0 131 119l37 -27q-57 -153 -172 -153zM1188 0l-920 1217v-1217h-65v1313h73l920 -1217v1217h66
v-1313h-74z" />
    <glyph glyph-name="Ograve" unicode="&#xd2;" horiz-adv-x="1581" 
d="M635 1741l201 -320h-64l-225 320h88zM791 1333q134 0 256.5 -54t210.5 -145t140 -217t52 -264q0 -183 -88 -338t-239.5 -245t-331.5 -90q-135 0 -257 53t-210.5 143t-140.5 215t-52 262q0 138 52 264t140.5 217t211 145t256.5 54zM791 41q161 0 298 82t216 223t79 307
q0 168 -79 310.5t-216 225.5t-298 83t-298 -83t-216.5 -225.5t-79.5 -310.5q0 -166 79.5 -307t216.5 -223t298 -82z" />
    <glyph glyph-name="Oacute" unicode="&#xd3;" horiz-adv-x="1581" 
d="M944 1741h88l-225 -320h-64zM791 1333q134 0 256.5 -54t210.5 -145t140 -217t52 -264q0 -183 -88 -338t-239.5 -245t-331.5 -90q-135 0 -257 53t-210.5 143t-140.5 215t-52 262q0 138 52 264t140.5 217t211 145t256.5 54zM791 41q161 0 298 82t216 223t79 307
q0 168 -79 310.5t-216 225.5t-298 83t-298 -83t-216.5 -225.5t-79.5 -310.5q0 -166 79.5 -307t216.5 -223t298 -82z" />
    <glyph glyph-name="Ocircumflex" unicode="&#xd4;" horiz-adv-x="1581" 
d="M756 1741h69l250 -320h-67l-217 262l-218 -262h-67zM791 1333q134 0 256.5 -54t210.5 -145t140 -217t52 -264q0 -183 -88 -338t-239.5 -245t-331.5 -90q-135 0 -257 53t-210.5 143t-140.5 215t-52 262q0 138 52 264t140.5 217t211 145t256.5 54zM791 41q161 0 298 82
t216 223t79 307q0 168 -79 310.5t-216 225.5t-298 83t-298 -83t-216.5 -225.5t-79.5 -310.5q0 -166 79.5 -307t216.5 -223t298 -82z" />
    <glyph glyph-name="Otilde" unicode="&#xd5;" horiz-adv-x="1581" 
d="M926 1483q-33 0 -64.5 14.5t-56.5 35t-49 40.5t-51.5 34.5t-55.5 14.5q-75 0 -131 -119l-37 27q63 153 176 153q33 0 64 -14.5t55.5 -35t47.5 -40.5t50.5 -34.5t55.5 -14.5q82 0 131 119l37 -27q-57 -153 -172 -153zM791 1333q134 0 256.5 -54t210.5 -145t140 -217
t52 -264q0 -183 -88 -338t-239.5 -245t-331.5 -90q-135 0 -257 53t-210.5 143t-140.5 215t-52 262q0 138 52 264t140.5 217t211 145t256.5 54zM791 41q161 0 298 82t216 223t79 307q0 168 -79 310.5t-216 225.5t-298 83t-298 -83t-216.5 -225.5t-79.5 -310.5
q0 -166 79.5 -307t216.5 -223t298 -82z" />
    <glyph glyph-name="Odieresis" unicode="&#xd6;" horiz-adv-x="1581" 
d="M592 1604q0 22 16 38.5t39 16.5t39 -16.5t16 -38.5q0 -23 -16 -39.5t-39 -16.5t-39 16.5t-16 39.5zM879 1604q0 22 16 38.5t39 16.5t39 -16.5t16 -38.5q0 -23 -16 -39.5t-39 -16.5t-39 16.5t-16 39.5zM791 1333q134 0 256.5 -54t210.5 -145t140 -217t52 -264
q0 -183 -88 -338t-239.5 -245t-331.5 -90q-135 0 -257 53t-210.5 143t-140.5 215t-52 262q0 138 52 264t140.5 217t211 145t256.5 54zM791 41q161 0 298 82t216 223t79 307q0 168 -79 310.5t-216 225.5t-298 83t-298 -83t-216.5 -225.5t-79.5 -310.5q0 -166 79.5 -307
t216.5 -223t298 -82z" />
    <glyph glyph-name="multiply" unicode="&#xd7;" horiz-adv-x="1021" 
d="M252 358l-43 43l258 258l-258 259l47 47l258 -258l258 258l43 -43l-258 -258l258 -258l-47 -48l-258 258z" />
    <glyph glyph-name="Oslash" unicode="&#xd8;" horiz-adv-x="1581" 
d="M264 -61l123 180q-119 96 -187.5 235t-68.5 299q0 138 52 264t140.5 217t211 145t256.5 54q192 0 350 -104l123 180l49 -35l-123 -180q121 -96 190.5 -237t69.5 -304q0 -183 -88 -338t-239.5 -245t-331.5 -90q-194 0 -355 104l-123 -180zM197 653q0 -144 60.5 -269.5
t166.5 -211.5l682 1006q-147 94 -315 94q-161 0 -298 -83t-216.5 -225.5t-79.5 -310.5zM791 41q161 0 298 82t216 223t79 307q0 146 -61 274t-168 216l-684 -1006q145 -96 320 -96z" />
    <glyph glyph-name="Ugrave" unicode="&#xd9;" horiz-adv-x="1337" 
d="M514 1741l201 -320h-64l-225 320h88zM193 473v840h65v-846q0 -192 112.5 -309t297.5 -117q186 0 298.5 117t112.5 309v846h66v-840q0 -223 -131 -358t-346 -135t-345 135t-130 358z" />
    <glyph glyph-name="Uacute" unicode="&#xda;" horiz-adv-x="1337" 
d="M823 1741h88l-225 -320h-63zM193 473v840h65v-846q0 -192 112.5 -309t297.5 -117q186 0 298.5 117t112.5 309v846h66v-840q0 -223 -131 -358t-346 -135t-345 135t-130 358z" />
    <glyph glyph-name="Ucircumflex" unicode="&#xdb;" horiz-adv-x="1337" 
d="M635 1741h70l249 -320h-67l-217 262l-217 -262h-68zM193 473v840h65v-846q0 -192 112.5 -309t297.5 -117q186 0 298.5 117t112.5 309v846h66v-840q0 -223 -131 -358t-346 -135t-345 135t-130 358z" />
    <glyph glyph-name="Udieresis" unicode="&#xdc;" horiz-adv-x="1337" 
d="M471 1604q0 22 16 38.5t39 16.5t39.5 -16.5t16.5 -38.5q0 -23 -16.5 -39.5t-39.5 -16.5t-39 16.5t-16 39.5zM758 1604q0 22 16 38.5t39 16.5t39 -16.5t16 -38.5q0 -23 -16 -39.5t-39 -16.5t-39 16.5t-16 39.5zM193 473v840h65v-846q0 -192 112.5 -309t297.5 -117
q186 0 298.5 117t112.5 309v846h66v-840q0 -223 -131 -358t-346 -135t-345 135t-130 358z" />
    <glyph glyph-name="Yacute" unicode="&#xdd;" horiz-adv-x="1097" 
d="M702 1741h89l-226 -320h-63zM516 0v453l-498 860h76l455 -791l457 791h73l-497 -860v-453h-66z" />
    <glyph glyph-name="Thorn" unicode="&#xde;" horiz-adv-x="1230" 
d="M279 0h-66v1313h66v-236h380q208 0 334.5 -105.5t126.5 -279.5q0 -172 -128.5 -277.5t-340.5 -105.5h-372v-309zM666 1016h-387v-645h387q175 0 282 88t107 233q0 147 -107 235.5t-282 88.5z" />
    <glyph glyph-name="germandbls" unicode="&#xdf;" horiz-adv-x="1210" 
d="M598 1368q-161 0 -245.5 -97.5t-84.5 -277.5v-993h-65v999q0 203 104.5 317t288.5 114q178 0 283.5 -99t105.5 -264q0 -110 -54 -192.5t-149 -126.5q130 -30 207.5 -125t77.5 -242q0 -183 -119.5 -292t-304.5 -109q-164 0 -250 45l25 59q88 -43 229 -43q158 0 256 93.5
t98 246.5q0 150 -94.5 239t-277.5 89h-158v61h147q141 0 221.5 89t80.5 208q0 134 -86 217.5t-236 83.5z" />
    <glyph glyph-name="agrave" unicode="&#xe0;" horiz-adv-x="1290" 
d="M449 1409l200 -319h-63l-226 319h89zM604 -20q-207 0 -345 149t-138 363t138 361.5t345 147.5q137 0 247 -70t171 -188v238h65v-981h-65v240q-61 -120 -171 -190t-247 -70zM606 41q180 0 298 132t118 321q0 188 -117.5 317t-298.5 129t-300.5 -129t-119.5 -317
q0 -123 53.5 -226.5t150.5 -165t216 -61.5z" />
    <glyph glyph-name="aacute" unicode="&#xe1;" horiz-adv-x="1290" 
d="M758 1409h88l-225 -319h-64zM604 -20q-207 0 -345 149t-138 363t138 361.5t345 147.5q137 0 247 -70t171 -188v238h65v-981h-65v240q-61 -120 -171 -190t-247 -70zM606 41q180 0 298 132t118 321q0 188 -117.5 317t-298.5 129t-300.5 -129t-119.5 -317
q0 -123 53.5 -226.5t150.5 -165t216 -61.5z" />
    <glyph glyph-name="acircumflex" unicode="&#xe2;" horiz-adv-x="1290" 
d="M569 1409h70l250 -319h-68l-217 262l-217 -262h-68zM604 -20q-207 0 -345 149t-138 363t138 361.5t345 147.5q137 0 247 -70t171 -188v238h65v-981h-65v240q-61 -120 -171 -190t-247 -70zM606 41q180 0 298 132t118 321q0 188 -117.5 317t-298.5 129t-300.5 -129
t-119.5 -317q0 -123 53.5 -226.5t150.5 -165t216 -61.5z" />
    <glyph glyph-name="atilde" unicode="&#xe3;" horiz-adv-x="1290" 
d="M739 1151q-33 0 -64.5 14.5t-56 35t-48.5 40.5t-51.5 34.5t-55.5 14.5q-75 0 -131 -119l-37 27q64 154 176 154q41 0 79.5 -22t64 -48t60 -48t68.5 -22q82 0 131 119l37 -26q-58 -154 -172 -154zM604 -20q-207 0 -345 149t-138 363t138 361.5t345 147.5q137 0 247 -70
t171 -188v238h65v-981h-65v240q-61 -120 -171 -190t-247 -70zM606 41q180 0 298 132t118 321q0 188 -117.5 317t-298.5 129t-300.5 -129t-119.5 -317q0 -123 53.5 -226.5t150.5 -165t216 -61.5z" />
    <glyph glyph-name="adieresis" unicode="&#xe4;" horiz-adv-x="1290" 
d="M406 1272q0 22 16 38.5t39 16.5t39 -16.5t16 -38.5q0 -23 -16 -39t-39 -16t-39 16t-16 39zM692 1272q0 22 16.5 38.5t39.5 16.5t39 -16.5t16 -38.5q0 -23 -16 -39t-39 -16t-39.5 16t-16.5 39zM604 -20q-207 0 -345 149t-138 363t138 361.5t345 147.5q137 0 247 -70
t171 -188v238h65v-981h-65v240q-61 -120 -171 -190t-247 -70zM606 41q180 0 298 132t118 321q0 188 -117.5 317t-298.5 129t-300.5 -129t-119.5 -317q0 -123 53.5 -226.5t150.5 -165t216 -61.5z" />
    <glyph glyph-name="aring" unicode="&#xe5;" horiz-adv-x="1290" 
d="M604 1069q-89 0 -150 60t-61 145t61 145t150 60q90 0 150.5 -59.5t60.5 -145.5t-60.5 -145.5t-150.5 -59.5zM606 1124q63 0 107.5 42.5t44.5 107.5t-44.5 108t-107.5 43t-109 -43t-46 -108t46 -107.5t109 -42.5zM604 -20q-207 0 -345 149t-138 363t138 361.5t345 147.5
q137 0 247 -70t171 -188v238h65v-981h-65v240q-61 -120 -171 -190t-247 -70zM606 41q180 0 298 132t118 321q0 188 -117.5 317t-298.5 129t-300.5 -129t-119.5 -317q0 -123 53.5 -226.5t150.5 -165t216 -61.5z" />
    <glyph glyph-name="ae" unicode="&#xe6;" horiz-adv-x="2043" 
d="M604 -20q-207 0 -345 149t-138 363t138 361.5t345 147.5q137 0 247 -70t171 -188v238h65v-242q58 121 164.5 191.5t239.5 70.5q130 0 237 -67t166.5 -179.5t59.5 -244.5q0 -21 -4 -37h-863q8 -183 128.5 -307.5t302.5 -124.5q96 0 183.5 32.5t145.5 90.5l39 -47
q-65 -65 -163.5 -101t-206.5 -36q-143 0 -256 72.5t-173 195.5v-248h-65v240q-61 -120 -171 -190t-247 -70zM606 41q180 0 298 132t118 321q0 188 -117.5 317t-298.5 129t-300.5 -129t-119.5 -317q0 -123 53.5 -226.5t150.5 -165t216 -61.5zM1491 940q-165 0 -277.5 -117.5
t-123.5 -292.5h796q-22 190 -128.5 300t-266.5 110z" />
    <glyph glyph-name="ccedilla" unicode="&#xe7;" horiz-adv-x="993" 
d="M913 831q-119 109 -303 109t-304 -129t-120 -317q0 -123 53.5 -226.5t150.5 -165t216 -61.5q199 0 305 106l39 -47q-100 -100 -274 -116l-135 -330l-66 29l139 297h-10q-207 0 -345 149t-138 363q0 140 62 256.5t175 184.5t254 68q105 0 194.5 -32t147.5 -88z" />
    <glyph glyph-name="egrave" unicode="&#xe8;" horiz-adv-x="1142" 
d="M436 1409l201 -319h-64l-225 319h88zM614 -20q-141 0 -254.5 69t-176 185.5t-62.5 257.5q0 214 133.5 361.5t335.5 147.5q130 0 237 -67t166.5 -179.5t59.5 -244.5q0 -21 -4 -37h-863q8 -183 128 -307.5t302 -124.5q96 0 184 32.5t146 90.5l39 -47q-65 -65 -163.5 -101
t-207.5 -36zM590 940q-165 0 -277.5 -115.5t-124.5 -289.5h797q-23 188 -129.5 296.5t-265.5 108.5z" />
    <glyph glyph-name="eacute" unicode="&#xe9;" horiz-adv-x="1142" 
d="M745 1409h89l-226 -319h-63zM614 -20q-141 0 -254.5 69t-176 185.5t-62.5 257.5q0 214 133.5 361.5t335.5 147.5q130 0 237 -67t166.5 -179.5t59.5 -244.5q0 -21 -4 -37h-863q8 -183 128 -307.5t302 -124.5q96 0 184 32.5t146 90.5l39 -47q-65 -65 -163.5 -101
t-207.5 -36zM590 940q-165 0 -277.5 -115.5t-124.5 -289.5h797q-23 188 -129.5 296.5t-265.5 108.5z" />
    <glyph glyph-name="ecircumflex" unicode="&#xea;" horiz-adv-x="1142" 
d="M557 1409h70l250 -319h-68l-217 262l-217 -262h-68zM614 -20q-141 0 -254.5 69t-176 185.5t-62.5 257.5q0 214 133.5 361.5t335.5 147.5q130 0 237 -67t166.5 -179.5t59.5 -244.5q0 -21 -4 -37h-863q8 -183 128 -307.5t302 -124.5q96 0 184 32.5t146 90.5l39 -47
q-65 -65 -163.5 -101t-207.5 -36zM590 940q-165 0 -277.5 -115.5t-124.5 -289.5h797q-23 188 -129.5 296.5t-265.5 108.5z" />
    <glyph glyph-name="edieresis" unicode="&#xeb;" horiz-adv-x="1142" 
d="M393 1272q0 22 16.5 38.5t39.5 16.5t39 -16.5t16 -38.5q0 -23 -16 -39t-39 -16t-39.5 16t-16.5 39zM680 1272q0 22 16 38.5t39 16.5t39.5 -16.5t16.5 -38.5q0 -23 -16.5 -39t-39.5 -16t-39 16t-16 39zM614 -20q-141 0 -254.5 69t-176 185.5t-62.5 257.5
q0 214 133.5 361.5t335.5 147.5q130 0 237 -67t166.5 -179.5t59.5 -244.5q0 -21 -4 -37h-863q8 -183 128 -307.5t302 -124.5q96 0 184 32.5t146 90.5l39 -47q-65 -65 -163.5 -101t-207.5 -36zM590 940q-165 0 -277.5 -115.5t-124.5 -289.5h797q-23 188 -129.5 296.5
t-265.5 108.5z" />
    <glyph glyph-name="igrave" unicode="&#xec;" horiz-adv-x="471" 
d="M80 1409l201 -319h-64l-225 319h88zM268 981v-981h-65v981h65z" />
    <glyph glyph-name="iacute" unicode="&#xed;" horiz-adv-x="471" 
d="M389 1409h88l-225 -319h-64zM268 981v-981h-65v981h65z" />
    <glyph glyph-name="icircumflex" unicode="&#xee;" horiz-adv-x="471" 
d="M201 1409h69l250 -319h-67l-217 262l-218 -262h-67zM268 981v-981h-65v981h65z" />
    <glyph glyph-name="idieresis" unicode="&#xef;" horiz-adv-x="471" 
d="M37 1272q0 22 16 38.5t39 16.5t39 -16.5t16 -38.5q0 -23 -16 -39t-39 -16t-39 16t-16 39zM324 1272q0 22 16 38.5t39 16.5t39 -16.5t16 -38.5q0 -23 -16 -39t-39 -16t-39 16t-16 39zM268 981v-981h-65v981h65z" />
    <glyph glyph-name="eth" unicode="&#xf0;" horiz-adv-x="1208" 
d="M604 961q120 0 225 -54t160 -135q-45 137 -132 258t-198 213l-165 -92l-27 49l145 80q-87 66 -172 106l43 44q99 -47 189 -115l141 78l27 -50l-121 -67q167 -142 267.5 -340t100.5 -422q0 -248 -134.5 -391t-348.5 -143q-137 0 -248 66t-173 178.5t-62 246.5
q0 206 138 348t345 142zM606 41q180 0 298 125.5t118 306.5t-117.5 303.5t-298.5 122.5t-300.5 -123t-119.5 -303q0 -181 119.5 -306.5t300.5 -125.5z" />
    <glyph glyph-name="ntilde" unicode="&#xf1;" horiz-adv-x="1161" 
d="M737 1151q-33 0 -64.5 14.5t-56 35t-48.5 40.5t-51.5 34.5t-55.5 14.5q-75 0 -131 -119l-37 27q64 154 176 154q41 0 79.5 -22t64 -48t60 -48t68.5 -22q82 0 131 119l37 -26q-58 -154 -172 -154zM203 0v981h65v-170q47 89 131.5 139.5t196.5 50.5q178 0 285.5 -107
t107.5 -282v-612h-65v594q0 161 -87 253.5t-241 92.5t-241 -92.5t-87 -253.5v-594h-65z" />
    <glyph glyph-name="ograve" unicode="&#xf2;" horiz-adv-x="1208" 
d="M449 1409l200 -319h-63l-226 319h89zM604 -20q-207 0 -345 149t-138 363t138 361.5t345 147.5t345 -147.5t138 -361.5t-138 -363t-345 -149zM606 41q180 0 298 132t118 321q0 188 -117.5 317t-298.5 129t-300.5 -129t-119.5 -317q0 -123 53.5 -226.5t150.5 -165
t216 -61.5z" />
    <glyph glyph-name="oacute" unicode="&#xf3;" horiz-adv-x="1208" 
d="M758 1409h88l-225 -319h-64zM604 -20q-207 0 -345 149t-138 363t138 361.5t345 147.5t345 -147.5t138 -361.5t-138 -363t-345 -149zM606 41q180 0 298 132t118 321q0 188 -117.5 317t-298.5 129t-300.5 -129t-119.5 -317q0 -123 53.5 -226.5t150.5 -165t216 -61.5z" />
    <glyph glyph-name="ocircumflex" unicode="&#xf4;" horiz-adv-x="1208" 
d="M569 1409h70l250 -319h-68l-217 262l-217 -262h-68zM604 -20q-207 0 -345 149t-138 363t138 361.5t345 147.5t345 -147.5t138 -361.5t-138 -363t-345 -149zM606 41q180 0 298 132t118 321q0 188 -117.5 317t-298.5 129t-300.5 -129t-119.5 -317q0 -123 53.5 -226.5
t150.5 -165t216 -61.5z" />
    <glyph glyph-name="otilde" unicode="&#xf5;" horiz-adv-x="1208" 
d="M739 1151q-33 0 -64.5 14.5t-56 35t-48.5 40.5t-51.5 34.5t-55.5 14.5q-75 0 -131 -119l-37 27q64 154 176 154q41 0 79.5 -22t64 -48t60 -48t68.5 -22q82 0 131 119l37 -26q-58 -154 -172 -154zM604 -20q-207 0 -345 149t-138 363t138 361.5t345 147.5t345 -147.5
t138 -361.5t-138 -363t-345 -149zM606 41q180 0 298 132t118 321q0 188 -117.5 317t-298.5 129t-300.5 -129t-119.5 -317q0 -123 53.5 -226.5t150.5 -165t216 -61.5z" />
    <glyph glyph-name="odieresis" unicode="&#xf6;" horiz-adv-x="1208" 
d="M406 1272q0 22 16 38.5t39 16.5t39 -16.5t16 -38.5q0 -23 -16 -39t-39 -16t-39 16t-16 39zM692 1272q0 22 16.5 38.5t39.5 16.5t39 -16.5t16 -38.5q0 -23 -16 -39t-39 -16t-39.5 16t-16.5 39zM604 -20q-207 0 -345 149t-138 363t138 361.5t345 147.5t345 -147.5
t138 -361.5t-138 -363t-345 -149zM606 41q180 0 298 132t118 321q0 188 -117.5 317t-298.5 129t-300.5 -129t-119.5 -317q0 -123 53.5 -226.5t150.5 -165t216 -61.5z" />
    <glyph glyph-name="divide" unicode="&#xf7;" horiz-adv-x="1021" 
d="M504 948q-26 0 -46 20t-20 46q0 28 20 47.5t46 19.5q28 0 47.5 -19.5t19.5 -47.5q0 -26 -19.5 -46t-47.5 -20zM883 631h-742v61h742v-61zM504 242q-26 0 -46 19.5t-20 45.5q0 28 20 48t46 20q28 0 47.5 -20t19.5 -48q0 -26 -19.5 -45.5t-47.5 -19.5z" />
    <glyph glyph-name="oslash" unicode="&#xf8;" horiz-adv-x="1253" 
d="M627 -20q-142 0 -254 73l-103 -149l-49 35l103 149q-86 71 -133.5 176.5t-47.5 227.5q0 140 62 256.5t173.5 184.5t248.5 68q149 0 264 -79l106 155l50 -35l-107 -157q80 -70 125 -172.5t45 -220.5q0 -214 -138 -363t-345 -149zM209 494q0 -105 40 -197t111 -156l496 729
q-98 70 -227 70q-181 0 -300.5 -129t-119.5 -317zM1044 494q0 101 -36.5 189t-102.5 151l-497 -728q100 -65 221 -65q180 0 297.5 132t117.5 321z" />
    <glyph glyph-name="ugrave" unicode="&#xf9;" horiz-adv-x="1161" 
d="M426 1409l201 -319h-64l-225 319h88zM248 981v-563q0 -164 90.5 -264.5t239.5 -100.5q152 0 243.5 100t91.5 265v563h66v-571q0 -189 -110 -303.5t-291 -114.5q-179 0 -287.5 114.5t-108.5 303.5v571h66z" />
    <glyph glyph-name="uacute" unicode="&#xfa;" horiz-adv-x="1161" 
d="M735 1409h88l-225 -319h-63zM248 981v-563q0 -164 90.5 -264.5t239.5 -100.5q152 0 243.5 100t91.5 265v563h66v-571q0 -189 -110 -303.5t-291 -114.5q-179 0 -287.5 114.5t-108.5 303.5v571h66z" />
    <glyph glyph-name="ucircumflex" unicode="&#xfb;" horiz-adv-x="1161" 
d="M547 1409h69l250 -319h-67l-217 262l-217 -262h-68zM248 981v-563q0 -164 90.5 -264.5t239.5 -100.5q152 0 243.5 100t91.5 265v563h66v-571q0 -189 -110 -303.5t-291 -114.5q-179 0 -287.5 114.5t-108.5 303.5v571h66z" />
    <glyph glyph-name="udieresis" unicode="&#xfc;" horiz-adv-x="1161" 
d="M383 1272q0 22 16 38.5t39 16.5t39.5 -16.5t16.5 -38.5q0 -23 -16.5 -39t-39.5 -16t-39 16t-16 39zM670 1272q0 22 16 38.5t39 16.5t39 -16.5t16 -38.5q0 -23 -16 -39t-39 -16t-39 16t-16 39zM248 981v-563q0 -164 90.5 -264.5t239.5 -100.5q152 0 243.5 100t91.5 265
v563h66v-571q0 -189 -110 -303.5t-291 -114.5q-179 0 -287.5 114.5t-108.5 303.5v571h66z" />
    <glyph glyph-name="yacute" unicode="&#xfd;" horiz-adv-x="956" 
d="M633 1409h88l-225 -319h-64zM397 -195l72 185l-442 991h67l406 -911l350 911h68l-463 -1200q-38 -97 -92.5 -150t-145.5 -53q-102 0 -178 68l37 51q63 -57 149 -57q57 0 96.5 36.5t75.5 128.5z" />
    <glyph glyph-name="thorn" unicode="&#xfe;" horiz-adv-x="1290" 
d="M686 1001q207 0 345 -149t138 -363t-138 -361.5t-345 -147.5q-137 0 -247 68.5t-171 184.5v-634h-65v1810h65v-664q61 118 171 187t247 69zM688 940q-119 0 -216 -61.5t-150.5 -165t-53.5 -226.5q0 -188 119.5 -317t300.5 -129t298.5 129t117.5 317q0 189 -118 321
t-298 132z" />
    <glyph glyph-name="ydieresis" unicode="&#xff;" horiz-adv-x="956" 
d="M281 1272q0 22 16 38.5t39 16.5t39 -16.5t16 -38.5q0 -23 -16 -39t-39 -16t-39 16t-16 39zM567 1272q0 22 16.5 38.5t39.5 16.5t39 -16.5t16 -38.5q0 -23 -16 -39t-39 -16t-39.5 16t-16.5 39zM397 -195l72 185l-442 991h67l406 -911l350 911h68l-463 -1200
q-38 -97 -92.5 -150t-145.5 -53q-102 0 -178 68l37 51q63 -57 149 -57q57 0 96.5 36.5t75.5 128.5z" />
    <glyph glyph-name="Amacron" unicode="&#x100;" horiz-adv-x="1280" 
d="M379 1636h522v-61h-522v61zM1165 0l-172 406h-712l-175 -406h-67l563 1313h76l563 -1313h-76zM305 467h662l-330 774z" />
    <glyph glyph-name="amacron" unicode="&#x101;" horiz-adv-x="1290" 
d="M342 1305h522v-62h-522v62zM604 -20q-207 0 -345 149t-138 363t138 361.5t345 147.5q137 0 247 -70t171 -188v238h65v-981h-65v240q-61 -120 -171 -190t-247 -70zM606 41q180 0 298 132t118 321q0 188 -117.5 317t-298.5 129t-300.5 -129t-119.5 -317q0 -123 53.5 -226.5
t150.5 -165t216 -61.5z" />
    <glyph glyph-name="Abreve" unicode="&#x102;" horiz-adv-x="1280" 
d="M639 1401q-118 0 -192 79.5t-74 219.5h65q0 -115 56.5 -176.5t144.5 -61.5t145.5 61.5t57.5 176.5h65q0 -140 -74 -219.5t-194 -79.5zM1165 0l-172 406h-712l-175 -406h-67l563 1313h76l563 -1313h-76zM305 467h662l-330 774z" />
    <glyph glyph-name="abreve" unicode="&#x103;" horiz-adv-x="1290" 
d="M602 1069q-118 0 -192 79.5t-74 219.5h65q0 -115 56.5 -176.5t144.5 -61.5t145.5 61.5t57.5 176.5h65q0 -140 -74 -219.5t-194 -79.5zM604 -20q-207 0 -345 149t-138 363t138 361.5t345 147.5q137 0 247 -70t171 -188v238h65v-981h-65v240q-61 -120 -171 -190t-247 -70z
M606 41q180 0 298 132t118 321q0 188 -117.5 317t-298.5 129t-300.5 -129t-119.5 -317q0 -123 53.5 -226.5t150.5 -165t216 -61.5z" />
    <glyph glyph-name="Aogonek" unicode="&#x104;" horiz-adv-x="1280" 
d="M1325 -313q-78 -82 -195 -82q-73 0 -117 37.5t-44 101.5q0 139 192 268l-168 394h-712l-175 -406h-67l563 1313h76l563 -1313q-105 -69 -156 -129.5t-51 -122.5q0 -37 28.5 -59.5t72.5 -22.5q86 0 157 62zM305 467h662l-330 774z" />
    <glyph glyph-name="aogonek" unicode="&#x105;" horiz-adv-x="1290" 
d="M604 -20q-207 0 -345 149t-138 363t138 361.5t345 147.5q137 0 247 -70t171 -188v238h65v-981q-105 -69 -155.5 -129.5t-50.5 -122.5q0 -37 28 -59.5t72 -22.5q87 0 158 62l32 -41q-78 -82 -194 -82q-73 0 -117.5 37.5t-44.5 101.5q0 147 207 279v217q-61 -120 -171 -190
t-247 -70zM606 41q180 0 298 132t118 321q0 188 -117.5 317t-298.5 129t-300.5 -129t-119.5 -317q0 -123 53.5 -226.5t150.5 -165t216 -61.5z" />
    <glyph glyph-name="Cacute" unicode="&#x106;" horiz-adv-x="1294" 
d="M944 1741h88l-225 -320h-64zM1233 1192l-41 -51q-89 66 -182.5 98.5t-218.5 32.5q-161 0 -298 -83t-216.5 -225.5t-79.5 -310.5q0 -167 80 -307.5t220.5 -222.5t309.5 -82q234 0 389 125l39 -45q-93 -77 -197.5 -109t-236.5 -32q-184 0 -338.5 90t-243 244.5t-88.5 338.5
q0 138 52 264t140.5 217t211 145t256.5 54q138 0 243.5 -34t198.5 -107z" />
    <glyph glyph-name="cacute" unicode="&#x107;" horiz-adv-x="993" 
d="M766 1409h88l-225 -319h-64zM913 831q-119 109 -303 109t-304 -129t-120 -317q0 -123 53.5 -226.5t150.5 -165t216 -61.5q199 0 305 106l39 -47q-59 -59 -149.5 -89.5t-196.5 -30.5q-207 0 -345 149t-138 363q0 140 62 256.5t175 184.5t254 68q105 0 194.5 -32t147.5 -88
z" />
    <glyph glyph-name="Ccircumflex" unicode="&#x108;" horiz-adv-x="1294" 
d="M756 1741h69l250 -320h-67l-217 262l-218 -262h-67zM1233 1192l-41 -51q-89 66 -182.5 98.5t-218.5 32.5q-161 0 -298 -83t-216.5 -225.5t-79.5 -310.5q0 -167 80 -307.5t220.5 -222.5t309.5 -82q234 0 389 125l39 -45q-93 -77 -197.5 -109t-236.5 -32q-184 0 -338.5 90
t-243 244.5t-88.5 338.5q0 138 52 264t140.5 217t211 145t256.5 54q138 0 243.5 -34t198.5 -107z" />
    <glyph glyph-name="ccircumflex" unicode="&#x109;" horiz-adv-x="993" 
d="M578 1409h69l250 -319h-68l-217 262l-217 -262h-67zM913 831q-119 109 -303 109t-304 -129t-120 -317q0 -123 53.5 -226.5t150.5 -165t216 -61.5q199 0 305 106l39 -47q-59 -59 -149.5 -89.5t-196.5 -30.5q-207 0 -345 149t-138 363q0 140 62 256.5t175 184.5t254 68
q105 0 194.5 -32t147.5 -88z" />
    <glyph glyph-name="Cdotaccent" unicode="&#x10a;" horiz-adv-x="1294" 
d="M735 1604q0 22 16.5 38.5t39.5 16.5t39 -16.5t16 -38.5q0 -23 -16 -39.5t-39 -16.5t-39.5 16.5t-16.5 39.5zM1233 1192l-41 -51q-89 66 -182.5 98.5t-218.5 32.5q-161 0 -298 -83t-216.5 -225.5t-79.5 -310.5q0 -167 80 -307.5t220.5 -222.5t309.5 -82q234 0 389 125
l39 -45q-93 -77 -197.5 -109t-236.5 -32q-184 0 -338.5 90t-243 244.5t-88.5 338.5q0 138 52 264t140.5 217t211 145t256.5 54q138 0 243.5 -34t198.5 -107z" />
    <glyph glyph-name="cdotaccent" unicode="&#x10b;" horiz-adv-x="993" 
d="M557 1272q0 22 16 38.5t39 16.5t39.5 -16.5t16.5 -38.5q0 -23 -16.5 -39t-39.5 -16t-39 16t-16 39zM913 831q-119 109 -303 109t-304 -129t-120 -317q0 -123 53.5 -226.5t150.5 -165t216 -61.5q199 0 305 106l39 -47q-59 -59 -149.5 -89.5t-196.5 -30.5q-207 0 -345 149
t-138 363q0 140 62 256.5t175 184.5t254 68q105 0 194.5 -32t147.5 -88z" />
    <glyph glyph-name="Ccaron" unicode="&#x10c;" horiz-adv-x="1294" 
d="M825 1421h-69l-250 320h67l218 -262l217 262h67zM1233 1192l-41 -51q-89 66 -182.5 98.5t-218.5 32.5q-161 0 -298 -83t-216.5 -225.5t-79.5 -310.5q0 -167 80 -307.5t220.5 -222.5t309.5 -82q234 0 389 125l39 -45q-93 -77 -197.5 -109t-236.5 -32q-184 0 -338.5 90
t-243 244.5t-88.5 338.5q0 138 52 264t140.5 217t211 145t256.5 54q138 0 243.5 -34t198.5 -107z" />
    <glyph glyph-name="ccaron" unicode="&#x10d;" horiz-adv-x="993" 
d="M647 1090h-69l-250 319h67l217 -262l217 262h68zM913 831q-119 109 -303 109t-304 -129t-120 -317q0 -123 53.5 -226.5t150.5 -165t216 -61.5q199 0 305 106l39 -47q-59 -59 -149.5 -89.5t-196.5 -30.5q-207 0 -345 149t-138 363q0 140 62 256.5t175 184.5t254 68
q105 0 194.5 -32t147.5 -88z" />
    <glyph glyph-name="Dcaron" unicode="&#x10e;" horiz-adv-x="1423" 
d="M748 1421h-70l-250 320h68l217 -262l217 262h67zM213 0v1311h342q333 0 535 -180t202 -476t-192.5 -475.5t-509.5 -179.5h-377zM567 1249h-288v-1188h288q298 0 479 163t181 431t-181 431t-479 163z" />
    <glyph glyph-name="dcaron" unicode="&#x10f;" horiz-adv-x="1290" 
d="M604 -20q-207 0 -345 149t-138 363t138 361.5t345 147.5q137 0 247 -70t171 -188v666h65v-1409h-65v240q-61 -120 -171 -190t-247 -70zM1311 1409l-66 -340h-55l41 340h80zM606 41q180 0 298 132t118 321q0 188 -117.5 317t-298.5 129t-300.5 -129t-119.5 -317
q0 -123 53.5 -226.5t150.5 -165t216 -61.5z" />
    <glyph glyph-name="Dcroat" unicode="&#x110;" horiz-adv-x="1423" 
d="M213 0v625h-184v61h184v625h342q333 0 535 -180t202 -476t-192.5 -475.5t-509.5 -179.5h-377zM567 1249h-288v-563h374v-61h-374v-564h288q298 0 479 163t181 431t-181 431t-479 163z" />
    <glyph glyph-name="dcroat" unicode="&#x111;" horiz-adv-x="1290" 
d="M604 -20q-207 0 -345 149t-138 363t138 361.5t345 147.5q137 0 247 -70t171 -188v459h-332v62h332v145h65v-145h125v-62h-125v-1202h-65v240q-61 -120 -171 -190t-247 -70zM606 41q180 0 298 132t118 321q0 188 -117.5 317t-298.5 129t-300.5 -129t-119.5 -317
q0 -123 53.5 -226.5t150.5 -165t216 -61.5z" />
    <glyph glyph-name="Emacron" unicode="&#x112;" horiz-adv-x="1105" 
d="M352 1636h522v-61h-522v61zM213 0v1313h803v-62h-737v-565h655v-61h-655v-564h737v-61h-803z" />
    <glyph glyph-name="emacron" unicode="&#x113;" horiz-adv-x="1142" 
d="M330 1305h522v-62h-522v62zM614 -20q-141 0 -254.5 69t-176 185.5t-62.5 257.5q0 214 133.5 361.5t335.5 147.5q130 0 237 -67t166.5 -179.5t59.5 -244.5q0 -21 -4 -37h-863q8 -183 128 -307.5t302 -124.5q96 0 184 32.5t146 90.5l39 -47q-65 -65 -163.5 -101t-207.5 -36
zM590 940q-165 0 -277.5 -115.5t-124.5 -289.5h797q-23 188 -129.5 296.5t-265.5 108.5z" />
    <glyph glyph-name="Ebreve" unicode="&#x114;" horiz-adv-x="1105" 
d="M612 1401q-118 0 -192 79.5t-74 219.5h66q0 -115 56 -176.5t144 -61.5t145.5 61.5t57.5 176.5h66q0 -140 -74.5 -219.5t-194.5 -79.5zM213 0v1313h803v-62h-737v-565h655v-61h-655v-564h737v-61h-803z" />
    <glyph glyph-name="ebreve" unicode="&#x115;" horiz-adv-x="1142" 
d="M590 1069q-118 0 -192 79.5t-74 219.5h65q0 -115 56.5 -176.5t144.5 -61.5t145.5 61.5t57.5 176.5h65q0 -140 -74 -219.5t-194 -79.5zM614 -20q-141 0 -254.5 69t-176 185.5t-62.5 257.5q0 214 133.5 361.5t335.5 147.5q130 0 237 -67t166.5 -179.5t59.5 -244.5
q0 -21 -4 -37h-863q8 -183 128 -307.5t302 -124.5q96 0 184 32.5t146 90.5l39 -47q-65 -65 -163.5 -101t-207.5 -36zM590 940q-165 0 -277.5 -115.5t-124.5 -289.5h797q-23 188 -129.5 296.5t-265.5 108.5z" />
    <glyph glyph-name="Edotaccent" unicode="&#x116;" horiz-adv-x="1105" 
d="M559 1604q0 22 16 38.5t39 16.5t39.5 -16.5t16.5 -38.5q0 -23 -16.5 -39.5t-39.5 -16.5t-39 16.5t-16 39.5zM213 0v1313h803v-62h-737v-565h655v-61h-655v-564h737v-61h-803z" />
    <glyph glyph-name="edotaccent" unicode="&#x117;" horiz-adv-x="1142" 
d="M537 1272q0 22 16 38.5t39 16.5t39 -16.5t16 -38.5q0 -23 -16 -39t-39 -16t-39 16t-16 39zM614 -20q-141 0 -254.5 69t-176 185.5t-62.5 257.5q0 214 133.5 361.5t335.5 147.5q130 0 237 -67t166.5 -179.5t59.5 -244.5q0 -21 -4 -37h-863q8 -183 128 -307.5t302 -124.5
q96 0 184 32.5t146 90.5l39 -47q-65 -65 -163.5 -101t-207.5 -36zM590 940q-165 0 -277.5 -115.5t-124.5 -289.5h797q-23 188 -129.5 296.5t-265.5 108.5z" />
    <glyph glyph-name="Eogonek" unicode="&#x118;" horiz-adv-x="1105" 
d="M213 0v1313h803v-62h-737v-565h655v-61h-655v-564h737v-61q-105 -69 -156 -129.5t-51 -122.5q0 -37 28 -59.5t72 -22.5q87 0 158 62l33 -41q-78 -82 -195 -82q-73 0 -117.5 37.5t-44.5 101.5q0 132 175 256h-705z" />
    <glyph glyph-name="eogonek" unicode="&#x119;" horiz-adv-x="1142" 
d="M614 -20q-141 0 -254.5 69t-176 185.5t-62.5 257.5q0 214 133.5 361.5t335.5 147.5q130 0 237 -67t166.5 -179.5t59.5 -244.5q0 -21 -4 -37h-863q8 -183 128 -307.5t302 -124.5q96 0 184 32.5t146 90.5l39 -47q-81 -81 -213 -117q-105 -69 -156 -129.5t-51 -122.5
q0 -37 28.5 -59.5t72.5 -22.5q86 0 157 62l33 -41q-78 -82 -194 -82q-73 0 -117.5 37.5t-44.5 101.5q0 124 147 236h-33zM590 940q-165 0 -277.5 -115.5t-124.5 -289.5h797q-23 188 -129.5 296.5t-265.5 108.5z" />
    <glyph glyph-name="Ecaron" unicode="&#x11a;" horiz-adv-x="1105" 
d="M649 1421h-69l-250 320h67l217 -262l217 262h68zM213 0v1313h803v-62h-737v-565h655v-61h-655v-564h737v-61h-803z" />
    <glyph glyph-name="ecaron" unicode="&#x11b;" horiz-adv-x="1142" 
d="M627 1090h-70l-250 319h68l217 -262l217 262h68zM614 -20q-141 0 -254.5 69t-176 185.5t-62.5 257.5q0 214 133.5 361.5t335.5 147.5q130 0 237 -67t166.5 -179.5t59.5 -244.5q0 -21 -4 -37h-863q8 -183 128 -307.5t302 -124.5q96 0 184 32.5t146 90.5l39 -47
q-65 -65 -163.5 -101t-207.5 -36zM590 940q-165 0 -277.5 -115.5t-124.5 -289.5h797q-23 188 -129.5 296.5t-265.5 108.5z" />
    <glyph glyph-name="Gcircumflex" unicode="&#x11c;" horiz-adv-x="1386" 
d="M756 1741h69l250 -320h-67l-217 262l-218 -262h-67zM821 -20q-153 0 -283 53t-218.5 143.5t-138.5 214t-50 262.5q0 138 52 264t140.5 217t211 145t256.5 54q138 0 243.5 -34t198.5 -107l-41 -51q-89 66 -182.5 98.5t-218.5 32.5q-161 0 -298 -83t-216.5 -225.5
t-79.5 -310.5q0 -126 45 -238t125 -195t199.5 -131t260.5 -48q217 0 379 98v459h-415v61h481v-555q-186 -124 -451 -124z" />
    <glyph glyph-name="gcircumflex" unicode="&#x11d;" horiz-adv-x="1290" 
d="M569 1409h70l250 -319h-68l-217 262l-217 -262h-68zM242 -250q153 -110 366 -110q203 0 308.5 108t105.5 315v177q-61 -120 -171 -190t-247 -70q-207 0 -345 149t-138 363t138 361.5t345 147.5q137 0 247 -70t171 -188v238h65v-911q0 -240 -122.5 -366t-356.5 -126
q-247 0 -403 117zM606 41q180 0 298 132t118 321q0 188 -117.5 317t-298.5 129t-300.5 -129t-119.5 -317q0 -123 53.5 -226.5t150.5 -165t216 -61.5z" />
    <glyph glyph-name="Gbreve" unicode="&#x11e;" horiz-adv-x="1386" 
d="M788 1401q-118 0 -192 79.5t-74 219.5h66q0 -115 56 -176.5t144 -61.5t145.5 61.5t57.5 176.5h66q0 -140 -74.5 -219.5t-194.5 -79.5zM821 -20q-153 0 -283 53t-218.5 143.5t-138.5 214t-50 262.5q0 138 52 264t140.5 217t211 145t256.5 54q138 0 243.5 -34t198.5 -107
l-41 -51q-89 66 -182.5 98.5t-218.5 32.5q-161 0 -298 -83t-216.5 -225.5t-79.5 -310.5q0 -126 45 -238t125 -195t199.5 -131t260.5 -48q217 0 379 98v459h-415v61h481v-555q-186 -124 -451 -124z" />
    <glyph glyph-name="gbreve" unicode="&#x11f;" horiz-adv-x="1290" 
d="M602 1069q-118 0 -192 79.5t-74 219.5h65q0 -115 56.5 -176.5t144.5 -61.5t145.5 61.5t57.5 176.5h65q0 -140 -74 -219.5t-194 -79.5zM242 -250q153 -110 366 -110q203 0 308.5 108t105.5 315v177q-61 -120 -171 -190t-247 -70q-207 0 -345 149t-138 363t138 361.5
t345 147.5q137 0 247 -70t171 -188v238h65v-911q0 -240 -122.5 -366t-356.5 -126q-247 0 -403 117zM606 41q180 0 298 132t118 321q0 188 -117.5 317t-298.5 129t-300.5 -129t-119.5 -317q0 -123 53.5 -226.5t150.5 -165t216 -61.5z" />
    <glyph glyph-name="Gdotaccent" unicode="&#x120;" horiz-adv-x="1386" 
d="M735 1604q0 22 16.5 38.5t39.5 16.5t39 -16.5t16 -38.5q0 -23 -16 -39.5t-39 -16.5t-39.5 16.5t-16.5 39.5zM821 -20q-153 0 -283 53t-218.5 143.5t-138.5 214t-50 262.5q0 138 52 264t140.5 217t211 145t256.5 54q138 0 243.5 -34t198.5 -107l-41 -51
q-89 66 -182.5 98.5t-218.5 32.5q-161 0 -298 -83t-216.5 -225.5t-79.5 -310.5q0 -126 45 -238t125 -195t199.5 -131t260.5 -48q217 0 379 98v459h-415v61h481v-555q-186 -124 -451 -124z" />
    <glyph glyph-name="gdotaccent" unicode="&#x121;" horiz-adv-x="1290" 
d="M549 1272q0 22 16 38.5t39 16.5t39 -16.5t16 -38.5q0 -23 -16 -39t-39 -16t-39 16t-16 39zM242 -250q153 -110 366 -110q203 0 308.5 108t105.5 315v177q-61 -120 -171 -190t-247 -70q-207 0 -345 149t-138 363t138 361.5t345 147.5q137 0 247 -70t171 -188v238h65v-911
q0 -240 -122.5 -366t-356.5 -126q-247 0 -403 117zM606 41q180 0 298 132t118 321q0 188 -117.5 317t-298.5 129t-300.5 -129t-119.5 -317q0 -123 53.5 -226.5t150.5 -165t216 -61.5z" />
    <glyph glyph-name="Gcommaaccent" unicode="&#x122;" horiz-adv-x="1386" 
d="M821 -20q-153 0 -283 53t-218.5 143.5t-138.5 214t-50 262.5q0 138 52 264t140.5 217t211 145t256.5 54q138 0 243.5 -34t198.5 -107l-41 -51q-89 66 -182.5 98.5t-218.5 32.5q-161 0 -298 -83t-216.5 -225.5t-79.5 -310.5q0 -126 45 -238t125 -195t199.5 -131t260.5 -48
q217 0 379 98v459h-415v61h481v-555q-186 -124 -451 -124zM834 -104l-103 -261h-55l78 261h80z" />
    <glyph glyph-name="gcommaaccent" unicode="&#x123;" horiz-adv-x="1290" 
d="M557 1102l102 260h64l-78 -260h-88zM242 -250q153 -110 366 -110q203 0 308.5 108t105.5 315v177q-61 -120 -171 -190t-247 -70q-207 0 -345 149t-138 363t138 361.5t345 147.5q137 0 247 -70t171 -188v238h65v-911q0 -240 -122.5 -366t-356.5 -126q-247 0 -403 117z
M606 41q180 0 298 132t118 321q0 188 -117.5 317t-298.5 129t-300.5 -129t-119.5 -317q0 -123 53.5 -226.5t150.5 -165t216 -61.5z" />
    <glyph glyph-name="Hcircumflex" unicode="&#x124;" horiz-adv-x="1464" 
d="M698 1741h70l250 -320h-68l-217 262l-217 -262h-67zM1186 0v625h-907v-625h-66v1313h66v-627h907v627h65v-1313h-65z" />
    <glyph glyph-name="hcircumflex" unicode="&#x125;" horiz-adv-x="1161" 
d="M201 1833h69l250 -320h-67l-217 263l-218 -263h-67zM203 0v1409h65v-598q47 89 131.5 139.5t196.5 50.5q178 0 285.5 -107t107.5 -282v-612h-65v594q0 161 -87 253.5t-241 92.5t-241 -92.5t-87 -253.5v-594h-65z" />
    <glyph glyph-name="Hbar" unicode="&#x126;" horiz-adv-x="1509" 
d="M301 0h-65v1001h-132v62h132v250h65v-250h907v250h66v-250h131v-62h-131v-1001h-66v625h-907v-625zM301 686h907v315h-907v-315z" />
    <glyph glyph-name="hbar" unicode="&#x127;" horiz-adv-x="1161" 
d="M203 0v1202h-125v62h125v145h65v-145h328v-62h-328v-391q47 89 131.5 139.5t196.5 50.5q178 0 285.5 -107t107.5 -282v-612h-65v594q0 161 -87 253.5t-241 92.5t-241 -92.5t-87 -253.5v-594h-65z" />
    <glyph glyph-name="Itilde" unicode="&#x128;" horiz-adv-x="491" 
d="M381 1483q-33 0 -64.5 14.5t-56.5 35t-49 40.5t-51.5 34.5t-55.5 14.5q-75 0 -131 -119l-36 27q63 153 176 153q33 0 64 -14.5t55 -35t47.5 -40.5t50.5 -34.5t55 -14.5q82 0 131 119l37 -27q-57 -153 -172 -153zM213 0v1313h66v-1313h-66z" />
    <glyph glyph-name="itilde" unicode="&#x129;" horiz-adv-x="471" 
d="M371 1151q-33 0 -64.5 14.5t-56.5 35t-49 40.5t-51.5 34.5t-55.5 14.5q-75 0 -131 -119l-37 27q64 154 176 154q41 0 79.5 -22t64 -48t60.5 -48t69 -22q82 0 131 119l37 -26q-58 -154 -172 -154zM268 981v-981h-65v981h65z" />
    <glyph glyph-name="Imacron" unicode="&#x12a;" horiz-adv-x="491" 
d="M-16 1636h522v-61h-522v61zM213 0v1313h66v-1313h-66z" />
    <glyph glyph-name="imacron" unicode="&#x12b;" horiz-adv-x="471" 
d="M-27 1305h523v-62h-523v62zM268 981v-981h-65v981h65z" />
    <glyph glyph-name="Ibreve" unicode="&#x12c;" horiz-adv-x="491" 
d="M244 1401q-118 0 -192.5 80t-74.5 219h66q0 -115 56.5 -176.5t144.5 -61.5t145 61.5t57 176.5h66q0 -140 -74 -219.5t-194 -79.5zM213 0v1313h66v-1313h-66z" />
    <glyph glyph-name="ibreve" unicode="&#x12d;" horiz-adv-x="471" 
d="M233 1069q-118 0 -192 79.5t-74 219.5h66q0 -115 56 -176.5t144 -61.5t145.5 61.5t57.5 176.5h66q0 -140 -74.5 -219.5t-194.5 -79.5zM268 981v-981h-65v981h65z" />
    <glyph glyph-name="Iogonek" unicode="&#x12e;" horiz-adv-x="491" 
d="M362 -313q-78 -82 -194 -82q-73 0 -117.5 37.5t-44.5 101.5q0 147 207 279v1290h66v-1313q-105 -69 -156 -129.5t-51 -122.5q0 -37 28 -59.5t72 -22.5q87 0 158 62z" />
    <glyph glyph-name="iogonek" unicode="&#x12f;" horiz-adv-x="471" 
d="M180 1272q0 22 16.5 38.5t39.5 16.5t39 -16.5t16 -38.5q0 -23 -16 -39t-39 -16t-39.5 16t-16.5 39zM268 981v-981q-105 -69 -156 -129.5t-51 -122.5q0 -37 28.5 -59.5t72.5 -22.5q86 0 157 62l33 -41q-78 -82 -194 -82q-73 0 -117.5 37.5t-44.5 101.5q0 147 207 279v958
h65z" />
    <glyph glyph-name="Idotaccent" unicode="&#x130;" horiz-adv-x="491" 
d="M190 1604q0 22 16.5 38.5t39.5 16.5t39 -16.5t16 -38.5q0 -23 -16 -39.5t-39 -16.5t-39.5 16.5t-16.5 39.5zM213 0v1313h66v-1313h-66z" />
    <glyph glyph-name="idotless" unicode="&#x131;" horiz-adv-x="471" 
d="M268 981v-981h-65v981h65z" />
    <glyph glyph-name="IJ" unicode="&#x132;" horiz-adv-x="1314" 
d="M213 0v1313h66v-1313h-66zM530 96l48 45q37 -46 94 -73t125 -27q123 0 191.5 76.5t68.5 228.5v967h65v-979q0 -176 -92 -265t-233 -89q-79 0 -152.5 30.5t-114.5 85.5z" />
    <glyph glyph-name="ij" unicode="&#x133;" horiz-adv-x="942" 
d="M236 1217q-23 0 -39.5 16t-16.5 39q0 22 16.5 38.5t39.5 16.5t39 -16.5t16 -38.5q0 -23 -16 -39t-39 -16zM707 1217q-23 0 -39.5 16t-16.5 39q0 22 16.5 38.5t39.5 16.5t39 -16.5t16 -38.5q0 -23 -16 -39t-39 -16zM268 0h-65v981h65v-981zM526 -422q-53 0 -86.5 12.5
t-68.5 38.5l35 49q47 -38 120 -38q72 0 110 46.5t38 135.5v1159h65v-1153q0 -123 -54.5 -186.5t-158.5 -63.5z" />
    <glyph glyph-name="Jcircumflex" unicode="&#x134;" horiz-adv-x="823" 
d="M563 1739h70l250 -320h-68l-217 262l-217 -262h-68zM39 96l47 45q37 -46 94 -73t125 -27q123 0 191.5 76.5t68.5 228.5v967h66v-979q0 -90 -26 -159.5t-72 -111t-103.5 -62.5t-124.5 -21q-79 0 -152 30.5t-114 85.5z" />
    <glyph glyph-name="jcircumflex" unicode="&#x135;" horiz-adv-x="471" 
d="M201 1409h69l250 -319h-67l-217 262l-218 -262h-67zM268 981v-1153q0 -123 -54.5 -186.5t-158.5 -63.5q-53 0 -86.5 12.5t-68.5 38.5l34 49q47 -38 121 -38q72 0 110 46.5t38 135.5v1159h65z" />
    <glyph glyph-name="Kcommaaccent" unicode="&#x136;" horiz-adv-x="1134" 
d="M279 0h-66v1313h66v-656l704 656h90l-711 -666l736 -647h-103l-716 631v-631zM672 -104l-103 -261h-55l78 261h80z" />
    <glyph glyph-name="kcommaaccent" unicode="&#x137;" horiz-adv-x="995" 
d="M268 0h-65v1409h65v-887l580 459h98l-602 -479l623 -502h-101l-598 481v-481zM602 -104l-102 -261h-56l78 261h80z" />
    <glyph glyph-name="Lacute" unicode="&#x139;" horiz-adv-x="1062" 
d="M399 1741h88l-225 -320h-63zM213 0v1313h66v-1252h745v-61h-811z" />
    <glyph glyph-name="lacute" unicode="&#x13a;" horiz-adv-x="499" 
d="M389 1837h88l-225 -319h-64zM424 57l14 -59q-34 -12 -69 -12q-73 0 -119.5 50t-46.5 146v1227h65v-1223q0 -73 30.5 -105t76.5 -32q28 0 49 8z" />
    <glyph glyph-name="Lcommaaccent" unicode="&#x13b;" horiz-adv-x="1062" 
d="M213 0v1313h66v-1252h745v-61h-811zM666 -104l-103 -261h-55l78 261h80z" />
    <glyph glyph-name="lcommaaccent" unicode="&#x13c;" horiz-adv-x="499" 
d="M424 57l14 -59q-34 -12 -69 -12q-73 0 -119.5 50t-46.5 146v1227h65v-1223q0 -73 30.5 -105t76.5 -32q28 0 49 8zM375 -104l-103 -261h-55l78 261h80z" />
    <glyph glyph-name="Lcaron" unicode="&#x13d;" horiz-adv-x="1062" 
d="M213 0v1313h66v-1252h745v-61h-811zM692 1313l-65 -340h-56l41 340h80z" />
    <glyph glyph-name="lcaron" unicode="&#x13e;" horiz-adv-x="499" 
d="M424 57l14 -59q-34 -12 -69 -12q-73 0 -119.5 50t-46.5 146v1227h65v-1223q0 -73 30.5 -105t76.5 -32q28 0 49 8zM471 1409l-65 -340h-56l41 340h80z" />
    <glyph glyph-name="Ldot" unicode="&#x13f;" horiz-adv-x="1062" 
d="M213 0v1313h66v-1252h745v-61h-811zM682 647q0 22 16 38.5t39 16.5t39.5 -16.5t16.5 -38.5q0 -23 -16.5 -39t-39.5 -16t-39 16t-16 39z" />
    <glyph glyph-name="ldot" unicode="&#x140;" horiz-adv-x="499" 
d="M424 57l14 -59q-34 -12 -69 -12q-73 0 -119.5 50t-46.5 146v1227h65v-1223q0 -73 30.5 -105t76.5 -32q28 0 49 8zM432 647q0 22 16 38.5t39 16.5t39.5 -16.5t16.5 -38.5q0 -23 -16.5 -39t-39.5 -16t-39 16t-16 39z" />
    <glyph glyph-name="Lslash" unicode="&#x141;" horiz-adv-x="1062" 
d="M213 0v596l-164 -51v63l164 51v654h66v-631l274 86v-63l-274 -87v-557h745v-61h-811z" />
    <glyph glyph-name="lslash" unicode="&#x142;" horiz-adv-x="499" 
d="M424 57l14 -59q-34 -12 -69 -12q-73 0 -119.5 50t-46.5 146v561l-131 -55v64l131 55v602h65v-573l176 75v-63l-176 -76v-586q0 -73 30.5 -105t76.5 -32q28 0 49 8z" />
    <glyph glyph-name="Nacute" unicode="&#x143;" horiz-adv-x="1464" 
d="M918 1741h88l-226 -320h-63zM1188 0l-920 1217v-1217h-65v1313h73l920 -1217v1217h66v-1313h-74z" />
    <glyph glyph-name="nacute" unicode="&#x144;" horiz-adv-x="1161" 
d="M756 1409h88l-226 -319h-63zM203 0v981h65v-170q47 89 131.5 139.5t196.5 50.5q178 0 285.5 -107t107.5 -282v-612h-65v594q0 161 -87 253.5t-241 92.5t-241 -92.5t-87 -253.5v-594h-65z" />
    <glyph glyph-name="Ncommaaccent" unicode="&#x145;" horiz-adv-x="1464" 
d="M1188 0l-920 1217v-1217h-65v1313h73l920 -1217v1217h66v-1313h-74zM756 -104l-103 -261h-55l78 261h80z" />
    <glyph glyph-name="ncommaaccent" unicode="&#x146;" horiz-adv-x="1161" 
d="M203 0v981h65v-170q47 89 131.5 139.5t196.5 50.5q178 0 285.5 -107t107.5 -282v-612h-65v594q0 161 -87 253.5t-241 92.5t-241 -92.5t-87 -253.5v-594h-65zM625 -104l-103 -261h-55l78 261h80z" />
    <glyph glyph-name="Ncaron" unicode="&#x147;" horiz-adv-x="1464" 
d="M799 1421h-70l-250 320h68l217 -262l217 262h68zM1188 0l-920 1217v-1217h-65v1313h73l920 -1217v1217h66v-1313h-74z" />
    <glyph glyph-name="ncaron" unicode="&#x148;" horiz-adv-x="1161" 
d="M637 1090h-70l-250 319h68l217 -262l217 262h68zM203 0v981h65v-170q47 89 131.5 139.5t196.5 50.5q178 0 285.5 -107t107.5 -282v-612h-65v594q0 161 -87 253.5t-241 92.5t-241 -92.5t-87 -253.5v-594h-65z" />
    <glyph glyph-name="Omacron" unicode="&#x14c;" horiz-adv-x="1581" 
d="M528 1636h523v-61h-523v61zM791 1333q134 0 256.5 -54t210.5 -145t140 -217t52 -264q0 -183 -88 -338t-239.5 -245t-331.5 -90q-135 0 -257 53t-210.5 143t-140.5 215t-52 262q0 138 52 264t140.5 217t211 145t256.5 54zM791 41q161 0 298 82t216 223t79 307
q0 168 -79 310.5t-216 225.5t-298 83t-298 -83t-216.5 -225.5t-79.5 -310.5q0 -166 79.5 -307t216.5 -223t298 -82z" />
    <glyph glyph-name="omacron" unicode="&#x14d;" horiz-adv-x="1208" 
d="M342 1305h522v-62h-522v62zM604 -20q-207 0 -345 149t-138 363t138 361.5t345 147.5t345 -147.5t138 -361.5t-138 -363t-345 -149zM606 41q180 0 298 132t118 321q0 188 -117.5 317t-298.5 129t-300.5 -129t-119.5 -317q0 -123 53.5 -226.5t150.5 -165t216 -61.5z" />
    <glyph glyph-name="Obreve" unicode="&#x14e;" horiz-adv-x="1581" 
d="M788 1401q-118 0 -192 79.5t-74 219.5h66q0 -115 56 -176.5t144 -61.5t145.5 61.5t57.5 176.5h66q0 -140 -74.5 -219.5t-194.5 -79.5zM791 1333q134 0 256.5 -54t210.5 -145t140 -217t52 -264q0 -183 -88 -338t-239.5 -245t-331.5 -90q-135 0 -257 53t-210.5 143
t-140.5 215t-52 262q0 138 52 264t140.5 217t211 145t256.5 54zM791 41q161 0 298 82t216 223t79 307q0 168 -79 310.5t-216 225.5t-298 83t-298 -83t-216.5 -225.5t-79.5 -310.5q0 -166 79.5 -307t216.5 -223t298 -82z" />
    <glyph glyph-name="obreve" unicode="&#x14f;" horiz-adv-x="1208" 
d="M602 1069q-118 0 -192 79.5t-74 219.5h65q0 -115 56.5 -176.5t144.5 -61.5t145.5 61.5t57.5 176.5h65q0 -140 -74 -219.5t-194 -79.5zM604 -20q-207 0 -345 149t-138 363t138 361.5t345 147.5t345 -147.5t138 -361.5t-138 -363t-345 -149zM606 41q180 0 298 132t118 321
q0 188 -117.5 317t-298.5 129t-300.5 -129t-119.5 -317q0 -123 53.5 -226.5t150.5 -165t216 -61.5z" />
    <glyph glyph-name="Ohungarumlaut" unicode="&#x150;" horiz-adv-x="1581" 
d="M801 1741h88l-225 -320h-64zM1049 1741h88l-226 -320h-63zM791 1333q134 0 256.5 -54t210.5 -145t140 -217t52 -264q0 -183 -88 -338t-239.5 -245t-331.5 -90q-135 0 -257 53t-210.5 143t-140.5 215t-52 262q0 138 52 264t140.5 217t211 145t256.5 54zM791 41
q161 0 298 82t216 223t79 307q0 168 -79 310.5t-216 225.5t-298 83t-298 -83t-216.5 -225.5t-79.5 -310.5q0 -166 79.5 -307t216.5 -223t298 -82z" />
    <glyph glyph-name="ohungarumlaut" unicode="&#x151;" horiz-adv-x="1208" 
d="M614 1409h88l-225 -319h-63zM862 1409h88l-225 -319h-63zM604 -20q-207 0 -345 149t-138 363t138 361.5t345 147.5t345 -147.5t138 -361.5t-138 -363t-345 -149zM606 41q180 0 298 132t118 321q0 188 -117.5 317t-298.5 129t-300.5 -129t-119.5 -317q0 -123 53.5 -226.5
t150.5 -165t216 -61.5z" />
    <glyph glyph-name="OE" unicode="&#x152;" horiz-adv-x="2277" 
d="M1384 0v369q-79 -176 -239 -282.5t-354 -106.5q-135 0 -257 53t-210.5 143t-140.5 215t-52 262q0 138 52 264t140.5 217t211 145t256.5 54q194 0 354 -108t239 -285v373h803v-62h-737v-565h655v-61h-655v-564h737v-61h-803zM791 41q161 0 298 82t216 223t79 307
q0 168 -79 310.5t-216 225.5t-298 83t-298 -83t-216.5 -225.5t-79.5 -310.5q0 -166 79.5 -307t216.5 -223t298 -82z" />
    <glyph glyph-name="oe" unicode="&#x153;" horiz-adv-x="2043" 
d="M604 -20q-207 0 -345 149t-138 363t138 361.5t345 147.5q159 0 281 -92.5t170 -242.5q47 151 164 243t272 92q130 0 237 -67t166.5 -179.5t59.5 -244.5q0 -21 -4 -37h-863q8 -183 128.5 -307.5t302.5 -124.5q96 0 183.5 32.5t145.5 90.5l39 -47q-65 -65 -163.5 -101
t-206.5 -36q-165 0 -289 93.5t-172 245.5q-48 -152 -170 -245.5t-281 -93.5zM606 41q180 0 298 132t118 321q0 188 -117.5 317t-298.5 129t-300.5 -129t-119.5 -317q0 -123 53.5 -226.5t150.5 -165t216 -61.5zM1491 940q-165 0 -277.5 -117.5t-123.5 -292.5h796
q-22 190 -128.5 300t-266.5 110z" />
    <glyph glyph-name="Racute" unicode="&#x154;" horiz-adv-x="1224" 
d="M766 1741h88l-225 -320h-64zM213 0v1313h446q189 0 304.5 -100t115.5 -265q0 -149 -99 -246t-267 -114l381 -588h-76l-381 586h-358v-586h-66zM666 1251h-387v-604h387q157 0 252.5 83t95.5 218q0 138 -95.5 220.5t-252.5 82.5z" />
    <glyph glyph-name="racute" unicode="&#x155;" horiz-adv-x="692" 
d="M582 1409h88l-226 -319h-63zM203 0v981h65v-152q39 81 104.5 126.5t151.5 45.5q94 0 140 -34l-29 -60q-54 33 -123 33q-113 0 -178.5 -92.5t-65.5 -253.5v-594h-65z" />
    <glyph glyph-name="Rcommaaccent" unicode="&#x156;" horiz-adv-x="1224" 
d="M213 0v1313h446q189 0 304.5 -100t115.5 -265q0 -149 -99 -246t-267 -114l381 -588h-76l-381 586h-358v-586h-66zM666 1251h-387v-604h387q157 0 252.5 83t95.5 218q0 138 -95.5 220.5t-252.5 82.5zM655 -104l-102 -261h-55l77 261h80z" />
    <glyph glyph-name="rcommaaccent" unicode="&#x157;" horiz-adv-x="692" 
d="M203 0v981h65v-152q39 81 104.5 126.5t151.5 45.5q94 0 140 -34l-29 -60q-54 33 -123 33q-113 0 -178.5 -92.5t-65.5 -253.5v-594h-65zM276 -104l-102 -261h-55l78 261h79z" />
    <glyph glyph-name="Rcaron" unicode="&#x158;" horiz-adv-x="1224" 
d="M647 1421h-69l-250 320h67l217 -262l217 262h68zM213 0v1313h446q189 0 304.5 -100t115.5 -265q0 -149 -99 -246t-267 -114l381 -588h-76l-381 586h-358v-586h-66zM666 1251h-387v-604h387q157 0 252.5 83t95.5 218q0 138 -95.5 220.5t-252.5 82.5z" />
    <glyph glyph-name="rcaron" unicode="&#x159;" horiz-adv-x="692" 
d="M463 1090h-70l-250 319h68l217 -262l217 262h68zM203 0v981h65v-152q39 81 104.5 126.5t151.5 45.5q94 0 140 -34l-29 -60q-54 33 -123 33q-113 0 -178.5 -92.5t-65.5 -253.5v-594h-65z" />
    <glyph glyph-name="Sacute" unicode="&#x15a;" horiz-adv-x="1112" 
d="M711 1741h88l-226 -320h-63zM332 2q-79 20 -230 113l35 59q95 -63 209 -97t221 -34q166 0 272.5 77t106.5 214q0 77 -44.5 131t-115.5 84t-156.5 54.5t-171.5 52.5t-157 66t-115.5 106t-44.5 163q0 145 118 243.5t306 98.5q226 0 389 -96l-34 -53q-151 88 -355 88
q-158 0 -258 -80t-100 -197q0 -64 27.5 -114t74 -82t107 -57t127.5 -45t133.5 -39.5t127 -46t107 -60.5t74 -86.5t27.5 -120.5q0 -90 -35 -161t-96.5 -114.5t-141 -66t-172.5 -22.5q-149 0 -235 22z" />
    <glyph glyph-name="sacute" unicode="&#x15b;" horiz-adv-x="880" 
d="M594 1409h88l-225 -319h-64zM438 -20q-198 0 -362 102l28 57q162 -98 338 -98q134 0 208.5 56.5t74.5 150.5q0 61 -33.5 103.5t-86.5 66.5t-117.5 43t-129 40t-117.5 49.5t-86.5 80.5t-33.5 125q0 107 92 176t248 69q161 0 307 -77l-27 -56q-132 72 -280 72
q-124 0 -199.5 -52t-75.5 -130q0 -60 33.5 -102.5t86.5 -66.5t117.5 -43t129.5 -40.5t118 -50t86.5 -80t33.5 -123.5q0 -125 -94.5 -198.5t-258.5 -73.5z" />
    <glyph glyph-name="Scircumflex" unicode="&#x15c;" horiz-adv-x="1112" 
d="M522 1741h70l250 -320h-68l-217 262l-217 -262h-68zM332 2q-79 20 -230 113l35 59q95 -63 209 -97t221 -34q166 0 272.5 77t106.5 214q0 77 -44.5 131t-115.5 84t-156.5 54.5t-171.5 52.5t-157 66t-115.5 106t-44.5 163q0 145 118 243.5t306 98.5q226 0 389 -96l-34 -53
q-151 88 -355 88q-158 0 -258 -80t-100 -197q0 -64 27.5 -114t74 -82t107 -57t127.5 -45t133.5 -39.5t127 -46t107 -60.5t74 -86.5t27.5 -120.5q0 -90 -35 -161t-96.5 -114.5t-141 -66t-172.5 -22.5q-149 0 -235 22z" />
    <glyph glyph-name="scircumflex" unicode="&#x15d;" horiz-adv-x="880" 
d="M406 1409h69l250 -319h-68l-217 262l-217 -262h-67zM438 -20q-198 0 -362 102l28 57q162 -98 338 -98q134 0 208.5 56.5t74.5 150.5q0 61 -33.5 103.5t-86.5 66.5t-117.5 43t-129 40t-117.5 49.5t-86.5 80.5t-33.5 125q0 107 92 176t248 69q161 0 307 -77l-27 -56
q-132 72 -280 72q-124 0 -199.5 -52t-75.5 -130q0 -60 33.5 -102.5t86.5 -66.5t117.5 -43t129.5 -40.5t118 -50t86.5 -80t33.5 -123.5q0 -125 -94.5 -198.5t-258.5 -73.5z" />
    <glyph glyph-name="Scedilla" unicode="&#x15e;" horiz-adv-x="1112" 
d="M332 2q-79 20 -230 113l35 59q95 -63 209 -97t221 -34q166 0 272.5 77t106.5 214q0 77 -44.5 131t-115.5 84t-156.5 54.5t-171.5 52.5t-157 66t-115.5 106t-44.5 163q0 145 118 243.5t306 98.5q226 0 389 -96l-34 -53q-151 88 -355 88q-158 0 -258 -80t-100 -197
q0 -64 27.5 -114t74 -82t107 -57t127.5 -45t133.5 -39.5t127 -46t107 -60.5t74 -86.5t27.5 -120.5q0 -90 -34.5 -161t-95 -114.5t-137.5 -66t-165 -22.5l-134 -326l-65 29l139 297q-113 3 -188 22z" />
    <glyph glyph-name="scedilla" unicode="&#x15f;" horiz-adv-x="880" 
d="M791 252q0 -120 -87.5 -193t-240.5 -79l-133 -326l-66 29l142 297q-179 9 -330 102l28 57q162 -98 338 -98q134 0 208.5 56.5t74.5 150.5q0 61 -33.5 103.5t-86.5 66.5t-117.5 43t-129 40t-117.5 49.5t-86.5 80.5t-33.5 125q0 107 92 176t248 69q161 0 307 -77l-27 -56
q-132 72 -280 72q-124 0 -199.5 -52t-75.5 -130q0 -60 33.5 -102.5t86.5 -66.5t117.5 -43t129.5 -40.5t118 -50t86.5 -80t33.5 -123.5z" />
    <glyph glyph-name="Scaron" unicode="&#x160;" horiz-adv-x="1112" 
d="M592 1421h-70l-250 320h68l217 -262l217 262h68zM332 2q-79 20 -230 113l35 59q95 -63 209 -97t221 -34q166 0 272.5 77t106.5 214q0 77 -44.5 131t-115.5 84t-156.5 54.5t-171.5 52.5t-157 66t-115.5 106t-44.5 163q0 145 118 243.5t306 98.5q226 0 389 -96l-34 -53
q-151 88 -355 88q-158 0 -258 -80t-100 -197q0 -64 27.5 -114t74 -82t107 -57t127.5 -45t133.5 -39.5t127 -46t107 -60.5t74 -86.5t27.5 -120.5q0 -90 -35 -161t-96.5 -114.5t-141 -66t-172.5 -22.5q-149 0 -235 22z" />
    <glyph glyph-name="scaron" unicode="&#x161;" horiz-adv-x="880" 
d="M475 1090h-69l-250 319h67l217 -262l217 262h68zM438 -20q-198 0 -362 102l28 57q162 -98 338 -98q134 0 208.5 56.5t74.5 150.5q0 61 -33.5 103.5t-86.5 66.5t-117.5 43t-129 40t-117.5 49.5t-86.5 80.5t-33.5 125q0 107 92 176t248 69q161 0 307 -77l-27 -56
q-132 72 -280 72q-124 0 -199.5 -52t-75.5 -130q0 -60 33.5 -102.5t86.5 -66.5t117.5 -43t129.5 -40.5t118 -50t86.5 -80t33.5 -123.5q0 -125 -94.5 -198.5t-258.5 -73.5z" />
    <glyph glyph-name="Tcedilla" unicode="&#x162;" horiz-adv-x="1024" 
d="M485 0h-6v1251h-461v62h988v-62h-461v-1251h-2l-142 -346l-65 29z" />
    <glyph glyph-name="tcedilla" unicode="&#x163;" horiz-adv-x="686" 
d="M78 920v61h145v225h66v-225h301v-61h-301v-689q0 -93 44.5 -141.5t129.5 -48.5q91 0 147 53l37 -51q-55 -55 -158 -63l-133 -326l-65 29l141 299q-102 7 -155.5 69.5t-53.5 173.5v695h-145z" />
    <glyph glyph-name="Tcaron" unicode="&#x164;" horiz-adv-x="1024" 
d="M547 1421h-70l-250 320h68l217 -262l217 262h68zM1006 1251h-461v-1251h-66v1251h-461v62h988v-62z" />
    <glyph glyph-name="tcaron" unicode="&#x165;" horiz-adv-x="686" 
d="M492 1409l-66 -340h-55l41 340h80zM78 920v61h145v225h66v-225h301v-61h-301v-689q0 -93 44.5 -141.5t129.5 -48.5q91 0 147 53l37 -51q-67 -63 -182 -63q-119 0 -180.5 62.5t-61.5 182.5v695h-145z" />
    <glyph glyph-name="Tbar" unicode="&#x166;" horiz-adv-x="1024" 
d="M209 688h270v563h-461v62h988v-62h-461v-563h268v-61h-268v-627h-66v627h-270v61z" />
    <glyph glyph-name="tbar" unicode="&#x167;" horiz-adv-x="686" 
d="M80 522h143v398h-145v61h145v225h66v-225h301v-61h-301v-398h235v-61h-235v-230q0 -93 44.5 -141.5t129.5 -48.5q91 0 147 53l37 -51q-67 -63 -182 -63q-119 0 -180.5 62.5t-61.5 182.5v236h-143v61z" />
    <glyph glyph-name="Utilde" unicode="&#x168;" horiz-adv-x="1337" 
d="M805 1483q-33 0 -64.5 14.5t-56.5 35t-49 40.5t-51.5 34.5t-55.5 14.5q-75 0 -131 -119l-37 27q63 153 177 153q33 0 64 -14.5t55 -35t47.5 -40.5t50.5 -34.5t55 -14.5q82 0 131 119l37 -27q-57 -153 -172 -153zM193 473v840h65v-846q0 -192 112.5 -309t297.5 -117
q186 0 298.5 117t112.5 309v846h66v-840q0 -223 -131 -358t-346 -135t-345 135t-130 358z" />
    <glyph glyph-name="utilde" unicode="&#x169;" horiz-adv-x="1161" 
d="M717 1151q-33 0 -64.5 14.5t-56.5 35t-49 40.5t-51.5 34.5t-55.5 14.5q-75 0 -131 -119l-37 27q64 154 177 154q41 0 79.5 -22t64 -48t60 -48t68.5 -22q82 0 131 119l37 -26q-58 -154 -172 -154zM248 981v-563q0 -164 90.5 -264.5t239.5 -100.5q152 0 243.5 100t91.5 265
v563h66v-571q0 -189 -110 -303.5t-291 -114.5q-179 0 -287.5 114.5t-108.5 303.5v571h66z" />
    <glyph glyph-name="Umacron" unicode="&#x16a;" horiz-adv-x="1337" 
d="M408 1636h522v-61h-522v61zM193 473v840h65v-846q0 -192 112.5 -309t297.5 -117q186 0 298.5 117t112.5 309v846h66v-840q0 -223 -131 -358t-346 -135t-345 135t-130 358z" />
    <glyph glyph-name="umacron" unicode="&#x16b;" horiz-adv-x="1161" 
d="M319 1305h523v-62h-523v62zM248 981v-563q0 -164 90.5 -264.5t239.5 -100.5q152 0 243.5 100t91.5 265v563h66v-571q0 -189 -110 -303.5t-291 -114.5q-179 0 -287.5 114.5t-108.5 303.5v571h66z" />
    <glyph glyph-name="Ubreve" unicode="&#x16c;" horiz-adv-x="1337" 
d="M668 1401q-118 0 -192.5 80t-74.5 219h66q0 -115 56.5 -176.5t144.5 -61.5t145 61.5t57 176.5h66q0 -140 -74 -219.5t-194 -79.5zM193 473v840h65v-846q0 -192 112.5 -309t297.5 -117q186 0 298.5 117t112.5 309v846h66v-840q0 -223 -131 -358t-346 -135t-345 135
t-130 358z" />
    <glyph glyph-name="ubreve" unicode="&#x16d;" horiz-adv-x="1161" 
d="M580 1069q-118 0 -192.5 80t-74.5 219h66q0 -115 56.5 -176.5t144.5 -61.5t145 61.5t57 176.5h66q0 -140 -74 -219.5t-194 -79.5zM248 981v-563q0 -164 90.5 -264.5t239.5 -100.5q152 0 243.5 100t91.5 265v563h66v-571q0 -189 -110 -303.5t-291 -114.5
q-179 0 -287.5 114.5t-108.5 303.5v571h66z" />
    <glyph glyph-name="Uring" unicode="&#x16e;" horiz-adv-x="1337" 
d="M670 1401q-89 0 -150 60t-61 145t61 144.5t150 59.5q90 0 150.5 -59.5t60.5 -144.5q0 -86 -60.5 -145.5t-150.5 -59.5zM672 1456q63 0 107 42.5t44 107.5t-44 108t-107 43t-109.5 -43t-46.5 -108q0 -64 46.5 -107t109.5 -43zM193 473v840h65v-846q0 -192 112.5 -309
t297.5 -117q186 0 298.5 117t112.5 309v846h66v-840q0 -223 -131 -358t-346 -135t-345 135t-130 358z" />
    <glyph glyph-name="uring" unicode="&#x16f;" horiz-adv-x="1161" 
d="M582 1069q-89 0 -150 60t-61 145t61 145t150 60q90 0 150.5 -59.5t60.5 -145.5t-60.5 -145.5t-150.5 -59.5zM584 1124q63 0 107 42.5t44 107.5t-44 108t-107 43t-109.5 -43t-46.5 -108q0 -64 46.5 -107t109.5 -43zM248 981v-563q0 -164 90.5 -264.5t239.5 -100.5
q152 0 243.5 100t91.5 265v563h66v-571q0 -189 -110 -303.5t-291 -114.5q-179 0 -287.5 114.5t-108.5 303.5v571h66z" />
    <glyph glyph-name="Uhungarumlaut" unicode="&#x170;" horiz-adv-x="1337" 
d="M680 1741h88l-225 -320h-64zM928 1741h88l-225 -320h-64zM193 473v840h65v-846q0 -192 112.5 -309t297.5 -117q186 0 298.5 117t112.5 309v846h66v-840q0 -223 -131 -358t-346 -135t-345 135t-130 358z" />
    <glyph glyph-name="uhungarumlaut" unicode="&#x171;" horiz-adv-x="1161" 
d="M592 1409h88l-225 -319h-64zM840 1409h88l-226 -319h-63zM248 981v-563q0 -164 90.5 -264.5t239.5 -100.5q152 0 243.5 100t91.5 265v563h66v-571q0 -189 -110 -303.5t-291 -114.5q-179 0 -287.5 114.5t-108.5 303.5v571h66z" />
    <glyph glyph-name="Uogonek" unicode="&#x172;" horiz-adv-x="1337" 
d="M193 473v840h65v-846q0 -192 112.5 -309t297.5 -117q186 0 298.5 117t112.5 309v846h66v-840q0 -180 -87 -305t-239 -168q-105 -69 -156 -129.5t-51 -122.5q0 -37 28.5 -59.5t72.5 -22.5q86 0 157 62l33 -41q-78 -82 -194 -82q-73 0 -117.5 37.5t-44.5 101.5
q0 124 147 236h-26q-215 0 -345 135t-130 358z" />
    <glyph glyph-name="uogonek" unicode="&#x173;" horiz-adv-x="1161" 
d="M248 981v-563q0 -164 90.5 -264.5t239.5 -100.5q152 0 243.5 100t91.5 265v563h66v-571q0 -163 -84 -272.5t-227 -137.5q-105 -69 -156 -129.5t-51 -122.5q0 -37 28 -59.5t72 -22.5q87 0 158 62l33 -41q-78 -82 -195 -82q-73 0 -117.5 37.5t-44.5 101.5q0 130 164 248
q-171 6 -274 120t-103 298v571h66z" />
    <glyph glyph-name="Wcircumflex" unicode="&#x174;" horiz-adv-x="1927" 
d="M930 1741h69l250 -320h-67l-217 262l-217 -262h-68zM1798 1313h70l-430 -1313h-74l-399 1221l-402 -1221h-74l-430 1313h72l397 -1219l396 1219h82l397 -1219z" />
    <glyph glyph-name="wcircumflex" unicode="&#x175;" horiz-adv-x="1591" 
d="M762 1409h69l250 -319h-67l-217 262l-217 -262h-68zM473 0h-78l-336 981h72l303 -901l326 901h76l323 -899l303 899h70l-336 -981h-76l-323 891z" />
    <glyph glyph-name="Ycircumflex" unicode="&#x176;" horiz-adv-x="1097" 
d="M514 1741h70l250 -320h-68l-217 262l-217 -262h-68zM516 0v453l-498 860h76l455 -791l457 791h73l-497 -860v-453h-66z" />
    <glyph glyph-name="ycircumflex" unicode="&#x177;" horiz-adv-x="956" 
d="M444 1409h70l250 -319h-68l-217 262l-217 -262h-67zM397 -195l72 185l-442 991h67l406 -911l350 911h68l-463 -1200q-38 -97 -92.5 -150t-145.5 -53q-102 0 -178 68l37 51q63 -57 149 -57q57 0 96.5 36.5t75.5 128.5z" />
    <glyph glyph-name="Ydieresis" unicode="&#x178;" horiz-adv-x="1097" 
d="M350 1604q0 22 16.5 38.5t39.5 16.5t39 -16.5t16 -38.5q0 -23 -16 -39.5t-39 -16.5t-39.5 16.5t-16.5 39.5zM637 1604q0 22 16 38.5t39 16.5t39.5 -16.5t16.5 -38.5q0 -23 -16.5 -39.5t-39.5 -16.5t-39 16.5t-16 39.5zM516 0v453l-498 860h76l455 -791l457 791h73
l-497 -860v-453h-66z" />
    <glyph glyph-name="Zacute" unicode="&#x179;" horiz-adv-x="1097" 
d="M702 1741h89l-226 -320h-63zM80 61l860 1190h-860v62h938v-62l-860 -1190h860v-61h-938v61z" />
    <glyph glyph-name="zacute" unicode="&#x17a;" horiz-adv-x="960" 
d="M635 1409h88l-225 -319h-64zM90 61l690 859h-680v61h760v-61l-690 -859h700v-61h-780v61z" />
    <glyph glyph-name="Zdotaccent" unicode="&#x17b;" horiz-adv-x="1097" 
d="M494 1604q0 22 16 38.5t39 16.5t39 -16.5t16 -38.5q0 -23 -16 -39.5t-39 -16.5t-39 16.5t-16 39.5zM80 61l860 1190h-860v62h938v-62l-860 -1190h860v-61h-938v61z" />
    <glyph glyph-name="zdotaccent" unicode="&#x17c;" horiz-adv-x="960" 
d="M426 1272q0 22 16 38.5t39 16.5t39.5 -16.5t16.5 -38.5q0 -23 -16.5 -39t-39.5 -16t-39 16t-16 39zM90 61l690 859h-680v61h760v-61l-690 -859h700v-61h-780v61z" />
    <glyph glyph-name="Zcaron" unicode="&#x17d;" horiz-adv-x="1097" 
d="M584 1421h-70l-250 320h68l217 -262l217 262h68zM80 61l860 1190h-860v62h938v-62l-860 -1190h860v-61h-938v61z" />
    <glyph glyph-name="zcaron" unicode="&#x17e;" horiz-adv-x="960" 
d="M516 1090h-70l-249 319h67l217 -262l217 262h68zM90 61l690 859h-680v61h760v-61l-690 -859h700v-61h-780v61z" />
    <glyph glyph-name="florin" unicode="&#x192;" horiz-adv-x="804" 
d="M344 -178v872h-145v62h145v430q0 120 62.5 182t166.5 62q125 0 191 -82l-43 -43q-56 63 -148 63q-81 0 -122 -48.5t-41 -139.5v-424h268v-62h-268v-866q0 -123 -54.5 -186.5t-158.5 -63.5q-53 0 -87.5 12.5t-68.5 38.5l35 49q47 -38 121 -38q72 0 109.5 46.5t37.5 135.5z
" />
    <glyph glyph-name="Scommaaccent" unicode="&#x218;" horiz-adv-x="1112" 
d="M332 2q-79 20 -230 113l35 59q95 -63 209 -97t221 -34q166 0 272.5 77t106.5 214q0 77 -44.5 131t-115.5 84t-156.5 54.5t-171.5 52.5t-157 66t-115.5 106t-44.5 163q0 145 118 243.5t306 98.5q226 0 389 -96l-34 -53q-151 88 -355 88q-158 0 -258 -80t-100 -197
q0 -64 27.5 -114t74 -82t107 -57t127.5 -45t133.5 -39.5t127 -46t107 -60.5t74 -86.5t27.5 -120.5q0 -90 -35 -161t-96.5 -114.5t-141 -66t-172.5 -22.5q-149 0 -235 22zM600 -104l-102 -261h-56l78 261h80z" />
    <glyph glyph-name="scommaaccent" unicode="&#x219;" horiz-adv-x="880" 
d="M438 -20q-198 0 -362 102l28 57q162 -98 338 -98q134 0 208.5 56.5t74.5 150.5q0 61 -33.5 103.5t-86.5 66.5t-117.5 43t-129 40t-117.5 49.5t-86.5 80.5t-33.5 125q0 107 92 176t248 69q161 0 307 -77l-27 -56q-132 72 -280 72q-124 0 -199.5 -52t-75.5 -130
q0 -60 33.5 -102.5t86.5 -66.5t117.5 -43t129.5 -40.5t118 -50t86.5 -80t33.5 -123.5q0 -125 -94.5 -198.5t-258.5 -73.5zM483 -104l-102 -261h-55l77 261h80z" />
    <glyph glyph-name="Tcommaaccent" unicode="&#x21a;" horiz-adv-x="1024" 
d="M1006 1251h-461v-1251h-66v1251h-461v62h988v-62zM555 -104l-102 -261h-56l78 261h80z" />
    <glyph glyph-name="tcommaaccent" unicode="&#x21b;" horiz-adv-x="686" 
d="M78 920v61h145v225h66v-225h301v-61h-301v-689q0 -93 44.5 -141.5t129.5 -48.5q91 0 147 53l37 -51q-67 -63 -182 -63q-119 0 -180.5 62.5t-61.5 182.5v695h-145zM510 -104l-102 -261h-56l78 261h80z" />
    <glyph glyph-name="jdotless" unicode="&#x237;" horiz-adv-x="471" 
d="M268 981v-1153q0 -123 -54.5 -186.5t-158.5 -63.5q-53 0 -86.5 12.5t-68.5 38.5l34 49q47 -38 121 -38q72 0 110 46.5t38 135.5v1159h65z" />
    <glyph glyph-name="circumflex" unicode="&#x2c6;" 
d="M375 1409h69l250 -319h-67l-217 262l-217 -262h-68z" />
    <glyph glyph-name="caron" unicode="&#x2c7;" 
d="M444 1090h-69l-250 319h68l217 -262l217 262h67z" />
    <glyph glyph-name="breve" unicode="&#x2d8;" 
d="M410 1069q-118 0 -192.5 80t-74.5 219h66q0 -115 56.5 -176.5t144.5 -61.5t145 61.5t57 176.5h66q0 -140 -74 -219.5t-194 -79.5z" />
    <glyph glyph-name="dotaccent" unicode="&#x2d9;" 
d="M354 1272q0 22 16.5 38.5t39.5 16.5t39 -16.5t16 -38.5q0 -23 -16 -39t-39 -16t-39.5 16t-16.5 39z" />
    <glyph glyph-name="ring" unicode="&#x2da;" 
d="M410 1069q-89 0 -150 60t-61 145t61 145t150 60q90 0 150.5 -59.5t60.5 -145.5t-60.5 -145.5t-150.5 -59.5zM412 1124q63 0 107 42.5t44 107.5t-44 108t-107 43t-109.5 -43t-46.5 -108q0 -64 46.5 -107t109.5 -43z" />
    <glyph glyph-name="ogonek" unicode="&#x2db;" 
d="M504 37l41 -37q-105 -69 -156 -129.5t-51 -122.5q0 -37 28 -59.5t72 -22.5q87 0 158 62l33 -41q-78 -82 -195 -82q-73 0 -117.5 37.5t-44.5 101.5q0 155 232 293z" />
    <glyph glyph-name="tilde" unicode="&#x2dc;" 
d="M545 1151q-33 0 -64.5 14.5t-56.5 35t-49 40.5t-51.5 34.5t-55.5 14.5q-75 0 -131 -119l-37 27q64 154 176 154q41 0 79.5 -22t64 -48t60.5 -48t69 -22q82 0 131 119l37 -26q-58 -154 -172 -154z" />
    <glyph glyph-name="hungarumlaut" unicode="&#x2dd;" 
d="M475 1409h88l-225 -319h-64zM723 1409h88l-225 -319h-64z" />
    <glyph glyph-name="gravecomb" unicode="&#x300;" horiz-adv-x="774" 
d="M156 1409l200 -319h-63l-225 319h88z" />
    <glyph glyph-name="acutecomb" unicode="&#x301;" 
d="M641 1409h88l-225 -319h-64z" />
    <glyph glyph-name="circumflexcomb" unicode="&#x302;" 
d="M375 1409h69l250 -319h-67l-217 262l-217 -262h-68z" />
    <glyph glyph-name="tildecomb" unicode="&#x303;" 
d="M545 1151q-33 0 -64.5 14.5t-56.5 35t-49 40.5t-51.5 34.5t-55.5 14.5q-75 0 -131 -119l-37 27q64 154 176 154q41 0 79.5 -22t64 -48t60.5 -48t69 -22q82 0 131 119l37 -26q-58 -154 -172 -154z" />
    <glyph glyph-name="macroncomb" unicode="&#x304;" 
d="M147 1305h523v-62h-523v62z" />
    <glyph glyph-name="brevecomb" unicode="&#x306;" 
d="M410 1069q-118 0 -192.5 80t-74.5 219h66q0 -115 56.5 -176.5t144.5 -61.5t145 61.5t57 176.5h66q0 -140 -74 -219.5t-194 -79.5z" />
    <glyph glyph-name="dotaccentcomb" unicode="&#x307;" 
d="M354 1272q0 22 16.5 38.5t39.5 16.5t39 -16.5t16 -38.5q0 -23 -16 -39t-39 -16t-39.5 16t-16.5 39z" />
    <glyph glyph-name="dieresiscomb" unicode="&#x308;" 
d="M211 1272q0 22 16 38.5t39 16.5t39.5 -16.5t16.5 -38.5q0 -23 -16.5 -39t-39.5 -16t-39 16t-16 39zM498 1272q0 22 16 38.5t39 16.5t39 -16.5t16 -38.5q0 -23 -16 -39t-39 -16t-39 16t-16 39z" />
    <glyph glyph-name="ringcomb" unicode="&#x30a;" 
d="M410 1069q-89 0 -150 60t-61 145t61 145t150 60q90 0 150.5 -59.5t60.5 -145.5t-60.5 -145.5t-150.5 -59.5zM412 1124q63 0 107 42.5t44 107.5t-44 108t-107 43t-109.5 -43t-46.5 -108q0 -64 46.5 -107t109.5 -43z" />
    <glyph glyph-name="hungarumlautcomb" unicode="&#x30b;" 
d="M475 1409h88l-225 -319h-64zM723 1409h88l-225 -319h-64z" />
    <glyph glyph-name="caroncomb" unicode="&#x30c;" 
d="M444 1090h-69l-250 319h68l217 -262l217 262h67z" />
    <glyph glyph-name="commaaccentcomb" unicode="&#x326;" 
d="M451 -104l-103 -261h-55l78 261h80z" />
    <glyph glyph-name="cedillacomb" unicode="&#x327;" 
d="M403 0h58l-142 -346l-65 29z" />
    <glyph glyph-name="ogonekcomb" unicode="&#x328;" 
d="M504 37l41 -37q-105 -69 -156 -129.5t-51 -122.5q0 -37 28 -59.5t72 -22.5q87 0 158 62l33 -41q-78 -82 -195 -82q-73 0 -117.5 37.5t-44.5 101.5q0 155 232 293z" />
    <glyph glyph-name="strokeshortcomb" unicode="&#x335;" horiz-adv-x="731" 
d="M121 567h444v-61h-444v61z" />
    <glyph glyph-name="Delta" unicode="&#x394;" horiz-adv-x="1325" 
d="M61 0l564 1313h75l564 -1313h-1203zM156 61h1005l-502 1180z" />
    <glyph glyph-name="Omega" unicode="&#x3a9;" horiz-adv-x="1490" 
d="M745 1272q-255 0 -421 -163t-166 -419q0 -118 36.5 -220.5t102.5 -181t145 -136.5t176 -103v-49h-512v61h363q-174 106 -275.5 264t-101.5 361q0 177 83 324.5t233.5 235t336.5 87.5t337 -87.5t234 -235t83 -324.5q0 -203 -101.5 -361t-275.5 -264h362v-61h-512v49
q97 45 176 103t145 136.5t103 181t37 220.5q0 256 -166.5 419t-421.5 163z" />
    <glyph glyph-name="mu" unicode="&#x3bc;" horiz-adv-x="1226" 
d="M291 981v-563q0 -164 90.5 -264.5t239.5 -100.5q152 0 243.5 100t91.5 265v563h66v-571q0 -189 -110 -303.5t-291 -114.5q-107 0 -192.5 44.5t-137.5 125.5v-563h-66v1382h66z" />
    <glyph glyph-name="pi" unicode="&#x3c0;" horiz-adv-x="1191" 
d="M59 920v61h1053v-61h-188v-705q0 -79 30 -116.5t95 -37.5h63v-61h-70q-184 0 -184 207v713h-569v-918h-66v918h-164z" />
    <glyph glyph-name="Wgrave" unicode="&#x1e80;" horiz-adv-x="1927" 
d="M809 1741l201 -320h-64l-225 320h88zM1798 1313h70l-430 -1313h-74l-399 1221l-402 -1221h-74l-430 1313h72l397 -1219l396 1219h82l397 -1219z" />
    <glyph glyph-name="wgrave" unicode="&#x1e81;" horiz-adv-x="1591" 
d="M641 1409l201 -319h-64l-225 319h88zM473 0h-78l-336 981h72l303 -901l326 901h76l323 -899l303 899h70l-336 -981h-76l-323 891z" />
    <glyph glyph-name="Wacute" unicode="&#x1e82;" horiz-adv-x="1927" 
d="M1118 1741h88l-225 -320h-63zM1798 1313h70l-430 -1313h-74l-399 1221l-402 -1221h-74l-430 1313h72l397 -1219l396 1219h82l397 -1219z" />
    <glyph glyph-name="wacute" unicode="&#x1e83;" horiz-adv-x="1591" 
d="M950 1409h88l-225 -319h-63zM473 0h-78l-336 981h72l303 -901l326 901h76l323 -899l303 899h70l-336 -981h-76l-323 891z" />
    <glyph glyph-name="Wdieresis" unicode="&#x1e84;" horiz-adv-x="1927" 
d="M766 1604q0 22 16 38.5t39 16.5t39.5 -16.5t16.5 -38.5q0 -23 -16.5 -39.5t-39.5 -16.5t-39 16.5t-16 39.5zM1053 1604q0 22 16 38.5t39 16.5t39 -16.5t16 -38.5q0 -23 -16 -39.5t-39 -16.5t-39 16.5t-16 39.5zM1798 1313h70l-430 -1313h-74l-399 1221l-402 -1221h-74
l-430 1313h72l397 -1219l396 1219h82l397 -1219z" />
    <glyph glyph-name="wdieresis" unicode="&#x1e85;" horiz-adv-x="1591" 
d="M598 1272q0 22 16 38.5t39 16.5t39.5 -16.5t16.5 -38.5q0 -23 -16.5 -39t-39.5 -16t-39 16t-16 39zM885 1272q0 22 16 38.5t39 16.5t39 -16.5t16 -38.5q0 -23 -16 -39t-39 -16t-39 16t-16 39zM473 0h-78l-336 981h72l303 -901l326 901h76l323 -899l303 899h70l-336 -981
h-76l-323 891z" />
    <glyph glyph-name="Ygrave" unicode="&#x1ef2;" horiz-adv-x="1097" 
d="M393 1741l201 -320h-64l-225 320h88zM516 0v453l-498 860h76l455 -791l457 791h73l-497 -860v-453h-66z" />
    <glyph glyph-name="ygrave" unicode="&#x1ef3;" horiz-adv-x="956" 
d="M324 1409l200 -319h-63l-225 319h88zM397 -195l72 185l-442 991h67l406 -911l350 911h68l-463 -1200q-38 -97 -92.5 -150t-145.5 -53q-102 0 -178 68l37 51q63 -57 149 -57q57 0 96.5 36.5t75.5 128.5z" />
    <glyph glyph-name="endash" unicode="&#x2013;" horiz-adv-x="978" 
d="M59 516h861v-61h-861v61z" />
    <glyph glyph-name="emdash" unicode="&#x2014;" horiz-adv-x="2002" 
d="M59 516h1885v-61h-1885v61z" />
    <glyph glyph-name="quoteleft" unicode="&#x2018;" horiz-adv-x="243" 
d="M90 1032q-30 0 -50 19.5t-20 46.5q0 23 23 67l129 244h51l-112 -250q45 -17 45 -61q0 -27 -19.5 -46.5t-46.5 -19.5z" />
    <glyph glyph-name="quoteright" unicode="&#x2019;" horiz-adv-x="243" 
d="M154 1411q30 0 49.5 -19t19.5 -46q0 -26 -22 -68l-129 -244h-52l113 250q-45 17 -45 62q0 26 19 45.5t47 19.5z" />
    <glyph glyph-name="quotesinglbase" unicode="&#x201a;" horiz-adv-x="292" 
d="M106 -254h-51l113 250q-45 17 -45 61q0 27 19 46.5t46 19.5q30 0 50 -19.5t20 -46.5q0 -25 -22 -67z" />
    <glyph glyph-name="quotedblleft" unicode="&#x201c;" horiz-adv-x="491" 
d="M338 1032q-30 0 -50 19.5t-20 46.5q0 23 23 67l129 244h51l-113 -250q45 -17 45 -61q0 -27 -19 -46.5t-46 -19.5zM90 1032q-30 0 -50 19.5t-20 46.5q0 23 23 67l129 244h51l-112 -250q45 -17 45 -61q0 -27 -19.5 -46.5t-46.5 -19.5z" />
    <glyph glyph-name="quotedblright" unicode="&#x201d;" horiz-adv-x="491" 
d="M176 1411q30 0 50 -19t20 -46q0 -24 -23 -68l-129 -244h-51l113 250q-45 17 -45 62q0 27 19 46t46 19zM424 1411q30 0 50 -19t20 -46q0 -24 -23 -68l-129 -244h-51l112 250q-45 17 -45 62q0 26 19 45.5t47 19.5z" />
    <glyph glyph-name="quotedblbase" unicode="&#x201e;" horiz-adv-x="546" 
d="M106 -254h-51l113 250q-45 17 -45 61q0 27 19 46.5t46 19.5q30 0 50 -19.5t20 -46.5q0 -25 -22 -67zM360 -254h-51l113 250q-45 17 -45 61q0 27 19 46.5t46 19.5q30 0 50 -19.5t20 -46.5q0 -23 -23 -67z" />
    <glyph glyph-name="dagger" unicode="&#x2020;" horiz-adv-x="839" 
d="M387 -401v1308h-328v62h328v440h66v-440h327v-62h-327v-1308h-66z" />
    <glyph glyph-name="daggerdbl" unicode="&#x2021;" horiz-adv-x="839" 
d="M59 39v61h328v807h-328v62h328v440h66v-440h327v-62h-327v-807h327v-61h-327v-440h-66v440h-328z" />
    <glyph glyph-name="bullet" unicode="&#x2022;" horiz-adv-x="700" 
d="M350 303q-88 0 -148.5 60.5t-60.5 148.5t60.5 148.5t148.5 60.5t148.5 -60.5t60.5 -148.5t-60.5 -148.5t-148.5 -60.5z" />
    <glyph glyph-name="ellipsis" unicode="&#x2026;" horiz-adv-x="968" 
d="M852 -10q-26 0 -46 19.5t-20 45.5q0 28 20 48t46 20q28 0 48 -20t20 -48q0 -26 -20 -45.5t-48 -19.5zM115 -10q-26 0 -46 19.5t-20 45.5q0 28 20 48t46 20q28 0 47.5 -20t19.5 -48q0 -26 -19.5 -45.5t-47.5 -19.5zM483 -10q-26 0 -45.5 19.5t-19.5 45.5q0 28 19.5 48
t45.5 20q28 0 48 -20t20 -48q0 -26 -20 -45.5t-48 -19.5z" />
    <glyph glyph-name="perthousand" unicode="&#x2030;" horiz-adv-x="2304" 
d="M383 694q-138 0 -230 92.5t-92 227.5t92 227t230 92t230 -92t92 -227t-92 -227.5t-230 -92.5zM356 0h-71l923 1313h76zM383 752q104 0 182 71.5t78 190.5t-78 190.5t-182 71.5t-182 -71.5t-78 -190.5t78 -190.5t182 -71.5zM1184 -20q-138 0 -230 92t-92 227t92 227
t230 92t229.5 -92t91.5 -227t-91.5 -227t-229.5 -92zM1921 -20q-138 0 -230 92t-92 227t92 227t230 92t230 -92t92 -227t-92 -227t-230 -92zM1184 37q104 0 182 71.5t78 190.5t-78 190.5t-182 71.5t-182 -71.5t-78 -190.5t78 -190.5t182 -71.5zM1921 37q104 0 182 71.5
t78 190.5t-78 190.5t-182 71.5t-182 -71.5t-78 -190.5t78 -190.5t182 -71.5z" />
    <glyph glyph-name="guilsinglleft" unicode="&#x2039;" horiz-adv-x="587" 
d="M90 494l365 362l43 -43l-320 -319l320 -322l-43 -43z" />
    <glyph glyph-name="guilsinglright" unicode="&#x203a;" horiz-adv-x="587" 
d="M90 813l43 43l365 -362l-365 -365l-43 43l320 322z" />
    <glyph glyph-name="fraction" unicode="&#x2044;" horiz-adv-x="135" 
d="M-432 0l928 1313h71l-923 -1313h-76z" />
    <glyph glyph-name="zero.superior" unicode="&#x2070;" horiz-adv-x="571" 
d="M285 647q-103 0 -170.5 95.5t-67.5 242.5q0 146 67.5 243t170.5 97t170 -96.5t67 -243.5t-67 -242.5t-170 -95.5zM285 702q76 0 126 80t50 203t-49.5 202t-126.5 79q-76 0 -125 -79t-49 -202t49 -203t125 -80z" />
    <glyph glyph-name="four.superior" unicode="&#x2074;" horiz-adv-x="571" 
d="M356 657v150h-321v57l330 449h53v-449h104v-57h-104v-150h-62zM100 864h256v353z" />
    <glyph glyph-name="Euro" unicode="&#x20ac;" horiz-adv-x="1312" 
d="M819 -20q-231 0 -408.5 137.5t-236.5 353.5h-156l19 61h123q-10 65 -10 121q0 67 12 131h-144l19 62h139q61 213 236 350t397 137q138 0 243.5 -34t198.5 -107l-41 -51q-89 66 -182.5 98.5t-218.5 32.5q-196 0 -351 -119t-214 -307h745l-18 -62h-742q-14 -60 -14 -131
q0 -63 12 -121h680l-18 -61h-647q58 -190 217.5 -310t365.5 -120q234 0 389 125l39 -45q-93 -77 -197.5 -109t-236.5 -32z" />
    <glyph glyph-name="litre" unicode="&#x2113;" horiz-adv-x="712" 
d="M651 160q-53 -91 -114 -135.5t-142 -44.5q-102 0 -157.5 64t-55.5 187v158q-4 -3 -11 -9t-11 -9l-109 -86v80l90 69q15 11 41 33v657q0 306 217 306q112 0 176 -76.5t64 -220.5q0 -184 -97 -351t-294 -338v-208q0 -195 147 -195q122 0 207 152zM248 1143v-621
q325 296 325 613q0 115 -46.5 174t-120.5 59q-81 0 -119.5 -52t-38.5 -173z" />
    <glyph glyph-name="trademark" unicode="&#x2122;" horiz-adv-x="1673" 
d="M305 596v655h-225v62h516v-62h-225v-655h-66zM1081 788l-315 426v-618h-66v717h72l311 -426l310 426h67v-717h-65v618z" />
    <glyph glyph-name="partialdiff" unicode="&#x2202;" horiz-adv-x="1253" 
d="M627 1001q119 0 222 -64t163 -163q-68 205 -220.5 366.5t-328.5 245.5l43 44q121 -58 228 -147t192 -202.5t134.5 -255t49.5 -290.5q0 -257 -134.5 -406t-348.5 -149q-137 0 -248.5 69t-173.5 186.5t-62 256.5q0 140 62 256.5t173.5 184.5t248.5 68zM629 41
q180 0 297.5 132t117.5 321q0 123 -52.5 225t-148 161.5t-214.5 59.5q-181 0 -300.5 -129t-119.5 -317q0 -123 53.5 -226.5t150.5 -165t216 -61.5z" />
    <glyph glyph-name="product" unicode="&#x220f;" horiz-adv-x="1167" 
d="M856 1251h-545v-1652h-65v1652h-164v62h1003v-62h-163v-1652h-66v1652z" />
    <glyph glyph-name="summation" unicode="&#x2211;" horiz-adv-x="985" 
d="M633 557v-61l-514 -836h825v-61h-903v61l528 866l-528 822v61h903v-61h-819z" />
    <glyph glyph-name="minus" unicode="&#x2212;" horiz-adv-x="1021" 
d="M141 631v61h742v-61h-742z" />
    <glyph glyph-name="divisionslash" unicode="&#x2215;" horiz-adv-x="135" 
d="M-432 0l928 1313h71l-923 -1313h-76z" />
    <glyph glyph-name="radical" unicode="&#x221a;" horiz-adv-x="1095" 
d="M645 0h-92l-307 920h-205v61h260l299 -911l385 1339h70z" />
    <glyph glyph-name="infinity" unicode="&#x221e;" horiz-adv-x="1067" 
d="M965 659q0 -107 -61 -177t-159 -70q-82 0 -129 36.5t-79 102.5q-35 -70 -91 -104.5t-118 -34.5q-102 0 -164 69t-62 174q0 109 58.5 178.5t150.5 69.5q81 0 129.5 -36.5t79.5 -102.5q70 139 219 139q102 0 164 -69t62 -175zM168 655q0 -82 44 -132t118 -50q110 0 184 131
q-5 12 -15.5 42.5t-16 44t-16.5 38.5t-20 37.5t-23.5 30t-30 25.5t-36.5 14t-45 6q-62 0 -102.5 -51.5t-40.5 -135.5zM739 842q-64 0 -112.5 -27t-85.5 -100q6 -16 18 -49t19 -50t19.5 -43.5t25 -41t30.5 -30t41 -22t51 -6.5q61 0 107.5 54t46.5 128q0 79 -47.5 133
t-112.5 54z" />
    <glyph glyph-name="integral" unicode="&#x222b;" horiz-adv-x="804" 
d="M344 -178v1364q0 120 62.5 182t166.5 62q125 0 191 -82l-43 -43q-56 63 -148 63q-81 0 -122 -48.5t-41 -139.5v-1352q0 -123 -54.5 -186.5t-158.5 -63.5q-53 0 -87.5 12.5t-68.5 38.5l35 49q47 -38 121 -38q72 0 109.5 46.5t37.5 135.5z" />
    <glyph glyph-name="approxequal" unicode="&#x2248;" horiz-adv-x="1021" 
d="M141 741v72q111 76 203 76q49 0 96 -16.5t78 -37t74 -37t86 -16.5q102 0 205 68v-72q-96 -61 -201 -61q-49 0 -96 16.5t-79 36.5t-75.5 36.5t-85.5 16.5q-65 0 -112 -22t-93 -60zM141 455v71q111 76 203 76q49 0 96 -16.5t78 -36.5t74 -36.5t86 -16.5q104 0 205 67v-71
q-97 -62 -201 -62q-49 0 -96 16.5t-79 37t-75.5 37t-85.5 16.5q-65 0 -112 -22t-93 -60z" />
    <glyph glyph-name="notequal" unicode="&#x2260;" horiz-adv-x="1021" 
d="M246 272l135 215h-240v62h279l143 225h-422v62h461l135 215h72l-135 -215h209v-62h-248l-143 -225h391v-62h-430l-136 -215h-71z" />
    <glyph glyph-name="lessequal" unicode="&#x2264;" horiz-adv-x="1021" 
d="M883 303v-70l-742 406v45l742 403v-69l-658 -356zM141 0v61h742v-61h-742z" />
    <glyph glyph-name="greaterequal" unicode="&#x2265;" horiz-adv-x="1021" 
d="M141 303l658 359l-658 356v69l742 -403v-45l-742 -406v70zM883 0h-742v61h742v-61z" />
    <glyph glyph-name="lozenge" unicode="&#x25ca;" horiz-adv-x="997" 
d="M895 655l-358 -655h-76l-359 655l359 658h76zM823 655l-323 598l-326 -598l326 -596z" />
    <glyph glyph-name="ITF" unicode="&#xf8ff;" horiz-adv-x="3274" 
d="M213 0v1313h405v-1313h-405zM702 930v383h406v-383h-406zM1190 0v1313h405v-1313h-405zM1681 930v383h404v-383h-404zM2169 0v1313h403v-1313h-403zM2658 930v383h404v-383h-404zM2658 465v381h404v-381h-404z" />
    <glyph glyph-name="G.alt" horiz-adv-x="1548" 
d="M791 -20q-137 0 -257.5 47.5t-209.5 133t-141 213t-52 279.5q0 183 95 340.5t253 248.5t338 91q272 0 453 -141l-41 -51q-177 131 -412 131q-121 0 -235 -49t-198.5 -131.5t-135.5 -198t-51 -240.5q0 -184 80.5 -325t214.5 -214t299 -73q244 0 397 141.5t164 362.5v114
h-545v62h610v-195q-7 -110 -52 -207.5t-122 -173.5t-194 -120.5t-258 -44.5z" />
    <glyph glyph-name="a.alt" horiz-adv-x="1298" 
d="M604 -20q-207 0 -345 149t-138 363t138 361.5t345 147.5q137 0 247 -70t171 -188v238h65v-795q0 -73 30.5 -105t76.5 -32q28 0 49 8l14 -59q-35 -12 -69 -12q-73 0 -119.5 50t-46.5 146v58q-61 -119 -171.5 -189.5t-246.5 -70.5zM606 41q180 0 298 132t118 321
q0 188 -117.5 317t-298.5 129t-300.5 -129t-119.5 -317q0 -123 53.5 -226.5t150.5 -165t216 -61.5z" />
    <glyph glyph-name="j.alt" horiz-adv-x="471" 
d="M236 1217q-23 0 -39.5 16t-16.5 39q0 22 16.5 38.5t39.5 16.5t39 -16.5t16 -38.5q0 -23 -16 -39t-39 -16zM25 -422h-23v62h23q178 0 178 180v1161h65v-1155q0 -121 -63.5 -184.5t-179.5 -63.5z" />
    <glyph glyph-name="l.alt" horiz-adv-x="471" 
d="M203 0v1409h65v-1409h-65z" />
    <glyph glyph-name="y.alt" horiz-adv-x="956" 
d="M358 -401h-67l168 409l-432 973h67l398 -895l358 895h68z" />
    <glyph glyph-name="ampersand.alt" horiz-adv-x="1241" 
d="M1071 653l57 -26l-194 -328q-8 -12 -10 -18l237 -256l-47 -43l-227 243q-175 -245 -416 -245q-161 0 -264 89t-103 244q0 129 94 229.5t242 162.5l-14 14q-80 85 -120 156.5t-40 156.5q0 142 94.5 222.5t233.5 80.5q164 0 305 -102l-37 -55q-133 96 -270 96
q-112 0 -186 -62.5t-74 -177.5q0 -72 33 -130.5t114 -147.5l400 -428q2 3 6 10t6 10zM170 313q0 -127 85.5 -199.5t221.5 -72.5q202 0 365 231l-359 385q-133 -49 -223 -138.5t-90 -205.5z" />
    <glyph glyph-name="Gbreve.alt" horiz-adv-x="1548" 
d="M772 1401q-118 0 -192 79.5t-74 219.5h65q0 -115 56.5 -176.5t144.5 -61.5t145.5 61.5t57.5 176.5h65q0 -140 -74 -219.5t-194 -79.5zM791 -20q-137 0 -257.5 47.5t-209.5 133t-141 213t-52 279.5q0 183 95 340.5t253 248.5t338 91q272 0 453 -141l-41 -51
q-177 131 -412 131q-121 0 -235 -49t-198.5 -131.5t-135.5 -198t-51 -240.5q0 -184 80.5 -325t214.5 -214t299 -73q244 0 397 141.5t164 362.5v114h-545v62h610v-195q-7 -110 -52 -207.5t-122 -173.5t-194 -120.5t-258 -44.5z" />
    <glyph glyph-name="Gcircumflex.alt" horiz-adv-x="1548" 
d="M739 1741h70l250 -320h-68l-217 262l-217 -262h-68zM791 -20q-137 0 -257.5 47.5t-209.5 133t-141 213t-52 279.5q0 183 95 340.5t253 248.5t338 91q272 0 453 -141l-41 -51q-177 131 -412 131q-121 0 -235 -49t-198.5 -131.5t-135.5 -198t-51 -240.5q0 -184 80.5 -325
t214.5 -214t299 -73q244 0 397 141.5t164 362.5v114h-545v62h610v-195q-7 -110 -52 -207.5t-122 -173.5t-194 -120.5t-258 -44.5z" />
    <glyph glyph-name="Gcommaaccent.alt" horiz-adv-x="1548" 
d="M791 -20q-137 0 -257.5 47.5t-209.5 133t-141 213t-52 279.5q0 183 95 340.5t253 248.5t338 91q272 0 453 -141l-41 -51q-177 131 -412 131q-121 0 -235 -49t-198.5 -131.5t-135.5 -198t-51 -240.5q0 -184 80.5 -325t214.5 -214t299 -73q244 0 397 141.5t164 362.5v114
h-545v62h610v-195q-7 -110 -52 -207.5t-122 -173.5t-194 -120.5t-258 -44.5zM817 -104l-102 -261h-56l78 261h80z" />
    <glyph glyph-name="Gdotaccent.alt" horiz-adv-x="1548" 
d="M719 1604q0 22 16 38.5t39 16.5t39 -16.5t16 -38.5q0 -23 -16 -39.5t-39 -16.5t-39 16.5t-16 39.5zM791 -20q-137 0 -257.5 47.5t-209.5 133t-141 213t-52 279.5q0 183 95 340.5t253 248.5t338 91q272 0 453 -141l-41 -51q-177 131 -412 131q-121 0 -235 -49
t-198.5 -131.5t-135.5 -198t-51 -240.5q0 -184 80.5 -325t214.5 -214t299 -73q244 0 397 141.5t164 362.5v114h-545v62h610v-195q-7 -110 -52 -207.5t-122 -173.5t-194 -120.5t-258 -44.5z" />
    <glyph glyph-name="aacute.alt" horiz-adv-x="1298" 
d="M772 1409h88l-225 -319h-64zM604 -20q-207 0 -345 149t-138 363t138 361.5t345 147.5q137 0 247 -70t171 -188v238h65v-795q0 -73 30.5 -105t76.5 -32q28 0 49 8l14 -59q-35 -12 -69 -12q-73 0 -119.5 50t-46.5 146v58q-61 -119 -171.5 -189.5t-246.5 -70.5zM606 41
q180 0 298 132t118 321q0 188 -117.5 317t-298.5 129t-300.5 -129t-119.5 -317q0 -123 53.5 -226.5t150.5 -165t216 -61.5z" />
    <glyph glyph-name="abreve.alt" horiz-adv-x="1298" 
d="M616 1069q-118 0 -192 79.5t-74 219.5h66q0 -115 56 -176.5t144 -61.5t145.5 61.5t57.5 176.5h66q0 -140 -74.5 -219.5t-194.5 -79.5zM604 -20q-207 0 -345 149t-138 363t138 361.5t345 147.5q137 0 247 -70t171 -188v238h65v-795q0 -73 30.5 -105t76.5 -32q28 0 49 8
l14 -59q-35 -12 -69 -12q-73 0 -119.5 50t-46.5 146v58q-61 -119 -171.5 -189.5t-246.5 -70.5zM606 41q180 0 298 132t118 321q0 188 -117.5 317t-298.5 129t-300.5 -129t-119.5 -317q0 -123 53.5 -226.5t150.5 -165t216 -61.5z" />
    <glyph glyph-name="acircumflex.alt" horiz-adv-x="1298" 
d="M584 1409h69l250 -319h-67l-218 262l-217 -262h-67zM604 -20q-207 0 -345 149t-138 363t138 361.5t345 147.5q137 0 247 -70t171 -188v238h65v-795q0 -73 30.5 -105t76.5 -32q28 0 49 8l14 -59q-35 -12 -69 -12q-73 0 -119.5 50t-46.5 146v58q-61 -119 -171.5 -189.5
t-246.5 -70.5zM606 41q180 0 298 132t118 321q0 188 -117.5 317t-298.5 129t-300.5 -129t-119.5 -317q0 -123 53.5 -226.5t150.5 -165t216 -61.5z" />
    <glyph glyph-name="adieresis.alt" horiz-adv-x="1298" 
d="M420 1272q0 22 16 38.5t39 16.5t39 -16.5t16 -38.5q0 -23 -16 -39t-39 -16t-39 16t-16 39zM707 1272q0 22 16 38.5t39 16.5t39 -16.5t16 -38.5q0 -23 -16 -39t-39 -16t-39 16t-16 39zM604 -20q-207 0 -345 149t-138 363t138 361.5t345 147.5q137 0 247 -70t171 -188v238
h65v-795q0 -73 30.5 -105t76.5 -32q28 0 49 8l14 -59q-35 -12 -69 -12q-73 0 -119.5 50t-46.5 146v58q-61 -119 -171.5 -189.5t-246.5 -70.5zM606 41q180 0 298 132t118 321q0 188 -117.5 317t-298.5 129t-300.5 -129t-119.5 -317q0 -123 53.5 -226.5t150.5 -165t216 -61.5z
" />
    <glyph glyph-name="agrave.alt" horiz-adv-x="1298" 
d="M463 1409l201 -319h-64l-225 319h88zM604 -20q-207 0 -345 149t-138 363t138 361.5t345 147.5q137 0 247 -70t171 -188v238h65v-795q0 -73 30.5 -105t76.5 -32q28 0 49 8l14 -59q-35 -12 -69 -12q-73 0 -119.5 50t-46.5 146v58q-61 -119 -171.5 -189.5t-246.5 -70.5z
M606 41q180 0 298 132t118 321q0 188 -117.5 317t-298.5 129t-300.5 -129t-119.5 -317q0 -123 53.5 -226.5t150.5 -165t216 -61.5z" />
    <glyph glyph-name="amacron.alt" horiz-adv-x="1298" 
d="M356 1305h523v-62h-523v62zM604 -20q-207 0 -345 149t-138 363t138 361.5t345 147.5q137 0 247 -70t171 -188v238h65v-795q0 -73 30.5 -105t76.5 -32q28 0 49 8l14 -59q-35 -12 -69 -12q-73 0 -119.5 50t-46.5 146v58q-61 -119 -171.5 -189.5t-246.5 -70.5zM606 41
q180 0 298 132t118 321q0 188 -117.5 317t-298.5 129t-300.5 -129t-119.5 -317q0 -123 53.5 -226.5t150.5 -165t216 -61.5z" />
    <glyph glyph-name="aogonek.alt" horiz-adv-x="1298" 
d="M604 -20q-207 0 -345 149t-138 363t138 361.5t345 147.5q137 0 247 -70t171 -188v238h65v-795q0 -73 30.5 -105t76.5 -32q28 0 49 8l14 -59q-105 -69 -155.5 -129.5t-50.5 -122.5q0 -37 28 -59.5t72 -22.5q87 0 158 62l32 -41q-78 -82 -194 -82q-73 0 -117.5 37.5
t-44.5 101.5q0 130 164 248q-58 13 -92.5 61.5t-34.5 130.5v58q-61 -119 -171.5 -189.5t-246.5 -70.5zM606 41q180 0 298 132t118 321q0 188 -117.5 317t-298.5 129t-300.5 -129t-119.5 -317q0 -123 53.5 -226.5t150.5 -165t216 -61.5z" />
    <glyph glyph-name="aring.alt" horiz-adv-x="1298" 
d="M618 1069q-89 0 -149.5 60t-60.5 145t60.5 145t149.5 60q90 0 150.5 -59.5t60.5 -145.5t-60.5 -145.5t-150.5 -59.5zM621 1124q63 0 107 42.5t44 107.5t-44 108t-107 43t-109.5 -43t-46.5 -108q0 -64 46.5 -107t109.5 -43zM604 -20q-207 0 -345 149t-138 363t138 361.5
t345 147.5q137 0 247 -70t171 -188v238h65v-795q0 -73 30.5 -105t76.5 -32q28 0 49 8l14 -59q-35 -12 -69 -12q-73 0 -119.5 50t-46.5 146v58q-61 -119 -171.5 -189.5t-246.5 -70.5zM606 41q180 0 298 132t118 321q0 188 -117.5 317t-298.5 129t-300.5 -129t-119.5 -317
q0 -123 53.5 -226.5t150.5 -165t216 -61.5z" />
    <glyph glyph-name="atilde.alt" horiz-adv-x="1298" 
d="M754 1151q-33 0 -64.5 14.5t-56.5 35t-49 40.5t-51.5 34.5t-55.5 14.5q-75 0 -131 -119l-37 27q64 154 176 154q41 0 79.5 -22t64 -48t60.5 -48t69 -22q82 0 131 119l37 -26q-58 -154 -172 -154zM604 -20q-207 0 -345 149t-138 363t138 361.5t345 147.5q137 0 247 -70
t171 -188v238h65v-795q0 -73 30.5 -105t76.5 -32q28 0 49 8l14 -59q-35 -12 -69 -12q-73 0 -119.5 50t-46.5 146v58q-61 -119 -171.5 -189.5t-246.5 -70.5zM606 41q180 0 298 132t118 321q0 188 -117.5 317t-298.5 129t-300.5 -129t-119.5 -317q0 -123 53.5 -226.5
t150.5 -165t216 -61.5z" />
    <glyph glyph-name="jdotless.alt" horiz-adv-x="471" 
d="M25 -422h-23v62h23q178 0 178 180v1161h65v-1155q0 -121 -63.5 -184.5t-179.5 -63.5z" />
    <glyph glyph-name="jcircumflex.alt" horiz-adv-x="471" 
d="M201 1409h69l250 -319h-67l-217 262l-218 -262h-67zM25 -422h-23v62h23q178 0 178 180v1161h65v-1155q0 -121 -63.5 -184.5t-179.5 -63.5z" />
    <glyph glyph-name="lacute.alt" horiz-adv-x="471" 
d="M389 1837h88l-225 -319h-64zM203 0v1409h65v-1409h-65z" />
    <glyph glyph-name="lcaron.alt" horiz-adv-x="471" 
d="M203 0v1409h65v-1409h-65zM471 1409l-65 -340h-56l41 340h80z" />
    <glyph glyph-name="lcommaaccent.alt" horiz-adv-x="471" 
d="M203 0v1409h65v-1409h-65zM279 -104l-103 -261h-55l78 261h80z" />
    <glyph glyph-name="ldot.alt" horiz-adv-x="471" 
d="M203 0v1409h65v-1409h-65zM420 647q0 22 16 38.5t39 16.5t39 -16.5t16 -38.5q0 -23 -16 -39t-39 -16t-39 16t-16 39z" />
    <glyph glyph-name="lslash.alt" horiz-adv-x="471" 
d="M203 0v754l-154 -66v64l154 65v592h65v-563l154 65v-63l-154 -66v-782h-65z" />
    <glyph glyph-name="yacute.alt" horiz-adv-x="956" 
d="M633 1409h88l-225 -319h-64zM358 -401h-67l168 409l-432 973h67l398 -895l358 895h68z" />
    <glyph glyph-name="ycircumflex.alt" horiz-adv-x="956" 
d="M444 1409h70l250 -319h-68l-217 262l-217 -262h-67zM358 -401h-67l168 409l-432 973h67l398 -895l358 895h68z" />
    <glyph glyph-name="ydieresis.alt" horiz-adv-x="956" 
d="M281 1272q0 22 16 38.5t39 16.5t39 -16.5t16 -38.5q0 -23 -16 -39t-39 -16t-39 16t-16 39zM567 1272q0 22 16.5 38.5t39.5 16.5t39 -16.5t16 -38.5q0 -23 -16 -39t-39 -16t-39.5 16t-16.5 39zM358 -401h-67l168 409l-432 973h67l398 -895l358 895h68z" />
    <glyph glyph-name="ygrave.alt" horiz-adv-x="956" 
d="M324 1409l200 -319h-63l-225 319h88zM358 -401h-67l168 409l-432 973h67l398 -895l358 895h68z" />
    <glyph glyph-name="i.loclTRK" horiz-adv-x="471" 
d="M236 1217q-23 0 -39.5 16t-16.5 39q0 22 16.5 38.5t39.5 16.5t39 -16.5t16 -38.5q0 -23 -16 -39t-39 -16zM268 0h-65v981h65v-981z" />
    <glyph glyph-name="fl.alt" horiz-adv-x="1095" 
d="M827 0v1311q-99 57 -252 57q-141 0 -213.5 -80.5t-72.5 -230.5v-76h268v-61h-268v-920h-66v920h-145v61h145v82q0 181 96 274t256 93q156 0 275 -58h43v-1372h-66z" />
    <glyph glyph-name="commaaccent.alt" 
d="M371 1102l102 260h64l-78 -260h-88z" />
    <glyph glyph-name="caroncomb.alt" 
d="M461 1409l-66 -340h-55l41 340h80z" />
    <glyph glyph-name="commaaccent" 
d="M451 -104l-103 -261h-55l78 261h80z" />
    </font>
</defs>
</svg>
