<?xml version="1.0" standalone="no"?>
<!DOCTYPE svg PUBLIC "-//W3C//DTD SVG 1.1//EN" "http://www.w3.org/Graphics/SVG/1.1/DTD/svg11.dtd" >
<svg xmlns="http://www.w3.org/2000/svg" xmlns:xlink="http://www.w3.org/1999/xlink" version="1.1">
<metadata>
Created by FontForge 20170731 at Sat Feb 11 11:56:34 2023
 By Aleksey,,,
Copyright 2021-2022 Indian Type Foundry. All rights reserved.
</metadata>
<defs>
<font id="ElevanceSans-Bold" horiz-adv-x="819" >
  <font-face 
    font-family="Elevance Sans"
    font-weight="700"
    font-stretch="normal"
    units-per-em="2048"
    panose-1="0 0 0 0 0 0 0 0 0 0"
    ascent="1638"
    descent="-410"
    x-height="981"
    cap-height="1313"
    bbox="-492 -449 2972 1905"
    underline-thickness="102"
    underline-position="-307"
    unicode-range="U+0020-FB02"
  />
<missing-glyph horiz-adv-x="1187" 
d="M1065 0h-942v1313h942v-1313zM430 1026v-739h328v739h-328z" />
    <glyph glyph-name="fi" unicode="fi" horiz-adv-x="1284" 
d="M41 692v289h166q6 210 146 334.5t388 124.5q279 0 449 -137l-162 -259q-44 38 -118 62t-148 24q-209 0 -223 -149h632v-981h-329v692h-305v-692h-330v692h-166z" />
    <glyph glyph-name="fl" unicode="fl" horiz-adv-x="1284" 
d="M41 692v289h166q3 209 127 334t319 125q118 0 213 -31h305v-1409h-329v1085q-56 45 -152 45q-61 0 -107 -39.5t-46 -109.5h188v-289h-188v-692h-330v692h-166z" />
    <glyph glyph-name=".notdef" horiz-adv-x="1187" 
d="M1065 0h-942v1313h942v-1313zM430 1026v-739h328v739h-328z" />
    <glyph glyph-name=".null" horiz-adv-x="0" 
 />
    <glyph glyph-name="nonmarkingreturn" horiz-adv-x="682" 
 />
    <glyph glyph-name="space" unicode=" " horiz-adv-x="409" 
 />
    <glyph glyph-name="exclam" unicode="!" horiz-adv-x="612" 
d="M176 526l-45 787h350l-45 -787h-260zM305 -31q-85 0 -144 59t-59 144t59 145t144 60t145 -60t60 -145t-60 -144t-145 -59z" />
    <glyph glyph-name="quotedbl" unicode="&#x22;" horiz-adv-x="831" 
d="M381 1409l-33 -479h-242l-24 479h299zM750 1409l-33 -479h-242l-24 479h299z" />
    <glyph glyph-name="numbersign" unicode="#" horiz-adv-x="1284" 
d="M139 0l66 319h-191l49 236h189l45 219h-188l47 236h188l62 303h272l-62 -303h193l61 303h273l-62 -303h189l-47 -236h-189l-45 -219h189l-48 -236h-188l-65 -319h-273l66 319h-193l-65 -319h-273zM524 555h193l45 219h-193z" />
    <glyph glyph-name="dollar" unicode="$" horiz-adv-x="1148" 
d="M293 16q-98 26 -244 125l137 279q77 -48 189 -80.5t203 -32.5q159 0 159 94q0 31 -27.5 54t-72.5 36t-102.5 28.5t-118 30.5t-118 44.5t-102.5 68t-72.5 103t-27.5 147.5q0 154 103.5 257t265.5 137v200h274v-196q192 -28 340 -146l-159 -262q-63 44 -155 72.5t-169 28.5
q-62 0 -99.5 -20.5t-37.5 -61.5q0 -34 35.5 -59.5t92 -43.5t125 -37t136.5 -47.5t124.5 -66.5t92 -103t35.5 -149q0 -156 -99.5 -260t-261.5 -144v-207h-274v189q-116 6 -172 22z" />
    <glyph glyph-name="percent" unicode="%" horiz-adv-x="1615" 
d="M391 668q-140 0 -245 99t-105 237q0 143 97 241t253 98q155 0 254.5 -98.5t99.5 -240.5q0 -138 -106.5 -237t-247.5 -99zM500 0h-246l860 1313h250zM393 858q59 0 100.5 41t41.5 105q0 66 -43.5 105.5t-98.5 39.5q-59 0 -100 -39t-41 -106q0 -65 41.5 -105.5t99.5 -40.5z
M1225 -31q-155 0 -255 99t-100 241q0 138 107 237t248 99q140 0 245 -99t105 -237q0 -143 -97 -241.5t-253 -98.5zM1223 164q59 0 100 39t41 106q0 65 -41.5 105.5t-99.5 40.5q-59 0 -100.5 -41t-41.5 -105q0 -66 43.5 -105.5t98.5 -39.5z" />
    <glyph glyph-name="ampersand" unicode="&#x26;" horiz-adv-x="1366" 
d="M563 -31q-129 0 -240.5 50t-181 145t-69.5 215q0 218 223 323q-84 118 -84 252q0 169 118.5 279t301.5 110q106 0 198 -46t147.5 -129.5t55.5 -184.5q0 -216 -239 -336l129 -117q7 17 10 33l26 96l297 -57l-26 -94q-25 -93 -72 -186l150 -134l-217 -231l-138 127
q-160 -115 -389 -115zM537 952q0 -67 57 -127q121 57 121 131q0 35 -23 61.5t-61 26.5q-44 0 -69 -27t-25 -65zM403 403q0 -63 52 -100t131 -37q78 0 139 27l-240 219q-82 -52 -82 -109z" />
    <glyph glyph-name="quotesingle" unicode="'" horiz-adv-x="462" 
d="M381 1409l-33 -479h-242l-24 479h299z" />
    <glyph glyph-name="parenleft" unicode="(" horiz-adv-x="722" 
d="M702 -154l-208 -184q-412 396 -412 895t412 895l208 -184q-144 -144 -217 -317t-73 -394t73 -394t217 -317z" />
    <glyph glyph-name="parenright" unicode=")" horiz-adv-x="722" 
d="M229 -338l-209 184q144 144 217.5 317t73.5 394t-73.5 394t-217.5 317l209 184q412 -396 412 -895t-412 -895z" />
    <glyph glyph-name="asterisk" unicode="*" horiz-adv-x="899" 
d="M557 713l-106 180l-109 -180l-195 141l138 156l-203 45l76 229l190 -82l-20 207h241l-20 -207l192 82l76 -229l-203 -45l138 -156z" />
    <glyph glyph-name="plus" unicode="+" horiz-adv-x="1067" 
d="M61 508v297h318v344h309v-344h318v-297h-318v-344h-309v344h-318z" />
    <glyph glyph-name="comma" unicode="," horiz-adv-x="550" 
d="M307 373q82 0 138.5 -55.5t56.5 -137.5q0 -77 -62 -176l-151 -237h-174l123 241q-58 23 -93.5 67t-35.5 101q0 84 56.5 140.5t141.5 56.5z" />
    <glyph glyph-name="hyphen" unicode="-" horiz-adv-x="686" 
d="M82 649h522v-276h-522v276z" />
    <glyph glyph-name="period" unicode="." horiz-adv-x="530" 
d="M274 -31q-85 0 -143.5 59t-58.5 144t59 145t143 60q85 0 145 -60t60 -145t-60 -144t-145 -59z" />
    <glyph glyph-name="slash" unicode="/" horiz-adv-x="911" 
d="M20 0l533 1313h338l-533 -1313h-338z" />
    <glyph glyph-name="zero" unicode="0" horiz-adv-x="1216" 
d="M616 -31q-156 0 -281.5 88.5t-196 245.5t-70.5 352q0 196 68.5 353.5t190.5 246t273 88.5q159 0 285 -88.5t196 -245.5t68 -352q2 -196 -66 -353.5t-191 -246t-276 -88.5zM610 279q96 0 152.5 102.5t56.5 273.5q0 172 -58.5 275.5t-158.5 103.5q-92 0 -148.5 -103.5
t-56.5 -273.5q0 -172 58 -275t155 -103z" />
    <glyph glyph-name="one" unicode="1" horiz-adv-x="942" 
d="M762 0h-330v926l-176 -170l-195 217l361 340h340v-1313z" />
    <glyph glyph-name="two" unicode="2" horiz-adv-x="1054" 
d="M59 0v248l471 450q115 109 115 207q0 60 -40.5 94.5t-106.5 34.5q-68 0 -125 -46t-97 -132l-256 168q29 64 70.5 118t101.5 101t143 73.5t181 26.5q211 0 335 -123t124 -307q0 -101 -52 -196t-163 -197l-252 -231h469v-289h-918z" />
    <glyph glyph-name="three" unicode="3" horiz-adv-x="1050" 
d="M475 -31q-160 0 -280.5 64t-184.5 170l240 213q86 -137 239 -137q91 0 134 39t43 106q0 160 -203 160h-174v182l268 258h-453v289h852v-248l-278 -258q148 -41 232.5 -140t84.5 -245q0 -202 -136 -327.5t-384 -125.5z" />
    <glyph glyph-name="four" unicode="4" horiz-adv-x="1157" 
d="M47 508l625 805h299v-805h172v-289h-172v-219h-320v219h-604v289zM352 508h299v389z" />
    <glyph glyph-name="five" unicode="5" horiz-adv-x="1083" 
d="M500 279q85 0 135.5 43.5t50.5 115.5q0 71 -51 114.5t-135 43.5q-117 0 -219 -61l-148 108l103 670h700v-289h-430l-27 -158q36 8 94 8q200 0 321.5 -121.5t121.5 -320.5q0 -207 -140 -335t-370 -128q-160 0 -280.5 64t-184.5 170l240 213q86 -137 219 -137z" />
    <glyph glyph-name="six" unicode="6" horiz-adv-x="1132" 
d="M575 -31q-220 0 -363.5 139t-143.5 343q0 112 46 221t187 317l219 324h375l-281 -424q206 -12 334.5 -140t128.5 -298q0 -205 -139.5 -343.5t-362.5 -138.5zM573 623q-72 0 -124 -51t-52 -121t52 -121t124 -51t123.5 50.5t51.5 121.5t-51.5 121.5t-123.5 50.5z" />
    <glyph glyph-name="seven" unicode="7" horiz-adv-x="948" 
d="M457 0h-355l463 1024h-520v289h868v-258z" />
    <glyph glyph-name="eight" unicode="8" horiz-adv-x="1085" 
d="M539 -31q-209 0 -346.5 115.5t-137.5 290.5q0 104 52 189.5t145 140.5q-150 111 -150 284q0 154 124 254t313 100q192 0 318 -100t126 -254q0 -87 -38.5 -159.5t-108.5 -122.5q92 -56 143 -142t51 -190q0 -175 -139.5 -290.5t-351.5 -115.5zM543 829q51 0 86 34.5
t35 84.5q0 51 -35 86t-86 35t-86 -35t-35 -86q0 -50 35 -84.5t86 -34.5zM543 246q66 0 111.5 47t45.5 115q0 66 -45.5 112.5t-111.5 46.5t-112 -46.5t-46 -112.5q0 -68 46 -115t112 -47z" />
    <glyph glyph-name="nine" unicode="9" horiz-adv-x="1132" 
d="M557 1313q220 0 364 -139.5t144 -342.5q0 -111 -46 -220t-188 -318l-219 -324h-374l280 424q-206 12 -334.5 140t-128.5 298q0 205 139.5 343.5t362.5 138.5zM559 659q72 0 124 51t52 121q0 71 -52 122t-124 51t-123 -51t-51 -122t51 -121.5t123 -50.5z" />
    <glyph glyph-name="colon" unicode=":" horiz-adv-x="530" 
d="M274 604q-85 0 -143.5 59t-58.5 144t59 145t143 60q85 0 145 -60t60 -145t-60 -144t-145 -59zM274 -31q-85 0 -143.5 59t-58.5 144t59 145t143 60q85 0 145 -60t60 -145t-60 -144t-145 -59z" />
    <glyph glyph-name="semicolon" unicode=";" horiz-adv-x="550" 
d="M274 604q-85 0 -143.5 59t-58.5 144t59 145t143 60q85 0 145 -60t60 -145t-60 -144t-145 -59zM281 373q82 0 138 -55.5t56 -137.5q0 -78 -61 -176l-152 -237h-174l123 241q-58 23 -93.5 67t-35.5 101q0 83 57 140t142 57z" />
    <glyph glyph-name="less" unicode="&#x3c;" horiz-adv-x="1067" 
d="M1006 457v-320l-945 385v291l945 383v-319l-596 -209z" />
    <glyph glyph-name="equal" unicode="=" horiz-adv-x="1067" 
d="M61 733v297h945v-297h-945zM61 283v297h945v-297h-945z" />
    <glyph glyph-name="greater" unicode="&#x3e;" horiz-adv-x="1067" 
d="M61 457l596 211l-596 209v319l945 -383v-291l-945 -385v320z" />
    <glyph glyph-name="question" unicode="?" horiz-adv-x="976" 
d="M322 494l-37 297l80 2q96 0 152 35.5t56 95.5q0 52 -39.5 79t-101.5 27q-59 0 -119 -24t-106 -68l-182 242q84 81 194 122t227 41q122 0 223 -42.5t165.5 -132.5t64.5 -212q0 -138 -86 -237t-238 -123l-8 -102h-245zM451 -31q-85 0 -144 59t-59 144t59 145t144 60
t144.5 -60t59.5 -145t-59.5 -144t-144.5 -59z" />
    <glyph glyph-name="at" unicode="@" horiz-adv-x="1732" 
d="M776 174q-136 0 -224.5 97t-88.5 257q0 177 107 299.5t259 122.5q123 0 185 -84l2 62h241l-24 -428q-3 -50 19.5 -75.5t60.5 -25.5q59 0 92 66.5t33 167.5q0 105 -43 201.5t-116.5 168t-178.5 114t-223 42.5q-159 0 -293 -79.5t-211.5 -215t-77.5 -295.5
q0 -119 46 -227.5t123.5 -188t185.5 -126.5t227 -47q94 0 157 16t119 51l94 -205q-147 -94 -370 -94q-166 0 -318 65t-262.5 175t-176 262t-65.5 319t65.5 319t176 262t262.5 175.5t318 65.5t315.5 -61.5t255 -164t167.5 -241.5t62 -289q0 -87 -23.5 -167t-69.5 -146.5
t-122 -106t-172 -39.5q-91 0 -164 35.5t-108 112.5q-81 -150 -242 -150zM840 406q70 0 112.5 50.5t42.5 118.5q0 64 -36 104t-97 40q-64 0 -108.5 -51t-44.5 -123q0 -59 39 -99t92 -40z" />
    <glyph glyph-name="A" unicode="A" horiz-adv-x="1462" 
d="M1069 0l-90 248h-514l-90 -248h-355l512 1313h398l512 -1313h-373zM573 547h297l-147 407z" />
    <glyph glyph-name="B" unicode="B" horiz-adv-x="1191" 
d="M930 668q100 -29 160.5 -104.5t60.5 -188.5q0 -76 -28.5 -142.5t-84.5 -119t-146.5 -83t-205.5 -30.5h-563v1313h536q201 0 332 -105t131 -272q0 -183 -192 -268zM629 1016h-168v-219h168q65 0 103 29.5t38 80.5q0 50 -38.5 79.5t-102.5 29.5zM655 522h-194v-225h194
q65 0 103.5 31.5t38.5 83.5q0 51 -38.5 80.5t-103.5 29.5z" />
    <glyph glyph-name="C" unicode="C" horiz-adv-x="1275" 
d="M1245 1149l-225 -258q-48 50 -121.5 82.5t-153.5 32.5q-135 0 -228 -102t-93 -247q0 -147 96 -248.5t242 -101.5q73 0 143.5 31t114.5 84l225 -250q-169 -203 -506 -203q-190 0 -346 92.5t-244 250t-88 345.5q0 186 91 344t248 250t341 92q332 0 504 -194z" />
    <glyph glyph-name="D" unicode="D" horiz-adv-x="1404" 
d="M123 0v1313h477q211 0 381 -85t266 -236t96 -339q0 -186 -96 -335.5t-266 -233.5t-381 -84h-477zM594 995h-123v-678h125q173 0 279 93t106 247q0 152 -106 245t-281 93z" />
    <glyph glyph-name="E" unicode="E" horiz-adv-x="1056" 
d="M123 0v1313h872v-318h-534v-172h452v-317h-452v-189h534v-317h-872z" />
    <glyph glyph-name="F" unicode="F" horiz-adv-x="1038" 
d="M123 0v1313h854v-318h-516v-209h434v-317h-434v-469h-338z" />
    <glyph glyph-name="G" unicode="G" horiz-adv-x="1361" 
d="M739 -31q-151 0 -278.5 53.5t-214.5 146t-136 218.5t-49 270q0 143 56.5 271.5t151.5 218.5t222.5 143t264.5 53q332 0 504 -194l-218 -248q-48 49 -125 82t-157 33q-137 0 -236.5 -101t-99.5 -258q0 -160 99 -266t259 -106q100 0 172 34h-2v142h-215v291h537v-617
q-118 -88 -240 -127t-295 -39z" />
    <glyph glyph-name="H" unicode="H" horiz-adv-x="1427" 
d="M967 0v518h-506v-518h-338v1313h338v-477h506v477h338v-1313h-338z" />
    <glyph glyph-name="I" unicode="I" horiz-adv-x="583" 
d="M123 0v1313h338v-1313h-338z" />
    <glyph glyph-name="J" unicode="J" horiz-adv-x="991" 
d="M20 168l228 233q71 -94 153 -94q140 0 140 174v832h338v-809q0 -264 -128.5 -399.5t-338.5 -135.5q-131 0 -236.5 57t-155.5 142z" />
    <glyph glyph-name="K" unicode="K" horiz-adv-x="1298" 
d="M461 0h-338v1313h338v-619l409 619h406l-430 -645l450 -666h-424l-411 612v-614z" />
    <glyph glyph-name="L" unicode="L" horiz-adv-x="1077" 
d="M123 0v1313h338v-996h596v-317h-934z" />
    <glyph glyph-name="M" unicode="M" horiz-adv-x="1687" 
d="M844 238l-383 553v-791h-338v1313h389l354 -537l355 537h344v-1313h-338v793z" />
    <glyph glyph-name="N" unicode="N" horiz-adv-x="1427" 
d="M942 0l-481 748v-748h-338v1313h362l482 -760v760h338v-1313h-363z" />
    <glyph glyph-name="O" unicode="O" horiz-adv-x="1499" 
d="M750 1343q186 0 344.5 -92.5t251 -251t92.5 -344.5q0 -140 -54.5 -267t-147 -218.5t-219.5 -146t-267 -54.5q-186 0 -345 92.5t-251.5 251t-92.5 344.5q0 140 55 267t147 218.5t219.5 146t267.5 54.5zM750 307q135 0 230 101.5t95 246.5t-95 248t-230 103t-230.5 -102
t-95.5 -247t95.5 -247.5t230.5 -102.5z" />
    <glyph glyph-name="P" unicode="P" horiz-adv-x="1196" 
d="M123 0v1313h477q251 0 403 -125t152 -330q0 -209 -152.5 -335t-404.5 -126h-137v-397h-338zM627 1016h-166v-322h166q76 0 123 45t47 119q0 71 -47 114.5t-123 43.5z" />
    <glyph glyph-name="Q" unicode="Q" horiz-adv-x="1499" 
d="M750 -31q-186 0 -345 92.5t-251.5 251t-92.5 344.5q0 140 55 267t147 218.5t219.5 146t267.5 54.5q186 0 344.5 -92.5t251 -251t92.5 -344.5q0 -212 -119 -383l172 -172l-217 -217l-178 178q-165 -92 -346 -92zM750 307q44 0 88 12l-168 168l217 218l168 -168
q20 53 20 118q0 145 -95 248t-230 103t-230.5 -102t-95.5 -247t95.5 -247.5t230.5 -102.5z" />
    <glyph glyph-name="R" unicode="R" horiz-adv-x="1249" 
d="M123 0v1313h477q251 0 403 -119t152 -315q0 -126 -63.5 -223.5t-180.5 -153.5l277 -502h-391l-226 438h-110v-438h-338zM627 1016h-166v-281h166q76 0 123 39.5t47 104.5q0 62 -47 99.5t-123 37.5z" />
    <glyph glyph-name="S" unicode="S" horiz-adv-x="1148" 
d="M291 -4q-98 26 -244 125l137 278q77 -48 188.5 -80t202.5 -32q160 0 160 94q0 36 -35.5 62.5t-92 45.5t-124.5 39.5t-136.5 52.5t-125 75t-92 115.5t-35.5 166.5q0 128 74 222.5t190 140t254 45.5q126 0 247.5 -40t217.5 -116l-159 -262q-62 44 -154.5 72t-169.5 28
q-62 0 -99.5 -20.5t-37.5 -61.5q0 -34 35.5 -59.5t92 -44.5t125 -39.5t136.5 -52t124.5 -74.5t92 -115.5t35.5 -165.5q0 -102 -44.5 -183.5t-120.5 -133.5t-173.5 -79.5t-208.5 -27.5q-168 0 -260 25z" />
    <glyph glyph-name="T" unicode="T" horiz-adv-x="1097" 
d="M1077 995h-360v-995h-338v995h-359v318h1057v-318z" />
    <glyph glyph-name="U" unicode="U" horiz-adv-x="1349" 
d="M113 561v752h338v-744q0 -119 62 -190.5t165 -71.5q100 0 160.5 71t60.5 189v746h338v-752q0 -267 -155 -429.5t-410 -162.5q-252 0 -405.5 162.5t-153.5 429.5z" />
    <glyph glyph-name="V" unicode="V" horiz-adv-x="1400" 
d="M403 1313l308 -946l305 946h354l-471 -1313h-397l-471 1313h372z" />
    <glyph glyph-name="W" unicode="W" horiz-adv-x="2129" 
d="M1735 1313h354l-410 -1313h-426l-196 893l-197 -893h-409l-410 1313h373l241 -924l207 924h424l207 -924z" />
    <glyph glyph-name="X" unicode="X" horiz-adv-x="1370" 
d="M496 1313l215 -334l223 334h381l-420 -623l444 -690h-424l-247 381l-256 -381h-381l448 668l-420 645h437z" />
    <glyph glyph-name="Y" unicode="Y" horiz-adv-x="1333" 
d="M498 0v430l-478 883h375l279 -529l282 529h357l-477 -883v-430h-338z" />
    <glyph glyph-name="Z" unicode="Z" horiz-adv-x="1191" 
d="M72 317l587 678h-567v318h1008v-318l-588 -678h608v-317h-1048v317z" />
    <glyph glyph-name="bracketleft" unicode="[" horiz-adv-x="698" 
d="M143 -266v1675h514v-289h-184v-1097h184v-289h-514z" />
    <glyph glyph-name="backslash" unicode="\" horiz-adv-x="911" 
d="M891 0h-338l-533 1313h338z" />
    <glyph glyph-name="bracketright" unicode="]" horiz-adv-x="698" 
d="M555 -266h-514v289h184v1097h-184v289h514v-1675z" />
    <glyph glyph-name="asciicircum" unicode="^" horiz-adv-x="1067" 
d="M401 1313h275l330 -656h-289l-178 383l-187 -383h-289z" />
    <glyph glyph-name="underscore" unicode="_" horiz-adv-x="931" 
d="M0 -41h932v-215h-932v215z" />
    <glyph glyph-name="grave" unicode="`" 
d="M362 1409l201 -319h-299l-287 319h385z" />
    <glyph glyph-name="a" unicode="a" horiz-adv-x="1212" 
d="M520 -31q-125 0 -230.5 63.5t-170 183.5t-64.5 273q0 226 132 374.5t333 148.5q161 0 250 -113v82h330v-981h-330v92q-95 -123 -250 -123zM578 279q83 0 137.5 60t54.5 150q0 91 -54.5 152t-137.5 61t-138 -61t-55 -152q0 -90 55 -150t138 -60z" />
    <glyph glyph-name="b" unicode="b" horiz-adv-x="1212" 
d="M692 1012q125 0 230.5 -63.5t170 -183.5t64.5 -273q0 -226 -132 -374.5t-333 -148.5q-161 0 -250 113v-82h-329v1409h329v-520q95 123 250 123zM635 702q-83 0 -138 -60t-55 -150q0 -91 55 -152t138 -61t137.5 61t54.5 152q0 90 -54.5 150t-137.5 60z" />
    <glyph glyph-name="c" unicode="c" horiz-adv-x="1003" 
d="M797 621q-84 81 -203 81q-94 0 -151.5 -60.5t-57.5 -152.5q0 -90 58 -150t151 -60q122 0 215 90l164 -242q-59 -70 -164 -114t-223 -44q-109 0 -208 41t-169.5 111t-112 166t-41.5 202q0 142 70.5 262.5t191 190.5t261.5 70q254 0 405 -158z" />
    <glyph glyph-name="d" unicode="d" horiz-adv-x="1212" 
d="M520 -31q-125 0 -230.5 63.5t-170 183.5t-64.5 273q0 226 132 374.5t333 148.5q161 0 250 -113v510h330v-1409h-330v92q-95 -123 -250 -123zM578 279q83 0 137.5 60t54.5 150q0 91 -54.5 152t-137.5 61t-138 -61t-55 -152q0 -90 55 -150t138 -60z" />
    <glyph glyph-name="e" unicode="e" horiz-adv-x="1118" 
d="M596 -31q-152 0 -277 70t-194.5 189t-69.5 261q0 143 66 263t182.5 190t257.5 70q216 0 362 -143t146 -359q0 -72 -6 -102h-666q21 -69 76 -109.5t135 -40.5q115 0 203 92l168 -223q-57 -68 -158 -113t-225 -45zM567 735q-59 0 -101 -33.5t-63 -93.5h328
q-39 127 -164 127z" />
    <glyph glyph-name="f" unicode="f" horiz-adv-x="872" 
d="M41 692v289h166q3 213 114 336t302 123q210 0 321 -111l-156 -250q-22 22 -58 36.5t-71 14.5q-57 0 -89.5 -38t-32.5 -111h249v-289h-249v-692h-330v692h-166z" />
    <glyph glyph-name="g" unicode="g" horiz-adv-x="1191" 
d="M287 -41q110 -90 252 -90q95 0 153 48t58 136v92q-95 -116 -250 -116q-90 0 -171 35t-141.5 98t-96.5 156t-36 202q0 140 61 251.5t162.5 172t221.5 60.5q161 0 250 -103v80h329v-913q0 -119 -34.5 -211t-87.5 -145t-125.5 -87t-137.5 -45.5t-135 -11.5q-138 0 -252 35
t-184 102zM567 338q78 0 130.5 52.5t52.5 129.5t-52.5 129.5t-130.5 52.5t-130 -52.5t-52 -129.5q0 -78 52 -130t130 -52z" />
    <glyph glyph-name="h" unicode="h" horiz-adv-x="1173" 
d="M113 0v1409h329v-549q78 152 254 152q168 0 266.5 -114t98.5 -312v-586h-330v541q0 73 -39 117t-104 44q-66 0 -106 -44t-40 -117v-541h-329z" />
    <glyph glyph-name="i" unicode="i" horiz-adv-x="555" 
d="M276 1069q-76 0 -130 53.5t-54 130.5t54 132t130 55t131.5 -55t55.5 -132q0 -76 -55 -130t-132 -54zM442 0h-329v981h329v-981z" />
    <glyph glyph-name="j" unicode="j" horiz-adv-x="555" 
d="M276 1069q-76 0 -130 53.5t-54 130.5t54 132t130 55t131.5 -55t55.5 -132q0 -76 -55 -130t-132 -54zM25 -432q-87 0 -163 28t-122 74l154 244q52 -45 114 -45q45 0 75 37.5t30 109.5v965h329v-948q0 -212 -109 -338.5t-308 -126.5z" />
    <glyph glyph-name="k" unicode="k" horiz-adv-x="1185" 
d="M442 0h-329v1409h329v-805l308 377h397l-354 -432l407 -549h-414l-344 477v-477z" />
    <glyph glyph-name="l" unicode="l" horiz-adv-x="651" 
d="M559 285l31 -287q-73 -25 -144 -25q-51 0 -97 13t-90 43t-76 75t-51 114.5t-19 156.5v1034h329v-1044q0 -44 22.5 -67.5t55.5 -23.5q17 0 39 11z" />
    <glyph glyph-name="m" unicode="m" horiz-adv-x="1792" 
d="M442 0h-329v981h329v-137q38 79 105.5 123.5t157.5 44.5q104 0 183 -48.5t122 -138.5q47 86 116 136.5t177 50.5q173 0 274.5 -112t101.5 -314v-586h-329v541q0 73 -39.5 117t-104.5 44q-66 0 -105.5 -44t-39.5 -117v-541h-330v541q0 73 -39 117t-104 44q-66 0 -106 -44
t-40 -117v-541z" />
    <glyph glyph-name="n" unicode="n" horiz-adv-x="1173" 
d="M113 0v981h329v-121q78 152 254 152q168 0 266.5 -114t98.5 -312v-586h-330v541q0 73 -39 117t-104 44q-66 0 -106 -44t-40 -117v-541h-329z" />
    <glyph glyph-name="o" unicode="o" horiz-adv-x="1155" 
d="M578 -31q-141 0 -261.5 69.5t-191 189.5t-70.5 261q0 142 70.5 262.5t191 190.5t261.5 70t261.5 -70t190.5 -190.5t70 -262.5q0 -106 -41.5 -202t-111.5 -166t-166.5 -111t-202.5 -41zM578 279q83 0 137.5 60t54.5 150q0 91 -54.5 152t-137.5 61t-138 -61t-55 -152
q0 -90 55 -150t138 -60z" />
    <glyph glyph-name="p" unicode="p" horiz-adv-x="1212" 
d="M442 -401h-329v1382h329v-92q95 123 250 123q125 0 230.5 -63.5t170 -183.5t64.5 -273q0 -226 -132 -374.5t-333 -148.5q-161 0 -250 113v-483zM635 279q83 0 137.5 61t54.5 152q0 90 -54.5 150t-137.5 60t-138 -60t-55 -150q0 -91 55 -152t138 -61z" />
    <glyph glyph-name="q" unicode="q" horiz-adv-x="1212" 
d="M520 -31q-125 0 -230.5 63.5t-170 183.5t-64.5 273q0 226 132 374.5t333 148.5q161 0 250 -113v82h330v-1382h-330v493q-95 -123 -250 -123zM578 279q83 0 137.5 60t54.5 150q0 91 -54.5 152t-137.5 61t-138 -61t-55 -152q0 -90 55 -150t138 -60z" />
    <glyph glyph-name="r" unicode="r" horiz-adv-x="870" 
d="M113 0v981h329v-152q37 83 97.5 133t136.5 50q102 0 164 -56l-135 -311q-53 47 -134 47q-59 0 -94 -44.5t-35 -117.5v-530h-329z" />
    <glyph glyph-name="s" unicode="s" horiz-adv-x="948" 
d="M442 -31q-220 0 -393 92l92 242q170 -74 314 -74q110 0 110 56q0 22 -21 38.5t-56 27.5t-79 24.5t-90.5 28t-90.5 39.5t-79 57t-56 83.5t-21 116.5q0 58 25.5 113t74 100t126.5 72t175 27q106 0 193.5 -21t197.5 -73l-114 -232q-51 30 -121.5 48t-124.5 18
q-47 0 -74 -13.5t-27 -38.5t27 -42.5t70 -29.5t95 -25t104 -36t95 -55.5t70 -89.5t27 -133q0 -134 -120 -227t-329 -93z" />
    <glyph glyph-name="t" unicode="t" horiz-adv-x="890" 
d="M20 692v289h187v266h330v-266h249v-289h-245v-301q0 -58 20.5 -85t63.5 -27q30 0 58.5 13t43.5 34l143 -244q-51 -51 -129 -82t-174 -31q-167 0 -264.5 106.5t-97.5 307.5v309h-185z" />
    <glyph glyph-name="u" unicode="u" horiz-adv-x="1173" 
d="M432 981v-516q0 -85 42.5 -135.5t113.5 -50.5q69 0 111 50.5t42 135.5v516h330v-541q0 -212 -132.5 -341.5t-350.5 -129.5q-220 0 -353 129.5t-133 341.5v541h330z" />
    <glyph glyph-name="v" unicode="v" horiz-adv-x="1140" 
d="M786 0h-428l-338 981h363l197 -690l206 690h334z" />
    <glyph glyph-name="w" unicode="w" horiz-adv-x="1681" 
d="M690 0h-371l-288 981h352l129 -623l145 623h355l151 -629l135 629h353l-289 -981h-412l-133 569z" />
    <glyph glyph-name="x" unicode="x" horiz-adv-x="1167" 
d="M20 0l365 489l-354 492h407l164 -225l166 225h369l-355 -477l365 -504h-410l-172 240l-178 -240h-367z" />
    <glyph glyph-name="y" unicode="y" horiz-adv-x="1142" 
d="M371 981l231 -567l189 567h331l-374 -1065q-121 -348 -420 -348q-90 0 -171.5 34t-136.5 85l146 258q71 -68 160 -68q87 0 133 107l-453 997h365z" />
    <glyph glyph-name="z" unicode="z" horiz-adv-x="989" 
d="M72 289l397 403h-377v289h807v-289l-399 -403h418v-289h-846v289z" />
    <glyph glyph-name="braceleft" unicode="{" horiz-adv-x="698" 
d="M20 428v287q75 0 109.5 32.5t34.5 104.5v256q0 135 85.5 218t254.5 83h153v-289h-73q-90 0 -90 -90v-229q0 -106 -51.5 -162.5t-133.5 -67.5q82 -12 133.5 -67.5t51.5 -161.5v-229q0 -90 90 -90h73v-289h-153q-169 0 -254.5 83t-85.5 218v256q0 72 -34.5 104.5
t-109.5 32.5z" />
    <glyph glyph-name="bar" unicode="|" horiz-adv-x="604" 
d="M461 -401h-318v1810h318v-1810z" />
    <glyph glyph-name="braceright" unicode="}" horiz-adv-x="698" 
d="M678 428q-75 0 -109 -32.5t-34 -104.5v-256q0 -135 -85.5 -218t-254.5 -83h-154v289h74q90 0 90 90v229q0 106 51 162t133 67q-82 11 -133 67.5t-51 162.5v229q0 90 -90 90h-74v289h154q169 0 254.5 -83t85.5 -218v-256q0 -72 34 -104.5t109 -32.5v-287z" />
    <glyph glyph-name="asciitilde" unicode="~" horiz-adv-x="1067" 
d="M61 492v296q111 76 244 76q68 0 132.5 -16.5t107 -36.5t102 -36.5t117.5 -16.5q164 0 242 61v-297q-99 -61 -238 -61q-66 0 -130.5 16.5t-108 36.5t-104 36.5t-118.5 16.5q-171 0 -246 -75z" />
    <glyph glyph-name="nbspace" unicode="&#xa0;" horiz-adv-x="409" 
 />
    <glyph glyph-name="exclamdown" unicode="&#xa1;" horiz-adv-x="612" 
d="M307 604q-85 0 -145 60t-60 145t60 144t145 59t144 -59t59 -144t-59 -145t-144 -60zM481 -332h-350l45 787h260z" />
    <glyph glyph-name="cent" unicode="&#xa2;" horiz-adv-x="1003" 
d="M797 786q-85 82 -203 82q-94 0 -151.5 -60.5t-57.5 -152.5q0 -91 58 -151t151 -60q121 0 215 91l164 -242q-43 -52 -113.5 -90.5t-154.5 -55.5v-178h-275v189q-166 50 -270.5 187t-104.5 310q0 176 105.5 314t269.5 188v184h275v-176q164 -28 278 -145z" />
    <glyph glyph-name="sterling" unicode="&#xa3;" horiz-adv-x="1208" 
d="M143 297h43q60 0 86.5 41t26.5 127v92h-135v213h135v127q0 95 27 175t79.5 141t137.5 95.5t194 34.5q143 0 233.5 -48t155.5 -126l-196 -213q-41 41 -79.5 59.5t-94.5 18.5q-127 0 -127 -155v-109h301v-213h-301v-100q0 -69 -29 -110.5t-76 -49.5h580v-297h-961v297z" />
    <glyph glyph-name="currency" unicode="&#xa4;" horiz-adv-x="1218" 
d="M608 129q-120 0 -227 55l-131 -129l-209 209l129 129q-57 108 -57 230q0 123 57 231l-129 129l209 209l131 -129q107 55 227 55t230 -55l131 129l209 -209l-129 -131q55 -107 55 -229q0 -121 -55 -228l129 -131l-209 -209l-131 129q-110 -55 -230 -55zM608 416
q85 0 147 62t62 145q0 87 -62 150t-147 63q-88 0 -149.5 -62.5t-61.5 -150.5q0 -84 62 -145.5t149 -61.5z" />
    <glyph glyph-name="yen" unicode="&#xa5;" horiz-adv-x="1333" 
d="M836 0h-338v285h-326v213h291l-64 118h-227v213h111l-263 484h375l279 -572l282 572h357l-262 -484h110v-213h-227l-64 -118h291v-213h-325v-285z" />
    <glyph glyph-name="brokenbar" unicode="&#xa6;" horiz-adv-x="604" 
d="M461 1409v-747h-318v747h318zM461 346v-747h-318v747h318z" />
    <glyph glyph-name="section" unicode="&#xa7;" horiz-adv-x="1525" 
d="M1282 1104l-229 -230q-46 67 -123.5 109.5t-175.5 42.5q-54 0 -83.5 -18t-29.5 -52q0 -26 23.5 -46.5t63 -35.5t90.5 -29.5t107.5 -31.5t113 -37.5t107.5 -51t90.5 -69t63 -94.5t23.5 -125q0 -149 -117 -246q76 -79 76 -196q0 -184 -147 -305t-377 -121q-377 0 -533 246
l240 225q113 -154 309 -154q71 0 108.5 22.5t37.5 61.5q0 30 -29.5 53.5t-77.5 39t-109 34t-125 37t-125 50t-109 70.5t-77.5 100.5t-29.5 138.5q0 142 131 231q-90 87 -90 215q0 177 141.5 291t359.5 114q165 0 295.5 -64.5t206.5 -174.5zM600 504q0 -18 8 -33t26.5 -28
t37 -23t51.5 -21t56.5 -18t66 -19t67.5 -20q48 29 48 82q0 17 -8 32t-26.5 27.5t-37 22t-51.5 21t-56.5 18.5t-66 19.5t-66.5 19.5q-49 -32 -49 -80z" />
    <glyph glyph-name="dieresis" unicode="&#xa8;" 
d="M37 1237q0 69 48.5 118.5t117.5 49.5t118.5 -49.5t49.5 -118.5t-49.5 -117.5t-118.5 -48.5t-117.5 48.5t-48.5 117.5zM446 1237q0 69 48.5 118.5t117.5 49.5t118.5 -49.5t49.5 -118.5t-49.5 -117.5t-118.5 -48.5t-117.5 48.5t-48.5 117.5z" />
    <glyph glyph-name="copyright" unicode="&#xa9;" horiz-adv-x="1628" 
d="M815 1413q153 0 293.5 -60.5t242 -162.5t162 -242.5t60.5 -294.5q0 -153 -60.5 -293t-162 -241.5t-242 -162t-293.5 -60.5q-154 0 -294.5 60t-242.5 162t-162.5 242t-60.5 293q0 154 60.5 294.5t162.5 242.5t242.5 162.5t294.5 60.5zM817 1223q-114 0 -218 -45.5
t-179 -121.5t-119.5 -180.5t-44.5 -218.5t44.5 -218t119.5 -179t179 -119.5t218 -44.5q153 0 283 75t206 204.5t76 281.5t-76 282.5t-206 207t-283 76.5zM1133 948l-148 -184q-69 63 -162 63q-75 0 -118 -47t-43 -121t44 -122t117 -48q95 0 170 72l131 -192
q-45 -55 -129.5 -90t-179.5 -35q-176 0 -296 121t-120 294q0 172 120 294t290 122q204 0 324 -127z" />
    <glyph glyph-name="ordfeminine" unicode="&#xaa;" horiz-adv-x="757" 
d="M293 641q-110 0 -194.5 92.5t-84.5 245.5q0 151 81 251.5t196 100.5q108 0 164 -80v62h256v-656h-256v64q-59 -80 -162 -80zM362 881q37 0 63 27t26 69q0 44 -26 72t-63 28t-61.5 -28t-24.5 -72q0 -42 24.5 -69t61.5 -27z" />
    <glyph glyph-name="guillemotleft" unicode="&#xab;" horiz-adv-x="1150" 
d="M61 514l400 397l166 -166l-232 -231l232 -233l-166 -164zM524 514l400 397l166 -166l-232 -231l232 -233l-166 -164z" />
    <glyph glyph-name="logicalnot" unicode="&#xac;" horiz-adv-x="1067" 
d="M1006 223h-297v285h-648v297h945v-582z" />
    <glyph glyph-name="softhyphen" unicode="&#xad;" horiz-adv-x="686" 
d="M82 649h522v-276h-522v276z" />
    <glyph glyph-name="registered" unicode="&#xae;" horiz-adv-x="1306" 
d="M653 1573q122 0 232.5 -47.5t190.5 -127.5t127.5 -190.5t47.5 -232.5q0 -161 -80 -298.5t-218 -217.5t-300 -80q-161 0 -299 80t-218.5 217.5t-80.5 298.5q0 162 80.5 300t218.5 218t299 80zM655 1415q-180 0 -309 -128.5t-129 -309.5t129 -309.5t309 -128.5
q182 0 311.5 128.5t129.5 309.5t-129.5 309.5t-311.5 128.5zM412 705v563h264q116 0 176.5 -47t60.5 -134q0 -111 -110 -153l123 -229h-203l-100 208h-25v-208h-186zM655 1135h-59v-105h59q70 0 70 53q0 22 -17.5 37t-52.5 15z" />
    <glyph glyph-name="macron" unicode="&#xaf;" 
d="M86 1368h645v-235h-645v235z" />
    <glyph glyph-name="degree" unicode="&#xb0;" horiz-adv-x="790" 
d="M393 627q-149 0 -261 105t-112 251q0 153 104 256.5t269 103.5t271 -104t106 -256q0 -146 -113 -251t-264 -105zM395 829q62 0 106 43t44 111q0 71 -45.5 112.5t-104.5 41.5q-63 0 -106 -41.5t-43 -112.5q0 -69 44 -111.5t105 -42.5z" />
    <glyph glyph-name="plusminus" unicode="&#xb1;" horiz-adv-x="1067" 
d="M61 713v297h318v303h309v-303h318v-297h-318v-303h-309v303h-318zM61 0v297h945v-297h-945z" />
    <glyph glyph-name="twosuperior" unicode="&#xb2;" horiz-adv-x="602" 
d="M55 657v168l217 156q42 29 56 50.5t14 47.5q0 27 -15.5 43.5t-45.5 16.5q-69 0 -113 -90l-143 102q29 75 101.5 127.5t186.5 52.5q112 0 179 -63t67 -154q0 -67 -34 -124t-119 -109l-74 -45h223v-179h-500z" />
    <glyph glyph-name="threesuperior" unicode="&#xb3;" horiz-adv-x="602" 
d="M281 641q-88 0 -152.5 31.5t-95.5 81.5l139 137q47 -57 104 -57q32 0 50 14t18 39q0 33 -25 48t-63 15h-84v90l131 93h-223v180h461v-150l-142 -94q162 -49 162 -192q0 -101 -75.5 -168.5t-204.5 -67.5z" />
    <glyph glyph-name="acute" unicode="&#xb4;" 
d="M371 1409h385l-287 -319h-299z" />
    <glyph glyph-name="paragraph" unicode="&#xb6;" horiz-adv-x="1222" 
d="M535 1313h565v-1714h-230v1425h-106v-1425h-309v888q-179 27 -281 141.5t-102 278.5q0 186 124 296t339 110z" />
    <glyph glyph-name="periodcentered" unicode="&#xb7;" 
d="M223 598q0 77 54.5 131.5t130.5 54.5t131 -55t55 -131t-54.5 -130t-131.5 -54t-131 54t-54 130z" />
    <glyph glyph-name="cedilla" unicode="&#xb8;" 
d="M336 0h211l-133 -424l-262 102z" />
    <glyph glyph-name="onesuperior" unicode="&#xb9;" horiz-adv-x="602" 
d="M455 657h-230v410l-73 -74l-123 146l188 174h238v-656z" />
    <glyph glyph-name="ordmasculine" unicode="&#xba;" horiz-adv-x="727" 
d="M362 641q-142 0 -245 101t-103 243q0 144 103 246t245 102t245.5 -102t103.5 -246q0 -142 -103.5 -243t-245.5 -101zM362 887q37 0 63 27t26 69q0 44 -26 72t-63 28t-61.5 -28t-24.5 -72q0 -42 24.5 -69t61.5 -27z" />
    <glyph glyph-name="guillemotright" unicode="&#xbb;" horiz-adv-x="1150" 
d="M524 745l166 166l400 -397l-400 -397l-166 164l232 233zM61 745l166 166l400 -397l-400 -397l-166 164l232 233z" />
    <glyph glyph-name="onequarter" unicode="&#xbc;" horiz-adv-x="1331" 
d="M455 657h-230v410l-73 -74l-123 146l188 174h238v-656zM147 0l865 1313h245l-860 -1313h-250zM737 270l301 385h209v-385h76v-188h-76v-82h-200v82h-310v188zM895 270h152v191z" />
    <glyph glyph-name="onehalf" unicode="&#xbd;" horiz-adv-x="1331" 
d="M455 657h-230v410l-73 -74l-123 146l188 174h238v-656zM92 0l864 1313h246l-860 -1313h-250zM784 0v168l217 156q42 29 56 50.5t14 47.5q0 27 -15.5 43t-45.5 16q-69 0 -113 -90l-143 103q29 75 101.5 127.5t186.5 52.5q112 0 179 -63t67 -154q0 -68 -34 -125t-119 -109
l-74 -45h223v-178h-500z" />
    <glyph glyph-name="threequarters" unicode="&#xbe;" horiz-adv-x="1331" 
d="M281 641q-88 0 -152.5 31.5t-95.5 81.5l139 137q47 -57 104 -57q32 0 50 14t18 39q0 33 -25 48t-63 15h-84v90l131 93h-223v180h461v-150l-142 -94q162 -49 162 -192q0 -101 -75.5 -168.5t-204.5 -67.5zM156 0l864 1313h246l-860 -1313h-250zM737 270l301 385h209v-385
h76v-188h-76v-82h-200v82h-310v188zM895 270h152v191z" />
    <glyph glyph-name="questiondown" unicode="&#xbf;" horiz-adv-x="976" 
d="M526 1018q85 0 144 -59t59 -144t-59 -145t-144 -60t-144.5 60t-59.5 145t59.5 144t144.5 59zM655 494l37 -297l-80 -2q-96 0 -152.5 -36t-56.5 -96q0 -52 40 -79t102 -27q59 0 119 24t106 68l182 -242q-84 -81 -194.5 -122t-227.5 -41q-90 0 -171 25t-144 72.5
t-100 122.5t-37 167q0 138 85.5 237t237.5 123l9 103h245z" />
    <glyph glyph-name="Agrave" unicode="&#xc0;" horiz-adv-x="1462" 
d="M702 1741l201 -320h-299l-287 320h385zM1069 0l-90 248h-514l-90 -248h-355l512 1313h398l512 -1313h-373zM573 547h297l-147 407z" />
    <glyph glyph-name="Aacute" unicode="&#xc1;" horiz-adv-x="1462" 
d="M758 1741h385l-287 -320h-299zM1069 0l-90 248h-514l-90 -248h-355l512 1313h398l512 -1313h-373zM573 547h297l-147 407z" />
    <glyph glyph-name="Acircumflex" unicode="&#xc2;" horiz-adv-x="1462" 
d="M584 1741h295l239 -320h-309l-78 138l-78 -138h-309zM1069 0l-90 248h-514l-90 -248h-355l512 1313h398l512 -1313h-373zM573 547h297l-147 407z" />
    <glyph glyph-name="Atilde" unicode="&#xc3;" horiz-adv-x="1462" 
d="M901 1417q-61 0 -151.5 38t-135.5 38q-59 0 -120 -92l-160 133q79 190 227 190q61 0 151.5 -37.5t135.5 -37.5q60 0 121 92l159 -133q-79 -191 -227 -191zM1069 0l-90 248h-514l-90 -248h-355l512 1313h398l512 -1313h-373zM573 547h297l-147 407z" />
    <glyph glyph-name="Adieresis" unicode="&#xc4;" horiz-adv-x="1462" 
d="M358 1569q0 69 48.5 118.5t117.5 49.5t118.5 -49.5t49.5 -118.5t-49.5 -117.5t-118.5 -48.5t-117.5 48.5t-48.5 117.5zM768 1569q0 69 48.5 118.5t117.5 49.5t118.5 -49.5t49.5 -118.5t-49.5 -117.5t-118.5 -48.5t-117.5 48.5t-48.5 117.5zM1069 0l-90 248h-514l-90 -248
h-355l512 1313h398l512 -1313h-373zM573 547h297l-147 407z" />
    <glyph glyph-name="Aring" unicode="&#xc5;" horiz-adv-x="1462" 
d="M731 1401q-110 0 -185 73.5t-75 178.5t75 178.5t185 73.5t185 -73.5t75 -178.5t-75 -178.5t-185 -73.5zM733 1563q36 0 61 26t25 64t-25 64t-61 26t-61 -26t-25 -64t25 -64t61 -26zM1069 0l-90 248h-514l-90 -248h-355l512 1313h398l512 -1313h-373zM573 547h297
l-147 407z" />
    <glyph glyph-name="AE" unicode="&#xc6;" horiz-adv-x="1740" 
d="M840 0v248h-377l-101 -248h-354l553 1313h1118v-318h-501v-172h419v-317h-419v-189h501v-317h-839zM774 1020l-190 -473h256v473h-66z" />
    <glyph glyph-name="Ccedilla" unicode="&#xc7;" horiz-adv-x="1275" 
d="M1245 1149l-225 -258q-48 50 -121.5 82.5t-153.5 32.5q-135 0 -228 -102t-93 -247q0 -147 96 -248.5t242 -101.5q73 0 143.5 31t114.5 84l225 -250q-142 -171 -395 -197l-125 -399l-262 102l172 299q-250 37 -412 229.5t-162 450.5q0 186 91 344t248 250t341 92
q332 0 504 -194z" />
    <glyph glyph-name="Egrave" unicode="&#xc8;" horiz-adv-x="1056" 
d="M530 1741l201 -320h-299l-287 320h385zM123 0v1313h872v-318h-534v-172h452v-317h-452v-189h534v-317h-872z" />
    <glyph glyph-name="Eacute" unicode="&#xc9;" horiz-adv-x="1056" 
d="M586 1741h385l-287 -320h-299zM123 0v1313h872v-318h-534v-172h452v-317h-452v-189h534v-317h-872z" />
    <glyph glyph-name="Ecircumflex" unicode="&#xca;" horiz-adv-x="1056" 
d="M412 1741h295l239 -320h-309l-78 138l-78 -138h-309zM123 0v1313h872v-318h-534v-172h452v-317h-452v-189h534v-317h-872z" />
    <glyph glyph-name="Edieresis" unicode="&#xcb;" horiz-adv-x="1056" 
d="M186 1569q0 69 48.5 118.5t117.5 49.5t118.5 -49.5t49.5 -118.5t-49.5 -117.5t-118.5 -48.5t-117.5 48.5t-48.5 117.5zM596 1569q0 69 48.5 118.5t117.5 49.5t118.5 -49.5t49.5 -118.5t-49.5 -117.5t-118.5 -48.5t-117.5 48.5t-48.5 117.5zM123 0v1313h872v-318h-534
v-172h452v-317h-452v-189h534v-317h-872z" />
    <glyph glyph-name="Igrave" unicode="&#xcc;" horiz-adv-x="583" 
d="M264 1741l201 -320h-299l-287 320h385zM123 0v1313h338v-1313h-338z" />
    <glyph glyph-name="Iacute" unicode="&#xcd;" horiz-adv-x="583" 
d="M319 1741h386l-287 -320h-299zM123 0v1313h338v-1313h-338z" />
    <glyph glyph-name="Icircumflex" unicode="&#xce;" horiz-adv-x="583" 
d="M145 1741h295l240 -320h-309l-78 138l-78 -138h-309zM123 0v1313h338v-1313h-338z" />
    <glyph glyph-name="Idieresis" unicode="&#xcf;" horiz-adv-x="583" 
d="M-80 1569q0 69 48.5 118.5t117.5 49.5t118.5 -49.5t49.5 -118.5t-49.5 -117.5t-118.5 -48.5t-117.5 48.5t-48.5 117.5zM330 1569q0 69 48.5 118.5t117.5 49.5t118.5 -49.5t49.5 -118.5t-49.5 -117.5t-118.5 -48.5t-117.5 48.5t-48.5 117.5zM123 0v1313h338v-1313h-338z
" />
    <glyph glyph-name="Eth" unicode="&#xd0;" horiz-adv-x="1404" 
d="M123 0v532h-113v277h113v504h477q211 0 381 -85t266 -236t96 -339q0 -186 -96 -335.5t-266 -233.5t-381 -84h-477zM594 995h-123v-186h205v-277h-205v-215h125q173 0 279 93t106 247q0 152 -106 245t-281 93z" />
    <glyph glyph-name="Ntilde" unicode="&#xd1;" horiz-adv-x="1427" 
d="M905 1417q-61 0 -151.5 38t-135.5 38q-59 0 -120 -92l-160 133q79 190 227 190q61 0 151.5 -37.5t135.5 -37.5q60 0 121 92l160 -133q-79 -191 -228 -191zM942 0l-481 748v-748h-338v1313h362l482 -760v760h338v-1313h-363z" />
    <glyph glyph-name="Ograve" unicode="&#xd2;" horiz-adv-x="1499" 
d="M721 1741l201 -320h-299l-287 320h385zM750 1343q186 0 344.5 -92.5t251 -251t92.5 -344.5q0 -140 -54.5 -267t-147 -218.5t-219.5 -146t-267 -54.5q-186 0 -345 92.5t-251.5 251t-92.5 344.5q0 140 55 267t147 218.5t219.5 146t267.5 54.5zM750 307q135 0 230 101.5
t95 246.5t-95 248t-230 103t-230.5 -102t-95.5 -247t95.5 -247.5t230.5 -102.5z" />
    <glyph glyph-name="Oacute" unicode="&#xd3;" horiz-adv-x="1499" 
d="M776 1741h385l-287 -320h-299zM750 1343q186 0 344.5 -92.5t251 -251t92.5 -344.5q0 -140 -54.5 -267t-147 -218.5t-219.5 -146t-267 -54.5q-186 0 -345 92.5t-251.5 251t-92.5 344.5q0 140 55 267t147 218.5t219.5 146t267.5 54.5zM750 307q135 0 230 101.5t95 246.5
t-95 248t-230 103t-230.5 -102t-95.5 -247t95.5 -247.5t230.5 -102.5z" />
    <glyph glyph-name="Ocircumflex" unicode="&#xd4;" horiz-adv-x="1499" 
d="M602 1741h295l240 -320h-310l-77 138l-78 -138h-310zM750 1343q186 0 344.5 -92.5t251 -251t92.5 -344.5q0 -140 -54.5 -267t-147 -218.5t-219.5 -146t-267 -54.5q-186 0 -345 92.5t-251.5 251t-92.5 344.5q0 140 55 267t147 218.5t219.5 146t267.5 54.5zM750 307
q135 0 230 101.5t95 246.5t-95 248t-230 103t-230.5 -102t-95.5 -247t95.5 -247.5t230.5 -102.5z" />
    <glyph glyph-name="Otilde" unicode="&#xd5;" horiz-adv-x="1499" 
d="M920 1417q-61 0 -151.5 38t-135.5 38q-60 0 -121 -92l-160 133q79 190 228 190q61 0 151 -37.5t135 -37.5q60 0 121 92l160 -133q-79 -191 -227 -191zM750 1343q186 0 344.5 -92.5t251 -251t92.5 -344.5q0 -140 -54.5 -267t-147 -218.5t-219.5 -146t-267 -54.5
q-186 0 -345 92.5t-251.5 251t-92.5 344.5q0 140 55 267t147 218.5t219.5 146t267.5 54.5zM750 307q135 0 230 101.5t95 246.5t-95 248t-230 103t-230.5 -102t-95.5 -247t95.5 -247.5t230.5 -102.5z" />
    <glyph glyph-name="Odieresis" unicode="&#xd6;" horiz-adv-x="1499" 
d="M377 1569q0 69 48.5 118.5t117.5 49.5t118.5 -49.5t49.5 -118.5t-49.5 -117.5t-118.5 -48.5t-117.5 48.5t-48.5 117.5zM786 1569q0 69 48.5 118.5t117.5 49.5t118.5 -49.5t49.5 -118.5t-49.5 -117.5t-118.5 -48.5t-117.5 48.5t-48.5 117.5zM750 1343q186 0 344.5 -92.5
t251 -251t92.5 -344.5q0 -140 -54.5 -267t-147 -218.5t-219.5 -146t-267 -54.5q-186 0 -345 92.5t-251.5 251t-92.5 344.5q0 140 55 267t147 218.5t219.5 146t267.5 54.5zM750 307q135 0 230 101.5t95 246.5t-95 248t-230 103t-230.5 -102t-95.5 -247t95.5 -247.5
t230.5 -102.5z" />
    <glyph glyph-name="multiply" unicode="&#xd7;" horiz-adv-x="1067" 
d="M291 195l-219 217l245 245l-239 238l217 219l240 -240l243 244l219 -219l-243 -244l237 -237l-217 -219l-239 239z" />
    <glyph glyph-name="Oslash" unicode="&#xd8;" horiz-adv-x="1499" 
d="M178 23l94 139q-99 96 -155 224t-56 271q0 140 55 267t147 218.5t219.5 146t267.5 54.5q146 0 284 -61l86 127l187 -119l-90 -131q104 -95 162.5 -226t58.5 -278q0 -140 -54.5 -267t-147 -218.5t-219.5 -146t-267 -54.5q-153 0 -295 68l-90 -133zM424 657q0 -104 53 -192
l361 528q-47 13 -88 13q-135 0 -230.5 -102t-95.5 -247zM750 307q135 0 230 101.5t95 246.5q0 116 -61 205l-365 -536q56 -17 101 -17z" />
    <glyph glyph-name="Ugrave" unicode="&#xd9;" horiz-adv-x="1349" 
d="M647 1741l201 -320h-299l-287 320h385zM113 561v752h338v-744q0 -119 62 -190.5t165 -71.5q100 0 160.5 71t60.5 189v746h338v-752q0 -267 -155 -429.5t-410 -162.5q-252 0 -405.5 162.5t-153.5 429.5z" />
    <glyph glyph-name="Uacute" unicode="&#xda;" horiz-adv-x="1349" 
d="M702 1741h385l-286 -320h-299zM113 561v752h338v-744q0 -119 62 -190.5t165 -71.5q100 0 160.5 71t60.5 189v746h338v-752q0 -267 -155 -429.5t-410 -162.5q-252 0 -405.5 162.5t-153.5 429.5z" />
    <glyph glyph-name="Ucircumflex" unicode="&#xdb;" horiz-adv-x="1349" 
d="M528 1741h295l240 -320h-309l-78 138l-78 -138h-309zM113 561v752h338v-744q0 -119 62 -190.5t165 -71.5q100 0 160.5 71t60.5 189v746h338v-752q0 -267 -155 -429.5t-410 -162.5q-252 0 -405.5 162.5t-153.5 429.5z" />
    <glyph glyph-name="Udieresis" unicode="&#xdc;" horiz-adv-x="1349" 
d="M303 1569q0 69 48.5 118.5t117.5 49.5t118.5 -49.5t49.5 -118.5t-49.5 -117.5t-118.5 -48.5t-117.5 48.5t-48.5 117.5zM713 1569q0 69 48.5 118.5t117.5 49.5t118.5 -49.5t49.5 -118.5t-49.5 -117.5t-118.5 -48.5t-117.5 48.5t-48.5 117.5zM113 561v752h338v-744
q0 -119 62 -190.5t165 -71.5q100 0 160.5 71t60.5 189v746h338v-752q0 -267 -155 -429.5t-410 -162.5q-252 0 -405.5 162.5t-153.5 429.5z" />
    <glyph glyph-name="Yacute" unicode="&#xdd;" horiz-adv-x="1333" 
d="M694 1741h385l-286 -320h-299zM498 0v430l-478 883h375l279 -529l282 529h357l-477 -883v-430h-338z" />
    <glyph glyph-name="Thorn" unicode="&#xde;" horiz-adv-x="1196" 
d="M461 0h-338v1313h338v-195h139q251 0 403 -124.5t152 -329.5q0 -209 -152.5 -335t-404.5 -126h-137v-203zM627 821h-166v-321h166q76 0 123 45t47 119q0 71 -47 114t-123 43z" />
    <glyph glyph-name="germandbls" unicode="&#xdf;" horiz-adv-x="1185" 
d="M586 1130q-67 0 -105.5 -41t-38.5 -128v-961h-329v954q0 220 128.5 353t342.5 133q208 0 336.5 -120t128.5 -304q0 -142 -115 -242q196 -118 196 -356q0 -200 -127.5 -324.5t-320.5 -124.5q-96 0 -168 29l74 289q24 -8 55 -8q69 0 113.5 42.5t44.5 112.5q0 77 -52 124.5
t-145 47.5h-59v268h43q66 0 98.5 36.5t32.5 90.5q0 57 -34 93t-99 36z" />
    <glyph glyph-name="agrave" unicode="&#xe0;" horiz-adv-x="1212" 
d="M578 1409l200 -319h-299l-286 319h385zM520 -31q-125 0 -230.5 63.5t-170 183.5t-64.5 273q0 226 132 374.5t333 148.5q161 0 250 -113v82h330v-981h-330v92q-95 -123 -250 -123zM578 279q83 0 137.5 60t54.5 150q0 91 -54.5 152t-137.5 61t-138 -61t-55 -152
q0 -90 55 -150t138 -60z" />
    <glyph glyph-name="aacute" unicode="&#xe1;" horiz-adv-x="1212" 
d="M633 1409h385l-287 -319h-299zM520 -31q-125 0 -230.5 63.5t-170 183.5t-64.5 273q0 226 132 374.5t333 148.5q161 0 250 -113v82h330v-981h-330v92q-95 -123 -250 -123zM578 279q83 0 137.5 60t54.5 150q0 91 -54.5 152t-137.5 61t-138 -61t-55 -152q0 -90 55 -150
t138 -60z" />
    <glyph glyph-name="acircumflex" unicode="&#xe2;" horiz-adv-x="1212" 
d="M459 1409h295l239 -319h-309l-78 137l-78 -137h-309zM520 -31q-125 0 -230.5 63.5t-170 183.5t-64.5 273q0 226 132 374.5t333 148.5q161 0 250 -113v82h330v-981h-330v92q-95 -123 -250 -123zM578 279q83 0 137.5 60t54.5 150q0 91 -54.5 152t-137.5 61t-138 -61
t-55 -152q0 -90 55 -150t138 -60z" />
    <glyph glyph-name="atilde" unicode="&#xe3;" horiz-adv-x="1212" 
d="M776 1085q-61 0 -151.5 38t-135.5 38q-59 0 -120 -92l-160 133q79 191 227 191q61 0 151.5 -38t135.5 -38q60 0 121 92l160 -133q-79 -191 -228 -191zM520 -31q-125 0 -230.5 63.5t-170 183.5t-64.5 273q0 226 132 374.5t333 148.5q161 0 250 -113v82h330v-981h-330v92
q-95 -123 -250 -123zM578 279q83 0 137.5 60t54.5 150q0 91 -54.5 152t-137.5 61t-138 -61t-55 -152q0 -90 55 -150t138 -60z" />
    <glyph glyph-name="adieresis" unicode="&#xe4;" horiz-adv-x="1212" 
d="M233 1237q0 69 48.5 118.5t117.5 49.5t118.5 -49.5t49.5 -118.5t-49.5 -117.5t-118.5 -48.5t-117.5 48.5t-48.5 117.5zM643 1237q0 69 48.5 118.5t117.5 49.5t118.5 -49.5t49.5 -118.5t-49.5 -117.5t-118.5 -48.5t-117.5 48.5t-48.5 117.5zM520 -31q-125 0 -230.5 63.5
t-170 183.5t-64.5 273q0 226 132 374.5t333 148.5q161 0 250 -113v82h330v-981h-330v92q-95 -123 -250 -123zM578 279q83 0 137.5 60t54.5 150q0 91 -54.5 152t-137.5 61t-138 -61t-55 -152q0 -90 55 -150t138 -60z" />
    <glyph glyph-name="aring" unicode="&#xe5;" horiz-adv-x="1212" 
d="M606 1069q-110 0 -185 73.5t-75 178.5t75 178.5t185 73.5t185 -73.5t75 -178.5t-75 -178.5t-185 -73.5zM608 1231q36 0 61 26t25 64t-25 64t-61 26t-61 -26t-25 -64t25 -64t61 -26zM520 -31q-125 0 -230.5 63.5t-170 183.5t-64.5 273q0 226 132 374.5t333 148.5
q161 0 250 -113v82h330v-981h-330v92q-95 -123 -250 -123zM578 279q83 0 137.5 60t54.5 150q0 91 -54.5 152t-137.5 61t-138 -61t-55 -152q0 -90 55 -150t138 -60z" />
    <glyph glyph-name="ae" unicode="&#xe6;" horiz-adv-x="1812" 
d="M520 -31q-125 0 -230.5 63.5t-170 183.5t-64.5 273q0 226 132 374.5t333 148.5q165 0 250 -125v94h309v-94q89 125 246 125q82 0 161.5 -38.5t140.5 -104t98.5 -160t37.5 -199.5q0 -72 -6 -102h-665q21 -67 73 -108.5t123 -41.5q129 0 217 92l168 -223
q-53 -63 -151.5 -110.5t-186.5 -47.5q-159 0 -256 133v-102h-309v106q-90 -137 -250 -137zM1262 735q-59 0 -101 -33.5t-63 -93.5h327q-39 127 -163 127zM578 279q83 0 137.5 60t54.5 150q0 91 -54.5 152t-137.5 61t-138 -61t-55 -152q0 -90 55 -150t138 -60z" />
    <glyph glyph-name="ccedilla" unicode="&#xe7;" horiz-adv-x="1003" 
d="M797 621q-84 81 -203 81q-94 0 -151.5 -60.5t-57.5 -152.5q0 -90 58 -150t151 -60q122 0 215 90l164 -242q-45 -54 -119 -93t-162 -54l-127 -404l-262 102l172 302q-183 37 -301.5 180t-118.5 329q0 142 70.5 262.5t191 190.5t261.5 70q254 0 405 -158z" />
    <glyph glyph-name="egrave" unicode="&#xe8;" horiz-adv-x="1118" 
d="M530 1409l201 -319h-299l-287 319h385zM596 -31q-152 0 -277 70t-194.5 189t-69.5 261q0 143 66 263t182.5 190t257.5 70q216 0 362 -143t146 -359q0 -72 -6 -102h-666q21 -69 76 -109.5t135 -40.5q115 0 203 92l168 -223q-57 -68 -158 -113t-225 -45zM567 735
q-59 0 -101 -33.5t-63 -93.5h328q-39 127 -164 127z" />
    <glyph glyph-name="eacute" unicode="&#xe9;" horiz-adv-x="1118" 
d="M586 1409h385l-287 -319h-299zM596 -31q-152 0 -277 70t-194.5 189t-69.5 261q0 143 66 263t182.5 190t257.5 70q216 0 362 -143t146 -359q0 -72 -6 -102h-666q21 -69 76 -109.5t135 -40.5q115 0 203 92l168 -223q-57 -68 -158 -113t-225 -45zM567 735q-59 0 -101 -33.5
t-63 -93.5h328q-39 127 -164 127z" />
    <glyph glyph-name="ecircumflex" unicode="&#xea;" horiz-adv-x="1118" 
d="M412 1409h295l239 -319h-309l-78 137l-78 -137h-309zM596 -31q-152 0 -277 70t-194.5 189t-69.5 261q0 143 66 263t182.5 190t257.5 70q216 0 362 -143t146 -359q0 -72 -6 -102h-666q21 -69 76 -109.5t135 -40.5q115 0 203 92l168 -223q-57 -68 -158 -113t-225 -45z
M567 735q-59 0 -101 -33.5t-63 -93.5h328q-39 127 -164 127z" />
    <glyph glyph-name="edieresis" unicode="&#xeb;" horiz-adv-x="1118" 
d="M186 1237q0 69 48.5 118.5t117.5 49.5t118.5 -49.5t49.5 -118.5t-49.5 -117.5t-118.5 -48.5t-117.5 48.5t-48.5 117.5zM596 1237q0 69 48.5 118.5t117.5 49.5t118.5 -49.5t49.5 -118.5t-49.5 -117.5t-118.5 -48.5t-117.5 48.5t-48.5 117.5zM596 -31q-152 0 -277 70
t-194.5 189t-69.5 261q0 143 66 263t182.5 190t257.5 70q216 0 362 -143t146 -359q0 -72 -6 -102h-666q21 -69 76 -109.5t135 -40.5q115 0 203 92l168 -223q-57 -68 -158 -113t-225 -45zM567 735q-59 0 -101 -33.5t-63 -93.5h328q-39 127 -164 127z" />
    <glyph glyph-name="igrave" unicode="&#xec;" horiz-adv-x="555" 
d="M250 1409l201 -319h-299l-287 319h385zM442 981v-981h-329v981h329z" />
    <glyph glyph-name="iacute" unicode="&#xed;" horiz-adv-x="555" 
d="M305 1409h385l-287 -319h-299zM442 981v-981h-329v981h329z" />
    <glyph glyph-name="icircumflex" unicode="&#xee;" horiz-adv-x="555" 
d="M131 1409h295l240 -319h-310l-77 137l-78 -137h-310zM442 981v-981h-329v981h329z" />
    <glyph glyph-name="idieresis" unicode="&#xef;" horiz-adv-x="555" 
d="M-94 1237q0 69 48.5 118.5t117.5 49.5t118.5 -49.5t49.5 -118.5t-49.5 -117.5t-118.5 -48.5t-117.5 48.5t-48.5 117.5zM315 1237q0 69 48.5 118.5t117.5 49.5t118.5 -49.5t49.5 -118.5t-49.5 -117.5t-118.5 -48.5t-117.5 48.5t-48.5 117.5zM442 981v-981h-329v981h329z
" />
    <glyph glyph-name="eth" unicode="&#xf0;" horiz-adv-x="1155" 
d="M424 977l-100 170l96 55q-82 58 -135 82l223 205q110 -55 197 -125l131 76l100 -170l-84 -49q118 -138 183 -307.5t65 -346.5q0 -270 -143 -434t-379 -164q-142 0 -262 67t-190.5 184.5t-70.5 258.5t71 252t190 170.5t262 59.5q32 0 94 -13q-49 70 -94 117zM578 279
q84 0 138 55.5t54 144.5q0 90 -54 146.5t-138 56.5t-138.5 -56.5t-54.5 -146.5q0 -89 54.5 -144.5t138.5 -55.5z" />
    <glyph glyph-name="ntilde" unicode="&#xf1;" horiz-adv-x="1173" 
d="M758 1085q-61 0 -151.5 38t-135.5 38q-60 0 -121 -92l-160 133q79 191 228 191q61 0 151.5 -38t135.5 -38q59 0 120 92l160 -133q-79 -191 -227 -191zM113 0v981h329v-121q78 152 254 152q168 0 266.5 -114t98.5 -312v-586h-330v541q0 73 -39 117t-104 44q-66 0 -106 -44
t-40 -117v-541h-329z" />
    <glyph glyph-name="ograve" unicode="&#xf2;" horiz-adv-x="1155" 
d="M549 1409l201 -319h-299l-287 319h385zM578 -31q-141 0 -261.5 69.5t-191 189.5t-70.5 261q0 142 70.5 262.5t191 190.5t261.5 70t261.5 -70t190.5 -190.5t70 -262.5q0 -106 -41.5 -202t-111.5 -166t-166.5 -111t-202.5 -41zM578 279q83 0 137.5 60t54.5 150
q0 91 -54.5 152t-137.5 61t-138 -61t-55 -152q0 -90 55 -150t138 -60z" />
    <glyph glyph-name="oacute" unicode="&#xf3;" horiz-adv-x="1155" 
d="M604 1409h385l-287 -319h-299zM578 -31q-141 0 -261.5 69.5t-191 189.5t-70.5 261q0 142 70.5 262.5t191 190.5t261.5 70t261.5 -70t190.5 -190.5t70 -262.5q0 -106 -41.5 -202t-111.5 -166t-166.5 -111t-202.5 -41zM578 279q83 0 137.5 60t54.5 150q0 91 -54.5 152
t-137.5 61t-138 -61t-55 -152q0 -90 55 -150t138 -60z" />
    <glyph glyph-name="ocircumflex" unicode="&#xf4;" horiz-adv-x="1155" 
d="M430 1409h295l240 -319h-310l-77 137l-78 -137h-310zM578 -31q-141 0 -261.5 69.5t-191 189.5t-70.5 261q0 142 70.5 262.5t191 190.5t261.5 70t261.5 -70t190.5 -190.5t70 -262.5q0 -106 -41.5 -202t-111.5 -166t-166.5 -111t-202.5 -41zM578 279q83 0 137.5 60
t54.5 150q0 91 -54.5 152t-137.5 61t-138 -61t-55 -152q0 -90 55 -150t138 -60z" />
    <glyph glyph-name="otilde" unicode="&#xf5;" horiz-adv-x="1155" 
d="M748 1085q-61 0 -151.5 38t-135.5 38q-60 0 -121 -92l-160 133q79 191 228 191q61 0 151 -38t135 -38q60 0 121 92l160 -133q-79 -191 -227 -191zM578 -31q-141 0 -261.5 69.5t-191 189.5t-70.5 261q0 142 70.5 262.5t191 190.5t261.5 70t261.5 -70t190.5 -190.5
t70 -262.5q0 -106 -41.5 -202t-111.5 -166t-166.5 -111t-202.5 -41zM578 279q83 0 137.5 60t54.5 150q0 91 -54.5 152t-137.5 61t-138 -61t-55 -152q0 -90 55 -150t138 -60z" />
    <glyph glyph-name="odieresis" unicode="&#xf6;" horiz-adv-x="1155" 
d="M205 1237q0 69 48.5 118.5t117.5 49.5t118.5 -49.5t49.5 -118.5t-49.5 -117.5t-118.5 -48.5t-117.5 48.5t-48.5 117.5zM614 1237q0 69 48.5 118.5t117.5 49.5t118.5 -49.5t49.5 -118.5t-49.5 -117.5t-118.5 -48.5t-117.5 48.5t-48.5 117.5zM578 -31q-141 0 -261.5 69.5
t-191 189.5t-70.5 261q0 142 70.5 262.5t191 190.5t261.5 70t261.5 -70t190.5 -190.5t70 -262.5q0 -106 -41.5 -202t-111.5 -166t-166.5 -111t-202.5 -41zM578 279q83 0 137.5 60t54.5 150q0 91 -54.5 152t-137.5 61t-138 -61t-55 -152q0 -90 55 -150t138 -60z" />
    <glyph glyph-name="divide" unicode="&#xf7;" horiz-adv-x="1067" 
d="M532 870q-85 0 -143.5 59t-58.5 144t59 145t143 60q85 0 145 -60t60 -145t-60 -144t-145 -59zM1006 508h-945v297h945v-297zM532 31q-85 0 -143.5 58.5t-58.5 143.5t59 145t143 60q85 0 145 -60t60 -145q0 -84 -60 -143t-145 -59z" />
    <glyph glyph-name="oslash" unicode="&#xf8;" horiz-adv-x="1196" 
d="M598 -31q-112 0 -217 43l-66 -94l-155 105l63 92q-79 72 -123.5 169t-44.5 205q0 142 73.5 262.5t198.5 190.5t271 70q111 0 211 -41l74 106l155 -104l-69 -103q80 -72 126 -171.5t46 -209.5q0 -141 -73.5 -261t-198.5 -189.5t-271 -69.5zM385 489q0 -54 25 -102l215 313
q-8 2 -27 2q-92 0 -152.5 -61t-60.5 -152zM811 489q0 58 -29 111l-219 -319q12 -2 35 -2q92 0 152.5 60t60.5 150z" />
    <glyph glyph-name="ugrave" unicode="&#xf9;" horiz-adv-x="1173" 
d="M559 1409l201 -319h-299l-287 319h385zM432 981v-516q0 -85 42.5 -135.5t113.5 -50.5q69 0 111 50.5t42 135.5v516h330v-541q0 -212 -132.5 -341.5t-350.5 -129.5q-220 0 -353 129.5t-133 341.5v541h330z" />
    <glyph glyph-name="uacute" unicode="&#xfa;" horiz-adv-x="1173" 
d="M614 1409h385l-286 -319h-299zM432 981v-516q0 -85 42.5 -135.5t113.5 -50.5q69 0 111 50.5t42 135.5v516h330v-541q0 -212 -132.5 -341.5t-350.5 -129.5q-220 0 -353 129.5t-133 341.5v541h330z" />
    <glyph glyph-name="ucircumflex" unicode="&#xfb;" horiz-adv-x="1173" 
d="M440 1409h295l240 -319h-309l-78 137l-78 -137h-309zM432 981v-516q0 -85 42.5 -135.5t113.5 -50.5q69 0 111 50.5t42 135.5v516h330v-541q0 -212 -132.5 -341.5t-350.5 -129.5q-220 0 -353 129.5t-133 341.5v541h330z" />
    <glyph glyph-name="udieresis" unicode="&#xfc;" horiz-adv-x="1173" 
d="M215 1237q0 69 48.5 118.5t117.5 49.5t118.5 -49.5t49.5 -118.5t-49.5 -117.5t-118.5 -48.5t-117.5 48.5t-48.5 117.5zM625 1237q0 69 48.5 118.5t117.5 49.5t118 -49.5t49 -118.5t-49 -117.5t-118 -48.5t-117.5 48.5t-48.5 117.5zM432 981v-516q0 -85 42.5 -135.5
t113.5 -50.5q69 0 111 50.5t42 135.5v516h330v-541q0 -212 -132.5 -341.5t-350.5 -129.5q-220 0 -353 129.5t-133 341.5v541h330z" />
    <glyph glyph-name="yacute" unicode="&#xfd;" horiz-adv-x="1142" 
d="M598 1409h385l-287 -319h-299zM371 981l231 -567l189 567h331l-374 -1065q-121 -348 -420 -348q-90 0 -171.5 34t-136.5 85l146 258q71 -68 160 -68q87 0 133 107l-453 997h365z" />
    <glyph glyph-name="thorn" unicode="&#xfe;" horiz-adv-x="1212" 
d="M692 1012q125 0 230.5 -63.5t170 -183.5t64.5 -273q0 -226 -132 -374.5t-333 -148.5q-153 0 -250 84v-454h-329v1810h329v-491q97 94 250 94zM635 702q-83 0 -138 -60t-55 -150q0 -91 55 -152t138 -61t137.5 61t54.5 152q0 90 -54.5 150t-137.5 60z" />
    <glyph glyph-name="ydieresis" unicode="&#xff;" horiz-adv-x="1142" 
d="M199 1237q0 69 48.5 118.5t117.5 49.5t118 -49.5t49 -118.5t-49 -117.5t-118 -48.5t-117.5 48.5t-48.5 117.5zM608 1237q0 69 48.5 118.5t117.5 49.5t118.5 -49.5t49.5 -118.5t-49.5 -117.5t-118.5 -48.5t-117.5 48.5t-48.5 117.5zM371 981l231 -567l189 567h331
l-374 -1065q-121 -348 -420 -348q-90 0 -171.5 34t-136.5 85l146 258q71 -68 160 -68q87 0 133 107l-453 997h365z" />
    <glyph glyph-name="Amacron" unicode="&#x100;" horiz-adv-x="1462" 
d="M408 1700h645v-236h-645v236zM1069 0l-90 248h-514l-90 -248h-355l512 1313h398l512 -1313h-373zM573 547h297l-147 407z" />
    <glyph glyph-name="amacron" unicode="&#x101;" horiz-adv-x="1212" 
d="M283 1368h645v-235h-645v235zM520 -31q-125 0 -230.5 63.5t-170 183.5t-64.5 273q0 226 132 374.5t333 148.5q161 0 250 -113v82h330v-981h-330v92q-95 -123 -250 -123zM578 279q83 0 137.5 60t54.5 150q0 91 -54.5 152t-137.5 61t-138 -61t-55 -152q0 -90 55 -150
t138 -60z" />
    <glyph glyph-name="Abreve" unicode="&#x102;" horiz-adv-x="1462" 
d="M729 1401q-141 0 -234.5 97.5t-93.5 242.5h224q0 -63 29.5 -97t74.5 -34t75 34t30 97h225q0 -145 -94 -242.5t-236 -97.5zM1069 0l-90 248h-514l-90 -248h-355l512 1313h398l512 -1313h-373zM573 547h297l-147 407z" />
    <glyph glyph-name="abreve" unicode="&#x103;" horiz-adv-x="1212" 
d="M604 1069q-141 0 -234.5 97.5t-93.5 242.5h224q0 -63 29.5 -97t74.5 -34t75 34t30 97h225q0 -145 -94 -242.5t-236 -97.5zM520 -31q-125 0 -230.5 63.5t-170 183.5t-64.5 273q0 226 132 374.5t333 148.5q161 0 250 -113v82h330v-981h-330v92q-95 -123 -250 -123zM578 279
q83 0 137.5 60t54.5 150q0 91 -54.5 152t-137.5 61t-138 -61t-55 -152q0 -90 55 -150t138 -60z" />
    <glyph glyph-name="Aogonek" unicode="&#x104;" horiz-adv-x="1462" 
d="M1069 0l-90 248h-514l-90 -248h-355l512 1313h398l512 -1313q-176 -95 -176 -190q0 -58 57 -58q44 0 92 37l92 -133q-35 -42 -96 -72t-139 -30q-63 0 -116.5 20t-90.5 67.5t-37 114.5q0 137 156 244h-115zM573 547h297l-147 407z" />
    <glyph glyph-name="aogonek" unicode="&#x105;" horiz-adv-x="1212" 
d="M520 -31q-125 0 -230.5 63.5t-170 183.5t-64.5 273q0 226 132 374.5t333 148.5q161 0 250 -113v82h330v-981q-176 -95 -176 -190q0 -58 57 -58q44 0 92 37l92 -133q-35 -42 -96 -72t-139 -30q-63 0 -116.5 20t-90.5 67.5t-37 114.5q0 137 156 244h-72v92
q-95 -123 -250 -123zM578 279q83 0 137.5 60t54.5 150q0 91 -54.5 152t-137.5 61t-138 -61t-55 -152q0 -90 55 -150t138 -60z" />
    <glyph glyph-name="Cacute" unicode="&#x106;" horiz-adv-x="1275" 
d="M768 1741h385l-287 -320h-299zM1245 1149l-225 -258q-48 50 -121.5 82.5t-153.5 32.5q-135 0 -228 -102t-93 -247q0 -147 96 -248.5t242 -101.5q73 0 143.5 31t114.5 84l225 -250q-169 -203 -506 -203q-190 0 -346 92.5t-244 250t-88 345.5q0 186 91 344t248 250t341 92
q332 0 504 -194z" />
    <glyph glyph-name="cacute" unicode="&#x107;" horiz-adv-x="1003" 
d="M608 1409h385l-286 -319h-299zM797 621q-84 81 -203 81q-94 0 -151.5 -60.5t-57.5 -152.5q0 -90 58 -150t151 -60q122 0 215 90l164 -242q-59 -70 -164 -114t-223 -44q-109 0 -208 41t-169.5 111t-112 166t-41.5 202q0 142 70.5 262.5t191 190.5t261.5 70q254 0 405 -158
z" />
    <glyph glyph-name="Ccircumflex" unicode="&#x108;" horiz-adv-x="1275" 
d="M594 1741h295l239 -320h-309l-78 138l-77 -138h-310zM1245 1149l-225 -258q-48 50 -121.5 82.5t-153.5 32.5q-135 0 -228 -102t-93 -247q0 -147 96 -248.5t242 -101.5q73 0 143.5 31t114.5 84l225 -250q-169 -203 -506 -203q-190 0 -346 92.5t-244 250t-88 345.5
q0 186 91 344t248 250t341 92q332 0 504 -194z" />
    <glyph glyph-name="ccircumflex" unicode="&#x109;" horiz-adv-x="1003" 
d="M434 1409h295l240 -319h-310l-77 137l-78 -137h-309zM797 621q-84 81 -203 81q-94 0 -151.5 -60.5t-57.5 -152.5q0 -90 58 -150t151 -60q122 0 215 90l164 -242q-59 -70 -164 -114t-223 -44q-109 0 -208 41t-169.5 111t-112 166t-41.5 202q0 142 70.5 262.5t191 190.5
t261.5 70q254 0 405 -158z" />
    <glyph glyph-name="Cdotaccent" unicode="&#x10a;" horiz-adv-x="1275" 
d="M555 1585q0 77 54 132t130 55q77 0 132 -55t55 -132q0 -76 -55 -130t-132 -54t-130.5 53.5t-53.5 130.5zM1245 1149l-225 -258q-48 50 -121.5 82.5t-153.5 32.5q-135 0 -228 -102t-93 -247q0 -147 96 -248.5t242 -101.5q73 0 143.5 31t114.5 84l225 -250
q-169 -203 -506 -203q-190 0 -346 92.5t-244 250t-88 345.5q0 186 91 344t248 250t341 92q332 0 504 -194z" />
    <glyph glyph-name="cdotaccent" unicode="&#x10b;" horiz-adv-x="1003" 
d="M395 1253q0 77 54.5 132t130.5 55t131 -55t55 -132q0 -76 -54.5 -130t-131.5 -54t-131 54t-54 130zM797 621q-84 81 -203 81q-94 0 -151.5 -60.5t-57.5 -152.5q0 -90 58 -150t151 -60q122 0 215 90l164 -242q-59 -70 -164 -114t-223 -44q-109 0 -208 41t-169.5 111
t-112 166t-41.5 202q0 142 70.5 262.5t191 190.5t261.5 70q254 0 405 -158z" />
    <glyph glyph-name="Ccaron" unicode="&#x10c;" horiz-adv-x="1275" 
d="M889 1421h-295l-240 320h310l77 -137l78 137h309zM1245 1149l-225 -258q-48 50 -121.5 82.5t-153.5 32.5q-135 0 -228 -102t-93 -247q0 -147 96 -248.5t242 -101.5q73 0 143.5 31t114.5 84l225 -250q-169 -203 -506 -203q-190 0 -346 92.5t-244 250t-88 345.5
q0 186 91 344t248 250t341 92q332 0 504 -194z" />
    <glyph glyph-name="ccaron" unicode="&#x10d;" horiz-adv-x="1003" 
d="M729 1090h-295l-239 319h309l78 -137l77 137h310zM797 621q-84 81 -203 81q-94 0 -151.5 -60.5t-57.5 -152.5q0 -90 58 -150t151 -60q122 0 215 90l164 -242q-59 -70 -164 -114t-223 -44q-109 0 -208 41t-169.5 111t-112 166t-41.5 202q0 142 70.5 262.5t191 190.5
t261.5 70q254 0 405 -158z" />
    <glyph glyph-name="Dcaron" unicode="&#x10e;" horiz-adv-x="1404" 
d="M809 1421h-295l-240 320h310l78 -137l77 137h310zM123 0v1313h477q211 0 381 -85t266 -236t96 -339q0 -186 -96 -335.5t-266 -233.5t-381 -84h-477zM594 995h-123v-678h125q173 0 279 93t106 247q0 152 -106 245t-281 93z" />
    <glyph glyph-name="dcaron" unicode="&#x10f;" horiz-adv-x="1212" 
d="M520 -31q-125 0 -230.5 63.5t-170 183.5t-64.5 273q0 226 132 374.5t333 148.5q161 0 250 -113v510h330v-1409h-330v92q-95 -123 -250 -123zM1491 1409l-94 -340h-236l41 340h289zM578 279q83 0 137.5 60t54.5 150q0 91 -54.5 152t-137.5 61t-138 -61t-55 -152
q0 -90 55 -150t138 -60z" />
    <glyph glyph-name="Dcroat" unicode="&#x110;" horiz-adv-x="1404" 
d="M123 0v532h-113v277h113v504h477q211 0 381 -85t266 -236t96 -339q0 -186 -96 -335.5t-266 -233.5t-381 -84h-477zM594 995h-123v-186h205v-277h-205v-215h125q173 0 279 93t106 247q0 152 -106 245t-281 93z" />
    <glyph glyph-name="dcroat" unicode="&#x111;" horiz-adv-x="1212" 
d="M520 -31q-125 0 -230.5 63.5t-170 183.5t-64.5 273q0 226 132 374.5t333 148.5q161 0 250 -113v193h-221v235h221v82h330v-82h94v-235h-94v-1092h-330v92q-95 -123 -250 -123zM578 279q83 0 137.5 60t54.5 150q0 91 -54.5 152t-137.5 61t-138 -61t-55 -152q0 -90 55 -150
t138 -60z" />
    <glyph glyph-name="Emacron" unicode="&#x112;" horiz-adv-x="1056" 
d="M236 1700h645v-236h-645v236zM123 0v1313h872v-318h-534v-172h452v-317h-452v-189h534v-317h-872z" />
    <glyph glyph-name="emacron" unicode="&#x113;" horiz-adv-x="1118" 
d="M236 1368h645v-235h-645v235zM596 -31q-152 0 -277 70t-194.5 189t-69.5 261q0 143 66 263t182.5 190t257.5 70q216 0 362 -143t146 -359q0 -72 -6 -102h-666q21 -69 76 -109.5t135 -40.5q115 0 203 92l168 -223q-57 -68 -158 -113t-225 -45zM567 735q-59 0 -101 -33.5
t-63 -93.5h328q-39 127 -164 127z" />
    <glyph glyph-name="Ebreve" unicode="&#x114;" horiz-adv-x="1056" 
d="M557 1401q-141 0 -234.5 97.5t-93.5 242.5h224q0 -63 29.5 -97t74.5 -34t75 34t30 97h225q0 -145 -94 -242.5t-236 -97.5zM123 0v1313h872v-318h-534v-172h452v-317h-452v-189h534v-317h-872z" />
    <glyph glyph-name="ebreve" unicode="&#x115;" horiz-adv-x="1118" 
d="M557 1069q-141 0 -234.5 97.5t-93.5 242.5h224q0 -63 29.5 -97t74.5 -34t75 34t30 97h225q0 -145 -94 -242.5t-236 -97.5zM596 -31q-152 0 -277 70t-194.5 189t-69.5 261q0 143 66 263t182.5 190t257.5 70q216 0 362 -143t146 -359q0 -72 -6 -102h-666q21 -69 76 -109.5
t135 -40.5q115 0 203 92l168 -223q-57 -68 -158 -113t-225 -45zM567 735q-59 0 -101 -33.5t-63 -93.5h328q-39 127 -164 127z" />
    <glyph glyph-name="Edotaccent" unicode="&#x116;" horiz-adv-x="1056" 
d="M373 1585q0 77 54 132t130 55t131 -55t55 -132q0 -76 -54.5 -130t-131.5 -54t-130.5 53.5t-53.5 130.5zM123 0v1313h872v-318h-534v-172h452v-317h-452v-189h534v-317h-872z" />
    <glyph glyph-name="edotaccent" unicode="&#x117;" horiz-adv-x="1118" 
d="M373 1253q0 77 54 132t130 55t131 -55t55 -132q0 -76 -54.5 -130t-131.5 -54t-130.5 53.5t-53.5 130.5zM596 -31q-152 0 -277 70t-194.5 189t-69.5 261q0 143 66 263t182.5 190t257.5 70q216 0 362 -143t146 -359q0 -72 -6 -102h-666q21 -69 76 -109.5t135 -40.5
q115 0 203 92l168 -223q-57 -68 -158 -113t-225 -45zM567 735q-59 0 -101 -33.5t-63 -93.5h328q-39 127 -164 127z" />
    <glyph glyph-name="Eogonek" unicode="&#x118;" horiz-adv-x="1056" 
d="M123 0v1313h872v-318h-534v-172h452v-317h-452v-189h534v-317q-176 -95 -176 -190q0 -58 58 -58q44 0 92 37l92 -133q-35 -42 -96.5 -72t-139.5 -30q-99 0 -171 51.5t-72 150.5q0 137 155 244h-614z" />
    <glyph glyph-name="eogonek" unicode="&#x119;" horiz-adv-x="1118" 
d="M848 -344q-35 -42 -96.5 -72t-139.5 -30q-99 0 -171 51.5t-72 150.5q0 123 125 221q-193 34 -316 177.5t-123 334.5q0 143 66 263t182.5 190t257.5 70q216 0 362 -143t146 -359q0 -72 -6 -102h-666q21 -69 76 -109.5t135 -40.5q115 0 203 92l168 -223q-73 -86 -199 -129
q-174 -93 -174 -188q0 -58 58 -58q44 0 92 37zM567 735q-59 0 -101 -33.5t-63 -93.5h328q-39 127 -164 127z" />
    <glyph glyph-name="Ecaron" unicode="&#x11a;" horiz-adv-x="1056" 
d="M707 1421h-295l-240 320h309l78 -137l78 137h309zM123 0v1313h872v-318h-534v-172h452v-317h-452v-189h534v-317h-872z" />
    <glyph glyph-name="ecaron" unicode="&#x11b;" horiz-adv-x="1118" 
d="M707 1090h-295l-240 319h309l78 -137l78 137h309zM596 -31q-152 0 -277 70t-194.5 189t-69.5 261q0 143 66 263t182.5 190t257.5 70q216 0 362 -143t146 -359q0 -72 -6 -102h-666q21 -69 76 -109.5t135 -40.5q115 0 203 92l168 -223q-57 -68 -158 -113t-225 -45zM567 735
q-59 0 -101 -33.5t-63 -93.5h328q-39 127 -164 127z" />
    <glyph glyph-name="Gcircumflex" unicode="&#x11c;" horiz-adv-x="1361" 
d="M535 1741h294l240 -320h-309l-78 138l-78 -138h-309zM739 -31q-151 0 -278.5 53.5t-214.5 146t-136 218.5t-49 270q0 143 56.5 271.5t151.5 218.5t222.5 143t264.5 53q332 0 504 -194l-218 -248q-48 49 -125 82t-157 33q-137 0 -236.5 -101t-99.5 -258q0 -160 99 -266
t259 -106q100 0 172 34h-2v142h-215v291h537v-617q-118 -88 -240 -127t-295 -39z" />
    <glyph glyph-name="gcircumflex" unicode="&#x11d;" horiz-adv-x="1191" 
d="M418 1409h295l239 -319h-309l-78 137l-78 -137h-309zM287 -41q110 -90 252 -90q95 0 153 48t58 136v92q-95 -116 -250 -116q-90 0 -171 35t-141.5 98t-96.5 156t-36 202q0 140 61 251.5t162.5 172t221.5 60.5q161 0 250 -103v80h329v-913q0 -119 -34.5 -211t-87.5 -145
t-125.5 -87t-137.5 -45.5t-135 -11.5q-138 0 -252 35t-184 102zM567 338q78 0 130.5 52.5t52.5 129.5t-52.5 129.5t-130.5 52.5t-130 -52.5t-52 -129.5q0 -78 52 -130t130 -52z" />
    <glyph glyph-name="Gbreve" unicode="&#x11e;" horiz-adv-x="1361" 
d="M680 1401q-141 0 -234.5 97.5t-93.5 242.5h223q0 -63 30 -97t75 -34t74.5 34t29.5 97h226q0 -145 -94 -242.5t-236 -97.5zM739 -31q-151 0 -278.5 53.5t-214.5 146t-136 218.5t-49 270q0 143 56.5 271.5t151.5 218.5t222.5 143t264.5 53q332 0 504 -194l-218 -248
q-48 49 -125 82t-157 33q-137 0 -236.5 -101t-99.5 -258q0 -160 99 -266t259 -106q100 0 172 34h-2v142h-215v291h537v-617q-118 -88 -240 -127t-295 -39z" />
    <glyph glyph-name="gbreve" unicode="&#x11f;" horiz-adv-x="1191" 
d="M563 1069q-141 0 -234 97.5t-93 242.5h223q0 -63 29.5 -97t74.5 -34t75 34t30 97h225q0 -145 -94 -242.5t-236 -97.5zM287 -41q110 -90 252 -90q95 0 153 48t58 136v92q-95 -116 -250 -116q-90 0 -171 35t-141.5 98t-96.5 156t-36 202q0 140 61 251.5t162.5 172
t221.5 60.5q161 0 250 -103v80h329v-913q0 -119 -34.5 -211t-87.5 -145t-125.5 -87t-137.5 -45.5t-135 -11.5q-138 0 -252 35t-184 102zM567 338q78 0 130.5 52.5t52.5 129.5t-52.5 129.5t-130.5 52.5t-130 -52.5t-52 -129.5q0 -78 52 -130t130 -52z" />
    <glyph glyph-name="Gdotaccent" unicode="&#x120;" horiz-adv-x="1361" 
d="M496 1585q0 77 54 132t130 55t131 -55t55 -132q0 -76 -54.5 -130t-131.5 -54q-76 0 -130 53.5t-54 130.5zM739 -31q-151 0 -278.5 53.5t-214.5 146t-136 218.5t-49 270q0 143 56.5 271.5t151.5 218.5t222.5 143t264.5 53q332 0 504 -194l-218 -248q-48 49 -125 82
t-157 33q-137 0 -236.5 -101t-99.5 -258q0 -160 99 -266t259 -106q100 0 172 34h-2v142h-215v291h537v-617q-118 -88 -240 -127t-295 -39z" />
    <glyph glyph-name="gdotaccent" unicode="&#x121;" horiz-adv-x="1191" 
d="M379 1253q0 77 54 132t130 55q77 0 132 -55t55 -132q0 -76 -55 -130t-132 -54t-130.5 53.5t-53.5 130.5zM287 -41q110 -90 252 -90q95 0 153 48t58 136v92q-95 -116 -250 -116q-90 0 -171 35t-141.5 98t-96.5 156t-36 202q0 140 61 251.5t162.5 172t221.5 60.5
q161 0 250 -103v80h329v-913q0 -119 -34.5 -211t-87.5 -145t-125.5 -87t-137.5 -45.5t-135 -11.5q-138 0 -252 35t-184 102zM567 338q78 0 130.5 52.5t52.5 129.5t-52.5 129.5t-130.5 52.5t-130 -52.5t-52 -129.5q0 -78 52 -130t130 -52z" />
    <glyph glyph-name="Gcommaaccent" unicode="&#x122;" horiz-adv-x="1361" 
d="M739 -31q-151 0 -278.5 53.5t-214.5 146t-136 218.5t-49 270q0 143 56.5 271.5t151.5 218.5t222.5 143t264.5 53q332 0 504 -194l-218 -248q-48 49 -125 82t-157 33q-137 0 -236.5 -101t-99.5 -258q0 -160 99 -266t259 -106q100 0 172 34h-2v142h-215v291h537v-617
q-118 -88 -240 -127t-295 -39zM838 -104l-123 -328h-256l61 328h318z" />
    <glyph glyph-name="gcommaaccent" unicode="&#x123;" horiz-adv-x="1191" 
d="M375 1102l123 328h256l-62 -328h-317zM287 -41q110 -90 252 -90q95 0 153 48t58 136v92q-95 -116 -250 -116q-90 0 -171 35t-141.5 98t-96.5 156t-36 202q0 140 61 251.5t162.5 172t221.5 60.5q161 0 250 -103v80h329v-913q0 -119 -34.5 -211t-87.5 -145t-125.5 -87
t-137.5 -45.5t-135 -11.5q-138 0 -252 35t-184 102zM567 338q78 0 130.5 52.5t52.5 129.5t-52.5 129.5t-130.5 52.5t-130 -52.5t-52 -129.5q0 -78 52 -130t130 -52z" />
    <glyph glyph-name="Hcircumflex" unicode="&#x124;" horiz-adv-x="1427" 
d="M567 1741h295l240 -320h-309l-78 138l-78 -138h-309zM967 0v518h-506v-518h-338v1313h338v-477h506v477h338v-1313h-338z" />
    <glyph glyph-name="hcircumflex" unicode="&#x125;" horiz-adv-x="1173" 
d="M127 1837h295l240 -319h-310l-78 137l-77 -137h-310zM113 0v1409h329v-549q78 152 254 152q168 0 266.5 -114t98.5 -312v-586h-330v541q0 73 -39 117t-104 44q-66 0 -106 -44t-40 -117v-541h-329z" />
    <glyph glyph-name="Hbar" unicode="&#x126;" horiz-adv-x="1427" 
d="M461 0h-338v958h-100v236h100v119h338v-119h506v119h338v-119h100v-236h-100v-958h-338v518h-506v-518zM461 836h506v122h-506v-122z" />
    <glyph glyph-name="hbar" unicode="&#x127;" horiz-adv-x="1173" 
d="M113 0v1071h-95v236h95v102h329v-102h222v-236h-222v-211q78 152 254 152q168 0 266.5 -114t98.5 -312v-586h-330v541q0 73 -39 117t-104 44q-66 0 -106 -44t-40 -117v-541h-329z" />
    <glyph glyph-name="Itilde" unicode="&#x128;" horiz-adv-x="583" 
d="M463 1417q-61 0 -151.5 38t-135.5 38q-60 0 -121 -92l-159 133q79 190 227 190q61 0 151.5 -37.5t135.5 -37.5q59 0 120 92l160 -133q-79 -191 -227 -191zM123 0v1313h338v-1313h-338z" />
    <glyph glyph-name="itilde" unicode="&#x129;" horiz-adv-x="555" 
d="M449 1085q-61 0 -151.5 38t-135.5 38q-60 0 -121 -92l-160 133q79 191 228 191q61 0 151 -38t135 -38q60 0 121 92l160 -133q-79 -191 -227 -191zM442 981v-981h-329v981h329z" />
    <glyph glyph-name="Imacron" unicode="&#x12a;" horiz-adv-x="583" 
d="M-31 1700h645v-236h-645v236zM123 0v1313h338v-1313h-338z" />
    <glyph glyph-name="imacron" unicode="&#x12b;" horiz-adv-x="555" 
d="M-45 1368h645v-235h-645v235zM442 981v-981h-329v981h329z" />
    <glyph glyph-name="Ibreve" unicode="&#x12c;" horiz-adv-x="583" 
d="M291 1401q-141 0 -234.5 97.5t-93.5 242.5h223q0 -63 30 -97t75 -34t74.5 34t29.5 97h226q0 -145 -94 -242.5t-236 -97.5zM123 0v1313h338v-1313h-338z" />
    <glyph glyph-name="ibreve" unicode="&#x12d;" horiz-adv-x="555" 
d="M276 1069q-141 0 -234 97.5t-93 242.5h223q0 -63 29.5 -97t74.5 -34t75 34t30 97h225q0 -145 -94 -242.5t-236 -97.5zM442 981v-981h-329v981h329z" />
    <glyph glyph-name="Iogonek" unicode="&#x12e;" horiz-adv-x="583" 
d="M123 0v1313h338v-1313q-176 -95 -176 -190q0 -58 57 -58q44 0 92 37l92 -133q-35 -42 -96 -72t-139 -30q-63 0 -116.5 20t-90.5 67.5t-37 114.5q0 137 156 244h-80z" />
    <glyph glyph-name="iogonek" unicode="&#x12f;" horiz-adv-x="555" 
d="M92 1253q0 77 54 132t130 55t131.5 -55t55.5 -132q0 -76 -55 -130t-132 -54q-76 0 -130 53.5t-54 130.5zM442 981v-981q-176 -95 -176 -190q0 -58 58 -58q44 0 92 37l92 -133q-35 -42 -96.5 -72t-139.5 -30q-99 0 -171 51.5t-72 150.5q0 137 155 244h-71v981h329z" />
    <glyph glyph-name="Idotaccent" unicode="&#x130;" horiz-adv-x="583" 
d="M106 1585q0 77 54.5 132t130.5 55t131 -55t55 -132q0 -76 -54.5 -130t-131.5 -54t-131 54t-54 130zM123 0v1313h338v-1313h-338z" />
    <glyph glyph-name="idotless" unicode="&#x131;" horiz-adv-x="555" 
d="M442 981v-981h-329v981h329z" />
    <glyph glyph-name="IJ" unicode="&#x132;" horiz-adv-x="1574" 
d="M123 0v1313h338v-1313h-338zM604 168l227 233q71 -94 154 -94q139 0 139 174v832h338v-809q0 -264 -128.5 -399.5t-338.5 -135.5q-131 0 -236 57t-155 142z" />
    <glyph glyph-name="ij" unicode="&#x133;" horiz-adv-x="1110" 
d="M276 1069q-76 0 -130 53.5t-54 130.5t54 132t130 55t131.5 -55t55.5 -132q0 -76 -55 -130t-132 -54zM831 1069q-77 0 -130.5 53.5t-53.5 130.5t54 132t130 55q77 0 132 -55t55 -132q0 -76 -55 -130t-132 -54zM442 0h-329v981h329v-981zM580 -432q-87 0 -163 28t-122 74
l154 244q52 -45 114 -45q45 0 75 37.5t30 109.5v965h329v-948q0 -212 -109 -338.5t-308 -126.5z" />
    <glyph glyph-name="Jcircumflex" unicode="&#x134;" horiz-adv-x="991" 
d="M557 1741h295l240 -320h-310l-77 138l-78 -138h-310zM20 168l228 233q71 -94 153 -94q140 0 140 174v832h338v-809q0 -264 -128.5 -399.5t-338.5 -135.5q-131 0 -236.5 57t-155.5 142z" />
    <glyph glyph-name="jcircumflex" unicode="&#x135;" horiz-adv-x="555" 
d="M131 1409h295l240 -319h-310l-77 137l-78 -137h-310zM442 981v-948q0 -212 -109 -338.5t-308 -126.5q-87 0 -163 28t-122 74l154 244q52 -45 114 -45q45 0 75 37.5t30 109.5v965h329z" />
    <glyph glyph-name="Kcommaaccent" unicode="&#x136;" horiz-adv-x="1298" 
d="M461 0h-338v1313h338v-619l409 619h406l-430 -645l450 -666h-424l-411 612v-614zM805 -104l-123 -328h-256l61 328h318z" />
    <glyph glyph-name="kcommaaccent" unicode="&#x137;" horiz-adv-x="1185" 
d="M442 0h-329v1409h329v-805l308 377h397l-354 -432l407 -549h-414l-344 477v-477zM766 -104l-123 -328h-256l62 328h317z" />
    <glyph glyph-name="Lacute" unicode="&#x139;" horiz-adv-x="1077" 
d="M315 1741h385l-286 -320h-299zM123 0v1313h338v-996h596v-317h-934z" />
    <glyph glyph-name="lacute" unicode="&#x13a;" horiz-adv-x="651" 
d="M311 1837h385l-286 -319h-299zM559 285l31 -287q-73 -25 -144 -25q-51 0 -97 13t-90 43t-76 75t-51 114.5t-19 156.5v1034h329v-1044q0 -44 22.5 -67.5t55.5 -23.5q17 0 39 11z" />
    <glyph glyph-name="Lcommaaccent" unicode="&#x13b;" horiz-adv-x="1077" 
d="M123 0v1313h338v-996h596v-317h-934zM745 -104l-122 -328h-256l61 328h317z" />
    <glyph glyph-name="lcommaaccent" unicode="&#x13c;" horiz-adv-x="651" 
d="M559 285l31 -287q-73 -25 -144 -25q-51 0 -97 13t-90 43t-76 75t-51 114.5t-19 156.5v1034h329v-1044q0 -44 22.5 -67.5t55.5 -23.5q17 0 39 11zM543 -104l-123 -328h-256l61 328h318z" />
    <glyph glyph-name="Lcaron" unicode="&#x13d;" horiz-adv-x="1077" 
d="M123 0v1313h338v-996h596v-317h-934zM922 1313l-95 -340h-235l41 340h289z" />
    <glyph glyph-name="lcaron" unicode="&#x13e;" horiz-adv-x="651" 
d="M559 285l31 -287q-73 -25 -144 -25q-51 0 -97 13t-90 43t-76 75t-51 114.5t-19 156.5v1034h329v-1044q0 -44 22.5 -67.5t55.5 -23.5q17 0 39 11zM834 1409l-95 -340h-235l41 340h289z" />
    <glyph glyph-name="Ldot" unicode="&#x13f;" horiz-adv-x="1077" 
d="M123 0v1313h338v-996h596v-317h-934zM555 711q0 77 54 131.5t130 54.5q77 0 132 -55t55 -131t-55 -130.5t-132 -54.5q-76 0 -130 54t-54 131z" />
    <glyph glyph-name="ldot" unicode="&#x140;" horiz-adv-x="880" 
d="M559 285l31 -287q-73 -25 -144 -25q-51 0 -97 13t-90 43t-76 75t-51 114.5t-19 156.5v1034h329v-1044q0 -44 22.5 -67.5t55.5 -23.5q17 0 39 11zM532 598q0 77 54.5 131.5t130.5 54.5q77 0 131.5 -55t54.5 -131t-54.5 -130t-131.5 -54t-131 54t-54 130z" />
    <glyph glyph-name="Lslash" unicode="&#x141;" horiz-adv-x="1077" 
d="M123 0v530l-113 -34v276l113 35v506h338v-398l194 62v-277l-194 -61v-322h596v-317h-934z" />
    <glyph glyph-name="lslash" unicode="&#x142;" horiz-adv-x="555" 
d="M559 285l31 -287q-73 -25 -144 -25q-51 0 -97 13t-90 43t-76 75t-51 114.5t-19 156.5v157l-103 -36v276l103 37v600h329v-477l123 45v-277l-123 -45v-290q0 -44 22.5 -67.5t55.5 -23.5q17 0 39 11z" />
    <glyph glyph-name="Nacute" unicode="&#x143;" horiz-adv-x="1427" 
d="M762 1741h385l-287 -320h-299zM942 0l-481 748v-748h-338v1313h362l482 -760v760h338v-1313h-363z" />
    <glyph glyph-name="nacute" unicode="&#x144;" horiz-adv-x="1173" 
d="M614 1409h385l-286 -319h-299zM113 0v981h329v-121q78 152 254 152q168 0 266.5 -114t98.5 -312v-586h-330v541q0 73 -39 117t-104 44q-66 0 -106 -44t-40 -117v-541h-329z" />
    <glyph glyph-name="Ncommaaccent" unicode="&#x145;" horiz-adv-x="1427" 
d="M942 0l-481 748v-748h-338v1313h362l482 -760v760h338v-1313h-363zM879 -104l-123 -328h-256l61 328h318z" />
    <glyph glyph-name="ncommaaccent" unicode="&#x146;" horiz-adv-x="1173" 
d="M113 0v981h329v-121q78 152 254 152q168 0 266.5 -114t98.5 -312v-586h-330v541q0 73 -39 117t-104 44q-66 0 -106 -44t-40 -117v-541h-329zM743 -104l-122 -328h-256l61 328h317z" />
    <glyph glyph-name="Ncaron" unicode="&#x147;" horiz-adv-x="1427" 
d="M883 1421h-295l-240 320h309l78 -137l78 137h309zM942 0l-481 748v-748h-338v1313h362l482 -760v760h338v-1313h-363z" />
    <glyph glyph-name="ncaron" unicode="&#x148;" horiz-adv-x="1173" 
d="M735 1090h-295l-239 319h309l78 -137l78 137h309zM113 0v981h329v-121q78 152 254 152q168 0 266.5 -114t98.5 -312v-586h-330v541q0 73 -39 117t-104 44q-66 0 -106 -44t-40 -117v-541h-329z" />
    <glyph glyph-name="Omacron" unicode="&#x14c;" horiz-adv-x="1499" 
d="M426 1700h645v-236h-645v236zM750 1343q186 0 344.5 -92.5t251 -251t92.5 -344.5q0 -140 -54.5 -267t-147 -218.5t-219.5 -146t-267 -54.5q-186 0 -345 92.5t-251.5 251t-92.5 344.5q0 140 55 267t147 218.5t219.5 146t267.5 54.5zM750 307q135 0 230 101.5t95 246.5
t-95 248t-230 103t-230.5 -102t-95.5 -247t95.5 -247.5t230.5 -102.5z" />
    <glyph glyph-name="omacron" unicode="&#x14d;" horiz-adv-x="1155" 
d="M254 1368h645v-235h-645v235zM578 -31q-141 0 -261.5 69.5t-191 189.5t-70.5 261q0 142 70.5 262.5t191 190.5t261.5 70t261.5 -70t190.5 -190.5t70 -262.5q0 -106 -41.5 -202t-111.5 -166t-166.5 -111t-202.5 -41zM578 279q83 0 137.5 60t54.5 150q0 91 -54.5 152
t-137.5 61t-138 -61t-55 -152q0 -90 55 -150t138 -60z" />
    <glyph glyph-name="Obreve" unicode="&#x14e;" horiz-adv-x="1499" 
d="M748 1401q-141 0 -234.5 97.5t-93.5 242.5h223q0 -63 30 -97t75 -34t74.5 34t29.5 97h225q0 -145 -93.5 -242.5t-235.5 -97.5zM750 1343q186 0 344.5 -92.5t251 -251t92.5 -344.5q0 -140 -54.5 -267t-147 -218.5t-219.5 -146t-267 -54.5q-186 0 -345 92.5t-251.5 251
t-92.5 344.5q0 140 55 267t147 218.5t219.5 146t267.5 54.5zM750 307q135 0 230 101.5t95 246.5t-95 248t-230 103t-230.5 -102t-95.5 -247t95.5 -247.5t230.5 -102.5z" />
    <glyph glyph-name="obreve" unicode="&#x14f;" horiz-adv-x="1155" 
d="M575 1069q-141 0 -234 97.5t-93 242.5h223q0 -63 29.5 -97t74.5 -34t75 34t30 97h225q0 -145 -94 -242.5t-236 -97.5zM578 -31q-141 0 -261.5 69.5t-191 189.5t-70.5 261q0 142 70.5 262.5t191 190.5t261.5 70t261.5 -70t190.5 -190.5t70 -262.5q0 -106 -41.5 -202
t-111.5 -166t-166.5 -111t-202.5 -41zM578 279q83 0 137.5 60t54.5 150q0 91 -54.5 152t-137.5 61t-138 -61t-55 -152q0 -90 55 -150t138 -60z" />
    <glyph glyph-name="Ohungarumlaut" unicode="&#x150;" horiz-adv-x="1499" 
d="M592 1741h313l-266 -320h-248zM1004 1741h333l-286 -320h-248zM750 1343q186 0 344.5 -92.5t251 -251t92.5 -344.5q0 -140 -54.5 -267t-147 -218.5t-219.5 -146t-267 -54.5q-186 0 -345 92.5t-251.5 251t-92.5 344.5q0 140 55 267t147 218.5t219.5 146t267.5 54.5z
M750 307q135 0 230 101.5t95 246.5t-95 248t-230 103t-230.5 -102t-95.5 -247t95.5 -247.5t230.5 -102.5z" />
    <glyph glyph-name="ohungarumlaut" unicode="&#x151;" horiz-adv-x="1155" 
d="M420 1409h313l-266 -319h-248zM831 1409h334l-286 -319h-248zM578 -31q-141 0 -261.5 69.5t-191 189.5t-70.5 261q0 142 70.5 262.5t191 190.5t261.5 70t261.5 -70t190.5 -190.5t70 -262.5q0 -106 -41.5 -202t-111.5 -166t-166.5 -111t-202.5 -41zM578 279q83 0 137.5 60
t54.5 150q0 91 -54.5 152t-137.5 61t-138 -61t-55 -152q0 -90 55 -150t138 -60z" />
    <glyph glyph-name="OE" unicode="&#x152;" horiz-adv-x="2009" 
d="M1075 0v74q-143 -105 -325 -105q-186 0 -345 92.5t-251.5 251t-92.5 344.5q0 140 55 267t147 218.5t219.5 146t267.5 54.5q185 0 325 -106v76h873v-318h-535v-172h453v-317h-453v-189h535v-317h-873zM750 307q135 0 230 101.5t95 246.5t-95 248t-230 103t-230.5 -102
t-95.5 -247t95.5 -247.5t230.5 -102.5z" />
    <glyph glyph-name="oe" unicode="&#x153;" horiz-adv-x="1822" 
d="M578 -31q-141 0 -261.5 69.5t-191 189.5t-70.5 261q0 142 70.5 262.5t191 190.5t261.5 70q103 0 194 -41.5t158 -116.5q64 75 151 116.5t185 41.5q216 0 362 -143t146 -359q0 -67 -7 -102h-665q21 -67 73 -108.5t123 -41.5q130 0 218 92l167 -223q-55 -66 -164.5 -112
t-228.5 -46q-104 0 -195.5 42.5t-160.5 119.5q-67 -76 -159.5 -119t-196.5 -43zM1272 735q-59 0 -101 -33.5t-63 -93.5h328q-39 127 -164 127zM578 279q83 0 137.5 60t54.5 150q0 91 -54.5 152t-137.5 61t-138 -61t-55 -152q0 -90 55 -150t138 -60z" />
    <glyph glyph-name="Racute" unicode="&#x154;" horiz-adv-x="1249" 
d="M651 1741h385l-286 -320h-299zM123 0v1313h477q251 0 403 -119t152 -315q0 -126 -63.5 -223.5t-180.5 -153.5l277 -502h-391l-226 438h-110v-438h-338zM627 1016h-166v-281h166q76 0 123 39.5t47 104.5q0 62 -47 99.5t-123 37.5z" />
    <glyph glyph-name="racute" unicode="&#x155;" horiz-adv-x="870" 
d="M463 1409h385l-287 -319h-299zM113 0v981h329v-152q37 83 97.5 133t136.5 50q102 0 164 -56l-135 -311q-53 47 -134 47q-59 0 -94 -44.5t-35 -117.5v-530h-329z" />
    <glyph glyph-name="Rcommaaccent" unicode="&#x156;" horiz-adv-x="1249" 
d="M123 0v1313h477q251 0 403 -119t152 -315q0 -126 -63.5 -223.5t-180.5 -153.5l277 -502h-391l-226 438h-110v-438h-338zM627 1016h-166v-281h166q76 0 123 39.5t47 104.5q0 62 -47 99.5t-123 37.5zM780 -104l-123 -328h-256l62 328h317z" />
    <glyph glyph-name="rcommaaccent" unicode="&#x157;" horiz-adv-x="870" 
d="M113 0v981h329v-152q37 83 97.5 133t136.5 50q102 0 164 -56l-135 -311q-53 47 -134 47q-59 0 -94 -44.5t-35 -117.5v-530h-329zM430 -104l-123 -328h-256l62 328h317z" />
    <glyph glyph-name="Rcaron" unicode="&#x158;" horiz-adv-x="1249" 
d="M772 1421h-295l-239 320h309l78 -137l77 137h310zM123 0v1313h477q251 0 403 -119t152 -315q0 -126 -63.5 -223.5t-180.5 -153.5l277 -502h-391l-226 438h-110v-438h-338zM627 1016h-166v-281h166q76 0 123 39.5t47 104.5q0 62 -47 99.5t-123 37.5z" />
    <glyph glyph-name="rcaron" unicode="&#x159;" horiz-adv-x="870" 
d="M584 1090h-295l-240 319h309l78 -137l78 137h309zM113 0v981h329v-152q37 83 97.5 133t136.5 50q102 0 164 -56l-135 -311q-53 47 -134 47q-59 0 -94 -44.5t-35 -117.5v-530h-329z" />
    <glyph glyph-name="Sacute" unicode="&#x15a;" horiz-adv-x="1148" 
d="M602 1741h385l-287 -320h-299zM291 -4q-98 26 -244 125l137 278q77 -48 188.5 -80t202.5 -32q160 0 160 94q0 36 -35.5 62.5t-92 45.5t-124.5 39.5t-136.5 52.5t-125 75t-92 115.5t-35.5 166.5q0 128 74 222.5t190 140t254 45.5q126 0 247.5 -40t217.5 -116l-159 -262
q-62 44 -154.5 72t-169.5 28q-62 0 -99.5 -20.5t-37.5 -61.5q0 -34 35.5 -59.5t92 -44.5t125 -39.5t136.5 -52t124.5 -74.5t92 -115.5t35.5 -165.5q0 -102 -44.5 -183.5t-120.5 -133.5t-173.5 -79.5t-208.5 -27.5q-168 0 -260 25z" />
    <glyph glyph-name="sacute" unicode="&#x15b;" horiz-adv-x="948" 
d="M502 1409h385l-287 -319h-299zM442 -31q-220 0 -393 92l92 242q170 -74 314 -74q110 0 110 56q0 22 -21 38.5t-56 27.5t-79 24.5t-90.5 28t-90.5 39.5t-79 57t-56 83.5t-21 116.5q0 58 25.5 113t74 100t126.5 72t175 27q106 0 193.5 -21t197.5 -73l-114 -232
q-51 30 -121.5 48t-124.5 18q-47 0 -74 -13.5t-27 -38.5t27 -42.5t70 -29.5t95 -25t104 -36t95 -55.5t70 -89.5t27 -133q0 -134 -120 -227t-329 -93z" />
    <glyph glyph-name="Scircumflex" unicode="&#x15c;" horiz-adv-x="1148" 
d="M428 1741h295l240 -320h-310l-78 138l-77 -138h-310zM291 -4q-98 26 -244 125l137 278q77 -48 188.5 -80t202.5 -32q160 0 160 94q0 36 -35.5 62.5t-92 45.5t-124.5 39.5t-136.5 52.5t-125 75t-92 115.5t-35.5 166.5q0 128 74 222.5t190 140t254 45.5q126 0 247.5 -40
t217.5 -116l-159 -262q-62 44 -154.5 72t-169.5 28q-62 0 -99.5 -20.5t-37.5 -61.5q0 -34 35.5 -59.5t92 -44.5t125 -39.5t136.5 -52t124.5 -74.5t92 -115.5t35.5 -165.5q0 -102 -44.5 -183.5t-120.5 -133.5t-173.5 -79.5t-208.5 -27.5q-168 0 -260 25z" />
    <glyph glyph-name="scircumflex" unicode="&#x15d;" horiz-adv-x="948" 
d="M328 1409h295l239 -319h-309l-78 137l-78 -137h-309zM442 -31q-220 0 -393 92l92 242q170 -74 314 -74q110 0 110 56q0 22 -21 38.5t-56 27.5t-79 24.5t-90.5 28t-90.5 39.5t-79 57t-56 83.5t-21 116.5q0 58 25.5 113t74 100t126.5 72t175 27q106 0 193.5 -21t197.5 -73
l-114 -232q-51 30 -121.5 48t-124.5 18q-47 0 -74 -13.5t-27 -38.5t27 -42.5t70 -29.5t95 -25t104 -36t95 -55.5t70 -89.5t27 -133q0 -134 -120 -227t-329 -93z" />
    <glyph glyph-name="Scedilla" unicode="&#x15e;" horiz-adv-x="1148" 
d="M291 -4q-98 26 -244 125l137 278q77 -48 188.5 -80t202.5 -32q160 0 160 94q0 36 -35.5 62.5t-92 45.5t-124.5 39.5t-136.5 52.5t-125 75t-92 115.5t-35.5 166.5q0 128 74 222.5t190 140t254 45.5q126 0 247.5 -40t217.5 -116l-159 -262q-62 44 -154.5 72t-169.5 28
q-62 0 -99.5 -20.5t-37.5 -61.5q0 -34 35.5 -59.5t92 -44.5t125 -39.5t136.5 -52t124.5 -74.5t92 -115.5t35.5 -165.5q0 -168 -115 -275t-297 -138l-127 -406l-262 102l168 295q-102 3 -174 23z" />
    <glyph glyph-name="scedilla" unicode="&#x15f;" horiz-adv-x="948" 
d="M891 289q0 -108 -80 -191.5t-225 -113.5l-127 -408l-262 102l168 293q-174 15 -316 90l92 242q170 -74 314 -74q110 0 110 56q0 22 -21 38.5t-56 27.5t-79 24.5t-90.5 28t-90.5 39.5t-79 57t-56 83.5t-21 116.5q0 58 25.5 113t74 100t126.5 72t175 27q106 0 193.5 -21
t197.5 -73l-114 -232q-51 30 -121.5 48t-124.5 18q-47 0 -74 -13.5t-27 -38.5t27 -42.5t70 -29.5t95 -25t104 -36t95 -55.5t70 -89.5t27 -133z" />
    <glyph glyph-name="Scaron" unicode="&#x160;" horiz-adv-x="1148" 
d="M723 1421h-295l-240 320h310l77 -137l78 137h310zM291 -4q-98 26 -244 125l137 278q77 -48 188.5 -80t202.5 -32q160 0 160 94q0 36 -35.5 62.5t-92 45.5t-124.5 39.5t-136.5 52.5t-125 75t-92 115.5t-35.5 166.5q0 128 74 222.5t190 140t254 45.5q126 0 247.5 -40
t217.5 -116l-159 -262q-62 44 -154.5 72t-169.5 28q-62 0 -99.5 -20.5t-37.5 -61.5q0 -34 35.5 -59.5t92 -44.5t125 -39.5t136.5 -52t124.5 -74.5t92 -115.5t35.5 -165.5q0 -102 -44.5 -183.5t-120.5 -133.5t-173.5 -79.5t-208.5 -27.5q-168 0 -260 25z" />
    <glyph glyph-name="scaron" unicode="&#x161;" horiz-adv-x="948" 
d="M623 1090h-295l-240 319h309l78 -137l78 137h309zM442 -31q-220 0 -393 92l92 242q170 -74 314 -74q110 0 110 56q0 22 -21 38.5t-56 27.5t-79 24.5t-90.5 28t-90.5 39.5t-79 57t-56 83.5t-21 116.5q0 58 25.5 113t74 100t126.5 72t175 27q106 0 193.5 -21t197.5 -73
l-114 -232q-51 30 -121.5 48t-124.5 18q-47 0 -74 -13.5t-27 -38.5t27 -42.5t70 -29.5t95 -25t104 -36t95 -55.5t70 -89.5t27 -133q0 -134 -120 -227t-329 -93z" />
    <glyph glyph-name="Tcedilla" unicode="&#x162;" horiz-adv-x="1097" 
d="M455 0h-76v995h-359v318h1057v-318h-360v-995h-51l-134 -424l-262 102z" />
    <glyph glyph-name="tcedilla" unicode="&#x163;" horiz-adv-x="890" 
d="M20 692v289h187v266h330v-266h249v-289h-245v-301q0 -58 20.5 -85t63.5 -27q30 0 58.5 13t43.5 34l143 -244q-75 -75 -190 -100l-127 -406l-262 102l174 304q-123 30 -191.5 132t-68.5 269v309h-185z" />
    <glyph glyph-name="Tcaron" unicode="&#x164;" horiz-adv-x="1097" 
d="M696 1421h-295l-239 320h309l78 -137l78 137h309zM1077 995h-360v-995h-338v995h-359v318h1057v-318z" />
    <glyph glyph-name="tcaron" unicode="&#x165;" horiz-adv-x="890" 
d="M948 1409l-94 -340h-236l41 340h289zM20 692v289h187v266h330v-266h249v-289h-245v-301q0 -58 20.5 -85t63.5 -27q30 0 58.5 13t43.5 34l143 -244q-51 -51 -129 -82t-174 -31q-167 0 -264.5 106.5t-97.5 307.5v309h-185z" />
    <glyph glyph-name="Tbar" unicode="&#x166;" horiz-adv-x="1097" 
d="M225 717h154v278h-359v318h1057v-318h-360v-278h153v-236h-153v-481h-338v481h-154v236z" />
    <glyph glyph-name="tbar" unicode="&#x167;" horiz-adv-x="890" 
d="M61 608h144v84h-185v289h187v266h330v-266h249v-289h-245v-84h166v-235h-166q6 -94 84 -94q30 0 58.5 13t43.5 34l143 -244q-51 -51 -129 -82t-174 -31q-166 0 -264 105t-98 299h-144v235z" />
    <glyph glyph-name="Utilde" unicode="&#x168;" horiz-adv-x="1349" 
d="M846 1417q-61 0 -151.5 38t-135.5 38q-60 0 -121 -92l-159 133q79 190 227 190q61 0 151.5 -37.5t135.5 -37.5q59 0 120 92l160 -133q-79 -191 -227 -191zM113 561v752h338v-744q0 -119 62 -190.5t165 -71.5q100 0 160.5 71t60.5 189v746h338v-752q0 -267 -155 -429.5
t-410 -162.5q-252 0 -405.5 162.5t-153.5 429.5z" />
    <glyph glyph-name="utilde" unicode="&#x169;" horiz-adv-x="1173" 
d="M758 1085q-61 0 -151.5 38t-135.5 38q-60 0 -121 -92l-160 133q79 191 228 191q61 0 151.5 -38t135.5 -38q59 0 120 92l160 -133q-79 -191 -227 -191zM432 981v-516q0 -85 42.5 -135.5t113.5 -50.5q69 0 111 50.5t42 135.5v516h330v-541q0 -212 -132.5 -341.5
t-350.5 -129.5q-220 0 -353 129.5t-133 341.5v541h330z" />
    <glyph glyph-name="Umacron" unicode="&#x16a;" horiz-adv-x="1349" 
d="M352 1700h645v-236h-645v236zM113 561v752h338v-744q0 -119 62 -190.5t165 -71.5q100 0 160.5 71t60.5 189v746h338v-752q0 -267 -155 -429.5t-410 -162.5q-252 0 -405.5 162.5t-153.5 429.5z" />
    <glyph glyph-name="umacron" unicode="&#x16b;" horiz-adv-x="1173" 
d="M264 1368h645v-235h-645v235zM432 981v-516q0 -85 42.5 -135.5t113.5 -50.5q69 0 111 50.5t42 135.5v516h330v-541q0 -212 -132.5 -341.5t-350.5 -129.5q-220 0 -353 129.5t-133 341.5v541h330z" />
    <glyph glyph-name="Ubreve" unicode="&#x16c;" horiz-adv-x="1349" 
d="M674 1401q-141 0 -234.5 97.5t-93.5 242.5h223q0 -63 30 -97t75 -34t74.5 34t29.5 97h226q0 -145 -94 -242.5t-236 -97.5zM113 561v752h338v-744q0 -119 62 -190.5t165 -71.5q100 0 160.5 71t60.5 189v746h338v-752q0 -267 -155 -429.5t-410 -162.5q-252 0 -405.5 162.5
t-153.5 429.5z" />
    <glyph glyph-name="ubreve" unicode="&#x16d;" horiz-adv-x="1173" 
d="M586 1069q-141 0 -234.5 97.5t-93.5 242.5h223q0 -63 30 -97t75 -34t74.5 34t29.5 97h225q0 -145 -93.5 -242.5t-235.5 -97.5zM432 981v-516q0 -85 42.5 -135.5t113.5 -50.5q69 0 111 50.5t42 135.5v516h330v-541q0 -212 -132.5 -341.5t-350.5 -129.5q-220 0 -353 129.5
t-133 341.5v541h330z" />
    <glyph glyph-name="Uring" unicode="&#x16e;" horiz-adv-x="1349" 
d="M676 1401q-110 0 -185 73.5t-75 178.5t75 178.5t185 73.5t185 -73.5t75 -178.5t-75 -178.5t-185 -73.5zM678 1563q36 0 61 26t25 64t-25 64t-61 26t-61 -26t-25 -64t25 -64t61 -26zM113 561v752h338v-744q0 -119 62 -190.5t165 -71.5q100 0 160.5 71t60.5 189v746h338
v-752q0 -267 -155 -429.5t-410 -162.5q-252 0 -405.5 162.5t-153.5 429.5z" />
    <glyph glyph-name="uring" unicode="&#x16f;" horiz-adv-x="1173" 
d="M588 1069q-110 0 -185 73.5t-75 178.5t75 178.5t185 73.5t185 -73.5t75 -178.5t-75 -178.5t-185 -73.5zM590 1231q36 0 61 26t25 64t-25 64t-61 26t-61 -26t-25 -64t25 -64t61 -26zM432 981v-516q0 -85 42.5 -135.5t113.5 -50.5q69 0 111 50.5t42 135.5v516h330v-541
q0 -212 -132.5 -341.5t-350.5 -129.5q-220 0 -353 129.5t-133 341.5v541h330z" />
    <glyph glyph-name="Uhungarumlaut" unicode="&#x170;" horiz-adv-x="1349" 
d="M518 1741h313l-266 -320h-248zM930 1741h334l-287 -320h-248zM113 561v752h338v-744q0 -119 62 -190.5t165 -71.5q100 0 160.5 71t60.5 189v746h338v-752q0 -267 -155 -429.5t-410 -162.5q-252 0 -405.5 162.5t-153.5 429.5z" />
    <glyph glyph-name="uhungarumlaut" unicode="&#x171;" horiz-adv-x="1173" 
d="M430 1409h313l-266 -319h-248zM842 1409h334l-287 -319h-248zM432 981v-516q0 -85 42.5 -135.5t113.5 -50.5q69 0 111 50.5t42 135.5v516h330v-541q0 -212 -132.5 -341.5t-350.5 -129.5q-220 0 -353 129.5t-133 341.5v541h330z" />
    <glyph glyph-name="Uogonek" unicode="&#x172;" horiz-adv-x="1349" 
d="M113 561v752h338v-744q0 -119 62 -190.5t165 -71.5q100 0 160.5 71t60.5 189v746h338v-752q0 -212 -100 -360t-273 -203q-172 -95 -172 -188q0 -58 58 -58q44 0 92 37l92 -133q-35 -42 -96.5 -72t-139.5 -30q-99 0 -171 51.5t-72 150.5q0 120 123 219q-213 31 -339 188.5
t-126 397.5z" />
    <glyph glyph-name="uogonek" unicode="&#x173;" horiz-adv-x="1173" 
d="M432 981v-516q0 -85 42.5 -135.5t113.5 -50.5q69 0 111 50.5t42 135.5v516h330v-541q0 -162 -79 -278t-218 -164q-174 -93 -174 -188q0 -58 57 -58q45 0 93 37l92 -133q-35 -42 -96.5 -72t-139.5 -30q-63 0 -116.5 20t-90.5 67.5t-37 114.5q0 123 125 221
q-178 29 -281.5 152.5t-103.5 310.5v541h330z" />
    <glyph glyph-name="Wcircumflex" unicode="&#x174;" horiz-adv-x="2129" 
d="M918 1741h294l240 -320h-309l-78 138l-78 -138h-309zM1735 1313h354l-410 -1313h-426l-196 893l-197 -893h-409l-410 1313h373l241 -924l207 924h424l207 -924z" />
    <glyph glyph-name="wcircumflex" unicode="&#x175;" horiz-adv-x="1681" 
d="M694 1409h295l240 -319h-309l-78 137l-78 -137h-309zM690 0h-371l-288 981h352l129 -623l145 623h355l151 -629l135 629h353l-289 -981h-412l-133 569z" />
    <glyph glyph-name="Ycircumflex" unicode="&#x176;" horiz-adv-x="1333" 
d="M520 1741h295l240 -320h-310l-77 138l-78 -138h-309zM498 0v430l-478 883h375l279 -529l282 529h357l-477 -883v-430h-338z" />
    <glyph glyph-name="ycircumflex" unicode="&#x177;" horiz-adv-x="1142" 
d="M424 1409h295l239 -319h-309l-78 137l-77 -137h-310zM371 981l231 -567l189 567h331l-374 -1065q-121 -348 -420 -348q-90 0 -171.5 34t-136.5 85l146 258q71 -68 160 -68q87 0 133 107l-453 997h365z" />
    <glyph glyph-name="Ydieresis" unicode="&#x178;" horiz-adv-x="1333" 
d="M295 1569q0 69 48.5 118.5t117.5 49.5t118.5 -49.5t49.5 -118.5t-49.5 -117.5t-118.5 -48.5t-117.5 48.5t-48.5 117.5zM705 1569q0 69 48 118.5t117 49.5t118.5 -49.5t49.5 -118.5t-49.5 -117.5t-118.5 -48.5t-117 48.5t-48 117.5zM498 0v430l-478 883h375l279 -529
l282 529h357l-477 -883v-430h-338z" />
    <glyph glyph-name="Zacute" unicode="&#x179;" horiz-adv-x="1191" 
d="M623 1741h385l-287 -320h-299zM72 317l587 678h-567v318h1008v-318l-588 -678h608v-317h-1048v317z" />
    <glyph glyph-name="zacute" unicode="&#x17a;" horiz-adv-x="989" 
d="M522 1409h385l-286 -319h-299zM72 289l397 403h-377v289h807v-289l-399 -403h418v-289h-846v289z" />
    <glyph glyph-name="Zdotaccent" unicode="&#x17b;" horiz-adv-x="1191" 
d="M410 1585q0 77 54 132t130 55t131 -55t55 -132q0 -76 -54.5 -130t-131.5 -54q-76 0 -130 53.5t-54 130.5zM72 317l587 678h-567v318h1008v-318l-588 -678h608v-317h-1048v317z" />
    <glyph glyph-name="zdotaccent" unicode="&#x17c;" horiz-adv-x="989" 
d="M309 1253q0 77 54.5 132t130.5 55t131 -55t55 -132q0 -76 -54.5 -130t-131.5 -54t-131 54t-54 130zM72 289l397 403h-377v289h807v-289l-399 -403h418v-289h-846v289z" />
    <glyph glyph-name="Zcaron" unicode="&#x17d;" horiz-adv-x="1191" 
d="M743 1421h-294l-240 320h309l78 -137l78 137h309zM72 317l587 678h-567v318h1008v-318l-588 -678h608v-317h-1048v317z" />
    <glyph glyph-name="zcaron" unicode="&#x17e;" horiz-adv-x="989" 
d="M643 1090h-295l-239 319h309l78 -137l77 137h310zM72 289l397 403h-377v289h807v-289l-399 -403h418v-289h-846v289z" />
    <glyph glyph-name="florin" unicode="&#x192;" horiz-adv-x="1150" 
d="M393 98v387h-176v246h176v244q0 214 111.5 339.5t304.5 125.5q210 0 321 -111l-155 -250q-22 22 -58 36.5t-71 14.5q-57 0 -90 -38t-33 -111v-250h260v-246h-260v-370q0 -211 -109.5 -338t-308.5 -127q-87 0 -163 28t-122 74l154 244q52 -45 115 -45q45 0 74.5 37.5
t29.5 109.5z" />
    <glyph glyph-name="Scommaaccent" unicode="&#x218;" horiz-adv-x="1148" 
d="M291 -4q-98 26 -244 125l137 278q77 -48 188.5 -80t202.5 -32q160 0 160 94q0 36 -35.5 62.5t-92 45.5t-124.5 39.5t-136.5 52.5t-125 75t-92 115.5t-35.5 166.5q0 128 74 222.5t190 140t254 45.5q126 0 247.5 -40t217.5 -116l-159 -262q-62 44 -154.5 72t-169.5 28
q-62 0 -99.5 -20.5t-37.5 -61.5q0 -34 35.5 -59.5t92 -44.5t125 -39.5t136.5 -52t124.5 -74.5t92 -115.5t35.5 -165.5q0 -102 -44.5 -183.5t-120.5 -133.5t-173.5 -79.5t-208.5 -27.5q-168 0 -260 25zM731 -104l-123 -328h-256l62 328h317z" />
    <glyph glyph-name="scommaaccent" unicode="&#x219;" horiz-adv-x="948" 
d="M442 -31q-220 0 -393 92l92 242q170 -74 314 -74q110 0 110 56q0 22 -21 38.5t-56 27.5t-79 24.5t-90.5 28t-90.5 39.5t-79 57t-56 83.5t-21 116.5q0 58 25.5 113t74 100t126.5 72t175 27q106 0 193.5 -21t197.5 -73l-114 -232q-51 30 -121.5 48t-124.5 18
q-47 0 -74 -13.5t-27 -38.5t27 -42.5t70 -29.5t95 -25t104 -36t95 -55.5t70 -89.5t27 -133q0 -134 -120 -227t-329 -93zM631 -104l-123 -328h-256l61 328h318z" />
    <glyph glyph-name="Tcommaaccent" unicode="&#x21a;" horiz-adv-x="1097" 
d="M1077 995h-360v-995h-338v995h-359v318h1057v-318zM705 -104l-123 -328h-256l61 328h318z" />
    <glyph glyph-name="tcommaaccent" unicode="&#x21b;" horiz-adv-x="890" 
d="M20 692v289h187v266h330v-266h249v-289h-245v-301q0 -58 20.5 -85t63.5 -27q30 0 58.5 13t43.5 34l143 -244q-51 -51 -129 -82t-174 -31q-167 0 -264.5 106.5t-97.5 307.5v309h-185zM725 -104l-123 -328h-256l62 328h317z" />
    <glyph glyph-name="jdotless" unicode="&#x237;" horiz-adv-x="555" 
d="M442 981v-948q0 -212 -109 -338.5t-308 -126.5q-87 0 -163 28t-122 74l154 244q52 -45 114 -45q45 0 75 37.5t30 109.5v965h329z" />
    <glyph glyph-name="circumflex" unicode="&#x2c6;" 
d="M262 1409h295l240 -319h-310l-77 137l-78 -137h-309z" />
    <glyph glyph-name="caron" unicode="&#x2c7;" 
d="M557 1090h-295l-239 319h309l78 -137l77 137h310z" />
    <glyph glyph-name="breve" unicode="&#x2d8;" 
d="M410 1069q-141 0 -234.5 97.5t-93.5 242.5h223q0 -63 30 -97t75 -34t74.5 34t29.5 97h225q0 -145 -93.5 -242.5t-235.5 -97.5z" />
    <glyph glyph-name="dotaccent" unicode="&#x2d9;" 
d="M223 1253q0 77 54.5 132t130.5 55t131 -55t55 -132q0 -76 -54.5 -130t-131.5 -54t-131 54t-54 130z" />
    <glyph glyph-name="ring" unicode="&#x2da;" 
d="M410 1069q-110 0 -185 73.5t-75 178.5t75 178.5t185 73.5t185 -73.5t75 -178.5t-75 -178.5t-185 -73.5zM412 1231q36 0 61 26t25 64t-25 64t-61 26t-61 -26t-25 -64t25 -64t61 -26z" />
    <glyph glyph-name="ogonek" unicode="&#x2db;" 
d="M434 55l158 -55q-176 -95 -176 -190q0 -58 57 -58q44 0 92 37l92 -133q-35 -42 -96 -72t-139 -30q-63 0 -116.5 20t-90.5 67.5t-37 114.5q0 90 69 168t187 131z" />
    <glyph glyph-name="tilde" unicode="&#x2dc;" 
d="M580 1085q-61 0 -151.5 38t-135.5 38q-60 0 -121 -92l-160 133q79 191 228 191q61 0 151 -38t135 -38q60 0 121 92l160 -133q-79 -191 -227 -191z" />
    <glyph glyph-name="hungarumlaut" unicode="&#x2dd;" 
d="M274 1409h314l-266 -319h-248zM686 1409h334l-287 -319h-248z" />
    <glyph glyph-name="gravecomb" unicode="&#x300;" 
d="M446 1409l201 -319h-299l-287 319h385z" />
    <glyph glyph-name="acutecomb" unicode="&#x301;" 
d="M371 1409h385l-287 -319h-299z" />
    <glyph glyph-name="circumflexcomb" unicode="&#x302;" 
d="M262 1409h295l240 -319h-310l-77 137l-78 -137h-309z" />
    <glyph glyph-name="tildecomb" unicode="&#x303;" 
d="M580 1085q-61 0 -151.5 38t-135.5 38q-60 0 -121 -92l-160 133q79 191 228 191q61 0 151 -38t135 -38q60 0 121 92l160 -133q-79 -191 -227 -191z" />
    <glyph glyph-name="macroncomb" unicode="&#x304;" 
d="M86 1368h645v-235h-645v235z" />
    <glyph glyph-name="brevecomb" unicode="&#x306;" 
d="M410 1069q-141 0 -234.5 97.5t-93.5 242.5h223q0 -63 30 -97t75 -34t74.5 34t29.5 97h225q0 -145 -93.5 -242.5t-235.5 -97.5z" />
    <glyph glyph-name="dotaccentcomb" unicode="&#x307;" 
d="M223 1253q0 77 54.5 132t130.5 55t131 -55t55 -132q0 -76 -54.5 -130t-131.5 -54t-131 54t-54 130z" />
    <glyph glyph-name="dieresiscomb" unicode="&#x308;" 
d="M37 1237q0 69 48.5 118.5t117.5 49.5t118.5 -49.5t49.5 -118.5t-49.5 -117.5t-118.5 -48.5t-117.5 48.5t-48.5 117.5zM446 1237q0 69 48.5 118.5t117.5 49.5t118.5 -49.5t49.5 -118.5t-49.5 -117.5t-118.5 -48.5t-117.5 48.5t-48.5 117.5z" />
    <glyph glyph-name="ringcomb" unicode="&#x30a;" 
d="M410 1069q-110 0 -185 73.5t-75 178.5t75 178.5t185 73.5t185 -73.5t75 -178.5t-75 -178.5t-185 -73.5zM412 1231q36 0 61 26t25 64t-25 64t-61 26t-61 -26t-25 -64t25 -64t61 -26z" />
    <glyph glyph-name="hungarumlautcomb" unicode="&#x30b;" 
d="M274 1409h314l-266 -319h-248zM686 1409h334l-287 -319h-248z" />
    <glyph glyph-name="caroncomb" unicode="&#x30c;" 
d="M557 1090h-295l-239 319h309l78 -137l77 137h310z" />
    <glyph glyph-name="commaaccentcomb" unicode="&#x326;" 
d="M578 -104l-123 -328h-256l61 328h318z" />
    <glyph glyph-name="cedillacomb" unicode="&#x327;" 
d="M336 0h211l-133 -424l-262 102z" />
    <glyph glyph-name="ogonekcomb" unicode="&#x328;" 
d="M434 55l158 -55q-176 -95 -176 -190q0 -58 57 -58q44 0 92 37l92 -133q-35 -42 -96 -72t-139 -30q-63 0 -116.5 20t-90.5 67.5t-37 114.5q0 90 69 168t187 131z" />
    <glyph glyph-name="strokeshortcomb" unicode="&#x335;" horiz-adv-x="890" 
d="M82 621h645v-236h-645v236z" />
    <glyph glyph-name="Delta" unicode="&#x394;" horiz-adv-x="1462" 
d="M20 0l512 1313h398l512 -1313h-1422zM483 299h478l-238 655z" />
    <glyph glyph-name="Omega" unicode="&#x3a9;" horiz-adv-x="1499" 
d="M750 1006q-137 0 -231.5 -93.5t-94.5 -236.5q0 -83 39 -161.5t89.5 -129t111.5 -88.5v-297h-584v297l196 -6q-215 183 -215 446q0 117 55 228t147 194t220 133.5t267 50.5t267 -50.5t219.5 -133.5t146.5 -194t55 -228q0 -263 -215 -446l196 6v-297h-583v297
q97 61 168 159t71 220q0 143 -94 236.5t-231 93.5z" />
    <glyph glyph-name="mu" unicode="&#x3bc;" horiz-adv-x="1173" 
d="M432 981v-516q0 -85 42.5 -135.5t113.5 -50.5q69 0 111 50.5t42 135.5v516h330v-541q0 -212 -132.5 -341.5t-350.5 -129.5q-86 0 -156 21v-309h-330v1300h330z" />
    <glyph glyph-name="pi" unicode="&#x3c0;" horiz-adv-x="1282" 
d="M61 692v289h1160v-289h-148v-301q0 -58 20.5 -85t63.5 -27h64v-279h-121q-171 0 -267 93t-96 290v309h-196v-690h-336v690h-144z" />
    <glyph glyph-name="Wgrave" unicode="&#x1e80;" horiz-adv-x="2129" 
d="M1036 1741l201 -320h-299l-287 320h385zM1735 1313h354l-410 -1313h-426l-196 893l-197 -893h-409l-410 1313h373l241 -924l207 924h424l207 -924z" />
    <glyph glyph-name="wgrave" unicode="&#x1e81;" horiz-adv-x="1681" 
d="M813 1409l201 -319h-299l-287 319h385zM690 0h-371l-288 981h352l129 -623l145 623h355l151 -629l135 629h353l-289 -981h-412l-133 569z" />
    <glyph glyph-name="Wacute" unicode="&#x1e82;" horiz-adv-x="2129" 
d="M1092 1741h385l-287 -320h-299zM1735 1313h354l-410 -1313h-426l-196 893l-197 -893h-409l-410 1313h373l241 -924l207 924h424l207 -924z" />
    <glyph glyph-name="wacute" unicode="&#x1e83;" horiz-adv-x="1681" 
d="M868 1409h385l-286 -319h-299zM690 0h-371l-288 981h352l129 -623l145 623h355l151 -629l135 629h353l-289 -981h-412l-133 569z" />
    <glyph glyph-name="Wdieresis" unicode="&#x1e84;" horiz-adv-x="2129" 
d="M692 1569q0 69 48.5 118.5t117.5 49.5t118.5 -49.5t49.5 -118.5t-49.5 -117.5t-118.5 -48.5t-117.5 48.5t-48.5 117.5zM1102 1569q0 69 48.5 118.5t117.5 49.5t118.5 -49.5t49.5 -118.5t-49.5 -117.5t-118.5 -48.5t-117.5 48.5t-48.5 117.5zM1735 1313h354l-410 -1313
h-426l-196 893l-197 -893h-409l-410 1313h373l241 -924l207 924h424l207 -924z" />
    <glyph glyph-name="wdieresis" unicode="&#x1e85;" horiz-adv-x="1681" 
d="M469 1237q0 69 48.5 118.5t117.5 49.5t118.5 -49.5t49.5 -118.5t-49.5 -117.5t-118.5 -48.5t-117.5 48.5t-48.5 117.5zM879 1237q0 69 48 118.5t117 49.5t118.5 -49.5t49.5 -118.5t-49.5 -117.5t-118.5 -48.5t-117 48.5t-48 117.5zM690 0h-371l-288 981h352l129 -623
l145 623h355l151 -629l135 629h353l-289 -981h-412l-133 569z" />
    <glyph glyph-name="Ygrave" unicode="&#x1ef2;" horiz-adv-x="1333" 
d="M639 1741l201 -320h-299l-287 320h385zM498 0v430l-478 883h375l279 -529l282 529h357l-477 -883v-430h-338z" />
    <glyph glyph-name="ygrave" unicode="&#x1ef3;" horiz-adv-x="1142" 
d="M543 1409l200 -319h-299l-286 319h385zM371 981l231 -567l189 567h331l-374 -1065q-121 -348 -420 -348q-90 0 -171.5 34t-136.5 85l146 258q71 -68 160 -68q87 0 133 107l-453 997h365z" />
    <glyph glyph-name="endash" unicode="&#x2013;" horiz-adv-x="1024" 
d="M82 649h860v-276h-860v276z" />
    <glyph glyph-name="emdash" unicode="&#x2014;" horiz-adv-x="2048" 
d="M82 649h1884v-276h-1884v276z" />
    <glyph glyph-name="quoteleft" unicode="&#x2018;" horiz-adv-x="534" 
d="M229 930q-66 0 -111.5 45t-45.5 112q0 72 49 144l119 178h141l-94 -180q47 -19 75.5 -56t28.5 -83q0 -68 -46.5 -114t-115.5 -46z" />
    <glyph glyph-name="quoteright" unicode="&#x2019;" horiz-adv-x="534" 
d="M305 1411q66 0 112 -45.5t46 -112.5q0 -71 -49 -143l-119 -178h-141l94 180q-47 19 -76 56t-29 83q0 68 46.5 114t115.5 46z" />
    <glyph glyph-name="quotesinglbase" unicode="&#x201a;" horiz-adv-x="550" 
d="M295 -174h-141l94 180q-47 19 -76 56t-29 83q0 68 46.5 114t115.5 46q66 0 112 -45.5t46 -112.5q0 -71 -49 -143z" />
    <glyph glyph-name="quotedblleft" unicode="&#x201c;" horiz-adv-x="911" 
d="M606 930q-66 0 -111.5 45t-45.5 112q0 72 49 144l118 178h142l-94 -180q47 -19 75.5 -56t28.5 -83q0 -68 -46.5 -114t-115.5 -46zM229 930q-66 0 -111.5 45t-45.5 112q0 72 49 144l119 178h141l-94 -180q47 -19 75.5 -56t28.5 -83q0 -68 -46.5 -114t-115.5 -46z" />
    <glyph glyph-name="quotedblright" unicode="&#x201d;" horiz-adv-x="911" 
d="M307 1411q66 0 112 -45.5t46 -112.5q0 -71 -49 -143l-119 -178h-141l94 180q-47 19 -76 56t-29 83q0 68 46.5 114t115.5 46zM684 1411q66 0 112 -45.5t46 -112.5q0 -71 -49 -143l-119 -178h-142l95 180q-47 19 -76 56t-29 83q0 68 46.5 114t115.5 46z" />
    <glyph glyph-name="quotedblbase" unicode="&#x201e;" horiz-adv-x="927" 
d="M295 -174h-141l94 180q-47 19 -76 56t-29 83q0 68 46.5 114t115.5 46q66 0 112 -45.5t46 -112.5q0 -71 -49 -143zM672 -174h-142l95 180q-47 19 -76 56t-29 83q0 68 46.5 114t115.5 46q66 0 112 -45.5t46 -112.5q0 -71 -49 -143z" />
    <glyph glyph-name="dagger" unicode="&#x2020;" horiz-adv-x="1067" 
d="M369 -401v1122h-308v289h308v399h329v-399h308v-289h-308v-1122h-329z" />
    <glyph glyph-name="daggerdbl" unicode="&#x2021;" horiz-adv-x="1067" 
d="M61 -2v289h308v434h-308v289h308v399h329v-399h308v-289h-308v-434h308v-289h-308v-399h-329v399h-308z" />
    <glyph glyph-name="bullet" unicode="&#x2022;" horiz-adv-x="901" 
d="M451 184q-137 0 -232.5 96t-95.5 232t95.5 232t232.5 96q136 0 231.5 -95.5t95.5 -232.5t-95.5 -232.5t-231.5 -95.5z" />
    <glyph glyph-name="ellipsis" unicode="&#x2026;" horiz-adv-x="1734" 
d="M1458 -31q-85 0 -144 59t-59 144t59 145t144 60t145 -60t60 -145t-60 -144t-145 -59zM274 -31q-85 0 -143.5 59t-58.5 144t59 145t143 60q85 0 145 -60t60 -145t-60 -144t-145 -59zM866 -31q-85 0 -143.5 59t-58.5 144t59 145t143 60q85 0 145 -60t60 -145t-60 -144
t-145 -59z" />
    <glyph glyph-name="perthousand" unicode="&#x2030;" horiz-adv-x="2394" 
d="M391 668q-140 0 -245 99t-105 237q0 143 97 241t253 98q155 0 254.5 -98.5t99.5 -240.5q0 -138 -106.5 -237t-247.5 -99zM500 0h-246l860 1313h250zM393 858q59 0 100.5 41t41.5 105q0 66 -43.5 105.5t-98.5 39.5q-59 0 -100 -39t-41 -106q0 -65 41.5 -105.5t99.5 -40.5z
M1225 -31q-155 0 -255 99t-100 241q0 138 107 237t248 99q140 0 245 -99t105 -237q0 -143 -97 -241.5t-253 -98.5zM2003 -31q-155 0 -254.5 99t-99.5 241q0 138 106.5 237t247.5 99q140 0 245 -99t105 -237q0 -143 -97 -241.5t-253 -98.5zM1223 164q59 0 100 39t41 106
q0 65 -41.5 105.5t-99.5 40.5q-59 0 -100.5 -41t-41.5 -105q0 -66 43.5 -105.5t98.5 -39.5zM2001 164q59 0 100 39t41 106q0 65 -41.5 105.5t-99.5 40.5q-59 0 -100 -41t-41 -105q0 -67 43 -106t98 -39z" />
    <glyph glyph-name="guilsinglleft" unicode="&#x2039;" horiz-adv-x="700" 
d="M61 514l400 397l178 -180l-217 -217l217 -217l-178 -180z" />
    <glyph glyph-name="guilsinglright" unicode="&#x203a;" horiz-adv-x="700" 
d="M61 731l179 180l399 -397l-399 -397l-179 180l218 217z" />
    <glyph glyph-name="fraction" unicode="&#x2044;" horiz-adv-x="126" 
d="M-492 0l865 1313h245l-860 -1313h-250z" />
    <glyph glyph-name="zero.superior" unicode="&#x2070;" horiz-adv-x="602" 
d="M307 641q-129 0 -213 96.5t-84 245.5q0 151 80.5 249.5t204.5 98.5q130 0 214.5 -98.5t82.5 -247.5q1 -150 -79.5 -247t-205.5 -97zM301 834q82 0 82 149q0 154 -82 154q-38 0 -60 -40.5t-22 -111.5q0 -151 82 -151z" />
    <glyph glyph-name="four.superior" unicode="&#x2074;" horiz-adv-x="602" 
d="M317 657v82h-309v189l301 385h209v-385h76v-189h-76v-82h-201zM166 928h151v190z" />
    <glyph glyph-name="Euro" unicode="&#x20ac;" horiz-adv-x="1339" 
d="M813 -31q-211 0 -377 117t-241 307h-175l62 213h65q-2 16 -2 51v33h-125l62 213h108q73 196 243.5 318t381.5 122q319 0 494 -194l-203 -234q-47 49 -125 80t-162 31q-74 0 -138.5 -32.5t-109.5 -90.5h353l-62 -213h-373q-2 -10 -2 -33q0 -35 2 -51h361l-62 -213h-210
q92 -106 241 -106q88 0 163 30t120 86l207 -231q-172 -203 -496 -203z" />
    <glyph glyph-name="litre" unicode="&#x2113;" horiz-adv-x="1097" 
d="M911 82q-52 -52 -133.5 -82.5t-183.5 -30.5q-157 0 -258 82.5t-125 239.5l-137 -55v333l131 47v369q0 206 107.5 330.5t285.5 124.5q197 0 306.5 -116.5t109.5 -324.5q0 -172 -124 -319.5t-349 -253.5v-14q0 -133 110 -133q36 0 68 12.5t49 34.5zM541 1018v-264
q78 52 117.5 121.5t39.5 142.5q0 112 -73 112q-40 0 -62 -29.5t-22 -82.5z" />
    <glyph glyph-name="trademark" unicode="&#x2122;" horiz-adv-x="1812" 
d="M236 596v514h-195v203h639v-203h-215v-514h-229zM1239 725l-238 289l11 -418h-226v717h226l235 -293l234 293h209v-717h-226l11 418z" />
    <glyph glyph-name="partialdiff" unicode="&#x2202;" horiz-adv-x="1155" 
d="M578 1012q38 0 65 -6q-128 169 -358 278l223 205q267 -131 429.5 -379t162.5 -528q0 -277 -143 -445t-379 -168q-141 0 -261.5 71.5t-191 195t-70.5 268.5q0 146 71 263t190 181t262 64zM578 279q83 0 137.5 64.5t54.5 160.5q0 98 -54.5 163.5t-137.5 65.5t-138 -65.5
t-55 -163.5q0 -96 55 -160.5t138 -64.5z" />
    <glyph glyph-name="product" unicode="&#x220f;" horiz-adv-x="1363" 
d="M821 995h-278v-1396h-338v1396h-144v318h1242v-318h-144v-1396h-338v1396z" />
    <glyph glyph-name="summation" unicode="&#x2211;" horiz-adv-x="1046" 
d="M836 637v-266l-390 -432h580v-340h-1006v391l467 536l-467 539v344h1006v-338h-580z" />
    <glyph glyph-name="minus" unicode="&#x2212;" horiz-adv-x="1067" 
d="M61 508v297h945v-297h-945z" />
    <glyph glyph-name="divisionslash" unicode="&#x2215;" horiz-adv-x="126" 
d="M-492 0l865 1313h245l-860 -1313h-250z" />
    <glyph glyph-name="radical" unicode="&#x221a;" horiz-adv-x="1263" 
d="M838 0h-428l-230 684h-160v297h424l187 -690l278 1118h334z" />
    <glyph glyph-name="infinity" unicode="&#x221e;" horiz-adv-x="1067" 
d="M1006 659q0 -135 -72 -222t-189 -87q-150 0 -231 133q-83 -133 -207 -133q-107 0 -176.5 86t-69.5 217q0 137 72 224.5t191 87.5q145 0 227 -127q89 127 209 127q107 0 176.5 -87t69.5 -219zM254 655q0 -34 24 -58t60 -24q57 0 102 56q-26 57 -48 84.5t-54 27.5
q-37 0 -60.5 -24.5t-23.5 -61.5zM731 741q-66 0 -108 -45q25 -62 49 -92.5t59 -30.5t60.5 24t25.5 58q0 36 -25 61t-61 25z" />
    <glyph glyph-name="integral" unicode="&#x222b;" horiz-adv-x="1150" 
d="M393 98v877q0 214 111.5 339.5t304.5 125.5q210 0 321 -111l-155 -250q-22 22 -58 36.5t-71 14.5q-57 0 -90 -38t-33 -111v-866q0 -211 -109.5 -338t-308.5 -127q-87 0 -163 28t-122 74l154 244q52 -45 115 -45q45 0 74.5 37.5t29.5 109.5z" />
    <glyph glyph-name="approxequal" unicode="&#x2248;" horiz-adv-x="1067" 
d="M61 717v297q111 76 244 76q68 0 132.5 -16.5t107 -37t102 -37t117.5 -16.5q164 0 242 61v-296q-100 -62 -238 -62q-66 0 -130.5 16.5t-108 37t-104 37t-118.5 16.5q-84 0 -148 -21t-98 -55zM61 260v297q111 76 244 76q68 0 132.5 -16.5t107 -37t102 -37t117.5 -16.5
q71 0 137 15.5t105 46.5v-297q-100 -62 -238 -62q-66 0 -130.5 16.5t-108 37t-104 37t-118.5 16.5q-84 0 -148 -21t-98 -55z" />
    <glyph glyph-name="notequal" unicode="&#x2260;" horiz-adv-x="1067" 
d="M154 125l79 158h-172v297h320l78 153h-398v297h545l80 160h227l-79 -160h172v-297h-320l-78 -153h398v-297h-545l-80 -158h-227z" />
    <glyph glyph-name="lessequal" unicode="&#x2264;" horiz-adv-x="1067" 
d="M1006 655v-319l-945 344v291l945 342v-320l-592 -168zM61 0v297h945v-297h-945z" />
    <glyph glyph-name="greaterequal" unicode="&#x2265;" horiz-adv-x="1067" 
d="M61 655l592 170l-592 168v320l945 -342v-291l-945 -344v319zM1006 0h-945v297h945v-297z" />
    <glyph glyph-name="lozenge" unicode="&#x25ca;" horiz-adv-x="1114" 
d="M1053 655l-318 -655h-356l-318 655l318 658h356zM702 655l-153 371l-156 -371l156 -368z" />
    <glyph glyph-name="ITF" unicode="&#xf8ff;" horiz-adv-x="3094" 
d="M123 0v1313h405v-1313h-405zM612 930v383h406v-383h-406zM1100 0v1313h405v-1313h-405zM1591 930v383h404v-383h-404zM2079 0v1313h403v-1313h-403zM2568 930v383h404v-383h-404zM2568 465v381h404v-381h-404z" />
    <glyph glyph-name="G.alt" horiz-adv-x="1464" 
d="M745 -31q-140 0 -266.5 54.5t-218 147t-145.5 219.5t-54 267q0 187 93.5 344.5t255 249.5t352.5 92q322 0 504 -194l-217 -248q-48 49 -125.5 82t-157.5 33q-146 0 -244 -103t-98 -256q0 -152 93.5 -256t230.5 -104q129 0 203.5 51t101.5 127h-281v311h631v-354
q-23 -70 -60.5 -134.5t-95.5 -125.5t-129.5 -105t-167.5 -71t-205 -27z" />
    <glyph glyph-name="a.alt" horiz-adv-x="1267" 
d="M520 -31q-125 0 -230.5 63.5t-170 183.5t-64.5 273q0 226 132 374.5t333 148.5q157 0 250 -107v76h330v-616q0 -44 22.5 -67.5t55.5 -23.5q17 0 39 11l30 -287q-73 -25 -143 -25q-82 0 -155 36t-118 110q-101 -150 -311 -150zM578 279q83 0 137.5 60t54.5 150
q0 91 -54.5 152t-137.5 61t-138 -61t-55 -152q0 -90 55 -150t138 -60z" />
    <glyph glyph-name="j.alt" horiz-adv-x="555" 
d="M276 1069q-76 0 -130 53.5t-54 130.5t54 132t130 55t131.5 -55t55.5 -132q0 -76 -55 -130t-132 -54zM-16 -432h-74v313h57q146 0 146 156v944h329v-948q0 -210 -122 -337.5t-336 -127.5z" />
    <glyph glyph-name="l.alt" horiz-adv-x="555" 
d="M113 0v1409h329v-1409h-329z" />
    <glyph glyph-name="y.alt" horiz-adv-x="1142" 
d="M623 -401h-332l160 405l-445 977h365l231 -563l189 563h331z" />
    <glyph glyph-name="ampersand.alt" horiz-adv-x="1366" 
d="M1044 729l238 -182l-162 -203l172 -172l-235 -211l-150 150q-165 -134 -360 -134q-130 0 -234.5 44.5t-168.5 134t-64 209.5q0 115 67 206.5t183 145.5q-84 124 -84 241q0 168 124 271.5t300 103.5q214 0 393 -131l-152 -237q-121 79 -206 79q-54 0 -87.5 -25.5
t-33.5 -74.5q0 -70 69 -139l250 -248zM410 383q0 -52 35.5 -85.5t103.5 -33.5q72 0 147 62l-178 180q-108 -44 -108 -123z" />
    <glyph glyph-name="Gbreve.alt" horiz-adv-x="1464" 
d="M731 1401q-141 0 -234.5 97.5t-93.5 242.5h224q0 -63 29.5 -97t74.5 -34t75 34t30 97h225q0 -145 -94 -242.5t-236 -97.5zM745 -31q-140 0 -266.5 54.5t-218 147t-145.5 219.5t-54 267q0 187 93.5 344.5t255 249.5t352.5 92q322 0 504 -194l-217 -248q-48 49 -125.5 82
t-157.5 33q-146 0 -244 -103t-98 -256q0 -152 93.5 -256t230.5 -104q129 0 203.5 51t101.5 127h-281v311h631v-354q-23 -70 -60.5 -134.5t-95.5 -125.5t-129.5 -105t-167.5 -71t-205 -27z" />
    <glyph glyph-name="Gcircumflex.alt" horiz-adv-x="1464" 
d="M586 1741h295l239 -320h-309l-78 138l-78 -138h-309zM745 -31q-140 0 -266.5 54.5t-218 147t-145.5 219.5t-54 267q0 187 93.5 344.5t255 249.5t352.5 92q322 0 504 -194l-217 -248q-48 49 -125.5 82t-157.5 33q-146 0 -244 -103t-98 -256q0 -152 93.5 -256t230.5 -104
q129 0 203.5 51t101.5 127h-281v311h631v-354q-23 -70 -60.5 -134.5t-95.5 -125.5t-129.5 -105t-167.5 -71t-205 -27z" />
    <glyph glyph-name="Gcommaaccent.alt" horiz-adv-x="1464" 
d="M745 -31q-140 0 -266.5 54.5t-218 147t-145.5 219.5t-54 267q0 187 93.5 344.5t255 249.5t352.5 92q322 0 504 -194l-217 -248q-48 49 -125.5 82t-157.5 33q-146 0 -244 -103t-98 -256q0 -152 93.5 -256t230.5 -104q129 0 203.5 51t101.5 127h-281v311h631v-354
q-23 -70 -60.5 -134.5t-95.5 -125.5t-129.5 -105t-167.5 -71t-205 -27zM889 -104l-123 -328h-256l61 328h318z" />
    <glyph glyph-name="Gdotaccent.alt" horiz-adv-x="1464" 
d="M547 1585q0 77 54 132t130 55q77 0 132 -55t55 -132q0 -76 -55 -130t-132 -54t-130.5 53.5t-53.5 130.5zM745 -31q-140 0 -266.5 54.5t-218 147t-145.5 219.5t-54 267q0 187 93.5 344.5t255 249.5t352.5 92q322 0 504 -194l-217 -248q-48 49 -125.5 82t-157.5 33
q-146 0 -244 -103t-98 -256q0 -152 93.5 -256t230.5 -104q129 0 203.5 51t101.5 127h-281v311h631v-354q-23 -70 -60.5 -134.5t-95.5 -125.5t-129.5 -105t-167.5 -71t-205 -27z" />
    <glyph glyph-name="aacute.alt" horiz-adv-x="1267" 
d="M621 1409h385l-287 -319h-299zM520 -31q-125 0 -230.5 63.5t-170 183.5t-64.5 273q0 226 132 374.5t333 148.5q157 0 250 -107v76h330v-616q0 -44 22.5 -67.5t55.5 -23.5q17 0 39 11l30 -287q-73 -25 -143 -25q-82 0 -155 36t-118 110q-101 -150 -311 -150zM578 279
q83 0 137.5 60t54.5 150q0 91 -54.5 152t-137.5 61t-138 -61t-55 -152q0 -90 55 -150t138 -60z" />
    <glyph glyph-name="abreve.alt" horiz-adv-x="1267" 
d="M592 1069q-141 0 -234.5 97.5t-93.5 242.5h223q0 -63 30 -97t75 -34t74.5 34t29.5 97h226q0 -145 -94 -242.5t-236 -97.5zM520 -31q-125 0 -230.5 63.5t-170 183.5t-64.5 273q0 226 132 374.5t333 148.5q157 0 250 -107v76h330v-616q0 -44 22.5 -67.5t55.5 -23.5
q17 0 39 11l30 -287q-73 -25 -143 -25q-82 0 -155 36t-118 110q-101 -150 -311 -150zM578 279q83 0 137.5 60t54.5 150q0 91 -54.5 152t-137.5 61t-138 -61t-55 -152q0 -90 55 -150t138 -60z" />
    <glyph glyph-name="acircumflex.alt" horiz-adv-x="1267" 
d="M446 1409h295l240 -319h-309l-78 137l-78 -137h-309zM520 -31q-125 0 -230.5 63.5t-170 183.5t-64.5 273q0 226 132 374.5t333 148.5q157 0 250 -107v76h330v-616q0 -44 22.5 -67.5t55.5 -23.5q17 0 39 11l30 -287q-73 -25 -143 -25q-82 0 -155 36t-118 110
q-101 -150 -311 -150zM578 279q83 0 137.5 60t54.5 150q0 91 -54.5 152t-137.5 61t-138 -61t-55 -152q0 -90 55 -150t138 -60z" />
    <glyph glyph-name="adieresis.alt" horiz-adv-x="1267" 
d="M221 1237q0 69 48.5 118.5t117.5 49.5t118.5 -49.5t49.5 -118.5t-49.5 -117.5t-118.5 -48.5t-117.5 48.5t-48.5 117.5zM631 1237q0 69 48.5 118.5t117.5 49.5t118.5 -49.5t49.5 -118.5t-49.5 -117.5t-118.5 -48.5t-117.5 48.5t-48.5 117.5zM520 -31q-125 0 -230.5 63.5
t-170 183.5t-64.5 273q0 226 132 374.5t333 148.5q157 0 250 -107v76h330v-616q0 -44 22.5 -67.5t55.5 -23.5q17 0 39 11l30 -287q-73 -25 -143 -25q-82 0 -155 36t-118 110q-101 -150 -311 -150zM578 279q83 0 137.5 60t54.5 150q0 91 -54.5 152t-137.5 61t-138 -61
t-55 -152q0 -90 55 -150t138 -60z" />
    <glyph glyph-name="agrave.alt" horiz-adv-x="1267" 
d="M565 1409l201 -319h-299l-287 319h385zM520 -31q-125 0 -230.5 63.5t-170 183.5t-64.5 273q0 226 132 374.5t333 148.5q157 0 250 -107v76h330v-616q0 -44 22.5 -67.5t55.5 -23.5q17 0 39 11l30 -287q-73 -25 -143 -25q-82 0 -155 36t-118 110q-101 -150 -311 -150z
M578 279q83 0 137.5 60t54.5 150q0 91 -54.5 152t-137.5 61t-138 -61t-55 -152q0 -90 55 -150t138 -60z" />
    <glyph glyph-name="amacron.alt" horiz-adv-x="1267" 
d="M270 1368h645v-235h-645v235zM520 -31q-125 0 -230.5 63.5t-170 183.5t-64.5 273q0 226 132 374.5t333 148.5q157 0 250 -107v76h330v-616q0 -44 22.5 -67.5t55.5 -23.5q17 0 39 11l30 -287q-73 -25 -143 -25q-82 0 -155 36t-118 110q-101 -150 -311 -150zM578 279
q83 0 137.5 60t54.5 150q0 91 -54.5 152t-137.5 61t-138 -61t-55 -152q0 -90 55 -150t138 -60z" />
    <glyph glyph-name="aogonek.alt" horiz-adv-x="1267" 
d="M520 -31q-125 0 -230.5 63.5t-170 183.5t-64.5 273q0 226 132 374.5t333 148.5q157 0 250 -107v76h330v-616q0 -44 22.5 -67.5t55.5 -23.5q17 0 39 11l30 -287q-176 -95 -176 -191q0 -57 57 -57q45 0 93 37l92 -133q-36 -43 -97 -73t-139 -30q-99 0 -171 52t-72 151
q0 68 39.5 130t109.5 110q-98 38 -152 125q-101 -150 -311 -150zM578 279q83 0 137.5 60t54.5 150q0 91 -54.5 152t-137.5 61t-138 -61t-55 -152q0 -90 55 -150t138 -60z" />
    <glyph glyph-name="aring.alt" horiz-adv-x="1267" 
d="M594 1069q-110 0 -185 73.5t-75 178.5t75 178.5t185 73.5t185 -73.5t75 -178.5t-75 -178.5t-185 -73.5zM596 1231q36 0 61 26t25 64t-25 64t-61 26t-61 -26t-25 -64t25 -64t61 -26zM520 -31q-125 0 -230.5 63.5t-170 183.5t-64.5 273q0 226 132 374.5t333 148.5
q157 0 250 -107v76h330v-616q0 -44 22.5 -67.5t55.5 -23.5q17 0 39 11l30 -287q-73 -25 -143 -25q-82 0 -155 36t-118 110q-101 -150 -311 -150zM578 279q83 0 137.5 60t54.5 150q0 91 -54.5 152t-137.5 61t-138 -61t-55 -152q0 -90 55 -150t138 -60z" />
    <glyph glyph-name="atilde.alt" horiz-adv-x="1267" 
d="M764 1085q-61 0 -151.5 38t-135.5 38q-60 0 -121 -92l-159 133q79 191 227 191q61 0 151.5 -38t135.5 -38q59 0 120 92l160 -133q-79 -191 -227 -191zM520 -31q-125 0 -230.5 63.5t-170 183.5t-64.5 273q0 226 132 374.5t333 148.5q157 0 250 -107v76h330v-616
q0 -44 22.5 -67.5t55.5 -23.5q17 0 39 11l30 -287q-73 -25 -143 -25q-82 0 -155 36t-118 110q-101 -150 -311 -150zM578 279q83 0 137.5 60t54.5 150q0 91 -54.5 152t-137.5 61t-138 -61t-55 -152q0 -90 55 -150t138 -60z" />
    <glyph glyph-name="jdotless.alt" horiz-adv-x="555" 
d="M-16 -432h-74v313h57q146 0 146 156v944h329v-948q0 -210 -122 -337.5t-336 -127.5z" />
    <glyph glyph-name="jcircumflex.alt" horiz-adv-x="555" 
d="M131 1409h295l240 -319h-310l-77 137l-78 -137h-310zM-16 -432h-74v313h57q146 0 146 156v944h329v-948q0 -210 -122 -337.5t-336 -127.5z" />
    <glyph glyph-name="lacute.alt" horiz-adv-x="555" 
d="M311 1837h385l-286 -319h-299zM113 0v1409h329v-1409h-329z" />
    <glyph glyph-name="lcaron.alt" horiz-adv-x="555" 
d="M113 0v1409h329v-1409h-329zM834 1409l-95 -340h-235l41 340h289z" />
    <glyph glyph-name="lcommaaccent.alt" horiz-adv-x="555" 
d="M113 0v1409h329v-1409h-329zM434 -104l-123 -328h-256l62 328h317z" />
    <glyph glyph-name="ldot.alt" horiz-adv-x="880" 
d="M113 0v1409h329v-1409h-329zM532 598q0 77 54.5 131.5t130.5 54.5q77 0 131.5 -55t54.5 -131t-54.5 -130t-131.5 -54t-131 54t-54 130z" />
    <glyph glyph-name="lslash.alt" horiz-adv-x="555" 
d="M113 0v535l-103 -39v276l103 39v598h329v-471l103 39v-277l-103 -38v-662h-329z" />
    <glyph glyph-name="yacute.alt" horiz-adv-x="1142" 
d="M598 1409h385l-287 -319h-299zM623 -401h-332l160 405l-445 977h365l231 -563l189 563h331z" />
    <glyph glyph-name="ycircumflex.alt" horiz-adv-x="1142" 
d="M424 1409h295l239 -319h-309l-78 137l-77 -137h-310zM623 -401h-332l160 405l-445 977h365l231 -563l189 563h331z" />
    <glyph glyph-name="ydieresis.alt" horiz-adv-x="1142" 
d="M199 1237q0 69 48.5 118.5t117.5 49.5t118 -49.5t49 -118.5t-49 -117.5t-118 -48.5t-117.5 48.5t-48.5 117.5zM608 1237q0 69 48.5 118.5t117.5 49.5t118.5 -49.5t49.5 -118.5t-49.5 -117.5t-118.5 -48.5t-117.5 48.5t-48.5 117.5zM623 -401h-332l160 405l-445 977h365
l231 -563l189 563h331z" />
    <glyph glyph-name="ygrave.alt" horiz-adv-x="1142" 
d="M543 1409l200 -319h-299l-286 319h385zM623 -401h-332l160 405l-445 977h365l231 -563l189 563h331z" />
    <glyph glyph-name="i.loclTRK" horiz-adv-x="555" 
d="M276 1069q-76 0 -130 53.5t-54 130.5t54 132t130 55t131.5 -55t55.5 -132q0 -76 -55 -130t-132 -54zM442 0h-329v981h329v-981z" />
    <glyph glyph-name="fl.alt" horiz-adv-x="1284" 
d="M41 692v289h166q3 209 127 334t319 125q118 0 213 -31h305v-1409h-329v1085q-56 45 -152 45q-61 0 -107 -39.5t-46 -109.5h188v-289h-188v-692h-330v692h-166z" />
    <glyph glyph-name="commaaccent.alt" 
d="M227 1102l123 328h256l-61 -328h-318z" />
    <glyph glyph-name="caroncomb.alt" 
d="M608 1409l-94 -340h-235l40 340h289z" />
    <glyph glyph-name="commaaccent" 
d="M578 -104l-123 -328h-256l61 328h318z" />
    </font>
</defs>
</svg>
