<?xml version="1.0" standalone="no"?>
<!DOCTYPE svg PUBLIC "-//W3C//DTD SVG 1.1//EN" "http://www.w3.org/Graphics/SVG/1.1/DTD/svg11.dtd" >
<svg xmlns="http://www.w3.org/2000/svg" xmlns:xlink="http://www.w3.org/1999/xlink" version="1.1">
<metadata>
Created by FontForge 20201107 at Tue Feb 13 15:50:49 2024
 By 
(c)Storytype Studio 2021. All Rights Reserved
</metadata>
<defs>
<font id="BlackFuture" horiz-adv-x="1220" >
  <font-face 
    font-family="Black Future"
    font-weight="400"
    font-stretch="normal"
    units-per-em="2048"
    panose-1="2 0 6 0 0 0 0 0 0 0"
    ascent="1638"
    descent="-410"
    x-height="1397"
    cap-height="1397"
    bbox="-152 -559 2673 1855"
    underline-thickness="102"
    underline-position="-204"
    unicode-range="U+0020-FB02"
  />
<missing-glyph horiz-adv-x="976" 
d="M977 0h-823v1434h823v-1434zM928 49v1335h-725v-1335h725zM530 455h-30q-35 88 -35 147q0 75 80 217q82 143 82 217q0 57 -32.5 90t-90.5 33q-61 0 -125 -55v45q80 72 170 72q91 0 147 -46t56 -128q0 -51 -24.5 -102t-84.5 -128q-54 -66 -100 -131q-35 -53 -35 -98
q0 -34 22 -133zM520 213q-10 0 -20 10l-62 72q-6 6 -6 16q0 13 10 23l58 57q8 10 20 10q8 0 21 -10l57 -59q8 -11 8 -21q0 -9 -10 -22l-55 -62q-14 -14 -21 -14z" />
    <glyph glyph-name=".notdef" horiz-adv-x="976" 
d="M977 0h-823v1434h823v-1434zM928 49v1335h-725v-1335h725zM530 455h-30q-35 88 -35 147q0 75 80 217q82 143 82 217q0 57 -32.5 90t-90.5 33q-61 0 -125 -55v45q80 72 170 72q91 0 147 -46t56 -128q0 -51 -24.5 -102t-84.5 -128q-54 -66 -100 -131q-35 -53 -35 -98
q0 -34 22 -133zM520 213q-10 0 -20 10l-62 72q-6 6 -6 16q0 13 10 23l58 57q8 10 20 10q8 0 21 -10l57 -59q8 -11 8 -21q0 -9 -10 -22l-55 -62q-14 -14 -21 -14z" />
    <glyph glyph-name=".null" horiz-adv-x="0" 
 />
    <glyph glyph-name="nonmarkingreturn" horiz-adv-x="682" 
 />
    <glyph glyph-name="space" unicode=" " horiz-adv-x="507" 
 />
    <glyph glyph-name="space" unicode="&#xa0;" horiz-adv-x="507" 
 />
    <glyph glyph-name="exclam" unicode="!" horiz-adv-x="432" 
d="M362 352h-139l-69 1045h278zM293 276q58 0 98.5 -40t40.5 -97q0 -59 -40 -99t-99 -40q-57 0 -98 40.5t-41 98.5q0 57 41 97t98 40z" />
    <glyph glyph-name="quotedbl" unicode="&#x22;" horiz-adv-x="792" 
d="M764 1257q2 -10 2 -24q0 -33 -6.5 -68.5t-25 -86t-62 -101.5t-107.5 -90q2 3 6.5 8.5t14.5 23.5t18 38.5t14.5 53t6.5 66.5q0 29 -2 43q-57 0 -97.5 40t-40.5 97q0 59 40.5 99.5t99.5 40.5q57 0 96.5 -40.5t42.5 -99.5zM432 1257q2 -10 2 -24q0 -33 -6.5 -68.5t-25 -86
t-62 -101.5t-107.5 -90q2 3 6.5 8.5t14.5 23.5t18 38.5t14.5 53t6.5 66.5q0 29 -2 43q-57 0 -97 40t-40 97q0 59 40.5 99.5t98.5 40.5q57 0 96.5 -40.5t42.5 -99.5z" />
    <glyph glyph-name="numbersign" unicode="#" horiz-adv-x="2093" 
d="M2015 862h-454l-183 -327h455l-78 -140h-455l-221 -395h-159l221 395h-375l-221 -395h-160l223 397h-454l77 140l455 -2l182 327h-454l78 139h454l221 398h160l-221 -398h373l223 398h158l-222 -398h455zM1219 535l182 327h-373l-184 -327h375z" />
    <glyph glyph-name="dollar" unicode="$" 
d="M1171 547q50 -89 50 -185q0 -149 -106 -254.5t-257 -105.5h-31v-168h-278v168h-395v279h673q40 1 64 28.5t24 63.5q0 54 -47 80l-41 24l-278 156l-219 123q-79 43 -129 125q-47 77 -47 174q0 143 101 243.5t243 100.5h51v166h278v-166h326v-279h-629q-32 0 -52.5 -22
t-20.5 -51q0 -42 36 -62l62 -33l487 -272q82 -47 135 -133z" />
    <glyph glyph-name="percent" unicode="%" horiz-adv-x="1566" 
d="M1155 1399h184l-780 -1399h-186zM657 1348q63 -44 100.5 -113.5t37.5 -147.5v-6q-2 -131 -96 -224t-224 -93h-4q-59 0 -125 27q-30 13 -55 30q-62 44 -98.5 112t-36.5 148v6q0 131 93.5 224.5t223.5 93.5h4q66 -3 125 -27q19 -8 55 -30zM281 1085q0 -94 73 -151l187 332
q-30 12 -64 12q-80 0 -137.5 -56t-58.5 -137zM473 891h4q78 0 134.5 56t56.5 134v6q0 93 -72 148l-186 -334q30 -10 63 -10zM1427 582q63 -42 100.5 -111t37.5 -149v-7q-1 -130 -95 -222.5t-225 -92.5h-4q-61 0 -123 27q-32 13 -55 30q-63 42 -100 111t-37 149v7
q0 130 93 222.5t224 92.5h4q63 0 125 -27q32 -13 55 -30zM1051 322q0 -94 73 -154l187 334q-30 9 -64 12q-80 0 -137.5 -56.5t-58.5 -135.5zM1243 125q80 0 137.5 56.5t57.5 135.5v7q0 88 -72 147l-186 -334q31 -9 63 -12z" />
    <glyph glyph-name="ampersand" unicode="&#x26;" horiz-adv-x="1300" 
d="M885 444v461h415v-278h-137v-183q0 -131 -76.5 -239.5t-201.5 -165.5q-111 -49 -228 -49q-137 0 -253 61t-183 165.5t-67 227.5q0 95 42 181.5t117 148.5q-88 106 -88 236q0 161 125.5 274t304.5 115h342v-279h-346q-60 0 -103.5 -33.5t-43.5 -78.5q0 -44 45 -77.5
t106 -33.5v-279q-91 -1 -157 -53t-66 -121q0 -71 66.5 -122.5t158.5 -51.5t160 52t68 122z" />
    <glyph glyph-name="quotesingle" unicode="'" horiz-adv-x="460" 
d="M432 1257q2 -10 2 -24q0 -33 -6.5 -68.5t-25 -86t-62 -101.5t-107.5 -90q2 3 6.5 8.5t14.5 23.5t18 38.5t14.5 53t6.5 66.5q0 29 -2 43q-57 0 -97 40t-40 97q0 59 40.5 99.5t98.5 40.5q57 0 96.5 -40.5t42.5 -99.5z" />
    <glyph glyph-name="parenleft" unicode="(" horiz-adv-x="792" 
d="M432 109q0 -91 63 -154.5t154 -63.5h144v-139h-285q-147 0 -250.5 103.5t-103.5 250.5v1184q0 146 104 249t250 103h285v-137h-144q-90 0 -153.5 -63.5t-63.5 -153.5v-1179z" />
    <glyph glyph-name="parenright" unicode=")" horiz-adv-x="792" 
d="M516 1288q0 89 -64 153t-153 64h-145v137h286q146 0 249.5 -103t103.5 -249v-1184q0 -148 -103.5 -251t-249.5 -103h-286v139h145q89 0 153 63.5t64 154.5v1179z" />
    <glyph glyph-name="asterisk" unicode="*" horiz-adv-x="1120" 
d="M498 1397h278l-139 -463zM154 944l86 264l397 -274zM477 477l-225 164l385 293zM797 477l-160 457l383 -293zM1034 1208l86 -264l-483 -10z" />
    <glyph glyph-name="plus" unicode="+" horiz-adv-x="847" 
d="M848 768v-139h-277v-279h-139v279h-278v139h278v276h139v-276h277z" />
    <glyph glyph-name="comma" unicode="," horiz-adv-x="460" 
d="M432 139q2 -10 2 -24q0 -33 -6.5 -68.5t-25 -86.5t-62 -102t-107.5 -91q2 3 6.5 8.5t14.5 23.5t18 38.5t14.5 53t6.5 66.5q0 29 -2 43q-57 0 -97 40.5t-40 98.5q0 57 40.5 97t98.5 40q57 0 96.5 -39.5t42.5 -97.5z" />
    <glyph glyph-name="hyphenminus" unicode="-" horiz-adv-x="847" 
d="M848 629h-694v139h694v-139z" />
    <glyph glyph-name="hyphenminus" unicode="&#xad;" horiz-adv-x="847" 
d="M848 629h-694v139h694v-139z" />
    <glyph glyph-name="period" unicode="." horiz-adv-x="430" 
d="M430 139q0 -58 -40 -98.5t-97 -40.5q-59 0 -99 40t-40 99q0 57 40.5 97t98.5 40q57 0 97 -40t40 -97z" />
    <glyph glyph-name="slash" unicode="/" horiz-adv-x="1093" 
d="M1094 1399l-781 -1399h-159l780 1399h160z" />
    <glyph glyph-name="zero" unicode="0" horiz-adv-x="1566" 
d="M1264 1276q139 -97 220 -250t81 -330v-6q-1 -142 -58 -271.5t-151 -222t-223.5 -147.5t-270.5 -55h-8q-145 0 -274 57q-59 25 -121 70q-139 96 -221 248t-82 329v7q1 143 58 272t152 222.5t225 148.5t273 55h4q144 -3 273 -60q66 -28 123 -67zM434 702v-6q0 -99 43 -185
t117 -146l412 733q-64 23 -142 26h-4q-174 0 -299 -124t-127 -298zM856 272h8q173 0 296.5 123.5t125.5 296.5v6q0 99 -43 186.5t-117 145.5l-409 -733q67 -25 139 -25z" />
    <glyph glyph-name="one" unicode="1" horiz-adv-x="432" 
d="M432 0h-278v1397h278v-1397z" />
    <glyph glyph-name="two" unicode="2" horiz-adv-x="1138" 
d="M1124 1032q15 -59 15 -121q0 -117 -47 -213l-2 -2q-41 -87 -123 -159l-310 -258h482v-279h-985v219l639 535q67 61 67 157q0 89 -62.5 152t-150.5 63q-84 0 -145.5 -56t-69.5 -138v-21h-278q0 99 39 190t105 157.5t157.5 105.5t191.5 39q170 0 303.5 -105t173.5 -266z
" />
    <glyph glyph-name="three" unicode="3" horiz-adv-x="1138" 
d="M1090 698q49 -104 49 -213q0 -134 -66.5 -247.5t-180 -179.5t-247.5 -66q-133 0 -246 66t-179 179.5t-66 247.5h278v-20q8 -82 69 -138.5t144 -56.5q89 0 152 63t63 152q0 82 -54 143t-134 70h-365l266 420h-383v279h889l-280 -443q96 -32 172.5 -99t118.5 -157z" />
    <glyph glyph-name="four" unicode="4" horiz-adv-x="1280" 
d="M1280 563v-278h-135v-285h-277v285h-714l241 1112h285l-182 -834h370v834h277v-834h135z" />
    <glyph glyph-name="five" unicode="5" horiz-adv-x="1138" 
d="M1090 698h2q47 -100 47 -213q0 -134 -66 -247.5t-179 -179.5t-247 -66t-247.5 66t-179.5 179.5t-66 247.5h278q0 -89 63 -152t152 -63t152 63t63 152q0 81 -55 142.5t-135 70.5h-463v699h858v-279h-580v-141h199q132 -10 240 -86t164 -193z" />
    <glyph glyph-name="six" unicode="6" horiz-adv-x="1138" 
d="M154 485q0 100 34 181l293 731h299l-168 -420h35q99 0 190.5 -39t157.5 -105t105 -157.5t39 -190.5q0 -100 -39 -191.5t-105.5 -157.5t-157.5 -105t-190 -39q-134 0 -247.5 66t-179.5 179.5t-66 247.5zM647 698q-64 0 -115.5 -33.5t-78.5 -89.5l-7 -16q-14 -35 -14 -74
q0 -89 63 -152t152 -63t152 63t63 152q0 88 -63 150.5t-152 62.5z" />
    <glyph glyph-name="seven" unicode="7" horiz-adv-x="1130" 
d="M154 1397h976l-557 -1397h-299l445 1118h-565v279z" />
    <glyph glyph-name="eight" unicode="8" horiz-adv-x="1161" 
d="M999 778q76 -63 119 -149t43 -183q0 -123 -67.5 -227t-183.5 -164.5t-253 -60.5t-253 60.5t-183 164.5t-67 227q0 95 42 181.5t117 148.5q-88 106 -88 236q0 161 126 275t304 114q177 0 302.5 -114t125.5 -275q0 -129 -84 -234zM655 1122q-63 0 -107 -33t-44 -79
q0 -45 44.5 -78t106.5 -33q61 0 106.5 33.5t45.5 77.5q0 46 -45 79t-107 33zM657 272q92 0 159 51.5t67 122.5t-67 123t-159 52t-159.5 -52t-67.5 -123t67.5 -122.5t159.5 -51.5z" />
    <glyph glyph-name="nine" unicode="9" horiz-adv-x="1138" 
d="M1139 911q0 -89 -33 -180l-293 -731h-299l168 420q-6 0 -17.5 -1t-17.5 -1q-134 0 -247.5 66t-179.5 179.5t-66 247.5t66 247t179.5 179t247.5 66t247 -66t179 -179t66 -247zM647 696q64 0 116 34.5t79 90.5l6 17q14 40 14 73q0 89 -63 152t-152 63t-152 -63t-63 -152
t63 -152t152 -63z" />
    <glyph glyph-name="colon" unicode=":" horiz-adv-x="430" 
d="M430 983q0 -57 -40 -97t-97 -40q-58 0 -98.5 40t-40.5 97q0 59 40 99t99 40q57 0 97 -40.5t40 -98.5zM430 418q0 -58 -40 -98.5t-97 -40.5q-59 0 -99 40.5t-40 98.5q0 57 40.5 97t98.5 40q57 0 97 -40t40 -97z" />
    <glyph glyph-name="semicolon" unicode=";" horiz-adv-x="460" 
d="M432 418q2 -11 2 -25q0 -33 -6.5 -68.5t-25 -86.5t-62 -102t-107.5 -91q7 8 17 23t26.5 64.5t16.5 103.5q0 29 -2 43q-57 0 -97 40.5t-40 98.5q0 57 40.5 97t98.5 40q57 0 96.5 -39.5t42.5 -97.5zM432 983q0 -57 -40.5 -97t-98.5 -40q-57 0 -97 40t-40 97q0 58 40 98.5
t97 40.5q59 0 99 -40t40 -99z" />
    <glyph glyph-name="less" unicode="&#x3c;" horiz-adv-x="716" 
d="M717 922l-320 -224l320 -223v-168l-563 391l563 392v-168z" />
    <glyph glyph-name="equal" unicode="=" horiz-adv-x="847" 
d="M848 481h-694v140h694v-140zM848 776h-694v139h694v-139z" />
    <glyph glyph-name="greater" unicode="&#x3e;" horiz-adv-x="716" 
d="M154 922v168l563 -392l-563 -391v168l319 223z" />
    <glyph glyph-name="question" unicode="?" horiz-adv-x="1091" 
d="M154 1399h594q142 0 243 -101.5t101 -242.5q0 -95 -48 -174q-47 -81 -129 -127l-217 -121v-275h-278v437l338 190q37 19 37 62q0 29 -20 51t-52 22h-569v279zM559 279q57 0 97 -41t40 -99q0 -57 -40 -98t-97 -41q-58 0 -98.5 41t-40.5 98q0 59 40.5 99.5t98.5 40.5z" />
    <glyph glyph-name="at" unicode="@" horiz-adv-x="1460" 
d="M1452 758q4 -46 4 -68q0 -110 -37 -188q-23 -58 -61 -88q-58 -47 -154 -47q-98 0 -147 73l-10 17l-25 -21q-87 -69 -209 -69q-141 0 -240.5 99.5t-99.5 240.5v22q6 123 92 215t209 105q12 2 39 2q116 0 209 -70q63 -48 99 -119t36 -153v-140q0 -30 19 -49q18 -18 49 -18
q22 0 39.5 12.5t23.5 32.5q27 73 27 160q0 31 -2 47q-15 177 -141.5 305t-303.5 147q-18 2 -55 2q-136 0 -251 -66.5t-182 -181.5t-67 -251v-15q3 -130 69 -241t177.5 -177t241.5 -69h12q139 0 256 69l78 -116q-155 -92 -330 -92h-20q-163 4 -303.5 85.5t-225.5 218.5
t-94 300v35q0 174 86 321.5t233.5 233.5t321.5 86q33 0 51 -2q233 -19 401 -187t185 -401zM813 502q86 0 147.5 60.5t61.5 146.5q0 85 -61.5 145.5t-147.5 60.5q-85 0 -146 -60.5t-61 -145.5q0 -86 61 -146.5t146 -60.5z" />
    <glyph glyph-name="A" unicode="A" horiz-adv-x="1277" 
d="M715 1399l583 -1399h-301l-282 676l-281 -676h-301z" />
    <glyph glyph-name="B" unicode="B" 
d="M432 279h445q10 0 16 7t6 15q0 11 -8 16l-197 187l-205 192l203 193l199 190q8 5 8 17q0 22 -22 22h-445v-839zM895 698l240 -227q86 -80 86 -199q0 -112 -80 -192t-195 -80h-792v1397h792q115 0 195 -80t80 -193q0 -118 -86 -198z" />
    <glyph glyph-name="C" unicode="C" horiz-adv-x="1423" 
d="M1202 451l221 -170q-99 -131 -247 -207t-318 -76q-143 0 -273.5 55.5t-225 150t-150 225t-55.5 273.5t55.5 273t150 225t225 151t273.5 56q163 0 305.5 -70t241.5 -192l-219 -170q-59 72 -145 112.5t-183 40.5q-177 0 -301.5 -124.5t-124.5 -301.5t124.5 -301.5
t301.5 -124.5q104 0 194 47t150 128z" />
    <glyph glyph-name="D" unicode="D" horiz-adv-x="1310" 
d="M666 1395q178 -14 325.5 -108.5t233.5 -249t86 -335.5q0 -188 -91.5 -347.5t-248.5 -253.5t-344 -99v-2h-473v1397h452q40 0 60 -2zM432 279h174q177 0 301.5 123t124.5 300q0 176 -124 297t-302 121h-174v-841z" />
    <glyph glyph-name="E" unicode="E" horiz-adv-x="1067" 
d="M154 1399h913v-279h-913v279zM154 905h913v-278h-635v-348h635v-279h-913v905z" />
    <glyph glyph-name="F" unicode="F" horiz-adv-x="1067" 
d="M154 1399h913v-279h-913v279zM154 905h913v-278h-635v-627h-278v905z" />
    <glyph glyph-name="G" unicode="G" horiz-adv-x="1478" 
d="M858 903h621v-534q-95 -179 -279 -283q-160 -88 -342 -88q-143 0 -273 55.5t-224.5 150t-150.5 225t-56 273.5q0 190 94.5 352.5t257 257.5t352.5 95q137 0 261 -50t220 -140l-223 -177q-115 88 -258 88q-177 0 -301.5 -124.5t-124.5 -301.5t124.5 -301.5t301.5 -124.5
q102 0 192 46.5t150 126.5v176h-342v278z" />
    <glyph glyph-name="H" unicode="H" 
d="M942 1399h279v-1399h-279v627h-510v-627h-278v1399h278v-494h510v494z" />
    <glyph glyph-name="I" unicode="I" horiz-adv-x="432" 
d="M432 0h-278v1397h278v-1397z" />
    <glyph glyph-name="J" unicode="J" horiz-adv-x="804" 
d="M526 1397h279v-879q0 -215 -151.5 -366.5t-366.5 -151.5h-133v279h79q122 0 207.5 85.5t85.5 206.5v826z" />
    <glyph glyph-name="K" unicode="K" horiz-adv-x="1222" 
d="M1223 1399l-457 -598l457 -801h-320l-321 561l-150 -196l-278 -365v1399h278v-576l440 576h351z" />
    <glyph glyph-name="L" unicode="L" horiz-adv-x="970" 
d="M154 0v1397h278v-1118h539v-279h-817z" />
    <glyph glyph-name="M" unicode="M" horiz-adv-x="1468" 
d="M811 772l657 627v-1399h-278v750l-379 -361l-379 361v-750h-278v1399z" />
    <glyph glyph-name="N" unicode="N" 
d="M942 1397h279v-1397l-789 748v-748h-278v1397l788 -750v750z" />
    <glyph glyph-name="O" unicode="O" horiz-adv-x="1562" 
d="M858 -6q-143 0 -273.5 55.5t-225 150t-150 225t-55.5 273.5t55.5 273t150 225t225 151t273.5 56q191 0 353.5 -95t257 -257.5t94.5 -352.5q0 -143 -56 -273.5t-150.5 -225t-225 -150t-273.5 -55.5zM858 1124q-177 0 -301.5 -124.5t-124.5 -301.5t124.5 -301.5
t301.5 -124.5t301.5 124.5t124.5 301.5t-124.5 301.5t-301.5 124.5z" />
    <glyph glyph-name="P" unicode="P" 
d="M1106 1284q115 -112 115 -272q0 -151 -103.5 -262t-253.5 -123h-432v-627h-278v905h680q47 0 75 31q33 30 33 76q0 44 -32 76t-76 32h-680v279l680 -2q159 0 272 -113z" />
    <glyph glyph-name="Q" unicode="Q" horiz-adv-x="1560" 
d="M1561 698q0 -147 -56.5 -278t-158.5 -230l215 -374h-320l-129 225q-121 -47 -256 -47q-143 0 -272.5 55.5t-224 150t-150 225t-55.5 273.5q0 190 94 352.5t256 257.5t352 95q191 0 353.5 -95t257 -257.5t94.5 -352.5zM856 272q60 0 115 15l-205 356h321l113 -197
q84 115 84 252q0 177 -125.5 301.5t-302.5 124.5q-175 0 -300.5 -125t-125.5 -301t125.5 -301t300.5 -125z" />
    <glyph glyph-name="R" unicode="R" horiz-adv-x="1218" 
d="M899 2l-262 457l-483 -459v1399h792q114 0 193.5 -80.5t79.5 -194.5q0 -115 -84 -196l-289 -273l373 -653h-320zM430 1120v-475l461 434q6 6 6 17q0 9 -6.5 16.5t-16.5 7.5h-444z" />
    <glyph glyph-name="S" unicode="S" 
d="M1153 1399v-279h-631q-32 0 -51.5 -22t-19.5 -51q0 -43 36 -62l547 -307q86 -47 136.5 -132.5t50.5 -183.5q0 -149 -106.5 -254.5t-256.5 -105.5h-704v277h669q41 0 66.5 28.5t25.5 65.5q0 54 -47 80l-538 301q-82 46 -129 126.5t-47 174.5q0 143 101 243.5t243 100.5
h655z" />
    <glyph glyph-name="T" unicode="T" horiz-adv-x="1165" 
d="M1165 1397v-277h-366v-1120h-279v1120h-366v277h1011z" />
    <glyph glyph-name="U" unicode="U" 
d="M942 1399h279v-864q0 -109 -42 -207.5t-113.5 -170t-170 -113.5t-207.5 -42q-145 0 -268 71t-194.5 194t-71.5 268v864h278v-864q0 -106 75 -180t181 -74t180 74t74 180v864z" />
    <glyph glyph-name="V" unicode="V" horiz-adv-x="1280" 
d="M717 0l-584 1399h301l283 -676l280 676h303z" />
    <glyph glyph-name="W" unicode="W" horiz-adv-x="1843" 
d="M1563 1399h301l-584 -1397l-281 674l-282 -674l-584 1397h301l283 -676l131 315l151 361l150 -361l131 -315z" />
    <glyph glyph-name="X" unicode="X" horiz-adv-x="1179" 
d="M1200 1397l-377 -699l377 -698h-317l-217 406l-217 -406h-316l375 698l-375 699h316l217 -404l217 404h317z" />
    <glyph glyph-name="Y" unicode="Y" horiz-adv-x="1179" 
d="M1200 1397l-375 -699l-18 -34v-664h-279v664l-18 34l-377 699h318l217 -404l217 404h315z" />
    <glyph glyph-name="Z" unicode="Z" 
d="M618 281h603v-279h-1067l602 1118h-602v279h1067z" />
    <glyph glyph-name="bracketleft" unicode="[" horiz-adv-x="714" 
d="M432 1505v-1614h283v-139h-561v1890h561v-137h-283z" />
    <glyph glyph-name="backslash" unicode="\" horiz-adv-x="1093" 
d="M154 1399h159l781 -1399h-160z" />
    <glyph glyph-name="bracketright" unicode="]" horiz-adv-x="714" 
d="M436 1505h-282v137h561v-1890h-561v139h282v1614z" />
    <glyph glyph-name="asciicircum" unicode="^" horiz-adv-x="684" 
d="M420 1825l65 -64l199 -190l-37 -41l-227 180l-230 -180l-36 41l200 190z" />
    <glyph glyph-name="underscore" unicode="_" horiz-adv-x="1105" 
d="M1106 0h-952v106h952v-106z" />
    <glyph glyph-name="grave" unicode="`" horiz-adv-x="487" 
d="M213 1833l274 -262l-36 -41l-297 235z" />
    <glyph glyph-name="a" unicode="a" horiz-adv-x="1277" 
d="M715 1399l583 -1399h-301l-282 676l-281 -676h-301z" />
    <glyph glyph-name="b" unicode="b" 
d="M432 279h445q10 0 16 7t6 15q0 11 -8 16l-197 187l-205 192l203 193l199 190q8 5 8 17q0 22 -22 22h-445v-839zM895 698l240 -227q86 -80 86 -199q0 -112 -80 -192t-195 -80h-792v1397h792q115 0 195 -80t80 -193q0 -118 -86 -198z" />
    <glyph glyph-name="c" unicode="c" horiz-adv-x="1423" 
d="M1202 451l221 -170q-99 -131 -247 -207t-318 -76q-143 0 -273.5 55.5t-225 150t-150 225t-55.5 273.5t55.5 273t150 225t225 151t273.5 56q163 0 305.5 -70t241.5 -192l-219 -170q-59 72 -145 112.5t-183 40.5q-177 0 -301.5 -124.5t-124.5 -301.5t124.5 -301.5
t301.5 -124.5q104 0 194 47t150 128z" />
    <glyph glyph-name="d" unicode="d" horiz-adv-x="1310" 
d="M666 1395q178 -14 325.5 -108.5t233.5 -249t86 -335.5q0 -188 -91.5 -347.5t-248.5 -253.5t-344 -99v-2h-473v1397h452q40 0 60 -2zM432 279h174q177 0 301.5 123t124.5 300q0 176 -124 297t-302 121h-174v-841z" />
    <glyph glyph-name="e" unicode="e" horiz-adv-x="1067" 
d="M154 1399h913v-279h-913v279zM154 905h913v-278h-635v-348h635v-279h-913v905z" />
    <glyph glyph-name="f" unicode="f" horiz-adv-x="1067" 
d="M154 1399h913v-279h-913v279zM154 905h913v-278h-635v-627h-278v905z" />
    <glyph glyph-name="g" unicode="g" horiz-adv-x="1478" 
d="M858 903h621v-534q-95 -179 -279 -283q-160 -88 -342 -88q-143 0 -273 55.5t-224.5 150t-150.5 225t-56 273.5q0 190 94.5 352.5t257 257.5t352.5 95q137 0 261 -50t220 -140l-223 -177q-115 88 -258 88q-177 0 -301.5 -124.5t-124.5 -301.5t124.5 -301.5t301.5 -124.5
q102 0 192 46.5t150 126.5v176h-342v278z" />
    <glyph glyph-name="h" unicode="h" 
d="M942 1399h279v-1399h-279v627h-510v-627h-278v1399h278v-494h510v494z" />
    <glyph glyph-name="i" unicode="i" horiz-adv-x="432" 
d="M432 0h-278v1397h278v-1397z" />
    <glyph glyph-name="j" unicode="j" horiz-adv-x="804" 
d="M526 1397h279v-879q0 -215 -151.5 -366.5t-366.5 -151.5h-133v279h79q122 0 207.5 85.5t85.5 206.5v826z" />
    <glyph glyph-name="k" unicode="k" horiz-adv-x="1222" 
d="M1223 1399l-457 -598l457 -801h-320l-321 561l-150 -196l-278 -365v1399h278v-576l440 576h351z" />
    <glyph glyph-name="l" unicode="l" horiz-adv-x="970" 
d="M154 0v1397h278v-1118h539v-279h-817z" />
    <glyph glyph-name="m" unicode="m" horiz-adv-x="1468" 
d="M811 772l657 627v-1399h-278v750l-379 -361l-379 361v-750h-278v1399z" />
    <glyph glyph-name="n" unicode="n" 
d="M942 1397h279v-1397l-789 748v-748h-278v1397l788 -750v750z" />
    <glyph glyph-name="o" unicode="o" horiz-adv-x="1562" 
d="M858 -6q-143 0 -273.5 55.5t-225 150t-150 225t-55.5 273.5t55.5 273t150 225t225 151t273.5 56q191 0 353.5 -95t257 -257.5t94.5 -352.5q0 -143 -56 -273.5t-150.5 -225t-225 -150t-273.5 -55.5zM858 1124q-177 0 -301.5 -124.5t-124.5 -301.5t124.5 -301.5
t301.5 -124.5t301.5 124.5t124.5 301.5t-124.5 301.5t-301.5 124.5z" />
    <glyph glyph-name="p" unicode="p" 
d="M1106 1284q115 -112 115 -272q0 -151 -103.5 -262t-253.5 -123h-432v-627h-278v905h680q47 0 75 31q33 30 33 76q0 44 -32 76t-76 32h-680v279l680 -2q159 0 272 -113z" />
    <glyph glyph-name="q" unicode="q" horiz-adv-x="1560" 
d="M1561 698q0 -147 -56.5 -278t-158.5 -230l215 -374h-320l-129 225q-121 -47 -256 -47q-143 0 -272.5 55.5t-224 150t-150 225t-55.5 273.5q0 190 94 352.5t256 257.5t352 95q191 0 353.5 -95t257 -257.5t94.5 -352.5zM856 272q60 0 115 15l-205 356h321l113 -197
q84 115 84 252q0 177 -125.5 301.5t-302.5 124.5q-175 0 -300.5 -125t-125.5 -301t125.5 -301t300.5 -125z" />
    <glyph glyph-name="r" unicode="r" horiz-adv-x="1218" 
d="M899 2l-262 457l-483 -459v1399h792q114 0 193.5 -80.5t79.5 -194.5q0 -115 -84 -196l-289 -273l373 -653h-320zM430 1120v-475l461 434q6 6 6 17q0 9 -6.5 16.5t-16.5 7.5h-444z" />
    <glyph glyph-name="s" unicode="s" 
d="M1153 1399v-279h-631q-32 0 -51.5 -22t-19.5 -51q0 -43 36 -62l547 -307q86 -47 136.5 -132.5t50.5 -183.5q0 -149 -106.5 -254.5t-256.5 -105.5h-704v277h669q41 0 66.5 28.5t25.5 65.5q0 54 -47 80l-538 301q-82 46 -129 126.5t-47 174.5q0 143 101 243.5t243 100.5
h655z" />
    <glyph glyph-name="t" unicode="t" horiz-adv-x="1165" 
d="M1165 1397v-277h-366v-1120h-279v1120h-366v277h1011z" />
    <glyph glyph-name="u" unicode="u" 
d="M942 1399h279v-864q0 -109 -42 -207.5t-113.5 -170t-170 -113.5t-207.5 -42q-145 0 -268 71t-194.5 194t-71.5 268v864h278v-864q0 -106 75 -180t181 -74t180 74t74 180v864z" />
    <glyph glyph-name="v" unicode="v" horiz-adv-x="1280" 
d="M717 0l-584 1399h301l283 -676l280 676h303z" />
    <glyph glyph-name="w" unicode="w" horiz-adv-x="1843" 
d="M1563 1399h301l-584 -1397l-281 674l-282 -674l-584 1397h301l283 -676l131 315l151 361l150 -361l131 -315z" />
    <glyph glyph-name="x" unicode="x" horiz-adv-x="1179" 
d="M1200 1397l-377 -699l377 -698h-317l-217 406l-217 -406h-316l375 698l-375 699h316l217 -404l217 404h317z" />
    <glyph glyph-name="y" unicode="y" horiz-adv-x="1179" 
d="M1200 1397l-375 -699l-18 -34v-664h-279v664l-18 34l-377 699h318l217 -404l217 404h315z" />
    <glyph glyph-name="z" unicode="z" 
d="M618 281h603v-279h-1067l602 1118h-602v279h1067z" />
    <glyph glyph-name="braceleft" unicode="{" horiz-adv-x="970" 
d="M688 1362v-221q0 -115 -54 -215.5t-149 -163.5l-75 -49l-4 -4l4 -2l75 -50q95 -63 149 -163.5t54 -214.5v-244q0 -60 41.5 -102t101.5 -42h140v-139h-289q-112 0 -192 80t-80 193v405q0 51 -24 96t-67 74l-165 109l165 110q43 28 67 72.5t24 95.5v385q0 112 79.5 191
t192.5 79h289v-137h-140q-60 0 -101.5 -42t-41.5 -101z" />
    <glyph glyph-name="bar" unicode="|" horiz-adv-x="292" 
d="M293 1397v-1397h-139v1397h139z" />
    <glyph glyph-name="braceright" unicode="}" horiz-adv-x="970" 
d="M434 1141v221q0 59 -41.5 101t-99.5 42h-139v137h286q114 0 193.5 -78.5t79.5 -191.5v-385q0 -51 24 -95.5t66 -72.5l168 -110l-168 -109q-42 -30 -66 -75t-24 -95v-405q0 -113 -79.5 -193t-193.5 -80h-286v139h139q59 0 100 42t41 102v244q0 114 54.5 214.5t150.5 163.5
l78 52l-4 4l-74 49q-96 63 -150.5 163.5t-54.5 215.5z" />
    <glyph glyph-name="asciitilde" unicode="~" horiz-adv-x="559" 
d="M528 670q-36 -39 -94 -39q-15 0 -43 8q-22 7 -80 49q-33 23 -61 23q-35 0 -96 -35q10 40 46.5 66t80.5 26q34 0 59 -14q11 -5 51 -34t68 -30h6q36 0 94 35q-5 -25 -31 -55z" />
    <glyph glyph-name="exclamdown" unicode="&#xa1;" horiz-adv-x="432" 
d="M362 487l70 -1042h-278l69 1042h139zM293 563q-57 0 -98 41t-41 98q0 58 41 99t98 41q58 0 98.5 -40.5t40.5 -99.5q0 -57 -40.5 -98t-98.5 -41z" />
    <glyph glyph-name="cent" unicode="&#xa2;" horiz-adv-x="1423" 
d="M1202 451l221 -170q-83 -110 -203 -182.5t-259 -92.5v-172h-279v186q-230 59 -379 249t-149 433t149 432t379 250v181h279v-166q132 -19 247.5 -85.5t198.5 -168.5l-221 -170q-86 105 -225 141q-49 12 -103 12q-95 0 -176 -38q-112 -52 -181 -156.5t-69 -231.5t69 -232
t181 -155q83 -39 176 -39q49 0 103 13q153 39 241 162z" />
    <glyph glyph-name="sterling" unicode="&#xa3;" horiz-adv-x="1099" 
d="M563 279h537v-279h-815v569h-131v140h131v206q0 131 64.5 242.5t175 176.5t241.5 65h182v-279h-131q-105 0 -179.5 -74.5t-74.5 -179.5v-157h285v-140h-285v-290z" />
    <glyph glyph-name="currency" unicode="&#xa4;" horiz-adv-x="835" 
d="M793 709q0 -86 -50 -162l93 -92l-99 -99l-94 95q-67 -39 -147 -39q-83 0 -150 39l-94 -95l-98 99l92 92q-49 74 -49 162q0 81 41 149l-84 84l98 98l80 -82q76 50 164 50q85 0 161 -50l80 82l99 -98l-84 -84q41 -68 41 -149zM539 557q73 19 102 92q12 27 12 60q0 25 -6 43
q-9 35 -33.5 62.5t-58.5 41.5q-27 12 -59 12q-35 0 -62 -12q-69 -28 -92 -104q-6 -18 -6 -43q0 -33 12 -60q29 -73 105 -92q18 -6 43 -6q22 0 43 6z" />
    <glyph glyph-name="yen" unicode="&#xa5;" horiz-adv-x="1218" 
d="M1219 1397l-392 -729h207v-140h-209v-155h209v-140h-209v-231h-278v231h-207v140h207v155h-207v140h207l-19 30l-374 699h315l217 -404l217 404h316z" />
    <glyph glyph-name="brokenbar" unicode="&#xa6;" horiz-adv-x="292" 
d="M154 1397h139v-570h-139v570zM154 0v569h139v-569h-139z" />
    <glyph glyph-name="section" unicode="&#xa7;" horiz-adv-x="944" 
d="M874 451q22 -26 33 -45q37 -61 37 -138q0 -111 -78 -189.5t-190 -78.5h-522v207h495q31 0 50.5 20.5t19.5 48.5q0 40 -35 60l-47 26l-352 197q-3 2 -8.5 5t-8.5 5q-49 30 -80 84q-34 55 -34 129q0 106 75 181q-17 15 -41 51q-34 58 -34 129q0 106 75 181t181 75h485v-207
h-467q-24 0 -38.5 -16t-14.5 -39q0 -31 26 -45l99 -56l307 -172q31 -18 49 -35q32 -29 51 -63q37 -61 37 -135q0 -103 -70 -180zM684 698l-238 131h-18q-24 0 -38.5 -16t-14.5 -37q0 -30 26 -47l279 -154q18 7 28.5 24.5t10.5 37.5q0 41 -35 61z" />
    <glyph glyph-name="dieresis" unicode="&#xa8;" horiz-adv-x="649" 
d="M260 1530q-44 0 -75 31t-31 75q0 45 31 77t75 32t76.5 -32.5t32.5 -76.5t-32 -75t-77 -31zM541 1530q-44 0 -75.5 31t-31.5 75t31.5 76.5t75.5 32.5t76 -32.5t32 -76.5t-32 -75t-76 -31z" />
    <glyph glyph-name="copyright" unicode="&#xa9;" horiz-adv-x="1435" 
d="M795 1348q130 0 248.5 -50.5t204.5 -136.5t137 -204t51 -248t-51 -249t-137 -204.5t-204.5 -136.5t-248.5 -51q-174 0 -321.5 86t-233.5 233.5t-86 321.5q0 173 86 320.5t233.5 233t321.5 85.5zM795 207q136 0 251.5 67.5t182.5 183t67 251.5q0 102 -40 194.5t-107 159.5
t-159.5 107t-194.5 40q-136 0 -251.5 -67t-183 -182.5t-67.5 -251.5t67.5 -251.5t183 -183t251.5 -67.5zM827 502q107 0 168 84l107 -82q-46 -64 -118.5 -100.5t-156.5 -36.5q-141 0 -241.5 100t-100.5 242q0 141 100.5 241.5t241.5 100.5q80 0 150 -34.5t117 -92.5
l-107 -84q-62 75 -160 75q-85 0 -145.5 -60.5t-60.5 -145.5q0 -86 60.5 -146.5t145.5 -60.5z" />
    <glyph glyph-name="ordfeminine" unicode="&#xaa;" horiz-adv-x="518" 
d="M446 1364q72 -55 72 -145v-181h-72v37q-48 -39 -110 -39q-75 0 -128.5 54t-53.5 129q0 76 53.5 130t128.5 54q62 0 110 -39zM336 1110q46 0 78 32t32 77q0 46 -32 78t-78 32t-78.5 -32t-32.5 -78q0 -44 32.5 -76.5t78.5 -32.5z" />
    <glyph glyph-name="guillemotleft" unicode="&#xab;" 
d="M717 922l-320 -224l320 -223v-168l-563 391l563 392v-168zM1221 922l-320 -224l320 -223v-168l-564 391l564 392v-168z" />
    <glyph glyph-name="logicalnot" unicode="&#xac;" horiz-adv-x="1042" 
d="M154 696v140h888v-379h-139v239h-749z" />
    <glyph glyph-name="registered" unicode="&#xae;" horiz-adv-x="1435" 
d="M795 1348q174 0 321.5 -86t233.5 -233.5t86 -321.5q0 -173 -86 -320.5t-233.5 -233t-321.5 -85.5q-130 0 -248.5 50.5t-204.5 136.5t-137 204t-51 248t51 249t137 204.5t204.5 136.5t248.5 51zM795 205q136 0 251.5 67.5t182.5 183t67 251.5q0 102 -40 194.5t-107 159.5
t-159.5 107t-194.5 40q-136 0 -251.5 -67t-183 -182.5t-67.5 -251.5t67.5 -251.5t183 -183t251.5 -67.5zM1012 817l-140 -131l183 -317h-156l-127 221l-235 -221v678h385q55 0 94 -39t39 -95q0 -53 -43 -96zM672 682l223 211q2 2 2 8q0 10 -10 10h-215v-229z" />
    <glyph glyph-name="macron" unicode="&#xaf;" horiz-adv-x="491" 
d="M492 1585v-55h-338v55h338z" />
    <glyph glyph-name="degree" unicode="&#xb0;" horiz-adv-x="479" 
d="M315 1855q68 0 116 -48t48 -115t-48 -114.5t-116 -47.5q-67 0 -114 47t-47 115t47 115.5t114 47.5zM315 1585q44 0 76.5 31.5t32.5 75.5t-32.5 76t-76.5 32t-75 -32t-31 -76t31 -75.5t75 -31.5z" />
    <glyph glyph-name="plusminus" unicode="&#xb1;" horiz-adv-x="847" 
d="M848 879v-140h-279v-278h-139v278h-276v140h276v276h139v-276h279zM848 250h-694v139h694v-139z" />
    <glyph glyph-name="twosuperior" unicode="&#xb2;" horiz-adv-x="403" 
d="M399 1305q4 -20 4 -31q0 -29 -12 -53q-14 -27 -33 -41l-77 -66h122v-72h-249v58l161 135q17 17 17 39q0 23 -15.5 39t-37.5 16q-21 0 -37 -14t-19 -35v-6h-69q0 52 36 88.5t89 36.5q42 0 75.5 -27t44.5 -67z" />
    <glyph glyph-name="threesuperior" unicode="&#xb3;" horiz-adv-x="405" 
d="M391 1221h2q13 -35 13 -56q0 -51 -37.5 -88t-89.5 -37q-51 0 -88 37t-37 88h71v-4q1 -21 17 -35t37 -14q23 0 39 15.5t16 37.5t-13.5 37.5t-33.5 18.5h-92l67 106h-98v70h225l-72 -113q53 -16 74 -63z" />
    <glyph glyph-name="acute" unicode="&#xb4;" horiz-adv-x="487" 
d="M428 1833l59 -68l-299 -235l-34 41z" />
    <glyph glyph-name="mu" unicode="&#xb5;" 
d="M432 535q0 -106 76 -179q72 -75 180 -75q105 0 180 75q74 74 74 179v864h279v-864q0 -221 -156 -377t-377 -156q-143 0 -256 64v-373h-278v1706h278v-864z" />
    <glyph glyph-name="paragraph" unicode="&#xb6;" horiz-adv-x="1083" 
d="M1083 1397v-140h-104v-1257h-139v1257h-103v-1257h-139v764h-127q-131 0 -224 92.5t-93 224.5q0 130 93 223t224 93h612z" />
    <glyph glyph-name="periodcentered" unicode="&#xb7;" horiz-adv-x="432" 
d="M432 698q0 -58 -41 -98.5t-98 -40.5t-98 40.5t-41 98.5q0 57 41 98.5t98 41.5t98 -41.5t41 -98.5z" />
    <glyph glyph-name="periodcentered" unicode="&#x2219;" horiz-adv-x="432" 
d="M432 698q0 -58 -41 -98.5t-98 -40.5t-98 40.5t-41 98.5q0 57 41 98.5t98 41.5t98 -41.5t41 -98.5z" />
    <glyph glyph-name="cedilla" unicode="&#xb8;" horiz-adv-x="456" 
d="M317 -109h43q40 0 68.5 -28.5t28.5 -69.5q0 -40 -28.5 -68t-68.5 -28h-206v55h206q17 0 29 12t12 29q0 19 -12 31t-29 12h-98v264h55v-209z" />
    <glyph glyph-name="onesuperior" unicode="&#xb9;" horiz-adv-x="223" 
d="M223 1042h-69v355h69v-355z" />
    <glyph glyph-name="ordmasculine" unicode="&#xba;" horiz-adv-x="514" 
d="M406 1384l30 -18q76 -52 76 -141v-6q0 -73 -53 -126t-127 -53q-38 3 -70 17q-13 5 -31 16q-34 24 -54.5 62t-20.5 82v6q0 73 53 124.5t127 51.5q27 0 70 -15zM225 1221q0 -53 41 -86l105 186q-18 6 -37 6h-4q-43 0 -74 -31.5t-31 -74.5zM332 1112q45 0 76.5 31t33.5 76
q0 53 -41 86l-104 -187q18 -6 35 -6z" />
    <glyph glyph-name="guillemotright" unicode="&#xbb;" 
d="M657 475l320 223l-320 224v168l564 -392l-564 -391v168zM154 475l319 223l-319 224v168l563 -392l-563 -391v168z" />
    <glyph glyph-name="onequarter" unicode="&#xbc;" horiz-adv-x="1255" 
d="M934 1399h186l-782 -1399h-184zM438 1397v-635h-125v635h125zM1196 256h59v-127h-59v-129h-127v129h-326l111 504h129l-82 -377h168v379h127v-379z" />
    <glyph glyph-name="onehalf" unicode="&#xbd;" horiz-adv-x="1191" 
d="M936 1399h186l-782 -1399h-186zM440 762h-127v635h127v-635zM1184 469q8 -32 8 -53q0 -48 -23 -99q-22 -46 -57 -71l-139 -119h219v-127h-449v100l291 244q31 28 31 72q0 40 -28.5 68t-69.5 28q-37 0 -65.5 -25.5t-31.5 -62.5v-8h-127q0 92 66 157.5t158 65.5
q77 0 137.5 -48t79.5 -122z" />
    <glyph glyph-name="threequarters" unicode="&#xbe;" horiz-adv-x="1310" 
d="M993 1399h187l-781 -1399h-186zM1249 256h62v-127h-62v-129h-127v129h-323l110 504h129l-82 -377h166v379h127v-379zM377 887q41 0 69.5 28t28.5 68q0 37 -25 65t-61 31q-4 2 -12 2h-154l121 191h-174v125h405l-129 -201q89 -27 134 -115v-2q22 -46 22 -96
q0 -92 -65.5 -157.5t-159.5 -65.5q-92 0 -157.5 65.5t-65.5 157.5h127v-8q3 -38 31 -63t65 -25z" />
    <glyph glyph-name="questiondown" unicode="&#xbf;" horiz-adv-x="1091" 
d="M1092 -559h-594q-142 0 -243 101.5t-101 242.5q0 91 47 174q46 78 129 127l219 121v274h278v-436l-340 -190q-36 -20 -36 -62q0 -29 20.5 -51.5t52.5 -22.5h568v-278zM688 561q-58 0 -98.5 40.5t-40.5 98.5q0 57 40.5 98.5t98.5 41.5q57 0 98 -41.5t41 -98.5
q0 -58 -41 -98.5t-98 -40.5z" />
    <glyph glyph-name="Agrave" unicode="&#xc0;" horiz-adv-x="1277" 
d="M715 1399l583 -1399h-301l-282 676l-281 -676h-301zM551 1833l274 -262l-37 -41l-296 235z" />
    <glyph glyph-name="Aacute" unicode="&#xc1;" horiz-adv-x="1277" 
d="M715 1399l583 -1399h-301l-282 676l-281 -676h-301zM879 1833l59 -68l-299 -235l-35 41z" />
    <glyph glyph-name="Acircumflex" unicode="&#xc2;" horiz-adv-x="1277" 
d="M715 1399l583 -1399h-301l-282 676l-281 -676h-301zM715 1825l65 -64l199 -190l-37 -41l-227 180l-230 -180l-36 41l200 190z" />
    <glyph glyph-name="Atilde" unicode="&#xc3;" horiz-adv-x="1277" 
d="M715 1399l583 -1399h-301l-282 676l-281 -676h-301zM887 1567q-36 -39 -94 -39q-15 0 -43 8q-22 7 -80 49q-33 23 -62 23q-35 0 -96 -35q10 40 46.5 66t80.5 26q34 0 59 -14q11 -5 51 -34t68 -30h6q37 0 95 35q-5 -25 -31 -55z" />
    <glyph glyph-name="Adieresis" unicode="&#xc4;" horiz-adv-x="1277" 
d="M715 1399l583 -1399h-301l-282 676l-281 -676h-301zM573 1530q-44 0 -75 31t-31 75q0 45 31 77t75 32t76.5 -32.5t32.5 -76.5t-32 -75t-77 -31zM854 1530q-44 0 -75 31t-31 75q0 45 31 77t75 32t76.5 -32.5t32.5 -76.5t-32 -75t-77 -31z" />
    <glyph glyph-name="Aring" unicode="&#xc5;" horiz-adv-x="1277" 
d="M715 1399l583 -1399h-301l-282 676l-281 -676h-301zM715 1855q68 0 116 -48t48 -115t-48 -114.5t-116 -47.5q-67 0 -114.5 47t-47.5 115t47.5 115.5t114.5 47.5zM715 1585q44 0 76 31.5t32 75.5t-32 76t-76 32t-75.5 -32t-31.5 -76t31.5 -75.5t75.5 -31.5z" />
    <glyph glyph-name="AE" unicode="&#xc6;" horiz-adv-x="1523" 
d="M991 905h533v-278h-533v-348h533v-279h-760v795l-330 -795h-301l582 1399h809v-279h-533v-215z" />
    <glyph glyph-name="Ccedilla" unicode="&#xc7;" horiz-adv-x="1423" 
d="M831 -2q-273 9 -471 207q-206 206 -206 497q0 292 206 498q207 207 498 207q167 0 307 -70q139 -69 240 -192l-219 -170q-132 153 -328 153q-177 0 -301 -124q-125 -125 -125 -302q0 -176 125 -301t301 -125q212 0 344 175l221 -170q-97 -130 -243 -207
q-134 -70 -293 -76v-107h43q39 0 67 -28q29 -29 29 -70q0 -38 -29 -67t-67 -29h-207v55h207q16 0 28 12q13 13 13 29q0 18 -13 31q-12 12 -28 12h-99v162z" />
    <glyph glyph-name="Egrave" unicode="&#xc8;" horiz-adv-x="1067" 
d="M154 1399h913v-279h-913v279zM154 905h913v-278h-635v-348h635v-279h-913v905zM446 1833l275 -262l-37 -41l-297 235z" />
    <glyph glyph-name="Eacute" unicode="&#xc9;" horiz-adv-x="1067" 
d="M154 1399h913v-279h-913v279zM154 905h913v-278h-635v-348h635v-279h-913v905zM774 1833l60 -68l-299 -235l-35 41z" />
    <glyph glyph-name="Ecircumflex" unicode="&#xca;" horiz-adv-x="1067" 
d="M154 1399h913v-279h-913v279zM154 905h913v-278h-635v-348h635v-279h-913v905zM610 1825l66 -64l198 -190l-36 -41l-228 180l-229 -180l-37 41l201 190z" />
    <glyph glyph-name="Edieresis" unicode="&#xcb;" horiz-adv-x="1067" 
d="M154 1399h913v-279h-913v279zM154 905h913v-278h-635v-348h635v-279h-913v905zM469 1530q-44 0 -75.5 31t-31.5 75t31.5 76.5t75.5 32.5t76.5 -32.5t32.5 -76.5t-32 -75t-77 -31zM750 1530q-44 0 -75.5 31t-31.5 75t31.5 76.5t75.5 32.5t76 -32.5t32 -76.5t-32 -75
t-76 -31z" />
    <glyph glyph-name="Igrave" unicode="&#xcc;" horiz-adv-x="432" 
d="M432 0h-278v1397h278v-1397zM129 1833l274 -262l-36 -41l-297 235z" />
    <glyph glyph-name="Iacute" unicode="&#xcd;" horiz-adv-x="432" 
d="M432 0h-278v1397h278v-1397zM457 1833l59 -68l-299 -235l-35 41z" />
    <glyph glyph-name="Icircumflex" unicode="&#xce;" horiz-adv-x="432" 
d="M432 0h-278v1397h278v-1397zM293 1825l65 -64l199 -190l-37 -41l-227 180l-230 -180l-36 41l200 190z" />
    <glyph glyph-name="Idieresis" unicode="&#xcf;" horiz-adv-x="432" 
d="M432 0h-278v1397h278v-1397zM152 1530q-44 0 -75.5 31t-31.5 75t31.5 76.5t75.5 32.5t76 -32.5t32 -76.5t-32 -75t-76 -31zM432 1530q-44 0 -75 31t-31 75q0 45 31 77t75 32t76.5 -32.5t32.5 -76.5t-32 -75t-77 -31z" />
    <glyph glyph-name="Eth" unicode="&#xd0;" horiz-adv-x="1310" 
d="M432 645v-366h174q177 0 301 124q125 122 125 299q0 178 -125 297q-127 121 -301 121h-174v-368h369v-107h-369zM154 752v645h452q42 0 60 -2q275 -27 460 -221t185 -472q0 -285 -197 -485t-487 -215v-2h-473v645h-306v107h306z" />
    <glyph glyph-name="Ntilde" unicode="&#xd1;" 
d="M942 1397h279v-1397l-789 748v-748h-278v1397l788 -750v750zM858 1567q-36 -39 -94 -39q-15 0 -43 8q-22 7 -80 49q-33 23 -61 23q-36 0 -97 -35q10 40 46.5 66t80.5 26q35 0 60 -14q11 -5 50.5 -34t67.5 -30h7q36 0 94 35q-5 -25 -31 -55z" />
    <glyph glyph-name="Ograve" unicode="&#xd2;" horiz-adv-x="1562" 
d="M858 -6q-143 0 -273.5 55.5t-225 150t-150 225t-55.5 273.5t55.5 273t150 225t225 151t273.5 56q191 0 353.5 -95t257 -257.5t94.5 -352.5q0 -143 -56 -273.5t-150.5 -225t-225 -150t-273.5 -55.5zM858 1124q-177 0 -301.5 -124.5t-124.5 -301.5t124.5 -301.5
t301.5 -124.5t301.5 124.5t124.5 301.5t-124.5 301.5t-301.5 124.5zM694 1833l275 -262l-37 -41l-297 235z" />
    <glyph glyph-name="Oacute" unicode="&#xd3;" horiz-adv-x="1562" 
d="M858 -6q-143 0 -273.5 55.5t-225 150t-150 225t-55.5 273.5t55.5 273t150 225t225 151t273.5 56q191 0 353.5 -95t257 -257.5t94.5 -352.5q0 -143 -56 -273.5t-150.5 -225t-225 -150t-273.5 -55.5zM858 1124q-177 0 -301.5 -124.5t-124.5 -301.5t124.5 -301.5
t301.5 -124.5t301.5 124.5t124.5 301.5t-124.5 301.5t-301.5 124.5zM1022 1833l59 -68l-299 -235l-34 41z" />
    <glyph glyph-name="Ocircumflex" unicode="&#xd4;" horiz-adv-x="1562" 
d="M858 -6q-143 0 -273.5 55.5t-225 150t-150 225t-55.5 273.5t55.5 273t150 225t225 151t273.5 56q191 0 353.5 -95t257 -257.5t94.5 -352.5q0 -143 -56 -273.5t-150.5 -225t-225 -150t-273.5 -55.5zM858 1124q-177 0 -301.5 -124.5t-124.5 -301.5t124.5 -301.5
t301.5 -124.5t301.5 124.5t124.5 301.5t-124.5 301.5t-301.5 124.5zM858 1825l66 -64l198 -190l-37 -41l-227 180l-229 -180l-37 41l201 190z" />
    <glyph glyph-name="Otilde" unicode="&#xd5;" horiz-adv-x="1562" 
d="M858 -6q-143 0 -273.5 55.5t-225 150t-150 225t-55.5 273.5t55.5 273t150 225t225 151t273.5 56q191 0 353.5 -95t257 -257.5t94.5 -352.5q0 -143 -56 -273.5t-150.5 -225t-225 -150t-273.5 -55.5zM858 1124q-177 0 -301.5 -124.5t-124.5 -301.5t124.5 -301.5
t301.5 -124.5t301.5 124.5t124.5 301.5t-124.5 301.5t-301.5 124.5zM1030 1567q-36 -39 -94 -39q-15 0 -43 8q-22 7 -80 49q-33 23 -61 23q-36 0 -97 -35q10 40 46.5 66t80.5 26q35 0 60 -14q11 -5 51 -34t68 -30h6q36 0 94 35q-5 -25 -31 -55z" />
    <glyph glyph-name="Odieresis" unicode="&#xd6;" horiz-adv-x="1562" 
d="M858 -6q-143 0 -273.5 55.5t-225 150t-150 225t-55.5 273.5t55.5 273t150 225t225 151t273.5 56q191 0 353.5 -95t257 -257.5t94.5 -352.5q0 -143 -56 -273.5t-150.5 -225t-225 -150t-273.5 -55.5zM858 1124q-177 0 -301.5 -124.5t-124.5 -301.5t124.5 -301.5
t301.5 -124.5t301.5 124.5t124.5 301.5t-124.5 301.5t-301.5 124.5zM717 1530q-44 0 -75.5 31t-31.5 75t31.5 76.5t75.5 32.5t76 -32.5t32 -76.5t-32 -75t-76 -31zM997 1530q-44 0 -75 31t-31 75q0 45 31 77t75 32t76.5 -32.5t32.5 -76.5t-32 -75t-77 -31z" />
    <glyph glyph-name="multiply" unicode="&#xd7;" horiz-adv-x="743" 
d="M743 895l-196 -197l196 -196l-98 -99l-196 197l-197 -197l-98 99l196 196l-196 197l98 98l197 -196l196 196z" />
    <glyph glyph-name="Oslash" unicode="&#xd8;" horiz-adv-x="1562" 
d="M997 1565v-174q244 -50 405 -244.5t161 -448.5q0 -125 -43.5 -241.5t-118.5 -206.5t-179.5 -153.5t-224.5 -88.5v-174h-278v174q-244 50 -404.5 243.5t-160.5 446.5q0 254 160.5 448.5t404.5 244.5v174h278zM997 297q126 43 206.5 154t80.5 247q0 138 -80.5 249.5
t-206.5 154.5q-65 24 -139 24t-139 -24q-127 -43 -207 -154.5t-80 -249.5q0 -137 80 -247.5t207 -153.5q67 -25 139 -25t139 25z" />
    <glyph glyph-name="Ugrave" unicode="&#xd9;" 
d="M942 1399h279v-864q0 -109 -42 -207.5t-113.5 -170t-170 -113.5t-207.5 -42q-145 0 -268 71t-194.5 194t-71.5 268v864h278v-864q0 -106 75 -180t181 -74t180 74t74 180v864zM524 1833l275 -262l-37 -41l-297 235z" />
    <glyph glyph-name="Uacute" unicode="&#xda;" 
d="M942 1399h279v-864q0 -109 -42 -207.5t-113.5 -170t-170 -113.5t-207.5 -42q-145 0 -268 71t-194.5 194t-71.5 268v864h278v-864q0 -106 75 -180t181 -74t180 74t74 180v864zM852 1833l59 -68l-299 -235l-34 41z" />
    <glyph glyph-name="Ucircumflex" unicode="&#xdb;" 
d="M942 1399h279v-864q0 -109 -42 -207.5t-113.5 -170t-170 -113.5t-207.5 -42q-145 0 -268 71t-194.5 194t-71.5 268v864h278v-864q0 -106 75 -180t181 -74t180 74t74 180v864zM688 1825l66 -64l198 -190l-37 -41l-227 180l-229 -180l-37 41l201 190z" />
    <glyph glyph-name="Udieresis" unicode="&#xdc;" 
d="M942 1399h279v-864q0 -109 -42 -207.5t-113.5 -170t-170 -113.5t-207.5 -42q-145 0 -268 71t-194.5 194t-71.5 268v864h278v-864q0 -106 75 -180t181 -74t180 74t74 180v864zM547 1530q-44 0 -75.5 31t-31.5 75t31.5 76.5t75.5 32.5t76 -32.5t32 -76.5t-32 -75t-76 -31z
M827 1530q-44 0 -75 31t-31 75q0 45 31 77t75 32t76.5 -32.5t32.5 -76.5t-32 -75t-77 -31z" />
    <glyph glyph-name="Yacute" unicode="&#xdd;" horiz-adv-x="1179" 
d="M1200 1397l-375 -699l-18 -34v-664h-279v664l-18 34l-377 699h318l217 -404l217 404h315zM831 1833l60 -68l-299 -235l-35 41z" />
    <glyph glyph-name="Thorn" unicode="&#xde;" 
d="M432 1399l402 -2q159 0 272 -113q115 -115 115 -272q0 -153 -101 -260q-104 -110 -256 -125h-432v-627h-278v905h680q44 0 75 31q33 29 33 76q0 42 -31 78q-35 30 -77 30h-680v516h278v-237z" />
    <glyph glyph-name="germandbls" unicode="&#xdf;" 
d="M895 698l240 -227q86 -80 86 -197q0 -112 -80 -192q-77 -80 -193 -80h-366v277h295q10 0 16 7t6 17t-6 16l-199 187l-202 192l401 381q6 6 6 17q0 10 -6 17t-16 7h-342q-43 0 -73 -30t-30 -72v-1016h-278v1079q0 131 92.5 223.5t222.5 92.5h479q116 0 193 -80
q80 -80 80 -193q0 -116 -86 -196z" />
    <glyph glyph-name="agrave" unicode="&#xe0;" horiz-adv-x="1277" 
d="M715 1399l583 -1399h-301l-282 676l-281 -676h-301zM551 1833l274 -262l-37 -41l-296 235z" />
    <glyph glyph-name="aacute" unicode="&#xe1;" horiz-adv-x="1277" 
d="M715 1399l583 -1399h-301l-282 676l-281 -676h-301zM879 1833l59 -68l-299 -235l-35 41z" />
    <glyph glyph-name="acircumflex" unicode="&#xe2;" horiz-adv-x="1277" 
d="M715 1399l583 -1399h-301l-282 676l-281 -676h-301zM715 1825l65 -64l199 -190l-37 -41l-227 180l-230 -180l-36 41l200 190z" />
    <glyph glyph-name="atilde" unicode="&#xe3;" horiz-adv-x="1277" 
d="M715 1399l583 -1399h-301l-282 676l-281 -676h-301zM887 1567q-36 -39 -94 -39q-15 0 -43 8q-22 7 -80 49q-33 23 -62 23q-35 0 -96 -35q10 40 46.5 66t80.5 26q34 0 59 -14q11 -5 51 -34t68 -30h6q37 0 95 35q-5 -25 -31 -55z" />
    <glyph glyph-name="adieresis" unicode="&#xe4;" horiz-adv-x="1277" 
d="M715 1399l583 -1399h-301l-282 676l-281 -676h-301zM573 1530q-44 0 -75 31t-31 75q0 45 31 77t75 32t76.5 -32.5t32.5 -76.5t-32 -75t-77 -31zM854 1530q-44 0 -75 31t-31 75q0 45 31 77t75 32t76.5 -32.5t32.5 -76.5t-32 -75t-77 -31z" />
    <glyph glyph-name="aring" unicode="&#xe5;" horiz-adv-x="1277" 
d="M715 1399l583 -1399h-301l-282 676l-281 -676h-301zM715 1855q68 0 116 -48t48 -115t-48 -114.5t-116 -47.5q-67 0 -114.5 47t-47.5 115t47.5 115.5t114.5 47.5zM715 1585q44 0 76 31.5t32 75.5t-32 76t-76 32t-75.5 -32t-31.5 -76t31.5 -75.5t75.5 -31.5z" />
    <glyph glyph-name="ae" unicode="&#xe6;" horiz-adv-x="1523" 
d="M991 905h533v-278h-533v-348h533v-279h-760v795l-330 -795h-301l582 1399h809v-279h-533v-215z" />
    <glyph glyph-name="ccedilla" unicode="&#xe7;" horiz-adv-x="1423" 
d="M831 -2q-273 9 -471 207q-206 206 -206 497q0 292 206 498q207 207 498 207q167 0 307 -70q139 -69 240 -192l-219 -170q-132 153 -328 153q-177 0 -301 -124q-125 -125 -125 -302q0 -176 125 -301t301 -125q212 0 344 175l221 -170q-97 -130 -243 -207
q-134 -70 -293 -76v-107h43q39 0 67 -28q29 -29 29 -70q0 -38 -29 -67t-67 -29h-207v55h207q16 0 28 12q13 13 13 29q0 18 -13 31q-12 12 -28 12h-99v162z" />
    <glyph glyph-name="egrave" unicode="&#xe8;" horiz-adv-x="1067" 
d="M154 1399h913v-279h-913v279zM154 905h913v-278h-635v-348h635v-279h-913v905zM446 1833l275 -262l-37 -41l-297 235z" />
    <glyph glyph-name="eacute" unicode="&#xe9;" horiz-adv-x="1067" 
d="M154 1399h913v-279h-913v279zM154 905h913v-278h-635v-348h635v-279h-913v905zM774 1833l60 -68l-299 -235l-35 41z" />
    <glyph glyph-name="ecircumflex" unicode="&#xea;" horiz-adv-x="1067" 
d="M154 1399h913v-279h-913v279zM154 905h913v-278h-635v-348h635v-279h-913v905zM610 1825l66 -64l198 -190l-36 -41l-228 180l-229 -180l-37 41l201 190z" />
    <glyph glyph-name="edieresis" unicode="&#xeb;" horiz-adv-x="1067" 
d="M154 1399h913v-279h-913v279zM154 905h913v-278h-635v-348h635v-279h-913v905zM469 1530q-44 0 -75.5 31t-31.5 75t31.5 76.5t75.5 32.5t76.5 -32.5t32.5 -76.5t-32 -75t-77 -31zM750 1530q-44 0 -75.5 31t-31.5 75t31.5 76.5t75.5 32.5t76 -32.5t32 -76.5t-32 -75
t-76 -31z" />
    <glyph glyph-name="igrave" unicode="&#xec;" horiz-adv-x="432" 
d="M432 0h-278v1397h278v-1397zM129 1833l274 -262l-36 -41l-297 235z" />
    <glyph glyph-name="iacute" unicode="&#xed;" horiz-adv-x="432" 
d="M432 0h-278v1397h278v-1397zM457 1833l59 -68l-299 -235l-35 41z" />
    <glyph glyph-name="icircumflex" unicode="&#xee;" horiz-adv-x="432" 
d="M432 0h-278v1397h278v-1397zM293 1825l65 -64l199 -190l-37 -41l-227 180l-230 -180l-36 41l200 190z" />
    <glyph glyph-name="idieresis" unicode="&#xef;" horiz-adv-x="432" 
d="M432 0h-278v1397h278v-1397zM152 1530q-44 0 -75.5 31t-31.5 75t31.5 76.5t75.5 32.5t76 -32.5t32 -76.5t-32 -75t-76 -31zM432 1530q-44 0 -75 31t-31 75q0 45 31 77t75 32t76.5 -32.5t32.5 -76.5t-32 -75t-77 -31z" />
    <glyph glyph-name="eth" unicode="&#xf0;" horiz-adv-x="1310" 
d="M432 645v-366h174q177 0 301 124q125 122 125 299q0 178 -125 297q-127 121 -301 121h-174v-368h369v-107h-369zM154 752v645h452q42 0 60 -2q275 -27 460 -221t185 -472q0 -285 -197 -485t-487 -215v-2h-473v645h-306v107h306z" />
    <glyph glyph-name="ntilde" unicode="&#xf1;" 
d="M942 1397h279v-1397l-789 748v-748h-278v1397l788 -750v750zM858 1567q-36 -39 -94 -39q-15 0 -43 8q-22 7 -80 49q-33 23 -61 23q-36 0 -97 -35q10 40 46.5 66t80.5 26q35 0 60 -14q11 -5 50.5 -34t67.5 -30h7q36 0 94 35q-5 -25 -31 -55z" />
    <glyph glyph-name="ograve" unicode="&#xf2;" horiz-adv-x="1562" 
d="M858 -6q-143 0 -273.5 55.5t-225 150t-150 225t-55.5 273.5t55.5 273t150 225t225 151t273.5 56q191 0 353.5 -95t257 -257.5t94.5 -352.5q0 -143 -56 -273.5t-150.5 -225t-225 -150t-273.5 -55.5zM858 1124q-177 0 -301.5 -124.5t-124.5 -301.5t124.5 -301.5
t301.5 -124.5t301.5 124.5t124.5 301.5t-124.5 301.5t-301.5 124.5zM694 1833l275 -262l-37 -41l-297 235z" />
    <glyph glyph-name="oacute" unicode="&#xf3;" horiz-adv-x="1562" 
d="M858 -6q-143 0 -273.5 55.5t-225 150t-150 225t-55.5 273.5t55.5 273t150 225t225 151t273.5 56q191 0 353.5 -95t257 -257.5t94.5 -352.5q0 -143 -56 -273.5t-150.5 -225t-225 -150t-273.5 -55.5zM858 1124q-177 0 -301.5 -124.5t-124.5 -301.5t124.5 -301.5
t301.5 -124.5t301.5 124.5t124.5 301.5t-124.5 301.5t-301.5 124.5zM1022 1833l59 -68l-299 -235l-34 41z" />
    <glyph glyph-name="ocircumflex" unicode="&#xf4;" horiz-adv-x="1562" 
d="M858 -6q-143 0 -273.5 55.5t-225 150t-150 225t-55.5 273.5t55.5 273t150 225t225 151t273.5 56q191 0 353.5 -95t257 -257.5t94.5 -352.5q0 -143 -56 -273.5t-150.5 -225t-225 -150t-273.5 -55.5zM858 1124q-177 0 -301.5 -124.5t-124.5 -301.5t124.5 -301.5
t301.5 -124.5t301.5 124.5t124.5 301.5t-124.5 301.5t-301.5 124.5zM858 1825l66 -64l198 -190l-37 -41l-227 180l-229 -180l-37 41l201 190z" />
    <glyph glyph-name="otilde" unicode="&#xf5;" horiz-adv-x="1562" 
d="M858 -6q-143 0 -273.5 55.5t-225 150t-150 225t-55.5 273.5t55.5 273t150 225t225 151t273.5 56q191 0 353.5 -95t257 -257.5t94.5 -352.5q0 -143 -56 -273.5t-150.5 -225t-225 -150t-273.5 -55.5zM858 1124q-177 0 -301.5 -124.5t-124.5 -301.5t124.5 -301.5
t301.5 -124.5t301.5 124.5t124.5 301.5t-124.5 301.5t-301.5 124.5zM1030 1567q-36 -39 -94 -39q-15 0 -43 8q-22 7 -80 49q-33 23 -61 23q-36 0 -97 -35q10 40 46.5 66t80.5 26q35 0 60 -14q11 -5 51 -34t68 -30h6q36 0 94 35q-5 -25 -31 -55z" />
    <glyph glyph-name="odieresis" unicode="&#xf6;" horiz-adv-x="1562" 
d="M858 -6q-143 0 -273.5 55.5t-225 150t-150 225t-55.5 273.5t55.5 273t150 225t225 151t273.5 56q191 0 353.5 -95t257 -257.5t94.5 -352.5q0 -143 -56 -273.5t-150.5 -225t-225 -150t-273.5 -55.5zM858 1124q-177 0 -301.5 -124.5t-124.5 -301.5t124.5 -301.5
t301.5 -124.5t301.5 124.5t124.5 301.5t-124.5 301.5t-301.5 124.5zM717 1530q-44 0 -75.5 31t-31.5 75t31.5 76.5t75.5 32.5t76 -32.5t32 -76.5t-32 -75t-76 -31zM997 1530q-44 0 -75 31t-31 75q0 45 31 77t75 32t76.5 -32.5t32.5 -76.5t-32 -75t-77 -31z" />
    <glyph glyph-name="divide" unicode="&#xf7;" horiz-adv-x="847" 
d="M848 629h-694v139h694v-139zM639 981q0 -57 -40.5 -98t-98.5 -41q-57 0 -97.5 41t-40.5 98q0 58 40.5 98.5t97.5 40.5q58 0 98.5 -40t40.5 -99zM639 414q0 -57 -40.5 -97.5t-98.5 -40.5q-57 0 -97.5 40.5t-40.5 97.5q0 58 40.5 98.5t97.5 40.5q58 0 98.5 -40.5
t40.5 -98.5z" />
    <glyph glyph-name="oslash" unicode="&#xf8;" horiz-adv-x="1562" 
d="M997 1565v-174q244 -50 405 -244.5t161 -448.5q0 -125 -43.5 -241.5t-118.5 -206.5t-179.5 -153.5t-224.5 -88.5v-174h-278v174q-244 50 -404.5 243.5t-160.5 446.5q0 254 160.5 448.5t404.5 244.5v174h278zM997 297q126 43 206.5 154t80.5 247q0 138 -80.5 249.5
t-206.5 154.5q-65 24 -139 24t-139 -24q-127 -43 -207 -154.5t-80 -249.5q0 -137 80 -247.5t207 -153.5q67 -25 139 -25t139 25z" />
    <glyph glyph-name="ugrave" unicode="&#xf9;" 
d="M942 1399h279v-864q0 -109 -42 -207.5t-113.5 -170t-170 -113.5t-207.5 -42q-145 0 -268 71t-194.5 194t-71.5 268v864h278v-864q0 -106 75 -180t181 -74t180 74t74 180v864zM524 1833l275 -262l-37 -41l-297 235z" />
    <glyph glyph-name="uacute" unicode="&#xfa;" 
d="M942 1399h279v-864q0 -109 -42 -207.5t-113.5 -170t-170 -113.5t-207.5 -42q-145 0 -268 71t-194.5 194t-71.5 268v864h278v-864q0 -106 75 -180t181 -74t180 74t74 180v864zM852 1833l59 -68l-299 -235l-34 41z" />
    <glyph glyph-name="ucircumflex" unicode="&#xfb;" 
d="M942 1399h279v-864q0 -109 -42 -207.5t-113.5 -170t-170 -113.5t-207.5 -42q-145 0 -268 71t-194.5 194t-71.5 268v864h278v-864q0 -106 75 -180t181 -74t180 74t74 180v864zM688 1825l66 -64l198 -190l-37 -41l-227 180l-229 -180l-37 41l201 190z" />
    <glyph glyph-name="udieresis" unicode="&#xfc;" 
d="M942 1399h279v-864q0 -109 -42 -207.5t-113.5 -170t-170 -113.5t-207.5 -42q-145 0 -268 71t-194.5 194t-71.5 268v864h278v-864q0 -106 75 -180t181 -74t180 74t74 180v864zM547 1530q-44 0 -75.5 31t-31.5 75t31.5 76.5t75.5 32.5t76 -32.5t32 -76.5t-32 -75t-76 -31z
M827 1530q-44 0 -75 31t-31 75q0 45 31 77t75 32t76.5 -32.5t32.5 -76.5t-32 -75t-77 -31z" />
    <glyph glyph-name="yacute" unicode="&#xfd;" horiz-adv-x="1179" 
d="M1200 1397l-375 -699l-18 -34v-664h-279v664l-18 34l-377 699h318l217 -404l217 404h315zM831 1833l60 -68l-299 -235l-35 41z" />
    <glyph glyph-name="thorn" unicode="&#xfe;" 
d="M432 1399l402 -2q159 0 272 -113q115 -115 115 -272q0 -153 -101 -260q-104 -110 -256 -125h-432v-627h-278v905h680q44 0 75 31q33 29 33 76q0 42 -31 78q-35 30 -77 30h-680v516h278v-237z" />
    <glyph glyph-name="ydieresis" unicode="&#xff;" horiz-adv-x="1179" 
d="M1200 1397l-375 -699l-18 -34v-664h-279v664l-18 34l-377 699h318l217 -404l217 404h315zM526 1534q-44 0 -75 31t-31 75q0 45 31 77t75 32t76.5 -32.5t32.5 -76.5t-32 -75t-77 -31zM807 1534q-44 0 -75.5 31t-31.5 75t31.5 76.5t75.5 32.5t76 -32.5t32 -76.5t-32 -75
t-76 -31z" />
    <glyph glyph-name="idotless" unicode="&#x131;" horiz-adv-x="432" 
d="M432 0h-278v1397h278v-1397z" />
    <glyph glyph-name="OE" unicode="&#x152;" horiz-adv-x="2019" 
d="M1188 279h633v-279h-865q-50 -6 -98 -6q-291 0 -498 207q-206 206 -206 497q0 292 206 498q207 207 498 207q26 0 80 -4h883v-279h-633q-88 1 -168 2t-118.5 1.5t-43.5 0.5q-176 0 -301 -125t-125 -301t125 -301t301 -125q33 0 49 2v631h914v-278h-635z" />
    <glyph glyph-name="oe" unicode="&#x153;" horiz-adv-x="2019" 
d="M1188 279h633v-279h-865q-50 -6 -98 -6q-291 0 -498 207q-206 206 -206 497q0 292 206 498q207 207 498 207q26 0 80 -4h883v-279h-633q-88 1 -168 2t-118.5 1.5t-43.5 0.5q-176 0 -301 -125t-125 -301t125 -301t301 -125q33 0 49 2v631h914v-278h-635z" />
    <glyph glyph-name="Scaron" unicode="&#x160;" 
d="M1153 1399v-279h-631q-32 0 -51.5 -22t-19.5 -51q0 -43 36 -62l547 -307q86 -47 136.5 -132.5t50.5 -183.5q0 -149 -106.5 -254.5t-256.5 -105.5h-704v277h669q41 0 66.5 28.5t25.5 65.5q0 54 -47 80l-538 301q-82 46 -129 126.5t-47 174.5q0 143 101 243.5t243 100.5
h655zM688 1530l-65 61l-201 191l37 43l229 -183l227 183l37 -43l-198 -191z" />
    <glyph glyph-name="scaron" unicode="&#x161;" 
d="M1153 1399v-279h-631q-32 0 -51.5 -22t-19.5 -51q0 -43 36 -62l547 -307q86 -47 136.5 -132.5t50.5 -183.5q0 -149 -106.5 -254.5t-256.5 -105.5h-704v277h669q41 0 66.5 28.5t25.5 65.5q0 54 -47 80l-538 301q-82 46 -129 126.5t-47 174.5q0 143 101 243.5t243 100.5
h655zM688 1530l-65 61l-201 191l37 43l229 -183l227 183l37 -43l-198 -191z" />
    <glyph glyph-name="Ydieresis" unicode="&#x178;" horiz-adv-x="1179" 
d="M1200 1397l-375 -699l-18 -34v-664h-279v664l-18 34l-377 699h318l217 -404l217 404h315zM526 1530q-44 0 -75 31t-31 75q0 45 31 77t75 32t76.5 -32.5t32.5 -76.5t-32 -75t-77 -31zM807 1530q-44 0 -75.5 31t-31.5 75t31.5 76.5t75.5 32.5t76 -32.5t32 -76.5t-32 -75
t-76 -31z" />
    <glyph glyph-name="zcaron" unicode="&#x17e;" 
d="M618 281h603v-279h-1067l602 1118h-602v279h1067zM688 1536l-65 61l-201 191l37 43l229 -182l227 182l37 -43l-198 -191z" />
    <glyph glyph-name="gravecomb" unicode="&#x300;" horiz-adv-x="487" 
d="M213 1833l274 -262l-36 -41l-297 235z" />
    <glyph glyph-name="acutecomb" unicode="&#x301;" horiz-adv-x="487" 
d="M428 1833l59 -68l-299 -235l-34 41z" />
    <glyph glyph-name="circumflexcomb" unicode="&#x302;" horiz-adv-x="684" 
d="M420 1825l65 -64l199 -190l-37 -41l-227 180l-230 -180l-36 41l200 190z" />
    <glyph glyph-name="tildecomb" unicode="&#x303;" horiz-adv-x="559" 
d="M528 1567q-36 -39 -94 -39q-15 0 -43 8q-22 7 -80 49q-33 23 -61 23q-35 0 -96 -35q10 40 46.5 66t80.5 26q34 0 59 -14q11 -5 51 -34t68 -30h6q36 0 94 35q-5 -25 -31 -55z" />
    <glyph glyph-name="macroncomb" unicode="&#x304;" horiz-adv-x="491" 
d="M492 1585v-55h-338v55h338z" />
    <glyph glyph-name="dotaccentcomb" unicode="&#x307;" horiz-adv-x="368" 
d="M260 1530q-44 0 -75 31t-31 75q0 45 31 77t75 32t76.5 -32.5t32.5 -76.5t-32 -75t-77 -31z" />
    <glyph glyph-name="dieresiscomb" unicode="&#x308;" horiz-adv-x="649" 
d="M260 1530q-44 0 -75 31t-31 75q0 45 31 77t75 32t76.5 -32.5t32.5 -76.5t-32 -75t-77 -31zM541 1530q-44 0 -75.5 31t-31.5 75t31.5 76.5t75.5 32.5t76 -32.5t32 -76.5t-32 -75t-76 -31z" />
    <glyph glyph-name="ringcomb" unicode="&#x30a;" horiz-adv-x="479" 
d="M315 1855q68 0 116 -48t48 -115t-48 -114.5t-116 -47.5q-67 0 -114 47t-47 115t47 115.5t114 47.5zM315 1585q44 0 76.5 31.5t32.5 75.5t-32.5 76t-76.5 32t-75 -32t-31 -76t31 -75.5t75 -31.5z" />
    <glyph glyph-name="caroncomb" unicode="&#x30c;" horiz-adv-x="684" 
d="M420 1530l-66 61l-200 191l36 43l230 -183l227 183l37 -43l-199 -191z" />
    <glyph glyph-name="cedillacomb" unicode="&#x327;" horiz-adv-x="456" 
d="M317 -109h43q40 0 68.5 -28.5t28.5 -69.5q0 -40 -28.5 -68t-68.5 -28h-206v55h206q17 0 29 12t12 29q0 19 -12 31t-29 12h-98v264h55v-209z" />
    <glyph glyph-name="endash" unicode="&#x2013;" horiz-adv-x="847" 
d="M848 629h-694v139h694v-139z" />
    <glyph glyph-name="emdash" unicode="&#x2014;" horiz-adv-x="1275" 
d="M1276 629h-1122v139h1122v-139z" />
    <glyph glyph-name="quoteleft" unicode="&#x2018;" horiz-adv-x="458" 
d="M182 1026q-2 11 -2 27q0 24 3 49.5t15.5 66.5t32.5 77.5t58.5 77.5t89.5 73q-7 -8 -17 -23.5t-26.5 -65.5t-16.5 -104q0 -21 3 -39q57 -2 97 -42t40 -97q0 -58 -40.5 -98.5t-99.5 -40.5q-57 0 -96 40t-41 99z" />
    <glyph glyph-name="quoteright" unicode="&#x2019;" horiz-adv-x="460" 
d="M432 1257q2 -10 2 -24q0 -33 -6.5 -68.5t-25 -86t-62 -101.5t-107.5 -90q2 3 6.5 8.5t14.5 23.5t18 38.5t14.5 53t6.5 66.5q0 29 -2 43q-57 0 -97 40t-40 97q0 59 40.5 99.5t98.5 40.5q57 0 96.5 -40.5t42.5 -99.5z" />
    <glyph glyph-name="quotesinglbase" unicode="&#x201a;" horiz-adv-x="460" 
d="M432 139q2 -10 2 -24q0 -33 -6.5 -68.5t-25 -86.5t-62 -102t-107.5 -91q2 3 6.5 8.5t14.5 23.5t18 38.5t14.5 53t6.5 66.5q0 29 -2 43q-57 0 -97 40.5t-40 98.5q0 57 40.5 97t98.5 40q57 0 96.5 -39.5t42.5 -97.5z" />
    <glyph glyph-name="quotedblleft" unicode="&#x201c;" horiz-adv-x="790" 
d="M182 1026q-2 11 -2 27q0 24 3 49.5t15.5 66.5t32.5 77.5t58.5 77.5t89.5 73q-7 -8 -17 -23.5t-26.5 -65.5t-16.5 -104q0 -21 3 -39q57 -2 97 -42t40 -97q0 -58 -40.5 -98.5t-99.5 -40.5q-57 0 -96 40t-41 99zM514 1026q-2 11 -2 27q0 24 3 49.5t15.5 66.5t32.5 77.5
t58.5 77.5t89.5 73q-7 -8 -17 -23.5t-26.5 -65.5t-16.5 -104q0 -27 2 -39q57 -2 97.5 -42t40.5 -97q0 -58 -40.5 -98.5t-99.5 -40.5q-57 0 -96 40t-41 99z" />
    <glyph glyph-name="quotedblright" unicode="&#x201d;" horiz-adv-x="792" 
d="M764 1257q2 -10 2 -24q0 -33 -6.5 -68.5t-25 -86t-62 -101.5t-107.5 -90q2 3 6.5 8.5t14.5 23.5t18 38.5t14.5 53t6.5 66.5q0 29 -2 43q-57 0 -97.5 40t-40.5 97q0 59 40.5 99.5t99.5 40.5q57 0 96.5 -40.5t42.5 -99.5zM432 1257q2 -10 2 -24q0 -33 -6.5 -68.5t-25 -86
t-62 -101.5t-107.5 -90q2 3 6.5 8.5t14.5 23.5t18 38.5t14.5 53t6.5 66.5q0 29 -2 43q-57 0 -97 40t-40 97q0 59 40.5 99.5t98.5 40.5q57 0 96.5 -40.5t42.5 -99.5z" />
    <glyph glyph-name="quotedblbase" unicode="&#x201e;" horiz-adv-x="792" 
d="M432 139q2 -10 2 -24q0 -33 -6.5 -68.5t-25 -86.5t-62 -102t-107.5 -91q2 3 6.5 8.5t14.5 23.5t18 38.5t14.5 53t6.5 66.5q0 29 -2 43q-57 0 -97 40.5t-40 98.5q0 57 40.5 97t98.5 40q57 0 96.5 -39.5t42.5 -97.5zM764 139q2 -10 2 -24q0 -33 -6.5 -68.5t-25 -86.5
t-62 -102t-107.5 -91q2 3 6.5 8.5t14.5 23.5t18 38.5t14.5 53t6.5 66.5q0 29 -2 43q-57 0 -97.5 40.5t-40.5 98.5q0 57 41 97t99 40q57 0 96.5 -39.5t42.5 -97.5z" />
    <glyph glyph-name="dagger" unicode="&#x2020;" horiz-adv-x="933" 
d="M934 1026v-139h-322v-887h-139v887h-319v139h319v371h139v-371h322z" />
    <glyph glyph-name="daggerdbl" unicode="&#x2021;" horiz-adv-x="933" 
d="M934 887h-322v-377h322v-139h-322v-371h-137v371h-321v139h321v377h-321v139h321v371h137v-371h322v-139z" />
    <glyph glyph-name="bullet" unicode="&#x2022;" horiz-adv-x="659" 
d="M406 446q-105 0 -179 74q-73 73 -73 178q0 104 75 179q73 73 179 73q105 0 178 -73t73 -179q0 -105 -73 -178q-77 -74 -180 -74z" />
    <glyph glyph-name="ellipsis" unicode="&#x2026;" horiz-adv-x="2048" 
d="M430 139q0 -58 -40 -98.5t-97 -40.5q-59 0 -99 40t-40 99q0 57 40.5 97t98.5 40q57 0 97 -40t40 -97zM1112 139q0 -58 -40 -98.5t-97 -40.5q-59 0 -99 40t-40 99q0 57 40.5 97t98.5 40q57 0 97 -40t40 -97zM1794 139q0 -58 -40 -98.5t-97 -40.5q-59 0 -99 40t-40 99
q0 57 40.5 97t98.5 40q57 0 97 -40t40 -97z" />
    <glyph glyph-name="perthousand" unicode="&#x2030;" horiz-adv-x="2271" 
d="M1155 1399h184l-780 -1399h-186zM657 1348q63 -44 100.5 -113.5t37.5 -147.5v-6q-2 -131 -96 -224t-224 -93h-4q-59 0 -125 27q-30 13 -55 30q-62 44 -98.5 112t-36.5 148v6q0 131 93.5 224.5t223.5 93.5h4q66 -3 125 -27q19 -8 55 -30zM281 1085q0 -94 73 -151l187 332
q-30 12 -64 12q-80 0 -137.5 -56t-58.5 -137zM473 891h4q78 0 134.5 56t56.5 134v6q0 93 -72 148l-186 -334q30 -10 63 -10zM1427 582q63 -42 100.5 -111t37.5 -149v-7q-1 -130 -95 -222.5t-225 -92.5h-4q-61 0 -123 27q-32 13 -55 30q-63 42 -100 111t-37 149v7
q0 130 93 222.5t224 92.5h4q63 0 125 -27q32 -13 55 -30zM1051 322q0 -94 73 -154l187 334q-30 9 -64 12q-80 0 -137.5 -56.5t-58.5 -135.5zM1243 125q80 0 137.5 56.5t57.5 135.5v7q0 88 -72 147l-186 -334q31 -9 63 -12zM2132 582q63 -42 100 -111t37 -149v-7
q-1 -130 -94.5 -222.5t-224.5 -92.5h-4q-61 0 -123 27q-34 14 -56 30q-63 42 -100 111t-37 149v7q0 130 93.5 222.5t224.5 92.5h4q63 0 125 -27q32 -13 55 -30zM1755 322q0 -93 74 -154l186 334q-31 9 -63 12q-80 0 -138 -56.5t-59 -135.5zM1948 125q80 0 137 56.5t57 135.5
v7q0 89 -71 147l-187 -334q30 -9 64 -12z" />
    <glyph glyph-name="guilsinglleft" unicode="&#x2039;" horiz-adv-x="716" 
d="M717 922l-320 -224l320 -223v-168l-563 391l563 392v-168z" />
    <glyph glyph-name="guilsinglright" unicode="&#x203a;" horiz-adv-x="716" 
d="M154 922v168l563 -392l-563 -391v168l319 223z" />
    <glyph glyph-name="fraction" unicode="&#x2044;" horiz-adv-x="1093" 
d="M1094 1399l-781 -1399h-159l780 1399h160z" />
    <glyph glyph-name="fraction" unicode="&#x2215;" horiz-adv-x="1093" 
d="M1094 1399l-781 -1399h-159l780 1399h160z" />
    <glyph glyph-name="frenchfrancsign" unicode="&#x20a3;" horiz-adv-x="1214" 
d="M1214 1120h-634v-215h634v-278h-634v-176h268v-140h-268v-311h-279v311h-147v140h147v946h913v-277z" />
    <glyph glyph-name="lirasign" unicode="&#x20a4;" horiz-adv-x="1099" 
d="M563 279h537v-279h-815v430h-131v139h131v156h-131v139h131v51q0 131 64.5 242.5t175 176.5t241.5 65h182v-279h-131q-105 0 -179.5 -74.5t-74.5 -179.5v-2h285v-139h-285v-156h285v-139h-285v-151z" />
    <glyph glyph-name="pesetasign" unicode="&#x20a7;" horiz-adv-x="2672" 
d="M1102 1120q12 -52 12 -108q0 -150 -90 -260q-93 -110 -229 -125h-389v-627h-252v905h614q40 0 68 31t28 76q0 42 -28 78q-27 30 -68 30h-614v279h2451v-279h-631q-32 0 -51 -22q-20 -20 -20 -51q0 -36 36 -62l547 -307q86 -48 137 -133q50 -83 50 -183q0 -149 -107 -253
q-107 -107 -256 -107h-704v277h669q44 0 68 30q24 27 24 64q0 45 -47 80l-538 301q-176 114 -176 301q0 35 6 65h-107v-1120h-276v1120h-127z" />
    <glyph glyph-name="euro" unicode="&#x20ac;" horiz-adv-x="1548" 
d="M1327 449l221 -170q-99 -131 -247 -207t-318 -76q-231 0 -415.5 135.5t-254.5 349.5h-159v140h129q-4 54 -4 77q0 28 4 78h-129v139h159q68 215 253 351.5t417 136.5q163 0 307 -70t242 -192l-221 -168q-60 71 -146 112t-182 41q-115 0 -212.5 -57.5t-154.5 -153.5h232
v-139h-283q-8 -33 -8 -78q0 -44 8 -77h283v-140h-230q57 -96 153.5 -152.5t211.5 -56.5q103 0 193.5 47.5t150.5 129.5z" />
    <glyph glyph-name="numerosign" unicode="&#x2116;" horiz-adv-x="2414" 
d="M942 1397h279v-1397l-789 748v-748h-278v1397l788 -750v750zM2367 61h-952v107h952v-107zM1892 1135q-130 0 -223 -93q-92 -92 -92 -223q0 -129 92 -221q91 -94 223 -94q133 0 224 94q92 92 92 221q0 131 -92 223q-93 93 -224 93zM1892 299q-214 0 -368 154
q-154 151 -154 366t154 369q153 153 368 153q216 0 369 -153q154 -154 154 -369t-154 -366q-154 -154 -369 -154z" />
    <glyph glyph-name="trademark" unicode="&#x2122;" horiz-adv-x="763" 
d="M410 1397v-72h-93v-283h-71v283h-92v72h256zM596 1237l168 160v-355h-72v191l-96 -92l-94 92v-191h-72v355z" />
    <glyph glyph-name="minus" unicode="&#x2212;" horiz-adv-x="847" 
d="M848 629h-694v139h694v-139z" />
    <glyph glyph-name="almostequalto" unicode="&#x2248;" horiz-adv-x="559" 
d="M528 580q-36 -39 -94 -39q-15 0 -43 8q-22 7 -80 49q-33 23 -61 23q-35 0 -96 -35q10 40 46.5 66t80.5 26q34 0 59 -14q11 -5 51 -34t68 -30h6q36 0 94 35q-5 -25 -31 -55zM528 758q-36 -39 -94 -39q-15 0 -43 8q-22 7 -80 49q-33 23 -61 23q-35 0 -96 -35q10 40 46.5 66
t80.5 26q34 0 59 -14q11 -5 51 -34t68 -30h6q36 0 94 35q-5 -25 -31 -55z" />
    <glyph glyph-name="lessthanorequalto" unicode="&#x2264;" horiz-adv-x="716" 
d="M717 1047l-320 -224l320 -223v-168l-563 391l563 391v-167zM717 184h-563v140h563v-140z" />
    <glyph glyph-name="greaterthanorequalto" unicode="&#x2265;" horiz-adv-x="716" 
d="M154 1047v167l563 -391l-563 -391v168l319 223zM154 184v140h563v-140h-563z" />
    <glyph glyph-name="R.salt" unicode="&#xe000;" horiz-adv-x="1267" 
d="M909 627l359 -627h-322l-356 625l-113 198l-45 80h449q41 0 75 31q31 34 31 78t-31 75t-75 31h-451v-1118h-276v1397h727q159 0 272 -113t113 -272q0 -153 -103.5 -263.5t-253.5 -121.5z" />
    <glyph glyph-name="r.salt" unicode="&#xe001;" horiz-adv-x="1222" 
d="M866 627l357 -627h-322l-356 625h-113v-625h-278v903h682q41 0 75 31q31 34 31 78t-31 75t-75 31h-682v279h682q159 0 272 -113t113 -272q0 -153 -102.5 -263.5t-252.5 -121.5z" />
    <glyph glyph-name="M.salt" unicode="&#xe002;" horiz-adv-x="1843" 
d="M1563 0l-283 674l-131 -314l-150 -360l-151 360l-131 314l-283 -674h-301l584 1397l282 -676l281 676l584 -1397h-301z" />
    <glyph glyph-name="E.salt" unicode="&#xe003;" horiz-adv-x="1067" 
d="M1067 1397v-279h-913v279h913zM154 625v278h913v-278h-913zM154 0v279h913v-279h-913z" />
    <glyph glyph-name="fi" unicode="&#xfb01;" horiz-adv-x="1499" 
d="M154 1399h913v-279h-913v279zM154 905h913v-278h-635v-627h-278v905zM1499 0h-278v1397h278v-1397z" />
    <glyph glyph-name="fl" unicode="&#xfb02;" horiz-adv-x="2039" 
d="M154 1399h913v-279h-913v279zM154 905h913v-278h-635v-627h-278v905zM1221 0v1397h278v-1118h539v-279h-817z" />
    </font>
</defs>
</svg>
