<?xml version="1.0" standalone="no"?>
<!DOCTYPE svg PUBLIC "-//W3C//DTD SVG 1.1//EN" "http://www.w3.org/Graphics/SVG/1.1/DTD/svg11.dtd" >
<svg xmlns="http://www.w3.org/2000/svg" xmlns:xlink="http://www.w3.org/1999/xlink" version="1.1">
<metadata>
Created by FontForge 20201107 at Thu Aug 11 13:54:53 2022
 By 
Copyright (c) 2022 by TipoType Team. All rights reserved.
</metadata>
<defs>
<font id="AirtelSans-SemiBold" horiz-adv-x="1391" >
  <font-face 
    font-family="Airtel Sans Semi Bold"
    font-weight="600"
    font-stretch="normal"
    units-per-em="2048"
    panose-1="2 0 0 0 0 0 0 0 0 0"
    ascent="1638"
    descent="-410"
    x-height="960"
    cap-height="1358"
    bbox="-263 -528 2622 2296"
    underline-thickness="150"
    underline-position="-350"
    unicode-range="U+000D-FB04"
  />
<missing-glyph horiz-adv-x="1401" 
d="M459 1018l-97 -97l242 -240l-244 -245l97 -97l245 242l243 -242l97 97l-244 245l242 240l-97 97l-241 -242zM192 0v1358h1018v-1358h-1018z" />
    <glyph glyph-name="f_f" unicode="ff" horiz-adv-x="1415" 
d="M37 960h171v94q0 165 102.5 269.5t293.5 104.5q82 0 182 -34l-27 -210q-55 24 -128 24q-81 0 -128 -40.5t-47 -128.5v-79h414v94q0 165 102.5 269.5t293.5 104.5q82 0 182 -34l-27 -210q-55 24 -128 24q-81 0 -128 -40.5t-47 -128.5v-79h274v-213h-267v-747h-257v747
h-405v-747h-257v747h-169v213z" />
    <glyph glyph-name="fi" unicode="fi" horiz-adv-x="1260" 
d="M206 747h-169v213h171v94q0 165 97.5 269.5t278.5 104.5q82 0 182 -34l-27 -210q-55 24 -128 24q-71 0 -113 -40.5t-42 -128.5v-79h274v-213h-267v-747h-257v747zM858 0v960h257v-960h-257zM838 1268q0 65 41 106.5t106 41.5t106.5 -41t41.5 -107q0 -65 -41.5 -106
t-106.5 -41t-106 41t-41 106z" />
    <glyph glyph-name="fl" unicode="fl" horiz-adv-x="1259" 
d="M206 747h-169v213h171v94q0 165 97.5 269.5t278.5 104.5q82 0 182 -34l-27 -210q-55 24 -128 24q-71 0 -113 -40.5t-42 -128.5v-79h274v-213h-267v-747h-257v747zM858 1408h256v-1408h-256v1408z" />
    <glyph glyph-name="f_f_i" unicode="ffi" horiz-adv-x="1922" 
d="M37 960h171v94q0 165 102.5 269.5t293.5 104.5q82 0 182 -34l-27 -210q-55 24 -128 24q-81 0 -128 -40.5t-47 -128.5v-79h414v94q0 165 97.5 269.5t278.5 104.5q82 0 182 -34l-27 -210q-55 24 -128 24q-71 0 -113 -40.5t-42 -128.5v-79h274v-213h-267v-747h-257v747h-405
v-747h-257v747h-169v213zM1520 960h257v-960h-257v960zM1500 1268q0 65 41 106.5t106 41.5t106.5 -41t41.5 -107q0 -65 -41.5 -106t-106.5 -41t-106 41t-41 106z" />
    <glyph glyph-name="f_f_l" unicode="ffl" horiz-adv-x="1911" 
d="M37 960h171v94q0 165 102.5 269.5t293.5 104.5q82 0 182 -34l-27 -210q-55 24 -128 24q-81 0 -128 -40.5t-47 -128.5v-79h404v94q0 165 97.5 269.5t278.5 104.5q82 0 182 -34l-27 -210q-55 24 -128 24q-71 0 -113 -40.5t-42 -128.5v-79h274v-213h-267v-747h-257v747h-395
v-747h-257v747h-169v213zM1510 1408h256v-1408h-256v1408z" />
    <glyph glyph-name=".notdef" horiz-adv-x="1401" 
d="M459 1018l-97 -97l242 -240l-244 -245l97 -97l245 242l243 -242l97 97l-244 245l242 240l-97 97l-241 -242zM192 0v1358h1018v-1358h-1018z" />
    <glyph glyph-name="uni0000" horiz-adv-x="41" 
 />
    <glyph glyph-name="uni0000" horiz-adv-x="41" 
 />
    <glyph glyph-name="uni000D" unicode="&#xd;" horiz-adv-x="525" 
 />
    <glyph glyph-name="space" unicode=" " horiz-adv-x="499" 
 />
    <glyph glyph-name="exclam" unicode="!" horiz-adv-x="583" 
d="M147 1358h292l-47 -970h-200zM291 -20q-63 0 -105.5 42.5t-42.5 104.5t42.5 104.5t105.5 42.5t106 -42.5t43 -104.5t-43 -104.5t-106 -42.5z" />
    <glyph glyph-name="quotedbl" unicode="&#x22;" horiz-adv-x="833" 
d="M99 1428h259l-43 -510h-173zM476 1428h259l-44 -510h-172z" />
    <glyph glyph-name="numbersign" unicode="#" horiz-adv-x="1434" 
d="M66 332l34 190h234q10 57 30 169.5t30 170.5h-233l34 189h232l54 307h215l-51 -307h274l55 307h216l-53 -307h234l-33 -189h-235l-61 -340h234l-35 -190h-232l-61 -333h-218l61 333h-275l-62 -333h-217l61 333h-232zM610 862l-61 -340h279l61 340h-279z" />
    <glyph glyph-name="dollar" unicode="$" horiz-adv-x="1219" 
d="M75 301l199 144q83 -170 256 -210v349q-78 26 -132.5 48.5t-111 57t-90.5 74t-55.5 97t-21.5 127.5q0 83 34.5 153t93 117t131 76.5t152.5 39.5v162h164v-165q138 -22 242.5 -101t165.5 -187l-208 -148q-82 138 -200 181v-322q51 -18 79.5 -28.5t72.5 -29t69 -32
t59.5 -34.5t54 -41t42 -48t34 -57.5t19 -67t7.5 -79.5q0 -87 -37 -159t-99.5 -119.5t-139 -76.5t-161.5 -38v-160h-164v162q-160 20 -280.5 105t-174.5 210zM395 989q0 -54 32 -83.5t103 -55.5v277q-59 -13 -97 -50t-38 -88zM856 375q0 50 -40.5 86t-121.5 68v-298
q72 14 117 53t45 91z" />
    <glyph glyph-name="percent" unicode="%" horiz-adv-x="1818" 
d="M1382 -20q-164 0 -273 107.5t-109 267.5q0 162 109 270t273 108q165 0 274.5 -108t109.5 -270q0 -160 -109.5 -267.5t-274.5 -107.5zM435 625q-164 0 -273 107.5t-109 267.5q0 162 108.5 270t273.5 108t274 -108t109 -270q0 -160 -109.5 -267.5t-273.5 -107.5zM465 26
l734 1332h155v-24l-732 -1334h-157v26zM435 1187q-79 0 -131 -54t-52 -133q0 -78 52 -131t131 -53t130.5 53t51.5 131q0 79 -51.5 133t-130.5 54zM1382 542q-78 0 -130 -54t-52 -133q0 -78 52 -131t130 -53q79 0 130.5 53t51.5 131q0 80 -51.5 133.5t-130.5 53.5z" />
    <glyph glyph-name="ampersand" unicode="&#x26;" horiz-adv-x="1431" 
d="M71 365q0 65 24.5 123.5t67.5 103t88.5 77t99.5 59.5q-148 145 -148 284q0 169 122 267.5t303 98.5q178 0 293 -98.5t115 -253.5q0 -105 -73.5 -187t-226.5 -159l241 -231q27 52 27 164q0 59 -10 130h249q10 -88 10 -152q0 -171 -87 -306l296 -285h-357l-109 104
q-175 -124 -400 -124q-240 0 -382.5 106.5t-142.5 278.5zM509 577q-67 -29 -115.5 -78t-48.5 -117q0 -79 70 -123.5t183 -44.5q137 0 225 61zM626 1148q-62 0 -109.5 -36t-47.5 -97q0 -58 26.5 -97.5t81.5 -89.5q198 96 198 196q0 60 -43.5 92t-105.5 32z" />
    <glyph glyph-name="quotesingle" unicode="'" horiz-adv-x="456" 
d="M315 918h-173l-43 510h259z" />
    <glyph glyph-name="parenleft" unicode="(" horiz-adv-x="641" 
d="M81 580q0 283 83 521.5t227 458.5h245q-32 -50 -63 -107.5t-75.5 -158.5t-77 -204.5t-56 -240t-23.5 -269.5t24 -270t56.5 -240t77.5 -204.5t76 -158t63 -107.5h-247q-135 177 -222.5 437t-87.5 543z" />
    <glyph glyph-name="parenright" unicode=")" horiz-adv-x="641" 
d="M250 -400h-246q32 50 63 107t76 158.5t77.5 204.5t56 240t23.5 270t-23.5 269.5t-56 240t-76.5 204.5t-75.5 158.5t-62.5 107.5h245q310 -458 310 -980q0 -282 -87 -537.5t-224 -442.5z" />
    <glyph glyph-name="asterisk" unicode="*" horiz-adv-x="936" 
d="M562 1408l-11 -254l234 87l59 -170l-245 -74l167 -206l-150 -107l-148 218l-146 -218l-150 106l166 207l-245 74l59 170l234 -87l-11 254h187z" />
    <glyph glyph-name="plus" unicode="+" horiz-adv-x="1177" 
d="M41 802h412v404h268v-404h415v-240h-415v-411h-268v411h-412v240z" />
    <glyph glyph-name="comma" unicode="," horiz-adv-x="519" 
d="M156 253h260l-177 -516h-215z" />
    <glyph glyph-name="hyphen" unicode="-" horiz-adv-x="931" 
d="M812 667v-214h-692v214h692z" />
    <glyph glyph-name="period" unicode="." horiz-adv-x="476" 
d="M90 127q0 62 42.5 104.5t105.5 42.5t106 -42.5t43 -104.5t-43 -104.5t-106 -42.5t-105.5 42.5t-42.5 104.5z" />
    <glyph glyph-name="slash" unicode="/" horiz-adv-x="1105" 
d="M1074 1529l-778 -1929h-262l777 1929h263z" />
    <glyph glyph-name="zero" unicode="0" horiz-adv-x="1328" 
d="M92 674q0 115 20.5 217t65.5 192t110.5 155t162 102.5t213.5 37.5q118 0 214 -37.5t162 -102.5t111 -155t65.5 -192t20.5 -217q0 -144 -34 -267t-102 -219.5t-180 -152t-257 -55.5q-117 0 -212.5 36.5t-161.5 100t-111 151.5t-66 190t-21 216zM664 1136q-77 0 -135.5 -38
t-92.5 -103.5t-51 -145t-17 -170.5q0 -93 17 -173t51 -145t92.5 -102t135.5 -37t135.5 37t93 102t51.5 145t17 173q0 91 -17 170.5t-51 145t-93 103.5t-136 38z" />
    <glyph glyph-name="one" unicode="1" horiz-adv-x="759" 
d="M319 0v1121h-289v237h559v-1358h-270z" />
    <glyph glyph-name="two" unicode="2" horiz-adv-x="1126" 
d="M69 1042q55 151 183.5 243.5t283.5 92.5q213 0 350 -123t137 -314q0 -56 -13.5 -107t-42 -95.5t-58.5 -81t-77 -76t-82.5 -66.5t-88.5 -66q-21 -15 -32 -23q-194 -139 -216 -190h628v-236h-942v113q0 47 13.5 94t33 85t54.5 80.5t63 71.5t74 67t73.5 59t74.5 55
q138 101 199 168.5t61 144.5q0 91 -56.5 144t-149.5 53q-85 0 -147 -54t-96 -147z" />
    <glyph glyph-name="three" unicode="3" horiz-adv-x="1137" 
d="M71 1056q37 88 99.5 158t161.5 117t215 47q93 0 177 -26.5t150.5 -75t105.5 -125t39 -170.5q0 -89 -55 -169.5t-134 -117.5q91 -30 153.5 -118.5t62.5 -186.5q0 -96 -41 -175.5t-109 -129.5t-153 -77t-176 -27q-167 0 -299 87t-196 244l218 120q36 -96 109 -152t164 -56
q85 0 145.5 47.5t60.5 126.5q0 85 -62 134.5t-165 49.5h-198v211h198q87 0 143 50t56 132q0 71 -53.5 116t-139.5 45q-89 0 -157.5 -57t-101.5 -141z" />
    <glyph glyph-name="four" unicode="4" horiz-adv-x="1188" 
d="M682 341h-642v209l584 808h317v-787h188v-230h-188v-342h-259v342zM334 571h348v479z" />
    <glyph glyph-name="five" unicode="5" horiz-adv-x="1134" 
d="M554 -20q-177 0 -303.5 87t-193.5 249l218 113q40 -98 110 -152t163 -54q101 0 167.5 60.5t66.5 153.5q0 98 -66.5 157.5t-175.5 59.5q-135 0 -235 -100l-185 83l80 721h791v-238h-572l-32 -299q33 28 92.5 47t128.5 19q198 0 324.5 -122.5t126.5 -323.5
q0 -202 -142 -331.5t-363 -129.5z" />
    <glyph glyph-name="six" unicode="6" horiz-adv-x="1212" 
d="M632 -20q-114 0 -205 33t-153 91t-103.5 140t-60 175.5t-18.5 201.5q0 352 164.5 554.5t469.5 202.5q199 0 346 -79l-64 -215q-117 65 -263 65q-103 0 -184 -39t-135 -128t-60 -220q38 61 122.5 99.5t186.5 38.5q74 0 141.5 -16t127.5 -51.5t104.5 -86.5t70.5 -125.5
t26 -165.5q0 -216 -142 -345.5t-371 -129.5zM629 679q-106 0 -172 -64t-66 -167q0 -105 65.5 -171.5t172.5 -66.5q109 0 177 65.5t68 170.5q0 107 -66.5 170t-178.5 63z" />
    <glyph glyph-name="seven" unicode="7" horiz-adv-x="990" 
d="M48 1358h910v-202q-328 -524 -527 -1156h-292q195 610 511 1118h-602v240z" />
    <glyph glyph-name="eight" unicode="8" horiz-adv-x="1195" 
d="M597 -20q-78 0 -150 14t-138 45.5t-114.5 76.5t-77.5 112.5t-29 148.5q0 116 57.5 203.5t154.5 132.5q-81 43 -130.5 119.5t-49.5 175.5q0 92 41 165t110 116.5t152 66t174 22.5t174.5 -22.5t152 -66t109.5 -116.5t41 -165q0 -99 -49 -175.5t-130 -119.5
q97 -45 155 -132.5t58 -203.5q0 -81 -29 -148.5t-78 -112.5t-115 -76.5t-138.5 -45.5t-150.5 -14zM597 606q-102 0 -167 -54.5t-65 -147.5q0 -94 65.5 -147.5t166.5 -53.5q102 0 168 53.5t66 147.5q0 93 -66 147.5t-168 54.5zM397 976q0 -84 54 -134t146 -50q93 0 147 50
t54 134q0 79 -54.5 127.5t-146.5 48.5t-146 -48.5t-54 -127.5z" />
    <glyph glyph-name="nine" unicode="9" horiz-adv-x="1235" 
d="M551 463q-214 0 -347 123t-133 322q0 211 143 340.5t376 129.5q145 0 254 -49.5t173 -137.5t95.5 -199t31.5 -245q0 -359 -161 -563t-474 -204q-222 0 -367 102l77 216q130 -87 280 -87q100 0 180.5 40.5t133 129t56.5 214.5q-105 -132 -318 -132zM597 1147
q-113 0 -184 -63.5t-71 -167.5q0 -105 69.5 -166.5t184.5 -61.5q110 0 179 66t69 161q0 96 -69 164t-178 68z" />
    <glyph glyph-name="colon" unicode=":" horiz-adv-x="534" 
d="M119 832q0 62 42.5 105t105.5 43t106 -43t43 -105t-43 -104.5t-106 -42.5t-105.5 42.5t-42.5 104.5zM119 127q0 62 42.5 104.5t105.5 42.5t106 -42.5t43 -104.5t-43 -104.5t-106 -42.5t-105.5 42.5t-42.5 104.5z" />
    <glyph glyph-name="semicolon" unicode=";" horiz-adv-x="565" 
d="M43 -263l132 516h260l-176 -516h-216zM153 832q0 62 42.5 105t105.5 43t106 -43t43 -105t-43 -104.5t-106 -42.5t-105.5 42.5t-42.5 104.5z" />
    <glyph glyph-name="less" unicode="&#x3c;" horiz-adv-x="1198" 
d="M1057 128l-968 431v238l968 437v-268l-662 -287l662 -283v-268z" />
    <glyph glyph-name="equal" unicode="=" horiz-adv-x="1316" 
d="M1193 318h-1069v244h1069v-244zM124 1039h1069v-243h-1069v243z" />
    <glyph glyph-name="greater" unicode="&#x3e;" horiz-adv-x="1198" 
d="M804 679l-662 287v268l968 -437v-237l-968 -432v268z" />
    <glyph glyph-name="question" unicode="?" horiz-adv-x="1037" 
d="M272 934l-227 108q53 151 181 243.5t286 92.5q122 0 223 -43.5t165 -132.5t64 -208q0 -69 -36.5 -136.5t-88 -123t-103.5 -110t-88.5 -117.5t-36.5 -125q0 -16 1 -24h-233q-11 41 -11 85q0 57 23.5 111.5t58.5 95.5t76 85.5t76 81t58.5 81.5t23.5 88q0 73 -47 111
t-124 38q-163 0 -241 -201zM495 274q63 0 106 -42.5t43 -104.5t-43 -104.5t-106 -42.5t-105.5 42.5t-42.5 104.5t42.5 104.5t105.5 42.5z" />
    <glyph glyph-name="at" unicode="@" horiz-adv-x="1897" 
d="M72 535q0 193 71.5 358t193.5 277t286 175t347 63q169 0 324.5 -63t270 -171.5t183 -262.5t68.5 -326q0 -239 -94 -370.5t-255 -131.5q-91 0 -156.5 47t-102.5 130q-35 -69 -118.5 -117t-186.5 -48q-115 0 -210.5 54.5t-152.5 155t-57 225.5q0 192 115 315t288 123
q178 0 272 -118l10 100h200v-571q0 -79 33.5 -119t89.5 -40q85 0 131 102t46 263q0 141 -53.5 267t-146 217t-224.5 144t-283 53q-334 0 -539.5 -202.5t-205.5 -530.5q0 -204 97 -370t265 -259.5t372 -93.5q211 0 420 109l55 -121q-239 -132 -475 -132q-177 0 -337.5 64.5
t-280 177t-190 276t-70.5 351.5zM693 535q0 -101 65 -172t164 -71t165.5 71t66.5 172t-66.5 170.5t-165.5 69.5t-164 -69t-65 -171z" />
    <glyph glyph-name="A" unicode="A" horiz-adv-x="1414" 
d="M292 0h-288l548 1358h310l549 -1358h-288l-100 266h-630zM469 481h476l-237 595z" />
    <glyph glyph-name="B" unicode="B" horiz-adv-x="1344" 
d="M170 0v1358h625q184 0 302 -103.5t118 -267.5q0 -50 -17 -102.5t-60 -104t-105 -74.5q110 -42 169 -130t59 -199q0 -167 -117 -272t-305 -105h-669zM795 581h-355v-350h355q80 0 129.5 46.5t49.5 120.5q0 84 -48.5 133.5t-130.5 49.5zM749 1126h-309v-332h319
q81 0 129 46t48 117q0 78 -52.5 123.5t-134.5 45.5z" />
    <glyph glyph-name="C" unicode="C" horiz-adv-x="1440" 
d="M785 -20q-146 0 -276.5 54t-224 146.5t-148.5 222.5t-55 276q0 196 91 356t250.5 251.5t355.5 91.5q187 0 347.5 -90t260.5 -249l-213 -152q-146 241 -395 241q-185 0 -302.5 -126t-117.5 -323t120.5 -323t306.5 -126q244 0 411 234l199 -144q-97 -162 -259.5 -251
t-350.5 -89z" />
    <glyph glyph-name="D" unicode="D" horiz-adv-x="1514" 
d="M170 -1v1358h562q199 0 359.5 -88.5t251 -243.5t90.5 -347t-90.5 -347.5t-251 -243.5t-359.5 -88h-562zM440 1125v-893h284q191 0 312 127.5t121 318.5q0 190 -121 318.5t-312 128.5h-284z" />
    <glyph glyph-name="E" unicode="E" horiz-adv-x="1231" 
d="M170 0v1358h966v-234h-696v-313h604v-234h-604v-344h711v-233h-981z" />
    <glyph glyph-name="F" unicode="F" horiz-adv-x="1186" 
d="M170 0v1358h967v-234h-697v-319h547v-234h-547v-571h-270z" />
    <glyph glyph-name="G" unicode="G" horiz-adv-x="1517" 
d="M785 -20q-195 0 -356.5 91.5t-254.5 252t-93 355.5q0 196 91 356t250.5 251.5t355.5 91.5q178 0 333.5 -82.5t261.5 -236.5l-213 -152q-146 221 -382 221q-185 0 -302.5 -126t-117.5 -323t120.5 -323t306.5 -126q160 0 259.5 80t124.5 197h-411v233h684q5 -44 5 -109
q0 -105 -28.5 -201.5t-85 -178.5t-135.5 -142.5t-185 -94.5t-228 -34z" />
    <glyph glyph-name="H" unicode="H" horiz-adv-x="1540" 
d="M170 1358h270v-549h662v549h269v-1358h-269v576h-662v-576h-270v1358z" />
    <glyph glyph-name="I" unicode="I" horiz-adv-x="609" 
d="M440 1358v-1358h-270v1358h270z" />
    <glyph glyph-name="J" unicode="J" horiz-adv-x="1073" 
d="M434 -20q-137 0 -248 59.5t-186 174.5l170 174q112 -158 268 -158q99 0 154 72t55 203v853h270v-867q0 -240 -128 -375.5t-355 -135.5z" />
    <glyph glyph-name="K" unicode="K" horiz-adv-x="1378" 
d="M440 0h-270v1358h270v-616l571 616h346l-523 -552l554 -806h-328l-418 626l-202 -215v-411z" />
    <glyph glyph-name="L" unicode="L" horiz-adv-x="1197" 
d="M1171 233v-233h-1001v1358h270v-1125h731z" />
    <glyph glyph-name="M" unicode="M" horiz-adv-x="1786" 
d="M170 0v1358h286l438 -904l437 904h286v-1358h-270v833l-366 -742h-175l-366 742v-833h-270z" />
    <glyph glyph-name="N" unicode="N" horiz-adv-x="1605" 
d="M440 0h-270v1358h245l751 -932v932h270v-1358h-249l-747 922v-922z" />
    <glyph glyph-name="O" unicode="O" horiz-adv-x="1586" 
d="M793 -20q-204 0 -366 88t-253.5 247t-91.5 361q0 152 53.5 283t147.5 222.5t226 144t284 52.5q204 0 366.5 -89.5t254 -250t91.5 -362.5t-91.5 -361t-254 -247t-366.5 -88zM360 677q0 -198 122 -322t312 -124q191 0 312.5 123.5t121.5 322.5q0 198 -121.5 323.5
t-312.5 125.5q-190 0 -312 -126t-122 -323z" />
    <glyph glyph-name="P" unicode="P" horiz-adv-x="1298" 
d="M441 1h-271v1357h594q220 0 353 -123.5t133 -324.5q0 -194 -133.5 -318.5t-352.5 -124.5h-323v-466zM441 1124v-423h306q108 0 167 59t59 150q0 96 -59 155t-167 59h-306z" />
    <glyph glyph-name="Q" unicode="Q" horiz-adv-x="1587" 
d="M806 -20q-204 0 -366 88t-253.5 247t-91.5 361q0 152 53.5 283t147.5 222.5t226 144t284 52.5q204 0 366.5 -89.5t254 -250t91.5 -362.5q0 -166 -63 -304t-177 -232l147 -204l-190 -132l-159 221q-127 -45 -270 -45zM373 677q0 -198 122 -322t312 -124q61 0 112 13
l-134 186l190 132l147 -205q119 124 119 320q0 198 -121.5 323.5t-312.5 125.5q-190 0 -312 -126t-122 -323z" />
    <glyph glyph-name="R" unicode="R" horiz-adv-x="1359" 
d="M441 1h-271v1357h599q220 0 353 -120t133 -316q0 -129 -67 -230.5t-186 -152.5l307 -539h-296l-277 494h-295v-493zM441 1124v-396h311q107 0 166.5 56t59.5 138q0 89 -59 145.5t-167 56.5h-311z" />
    <glyph glyph-name="S" unicode="S" horiz-adv-x="1224" 
d="M86 301l199 144q50 -102 140 -161.5t209 -59.5q99 0 166 43t67 108q0 63 -64 105t-199 84q-66 21 -109.5 36t-98 38t-89.5 45t-72 54t-57.5 67t-34 82t-13.5 102q0 92 42.5 168t112 123.5t154 73t172.5 25.5q172 0 301 -84.5t201 -210.5l-208 -148q-119 199 -301 199
q-82 0 -140 -40t-58 -105q0 -20 5 -37t12.5 -29.5t23.5 -24.5t29 -19.5t40 -18.5t45 -17t54.5 -18.5t59.5 -20.5q192 -68 262 -105q144 -77 185 -196q20 -56 20 -126q0 -96 -45.5 -173.5t-119.5 -125t-163.5 -73t-182.5 -25.5q-191 0 -336.5 89t-208.5 232z" />
    <glyph glyph-name="T" unicode="T" horiz-adv-x="1161" 
d="M22 1118v240h1118v-240h-424v-1118h-269v1118h-425z" />
    <glyph glyph-name="U" unicode="U" horiz-adv-x="1471" 
d="M736 -20q-262 0 -421.5 146t-159.5 390v842h269v-836q0 -136 87.5 -218t224.5 -82t224.5 82t87.5 218v836h269v-842q0 -244 -159.5 -390t-421.5 -146z" />
    <glyph glyph-name="V" unicode="V" horiz-adv-x="1379" 
d="M521 0l-511 1358h289l392 -1081l390 1081h289l-509 -1358h-340z" />
    <glyph glyph-name="W" unicode="W" horiz-adv-x="2044" 
d="M24 1358h271l301 -1089l305 1068h243l305 -1068l301 1089h271l-372 -1358h-378l-249 875l-248 -875h-378z" />
    <glyph glyph-name="X" unicode="X" horiz-adv-x="1348" 
d="M-1 0l510 696l-482 662h323l324 -462l324 462h324l-482 -662l510 -696h-324l-352 498l-351 -498h-324z" />
    <glyph glyph-name="Y" unicode="Y" horiz-adv-x="1337" 
d="M9 1358h322l341 -571l345 571h312l-524 -845v-513h-269v513z" />
    <glyph glyph-name="Z" unicode="Z" horiz-adv-x="1209" 
d="M74 0v193l701 929h-691v236h1045v-196l-702 -927h712v-235h-1065z" />
    <glyph glyph-name="bracketleft" unicode="[" horiz-adv-x="722" 
d="M689 -400h-522v1953h522v-183h-277v-1587h277v-183z" />
    <glyph glyph-name="backslash" unicode="\" horiz-adv-x="1105" 
d="M32 1529h263l777 -1929h-262z" />
    <glyph glyph-name="bracketright" unicode="]" horiz-adv-x="722" 
d="M311 1370h-277v183h522v-1953h-522v183h277v1587z" />
    <glyph glyph-name="asciicircum" unicode="^" horiz-adv-x="1221" 
d="M49 510l448 848h228l448 -848h-305l-257 533l-256 -533h-306z" />
    <glyph glyph-name="underscore" unicode="_" horiz-adv-x="1147" 
d="M1066 -275h-984v200h984v-200z" />
    <glyph glyph-name="grave" unicode="`" horiz-adv-x="736" 
d="M377 1473l-233 334h292l157 -334h-216z" />
    <glyph glyph-name="a" unicode="a" horiz-adv-x="1093" 
d="M445 -20q-164 0 -263.5 81t-99.5 214q0 137 115.5 222t305.5 85q109 0 202 -33v22q0 80 -58.5 131.5t-149.5 51.5q-140 0 -254 -121l-147 147q61 79 167 139.5t242 60.5q211 0 333.5 -104.5t122.5 -284.5v-591h-244v107q-39 -59 -110.5 -93t-161.5 -34zM521 411
q-88 0 -142 -33.5t-54 -88.5q0 -54 43.5 -86t116.5 -32q94 0 157 57t63 146q-83 37 -184 37z" />
    <glyph glyph-name="b" unicode="b" horiz-adv-x="1255" 
d="M397 0h-251v1408h252v-564q107 136 316 136q204 0 334.5 -140t130.5 -359q0 -218 -130.5 -359.5t-334.5 -141.5q-103 0 -183.5 32.5t-128.5 89.5zM401 482q0 -115 74 -193.5t187 -78.5t186.5 78.5t73.5 193.5q0 117 -73 192.5t-187 75.5q-113 0 -187 -76.5t-74 -191.5z
" />
    <glyph glyph-name="c" unicode="c" horiz-adv-x="1088" 
d="M581 -20q-141 0 -257.5 66.5t-182.5 182t-66 253.5q0 210 149 355.5t363 145.5q140 0 261 -71.5t185 -202.5l-195 -124q-40 80 -106.5 121t-140.5 41q-114 0 -187.5 -77.5t-73.5 -192.5q0 -112 73.5 -188.5t183.5 -76.5q164 0 256 166l185 -130q-64 -128 -186 -198
t-261 -70z" />
    <glyph glyph-name="d" unicode="d" horiz-adv-x="1256" 
d="M77 481q0 219 130.5 359t334.5 140q208 0 317 -136v564h252v-1408h-252l-5 102q-106 -122 -312 -122q-204 0 -334.5 141.5t-130.5 359.5zM595 750q-114 0 -187 -75.5t-73 -192.5q0 -115 73.5 -193.5t186.5 -78.5q112 0 186.5 78.5t74.5 193.5t-74 191.5t-187 76.5z" />
    <glyph glyph-name="e" unicode="e" horiz-adv-x="1111" 
d="M582 -21q-150 0 -266.5 67t-178 181t-61.5 254q1 219 140.5 359t353.5 140q203 0 334 -127t131 -341q0 -52 -9 -109h-694q14 -83 88.5 -137.5t167.5 -54.5q147 0 239 135l182 -136q-66 -110 -181.5 -170.5t-245.5 -60.5zM336 575h460q-10 82 -71.5 135.5t-151.5 53.5
q-94 0 -160 -53.5t-77 -135.5z" />
    <glyph glyph-name="f" unicode="f" horiz-adv-x="753" 
d="M206 747h-169v213h171v94q0 165 102.5 269.5t293.5 104.5q82 0 182 -34l-27 -210q-55 24 -128 24q-81 0 -128 -40.5t-47 -128.5v-79h274v-213h-267v-747h-257v747z" />
    <glyph glyph-name="g" unicode="g" horiz-adv-x="1255" 
d="M81 481q0 219 130.5 359t334.5 140q208 0 317 -136l5 116h246l-2 -859q-1 -239 -151 -380.5t-404 -141.5q-133 0 -256.5 55t-206.5 153l165 162q144 -139 298 -139q136 0 218.5 72.5t82.5 192.5v33q-44 -59 -126 -93.5t-186 -34.5q-204 0 -334.5 141.5t-130.5 359.5z
M599 750q-114 0 -187 -75.5t-73 -192.5q0 -115 73.5 -193.5t186.5 -78.5q112 0 186.5 78.5t74.5 193.5t-74 191.5t-187 76.5z" />
    <glyph glyph-name="h" unicode="h" horiz-adv-x="1200" 
d="M403 0h-257v1408h257v-550q42 51 117 86.5t171 35.5q167 0 272 -103t105 -274v-603h-257v537q0 97 -55 151t-141 54q-89 0 -150.5 -54.5t-61.5 -150.5v-537z" />
    <glyph glyph-name="i" unicode="i" horiz-adv-x="548" 
d="M403 0h-257v960h257v-960zM126 1268q0 65 41 106.5t106 41.5t106.5 -41t41.5 -107q0 -65 -41.5 -106t-106.5 -41t-106 41t-41 106z" />
    <glyph glyph-name="j" unicode="j" horiz-adv-x="548" 
d="M49 -420q-117 0 -187 36l24 206q64 -20 121 -20q139 0 139 165v992h257v-1009q0 -177 -96.5 -273.5t-257.5 -96.5zM279 1121q-65 0 -106 41t-41 106t41 106.5t106 41.5t106.5 -41t41.5 -107q0 -65 -41.5 -106t-106.5 -41z" />
    <glyph glyph-name="k" unicode="k" horiz-adv-x="1099" 
d="M146 1408h254v-806l350 358h341l-420 -409l429 -550h-317l-284 384l-99 -99v-285h-254v1407z" />
    <glyph glyph-name="l" unicode="l" horiz-adv-x="547" 
d="M402 1408v-1408h-256v1408h256z" />
    <glyph glyph-name="m" unicode="m" horiz-adv-x="1853" 
d="M403 0h-257v960h244l5 -111q40 55 117.5 93t176.5 38q110 0 195 -44.5t127 -125.5q52 78 140 124t193 46q168 0 272.5 -102t104.5 -275v-603h-257v537q0 97 -53.5 151t-138.5 54q-88 0 -149.5 -53t-61.5 -146v-543h-257v537q0 97 -53.5 151t-137.5 54q-88 0 -149 -54.5
t-61 -150.5v-537z" />
    <glyph glyph-name="n" unicode="n" horiz-adv-x="1202" 
d="M402 0h-256v960h244l5 -111q42 56 119 93.5t177 37.5q168 0 273.5 -103t105.5 -274v-603h-256v537q0 97 -55.5 151t-143.5 54q-89 0 -151 -54.5t-62 -150.5v-537z" />
    <glyph glyph-name="o" unicode="o" horiz-adv-x="1175" 
d="M588 -20q-220 0 -366.5 143.5t-146.5 356.5t146.5 356.5t366.5 143.5t366.5 -143.5t146.5 -356.5q0 -140 -66 -254.5t-184 -180t-263 -65.5zM330 480q0 -116 73 -192t185 -76q113 0 185.5 76t72.5 192q0 115 -72.5 191t-185.5 76q-112 0 -185 -76t-73 -191z" />
    <glyph glyph-name="p" unicode="p" horiz-adv-x="1255" 
d="M402 -400h-256v1360h247l5 -116q107 136 316 136q204 0 334.5 -142.5t130.5 -361.5q0 -218 -130.5 -357t-334.5 -139q-206 0 -312 121v-501zM401 477q0 -114 74 -190.5t187 -76.5t186.5 76t73.5 191q0 117 -73 195t-187 78q-113 0 -187 -78.5t-74 -194.5z" />
    <glyph glyph-name="q" unicode="q" horiz-adv-x="1252" 
d="M77 476q0 219 130.5 361.5t334.5 142.5q208 0 317 -136l5 116h247v-1360h-257v501q-106 -121 -312 -121q-204 0 -334.5 139t-130.5 357zM335 477q0 -115 73 -191t187 -76q113 0 187 76.5t74 190.5q0 116 -74.5 194.5t-186.5 78.5q-114 0 -187 -78t-73 -195z" />
    <glyph glyph-name="r" unicode="r" horiz-adv-x="803" 
d="M146 0v960h248l5 -131q36 74 101.5 112.5t148.5 38.5q62 0 125 -22l-20 -229q-64 22 -119 22q-45 0 -84.5 -13t-73.5 -41.5t-54 -81t-20 -123.5v-492h-257z" />
    <glyph glyph-name="s" unicode="s" horiz-adv-x="961" 
d="M72 203l172 139q44 -68 112 -108t141 -40q60 0 98.5 22.5t38.5 61.5q0 36 -36.5 55t-131.5 40q-86 19 -145.5 41t-111 57.5t-76.5 88t-25 124.5q0 132 107.5 214t267.5 82q252 0 385 -200l-164 -135q-75 119 -215 119q-63 0 -101.5 -20.5t-38.5 -56.5t39 -54.5t141 -43.5
q87 -21 146 -44.5t108 -59t72.5 -87t23.5 -120.5q0 -132 -110.5 -215t-268.5 -83q-139 0 -250 59.5t-178 163.5z" />
    <glyph glyph-name="t" unicode="t" horiz-adv-x="808" 
d="M195 747h-162v213h163v308h249v-308h288v-213h-282v-395q0 -73 37.5 -108.5t104.5 -35.5q82 0 163 33l24 -213q-44 -22 -108.5 -35t-123.5 -13q-163 0 -258 85t-95 250v432z" />
    <glyph glyph-name="u" unicode="u" horiz-adv-x="1203" 
d="M511 -25q-168 0 -273 102.5t-105 273.5v609h256v-543q0 -97 55.5 -150.5t142.5 -53.5q91 0 153 54t62 150v543h256v-960h-244l-5 106q-41 -56 -118.5 -93.5t-179.5 -37.5z" />
    <glyph glyph-name="v" unicode="v" horiz-adv-x="1092" 
d="M391 0l-366 960h272l250 -709l249 709h272l-365 -960h-312z" />
    <glyph glyph-name="w" unicode="w" horiz-adv-x="1613" 
d="M316 0l-283 960h265l189 -699l206 684h228l205 -684l190 699h265l-283 -960h-319l-172 582l-172 -582h-319z" />
    <glyph glyph-name="x" unicode="x" horiz-adv-x="1054" 
d="M19 0l353 490l-350 470h295l209 -296l208 296h294l-348 -470l356 -490h-289l-221 319l-219 -319h-288z" />
    <glyph glyph-name="y" unicode="y" horiz-adv-x="1103" 
d="M415 -1l-397 961h284l251 -699l248 699h285l-453 -1091q-60 -144 -156 -216.5t-245 -72.5q-99 0 -183 42l32 206q59 -25 121 -25q79 0 134.5 52t78.5 144z" />
    <glyph glyph-name="z" unicode="z" horiz-adv-x="916" 
d="M77 0v185l454 561h-449v214h742v-186l-454 -560h484v-214h-777z" />
    <glyph glyph-name="braceleft" unicode="{" horiz-adv-x="740" 
d="M30 675h36q78 0 118.5 31t40.5 114v333q0 29 2 81q9 167 95 253t283 86q56 0 101 -4v-196h-32q-121 0 -168 -44.5t-47 -176.5v-341q0 -174 -118 -235q123 -66 123 -234v-328q0 -137 43.5 -185.5t158.5 -48.5q26 0 40 1v-196q-60 -5 -101 -5q-196 0 -282.5 91t-95.5 260
q-2 52 -2 80v321q0 75 -33 110.5t-126 35.5h-36v197z" />
    <glyph glyph-name="bar" unicode="|" horiz-adv-x="572" 
d="M406 1758v-2158h-239v2158h239z" />
    <glyph glyph-name="braceright" unicode="}" horiz-adv-x="740" 
d="M35 1373v196q45 4 101 4q197 0 283 -86t95 -253q2 -52 2 -81v-333q0 -83 40.5 -114t118.5 -31h36v-197h-36q-93 0 -126 -35.5t-33 -110.5v-321q0 -28 -2 -80q-9 -169 -95.5 -260t-282.5 -91q-41 0 -101 5v196q14 -1 40 -1q115 0 158.5 48.5t43.5 185.5v328q0 168 123 234
q-118 61 -118 235v341q0 132 -47 176.5t-168 44.5h-32z" />
    <glyph glyph-name="asciitilde" unicode="~" horiz-adv-x="1273" 
d="M221 411l-137 190q86 88 176.5 133.5t172.5 45.5q62 0 119.5 -18.5t94.5 -40.5t89 -40.5t104 -18.5q42 0 80.5 14.5t61.5 30t72 53.5l136 -189q-86 -88 -176.5 -134t-171.5 -46q-49 0 -94 12.5t-80 30t-69.5 35t-76.5 30t-87 12.5q-92 0 -214 -100z" />
    <glyph glyph-name="uni00A0" unicode="&#xa0;" horiz-adv-x="525" 
 />
    <glyph glyph-name="exclamdown" unicode="&#xa1;" horiz-adv-x="556" 
d="M426 -397h-293l44 969h200zM276 685q-63 0 -105.5 42.5t-42.5 104.5t42.5 105t105.5 43t106 -43t43 -105t-43 -104.5t-106 -42.5z" />
    <glyph glyph-name="cent" unicode="&#xa2;" horiz-adv-x="1147" 
d="M102 681q0 187 120 325t302 168v167h164v-164q119 -18 218 -87t154 -182l-195 -124q-61 121 -177 152v-515q112 29 182 156l185 -130q-55 -109 -152.5 -176t-214.5 -86v-185h-164v186q-185 29 -303.5 167.5t-118.5 327.5zM524 427v503q-76 -28 -121.5 -96.5t-45.5 -157.5
q0 -86 46 -153.5t121 -95.5z" />
    <glyph glyph-name="sterling" unicode="&#xa3;" horiz-adv-x="1235" 
d="M1114 0h-1032v202q102 58 145 116t42 145l-1 145h-179v179h178l-1 167q-1 194 127 309t329 115q160 0 281.5 -85t175.5 -243l-216 -110q-79 194 -240 194q-88 0 -143 -50t-55 -144v-153h365v-179h-364v-116q0 -188 -100 -264h688v-228z" />
    <glyph glyph-name="currency" unicode="&#xa4;" horiz-adv-x="1243" 
d="M91 1032l155 155l167 -168q98 56 207 56q112 0 211 -56l167 168l155 -155l-169 -167q55 -94 55 -204q0 -115 -60 -209l174 -172l-155 -155l-174 176q-97 -51 -204 -51q-104 0 -198 51l-176 -176l-155 155l172 172q-57 97 -57 209q0 111 54 204zM418 661q0 -83 59 -141
t143 -58q86 0 147 58t61 141q0 85 -61 145t-147 60q-84 0 -143 -60t-59 -145z" />
    <glyph glyph-name="yen" unicode="&#xa5;" horiz-adv-x="1392" 
d="M251 496v154h228l-442 708h322l341 -571l345 571h312l-439 -708h221v-154h-306v-102h306v-154h-306v-240h-269v240h-313v154h313v102h-313z" />
    <glyph glyph-name="brokenbar" unicode="&#xa6;" horiz-adv-x="572" 
d="M406 910h-239v848h239v-848zM167 448h239v-848h-239v848z" />
    <glyph glyph-name="section" unicode="&#xa7;" horiz-adv-x="1166" 
d="M589 -342q-192 0 -322.5 82t-188.5 211l191 124q42 -88 124 -143t195 -55q95 0 155 36.5t59 93.5q-1 63 -59.5 98t-193.5 74q-241 69 -336.5 156t-95.5 232q0 61 37 122t92 102q-112 94 -112 243q0 147 127.5 245.5t318.5 98.5q169 0 289 -72.5t186 -181.5l-185 -128
q-114 166 -289 166q-85 0 -139 -36.5t-53 -94.5q0 -23 7.5 -41.5t26.5 -34.5t36.5 -27t54.5 -24.5t62 -21.5t77 -24q243 -72 337.5 -157.5t94.5 -229.5q0 -63 -38 -124.5t-96 -102.5q106 -95 106 -240q0 -148 -134 -247t-334 -99zM587 636q-82 22 -158 52q-65 -51 -65 -120
q0 -52 57.5 -90t193.5 -76q95 -27 157 -53q66 50 66 121q0 52 -58 90.5t-193 75.5z" />
    <glyph glyph-name="dieresis" unicode="&#xa8;" horiz-adv-x="923" 
d="M507 1628q0 61 38 99t99 38t99.5 -38t38.5 -99t-38.5 -98.5t-99.5 -37.5t-99 37.5t-38 98.5zM142 1628q0 61 38 99t98 38q61 0 99.5 -38t38.5 -99t-38.5 -98.5t-99.5 -37.5q-60 0 -98 37.5t-38 98.5z" />
    <glyph glyph-name="copyright" unicode="&#xa9;" horiz-adv-x="1663" 
d="M103 680q0 146 60.5 276.5t160 222.5t232.5 145.5t275 53.5q192 0 359 -90.5t269 -252.5t102 -355q0 -147 -60 -278.5t-159.5 -223t-233 -145t-277.5 -53.5t-277.5 54t-232.5 146.5t-158.5 223.5t-59.5 276zM199 680q0 -128 51.5 -242.5t137 -196t202 -129t241.5 -47.5
t241.5 48t202.5 130t138 196.5t52 240.5q0 168 -87.5 310t-233.5 223.5t-313 81.5t-312 -81.5t-232.5 -223.5t-87.5 -310zM429 678q0 168 115 281.5t291 113.5q105 0 191.5 -50t137.5 -137l-70 -49q-94 148 -260 148q-133 0 -222 -88.5t-89 -218.5q0 -127 88 -215t220 -88
q82 0 152.5 40.5t114.5 107.5l69 -49q-51 -86 -141.5 -136.5t-195.5 -50.5q-171 0 -286 113t-115 278z" />
    <glyph glyph-name="ordfeminine" unicode="&#xaa;" horiz-adv-x="815" 
d="M347 750q-100 0 -161 50.5t-61 133.5q0 85 70.5 137.5t184.5 52.5q77 0 131 -21v6q0 48 -34 79t-90 31q-93 0 -158 -65l-96 116q41 44 113.5 76t153.5 32q129 0 204.5 -64t75.5 -174v-378h-159v66q-56 -78 -174 -78zM131 515v140h554v-140h-554zM398 1006q-50 0 -78 -17
t-28 -47t23 -47t59 -17q53 0 95 31.5t42 71.5q-38 25 -113 25z" />
    <glyph glyph-name="guillemotleft" unicode="&#xab;" horiz-adv-x="1086" 
d="M495 480l272 395h235l-254 -395l254 -394h-235zM359 86l-272 394l272 395h235l-254 -395l254 -394h-235z" />
    <glyph glyph-name="logicalnot" unicode="&#xac;" horiz-adv-x="1304" 
d="M909 386v359h-842v240h1109v-599h-267z" />
    <glyph glyph-name="uni00AD" unicode="&#xad;" horiz-adv-x="847" 
d="M728 667v-214h-608v214h608z" />
    <glyph glyph-name="registered" unicode="&#xae;" horiz-adv-x="1263" 
d="M629 541q-148 0 -270.5 68t-192.5 186t-70 260t70 260t192.5 185.5t270.5 67.5q149 0 273 -67.5t195.5 -185.5t71.5 -260t-71.5 -260.5t-195.5 -186t-273 -67.5zM629 1488q-186 0 -314.5 -125.5t-128.5 -307.5q0 -181 128.5 -305.5t314.5 -124.5q188 0 319 124.5
t131 305.5q0 182 -130.5 307.5t-319.5 125.5zM439 805v506h216q80 0 127.5 -42t47.5 -113q0 -52 -26.5 -89t-71.5 -51l123 -211h-99l-110 197h-122v-197h-85zM524 1078h129q43 0 66 21t23 57t-23 57.5t-66 21.5h-129v-157z" />
    <glyph glyph-name="macron" unicode="&#xaf;" horiz-adv-x="878" 
d="M735 1690v-174h-591v174h591z" />
    <glyph glyph-name="degree" unicode="&#xb0;" horiz-adv-x="862" 
d="M430 678q-156 0 -256 98t-100 250q0 154 100 253t256 99q157 0 258 -99t101 -253q0 -152 -101 -250t-258 -98zM259 1025q0 -75 48 -124.5t123 -49.5t122 49t47 125q0 79 -47 129t-122 50t-123 -50.5t-48 -128.5z" />
    <glyph glyph-name="plusminus" unicode="&#xb1;" horiz-adv-x="1280" 
d="M113 1018h394v339h265v-339h395v-240h-395v-348h-265v348h-394v240zM105 22v237h1070v-237h-1070z" />
    <glyph glyph-name="twosuperior" unicode="&#xb2;" horiz-adv-x="734" 
d="M61 1166q33 94 115.5 153t179.5 59q131 0 218 -71.5t87 -189.5q0 -30 -7.5 -58t-18 -50.5t-30 -46t-35.5 -39.5t-42 -36.5t-43 -32.5t-45 -31.5t-41 -28.5t-37.5 -26t-38.5 -26.5t-28 -22.5t-18 -22h390v-163h-592v102q0 28 6.5 54t24 51.5t29.5 42.5t42.5 43t42 35.5
t49.5 37.5t44 33q9 7 32 24.5t31 23.5t25.5 20t24 21.5t17.5 20t15 22.5t7.5 22.5t3.5 25.5q0 46 -30.5 72t-80.5 26q-48 0 -88.5 -32t-61.5 -88z" />
    <glyph glyph-name="threesuperior" unicode="&#xb3;" horiz-adv-x="745" 
d="M63 718l144 85q22 -56 70 -91t101 -35q51 0 80.5 26.5t29.5 66.5q0 51 -36.5 81.5t-92.5 30.5h-127v141h127q50 0 80.5 29t30.5 76q0 39 -29.5 63t-76.5 24q-56 0 -97 -32.5t-62 -86.5l-141 85q34 84 112 140.5t188 56.5q125 0 210.5 -65.5t85.5 -182.5q0 -55 -28 -103
t-71 -72q50 -23 84 -74.5t34 -112.5q0 -118 -88 -186t-209 -68q-109 0 -194 53.5t-125 150.5z" />
    <glyph glyph-name="acute" unicode="&#xb4;" horiz-adv-x="736" 
d="M593 1807l-233 -334h-216l157 334h292z" />
    <glyph glyph-name="paragraph" unicode="&#xb6;" horiz-adv-x="1325" 
d="M543 429q-212 0 -352 130t-140 335t140 334.5t352 129.5h683v-169h-393v-1589h-185v829h-105zM966 -400v1464h175v-1464h-175z" />
    <glyph glyph-name="periodcentered" unicode="&#xb7;" horiz-adv-x="518" 
d="M111 489q0 62 42.5 104.5t105.5 42.5t106 -42.5t43 -104.5t-43 -104.5t-106 -42.5t-105.5 42.5t-42.5 104.5z" />
    <glyph glyph-name="cedilla" unicode="&#xb8;" horiz-adv-x="670" 
d="M246 -467q-94 0 -152 26v142q60 -19 130 -19q118 0 118 66q0 67 -126 67h-71l83 212h141l-35 -113q102 -12 156.5 -60.5t54.5 -121.5q0 -91 -81.5 -145t-217.5 -54z" />
    <glyph glyph-name="onesuperior" unicode="&#xb9;" horiz-adv-x="498" 
d="M203 534v664h-170v160h353v-824h-183z" />
    <glyph glyph-name="ordmasculine" unicode="&#xba;" horiz-adv-x="893" 
d="M120 1058q0 139 92.5 229.5t233.5 90.5q142 0 235 -90.5t93 -229.5q0 -138 -93 -226.5t-235 -88.5q-141 0 -233.5 88.5t-92.5 226.5zM135 645h624v-148h-624v148zM297 1058q0 -65 41.5 -107t107.5 -42q65 0 106 42t41 107q0 66 -41 109.5t-106 43.5q-66 0 -107.5 -43.5
t-41.5 -109.5z" />
    <glyph glyph-name="guillemotright" unicode="&#xbb;" horiz-adv-x="1086" 
d="M728 86h-235l254 394l-254 395h235l272 -395zM339 480l-254 395h235l272 -395l-272 -394h-235z" />
    <glyph glyph-name="onequarter" unicode="&#xbc;" horiz-adv-x="1613" 
d="M841 183v139l387 502h176v-481h108v-160h-108v-183h-173v183h-390zM239 26l734 1332h155v-24l-732 -1334h-157v26zM251 1194h-170v160h353v-824h-183v664zM1061 343h170v226z" />
    <glyph glyph-name="onehalf" unicode="&#xbd;" horiz-adv-x="1712" 
d="M1108 557l-147 75q33 94 115.5 153t179.5 59q131 0 218 -71.5t87 -189.5q0 -30 -7.5 -58t-18 -50.5t-30 -46t-35.5 -39.5t-42 -36.5t-43 -32.5t-45 -31.5t-41 -28.5t-37.5 -26t-38.5 -26.5t-28 -22.5t-18 -22h390v-163h-592v102q0 28 6.5 54t24 51.5t29.5 42.5t42.5 43
t42 35.5t49.5 37.5t44 33q9 7 32 24.5t31 23.5t25.5 20t24 21.5t17.5 20t15 22.5t7.5 22.5t3.5 25.5q0 46 -30.5 72t-80.5 26q-48 0 -88.5 -32t-61.5 -88zM259 26l734 1332h155v-24l-732 -1334h-157v26zM251 1194h-170v160h353v-824h-183v664z" />
    <glyph glyph-name="threequarters" unicode="&#xbe;" horiz-adv-x="1797" 
d="M388 520q-109 0 -194 53.5t-125 150.5l144 85q22 -56 70 -91t101 -35q51 0 80.5 26.5t29.5 66.5q0 51 -36.5 81.5t-92.5 30.5h-127v141h127q50 0 80.5 29t30.5 76q0 39 -29.5 63t-76.5 24q-56 0 -97 -32.5t-62 -86.5l-141 85q34 84 112 140.5t188 56.5q125 0 210.5 -65.5
t85.5 -182.5q0 -55 -28 -103t-71 -72q50 -23 84 -74.5t34 -112.5q0 -118 -88 -186t-209 -68zM1050 183v139l387 502h176v-481h108v-160h-108v-183h-173v183h-390zM645 0h-157v26l734 1332h155v-24zM1270 343h170v226z" />
    <glyph glyph-name="questiondown" unicode="&#xbf;" horiz-adv-x="1025" 
d="M-4 -34q0 69 36.5 136.5t88 123t103.5 110t88.5 117.5t36.5 125q0 16 -1 24h233q11 -41 11 -85q0 -57 -23.5 -111.5t-58.5 -95.5t-76 -85.5t-76 -81t-58.5 -81.5t-23.5 -88q0 -73 47 -111t124 -38q163 0 241 201l227 -108q-53 -151 -181 -243.5t-286 -92.5
q-122 0 -223 43.5t-165 132.5t-64 208zM465 980q63 0 105.5 -42.5t42.5 -104.5t-42.5 -104.5t-105.5 -42.5t-106 42.5t-43 104.5t43 104.5t106 42.5z" />
    <glyph glyph-name="Agrave" unicode="&#xc0;" horiz-adv-x="1414" 
d="M4 0l548 1358h310l549 -1358h-288l-100 266h-630l-101 -266h-288zM708 1076l-239 -595h476zM362 1807h292l157 -334h-216z" />
    <glyph glyph-name="Aacute" unicode="&#xc1;" horiz-adv-x="1414" 
d="M292 0h-288l548 1358h310l549 -1358h-288l-100 266h-630zM708 1076l-239 -595h476zM614 1473l157 334h292l-233 -334h-216z" />
    <glyph glyph-name="Acircumflex" unicode="&#xc2;" horiz-adv-x="1414" 
d="M4 0l548 1358h310l549 -1358h-288l-100 266h-630l-101 -266h-288zM708 1076l-239 -595h476zM579 1471h-226l287 370h135l287 -370h-227l-128 178z" />
    <glyph glyph-name="Atilde" unicode="&#xc3;" horiz-adv-x="1414" 
d="M4 0l548 1358h310l549 -1358h-288l-100 266h-630l-101 -266h-288zM469 481h476l-237 595zM460 1506l-109 96q103 183 237 183q41 0 87.5 -22.5t88.5 -44.5t72 -22q37 0 64.5 19.5t58.5 64.5l105 -99q-52 -93 -111 -135.5t-133 -42.5q-49 0 -117.5 37t-92.5 42
q-34 7 -55 3q-40 -7 -95 -79z" />
    <glyph glyph-name="Adieresis" unicode="&#xc4;" horiz-adv-x="1414" 
d="M292 0h-288l548 1358h310l549 -1358h-288l-100 266h-630zM469 481h476l-237 595zM753 1628q0 61 38 99t99 38t99.5 -38t38.5 -99t-38.5 -98.5t-99.5 -37.5t-99 37.5t-38 98.5zM524 1492q-60 0 -98 37.5t-38 98.5t38 99t98 38q61 0 99.5 -38t38.5 -99t-38.5 -98.5
t-99.5 -37.5z" />
    <glyph glyph-name="Aring" unicode="&#xc5;" horiz-adv-x="1414" 
d="M292 0h-288l548 1358h310l549 -1358h-288l-100 266h-630zM707 1485q-94 0 -154 58t-60 148q0 92 60 150.5t154 58.5t154.5 -58.5t60.5 -150.5q0 -90 -60.5 -148t-154.5 -58zM469 481h476l-237 595zM707 1767q-33 0 -53.5 -21.5t-20.5 -54.5q0 -31 20.5 -51.5t53.5 -20.5
t53 20.5t20 51.5q0 33 -20 54.5t-53 21.5z" />
    <glyph glyph-name="AE" unicode="&#xc6;" horiz-adv-x="1997" 
d="M258 0h-308l829 1358h1123v-234h-696v-313h604v-234h-604v-344h711v-233h-982v266h-517zM547 481h388v643z" />
    <glyph glyph-name="Ccedilla" unicode="&#xc7;" horiz-adv-x="1440" 
d="M81 679q0 196 91 356t250.5 251.5t355.5 91.5q187 0 347.5 -90t260.5 -249l-213 -152q-146 241 -395 241q-185 0 -302.5 -126t-117.5 -323t120.5 -323t306.5 -126q244 0 411 234l199 -144q-91 -153 -243 -241.5t-328 -97.5l-21 -67q102 -12 156.5 -60.5t54.5 -121.5
q0 -91 -81.5 -145t-217.5 -54q-94 0 -152 26v142q60 -19 130 -19q118 0 118 66q0 67 -126 67h-71l67 172q-260 36 -430 229.5t-170 462.5z" />
    <glyph glyph-name="Egrave" unicode="&#xc8;" horiz-adv-x="1231" 
d="M170 0v1358h966v-234h-696v-313h604v-234h-604v-344h711v-233h-981zM339 1807h292l157 -334h-216z" />
    <glyph glyph-name="Eacute" unicode="&#xc9;" horiz-adv-x="1231" 
d="M1151 0h-981v1358h966v-234h-696v-313h604v-234h-604v-344h711v-233zM594 1473l157 334h292l-233 -334h-216z" />
    <glyph glyph-name="Ecircumflex" unicode="&#xca;" horiz-adv-x="1231" 
d="M170 1358h966v-234h-696v-313h604v-234h-604v-344h711v-233h-981v1358zM551 1471h-226l287 370h135l287 -370h-227l-128 178z" />
    <glyph glyph-name="Edieresis" unicode="&#xcb;" horiz-adv-x="1231" 
d="M170 1358h966v-234h-696v-313h604v-234h-604v-344h711v-233h-981v1358zM854 1492q-61 0 -99 37.5t-38 98.5t38 99t99 38t99.5 -38t38.5 -99t-38.5 -98.5t-99.5 -37.5zM488 1492q-60 0 -98 37.5t-38 98.5t38 99t98 38q61 0 99.5 -38t38.5 -99t-38.5 -98.5t-99.5 -37.5z
" />
    <glyph glyph-name="Igrave" unicode="&#xcc;" horiz-adv-x="609" 
d="M440 1358v-1358h-270v1358h270zM195 1473l-233 334h292l157 -334h-216z" />
    <glyph glyph-name="Iacute" unicode="&#xcd;" horiz-adv-x="609" 
d="M440 1358v-1358h-270v1358h270zM643 1807l-233 -334h-216l157 334h292z" />
    <glyph glyph-name="Icircumflex" unicode="&#xce;" horiz-adv-x="609" 
d="M170 1358h270v-1358h-270v1358zM-50 1471l287 370h135l287 -370h-227l-128 178l-128 -178h-226z" />
    <glyph glyph-name="Idieresis" unicode="&#xcf;" horiz-adv-x="609" 
d="M170 1358h270v-1358h-270v1358zM350 1628q0 61 38 99t99 38t99.5 -38t38.5 -99t-38.5 -98.5t-99.5 -37.5t-99 37.5t-38 98.5zM121 1492q-60 0 -98 37.5t-38 98.5t38 99t98 38q61 0 99.5 -38t38.5 -99t-38.5 -98.5t-99.5 -37.5z" />
    <glyph glyph-name="Eth" unicode="&#xd0;" horiz-adv-x="1555" 
d="M78 607v179h133v571h562q199 0 359.5 -88.5t251 -243.5t90.5 -347t-90.5 -347.5t-251 -243.5t-359.5 -88h-562v608h-133zM481 786h400v-179h-400v-375h284q191 0 312 127.5t121 318.5q0 190 -121 318.5t-312 128.5h-284v-339z" />
    <glyph glyph-name="Ntilde" unicode="&#xd1;" horiz-adv-x="1605" 
d="M440 0h-270v1358h245l751 -932v932h270v-1358h-249l-747 922v-922zM450 1602q103 183 237 183q41 0 87.5 -22.5t88.5 -44.5t72 -22q37 0 64.5 19.5t58.5 64.5l105 -99q-52 -93 -111 -135.5t-133 -42.5q-49 0 -117.5 37t-92.5 42q-34 7 -55 3q-40 -7 -95 -79z" />
    <glyph glyph-name="Ograve" unicode="&#xd2;" horiz-adv-x="1586" 
d="M793 -20q-204 0 -366 88t-253.5 247t-91.5 361q0 152 53.5 283t147.5 222.5t226 144t284 52.5q204 0 366.5 -89.5t254 -250t91.5 -362.5t-91.5 -361t-254 -247t-366.5 -88zM360 677q0 -198 122 -322t312 -124q191 0 312.5 123.5t121.5 322.5q0 198 -121.5 323.5
t-312.5 125.5q-190 0 -312 -126t-122 -323zM465 1807h292l157 -334h-216z" />
    <glyph glyph-name="Oacute" unicode="&#xd3;" horiz-adv-x="1586" 
d="M793 -20q-204 0 -366 88t-253.5 247t-91.5 361q0 152 53.5 283t147.5 222.5t226 144t284 52.5q204 0 366.5 -89.5t254 -250t91.5 -362.5t-91.5 -361t-254 -247t-366.5 -88zM360 677q0 -198 122 -322t312 -124q191 0 312.5 123.5t121.5 322.5q0 198 -121.5 323.5
t-312.5 125.5q-190 0 -312 -126t-122 -323zM694 1473l157 334h292l-233 -334h-216z" />
    <glyph glyph-name="Ocircumflex" unicode="&#xd4;" horiz-adv-x="1586" 
d="M793 -20q-204 0 -366 88t-253.5 247t-91.5 361q0 152 53.5 283t147.5 222.5t226 144t284 52.5q204 0 366.5 -89.5t254 -250t91.5 -362.5t-91.5 -361t-254 -247t-366.5 -88zM794 1126q-190 0 -312 -126t-122 -323q0 -198 122 -322t312 -124q191 0 312.5 123.5t121.5 322.5
q0 198 -121.5 323.5t-312.5 125.5zM665 1471h-226l287 370h135l287 -370h-227l-128 178z" />
    <glyph glyph-name="Otilde" unicode="&#xd5;" horiz-adv-x="1586" 
d="M793 -20q-204 0 -366 88t-253.5 247t-91.5 361q0 152 53.5 283t147.5 222.5t226 144t284 52.5q204 0 366.5 -89.5t254 -250t91.5 -362.5t-91.5 -361t-254 -247t-366.5 -88zM360 677q0 -198 122 -322t312 -124q191 0 312.5 123.5t121.5 322.5q0 198 -121.5 323.5
t-312.5 125.5q-190 0 -312 -126t-122 -323zM437 1602q103 183 237 183q41 0 87.5 -22.5t88.5 -44.5t72 -22q37 0 64.5 19.5t58.5 64.5l105 -99q-52 -93 -111 -135.5t-133 -42.5q-49 0 -117.5 37t-92.5 42q-34 7 -55 3q-40 -7 -95 -79z" />
    <glyph glyph-name="Odieresis" unicode="&#xd6;" horiz-adv-x="1586" 
d="M82 676q0 152 53.5 283t147.5 222.5t226 144t284 52.5q204 0 366.5 -89.5t254 -250t91.5 -362.5t-91.5 -361t-254 -247t-366.5 -88t-366 88t-253.5 247t-91.5 361zM360 677q0 -198 122 -322t312 -124q191 0 312.5 123.5t121.5 322.5q0 198 -121.5 323.5t-312.5 125.5
q-190 0 -312 -126t-122 -323zM839 1628q0 61 38 99t99 38t99.5 -38t38.5 -99t-38.5 -98.5t-99.5 -37.5t-99 37.5t-38 98.5zM610 1492q-60 0 -98 37.5t-38 98.5t38 99t98 38q61 0 99.5 -38t38.5 -99t-38.5 -98.5t-99.5 -37.5z" />
    <glyph glyph-name="multiply" unicode="&#xd7;" horiz-adv-x="1215" 
d="M86 336l343 343l-343 343l180 179l342 -343l343 343l179 -179l-343 -343l343 -343l-179 -179l-343 343l-343 -343z" />
    <glyph glyph-name="Oslash" unicode="&#xd8;" horiz-adv-x="1586" 
d="M82 676q0 152 53.5 283t147.5 222.5t226 144t284 52.5q178 0 327 -70l119 170l148 -108l-113 -162q110 -95 170.5 -232t60.5 -300q0 -202 -91.5 -361t-254 -247t-366.5 -88q-180 0 -327 69l-118 -169l-148 108l112 160q-110 95 -170 230t-60 298zM1119 986l-503 -721
q83 -34 178 -34q191 0 312.5 123.5t121.5 322.5q0 186 -109 309zM467 371l503 721q-82 34 -176 34q-190 0 -312 -126t-122 -323q0 -183 107 -306z" />
    <glyph glyph-name="Ugrave" unicode="&#xd9;" horiz-adv-x="1471" 
d="M736 -20q-262 0 -421.5 146t-159.5 390v842h269v-836q0 -136 87.5 -218t224.5 -82t224.5 82t87.5 218v836h269v-842q0 -244 -159.5 -390t-421.5 -146zM413 1807h292l157 -334h-216z" />
    <glyph glyph-name="Uacute" unicode="&#xda;" horiz-adv-x="1471" 
d="M736 -20q-262 0 -421.5 146t-159.5 390v842h269v-836q0 -136 87.5 -218t224.5 -82t224.5 82t87.5 218v836h269v-842q0 -244 -159.5 -390t-421.5 -146zM857 1473h-216l157 334h292z" />
    <glyph glyph-name="Ucircumflex" unicode="&#xdb;" horiz-adv-x="1471" 
d="M736 -20q-262 0 -421.5 146t-159.5 390v842h269v-836q0 -136 87.5 -218t224.5 -82t224.5 82t87.5 218v836h269v-842q0 -244 -159.5 -390t-421.5 -146zM608 1471h-226l287 370h135l287 -370h-227l-128 178z" />
    <glyph glyph-name="Udieresis" unicode="&#xdc;" horiz-adv-x="1471" 
d="M736 -20q-262 0 -421.5 146t-159.5 390v842h269v-836q0 -136 87.5 -218t224.5 -82t224.5 82t87.5 218v836h269v-842q0 -244 -159.5 -390t-421.5 -146zM918 1492q-61 0 -99 37.5t-38 98.5t38 99t99 38t99.5 -38t38.5 -99t-38.5 -98.5t-99.5 -37.5zM552 1492
q-60 0 -98 37.5t-38 98.5t38 99t98 38q61 0 99.5 -38t38.5 -99t-38.5 -98.5t-99.5 -37.5z" />
    <glyph glyph-name="Yacute" unicode="&#xdd;" horiz-adv-x="1337" 
d="M9 1358h322l341 -571l345 571h312l-524 -845v-513h-269v513zM790 1473h-216l157 334h292z" />
    <glyph glyph-name="Thorn" unicode="&#xde;" horiz-adv-x="1407" 
d="M439 0h-269v1358h269v-191h377q146 0 258 -53t179 -164.5t67 -267.5q0 -148 -67 -259t-180.5 -167.5t-256.5 -56.5h-377v-199zM439 432h331q124 0 198 66.5t74 182.5q0 123 -73 187.5t-199 64.5h-331v-501z" />
    <glyph glyph-name="germandbls" unicode="&#xdf;" horiz-adv-x="1345" 
d="M403 0h-257v968q0 205 144.5 332.5t376.5 127.5q237 0 374 -107t137 -292q0 -102 -57 -179t-143 -106q135 -29 214.5 -129.5t79.5 -231.5q0 -175 -119.5 -289t-302.5 -114q-122 0 -225 54.5t-155 146.5l168 153q80 -119 197 -119q76 0 120 47.5t44 127.5q0 100 -80 156
t-222 56q-27 0 -87 -4v202q84 2 148.5 24t105.5 71t41 120q0 80 -67.5 130.5t-174.5 50.5q-119 0 -189.5 -69t-70.5 -186v-941z" />
    <glyph glyph-name="agrave" unicode="&#xe0;" horiz-adv-x="1093" 
d="M82 275q0 137 115.5 222t305.5 85q109 0 202 -33v22q0 80 -58.5 131.5t-149.5 51.5q-140 0 -254 -121l-147 147q61 79 167 139.5t242 60.5q211 0 333.5 -104.5t122.5 -284.5v-591h-244v107q-39 -59 -110.5 -93t-161.5 -34q-164 0 -263.5 81t-99.5 214zM188 1455h292
l157 -334h-216zM325 289q0 -54 43.5 -86t116.5 -32q94 0 157 57t63 146q-83 37 -184 37q-88 0 -142 -33.5t-54 -88.5z" />
    <glyph glyph-name="aacute" unicode="&#xe1;" horiz-adv-x="1093" 
d="M82 275q0 137 115.5 222t305.5 85q109 0 202 -33v22q0 80 -58.5 131.5t-149.5 51.5q-140 0 -254 -121l-147 147q61 79 167 139.5t242 60.5q211 0 333.5 -104.5t122.5 -284.5v-591h-244v107q-39 -59 -110.5 -93t-161.5 -34q-164 0 -263.5 81t-99.5 214zM433 1113l157 334
h292l-233 -334h-216zM521 411q-88 0 -142 -33.5t-54 -88.5q0 -54 43.5 -86t116.5 -32q94 0 157 57t63 146q-83 37 -184 37z" />
    <glyph glyph-name="acircumflex" unicode="&#xe2;" horiz-adv-x="1093" 
d="M82 275q0 137 115.5 222t305.5 85q109 0 202 -33v22q0 80 -58.5 131.5t-149.5 51.5q-140 0 -254 -121l-147 147q61 79 167 139.5t242 60.5q211 0 333.5 -104.5t122.5 -284.5v-591h-244v107q-39 -59 -110.5 -93t-161.5 -34q-164 0 -263.5 81t-99.5 214zM406 1084h-226
l287 370h135l287 -370h-227l-128 178zM521 411q-88 0 -142 -33.5t-54 -88.5q0 -54 43.5 -86t116.5 -32q94 0 157 57t63 146q-83 37 -184 37z" />
    <glyph glyph-name="atilde" unicode="&#xe3;" horiz-adv-x="1093" 
d="M445 -20q-164 0 -263.5 81t-99.5 214q0 137 115.5 222t305.5 85q109 0 202 -33v22q0 80 -58.5 131.5t-149.5 51.5q-140 0 -254 -121l-147 147q61 79 167 139.5t242 60.5q211 0 333.5 -104.5t122.5 -284.5v-591h-244v107q-39 -59 -110.5 -93t-161.5 -34zM271 1146l-109 96
q103 183 237 183q41 0 87.5 -22.5t88.5 -44.5t72 -22q37 0 64.5 19.5t58.5 64.5l105 -99q-52 -93 -111 -135.5t-133 -42.5q-49 0 -117.5 37t-92.5 42q-34 7 -55 3q-40 -7 -95 -79zM325 289q0 -54 43.5 -86t116.5 -32q94 0 157 57t63 146q-83 37 -184 37q-88 0 -142 -33.5
t-54 -88.5z" />
    <glyph glyph-name="adieresis" unicode="&#xe4;" horiz-adv-x="1093" 
d="M445 -20q-164 0 -263.5 81t-99.5 214q0 137 115.5 222t305.5 85q109 0 202 -33v22q0 80 -58.5 131.5t-149.5 51.5q-140 0 -254 -121l-147 147q61 79 167 139.5t242 60.5q211 0 333.5 -104.5t122.5 -284.5v-591h-244v107q-39 -59 -110.5 -93t-161.5 -34zM521 411
q-88 0 -142 -33.5t-54 -88.5q0 -54 43.5 -86t116.5 -32q94 0 157 57t63 146q-83 37 -184 37zM566 1291q0 61 38 99t99 38t99.5 -38t38.5 -99t-38.5 -98.5t-99.5 -37.5t-99 37.5t-38 98.5zM201 1291q0 61 38 99t98 38q61 0 99.5 -38t38.5 -99t-38.5 -98.5t-99.5 -37.5
q-60 0 -98 37.5t-38 98.5z" />
    <glyph glyph-name="aring" unicode="&#xe5;" horiz-adv-x="1093" 
d="M445 -20q-164 0 -263.5 81t-99.5 214q0 137 115.5 222t305.5 85q109 0 202 -33v22q0 80 -58.5 131.5t-149.5 51.5q-140 0 -254 -121l-147 147q61 79 167 139.5t242 60.5q211 0 333.5 -104.5t122.5 -284.5v-591h-244v107q-39 -59 -110.5 -93t-161.5 -34zM331 1289
q0 92 60 150.5t154 58.5t154.5 -58.5t60.5 -150.5q0 -90 -60.5 -148t-154.5 -58t-154 58t-60 148zM521 411q-88 0 -142 -33.5t-54 -88.5q0 -54 43.5 -86t116.5 -32q94 0 157 57t63 146q-83 37 -184 37zM471 1289q0 -31 20.5 -51.5t53.5 -20.5t53 20.5t20 51.5q0 33 -20 54.5
t-53 21.5t-53.5 -21.5t-20.5 -54.5z" />
    <glyph glyph-name="ae" unicode="&#xe6;" horiz-adv-x="1743" 
d="M486 -20q-182 0 -292.5 81t-110.5 214q0 137 115.5 222t305.5 85q114 0 212 -33v22q0 80 -61 131.5t-157 51.5q-140 0 -254 -121l-147 147q61 79 167 139.5t242 60.5q232 0 341 -156q65 75 156 115.5t198 40.5q203 0 334 -127t131 -341q0 -52 -9 -109h-694
q14 -83 88.5 -137.5t167.5 -54.5q147 0 239 135l182 -136q-66 -110 -181.5 -170.5t-245.5 -60.5q-119 0 -215.5 45.5t-161.5 127.5q-63 -82 -153.5 -127t-196.5 -45zM326 289q0 -52 43 -83t117 -31q98 0 164 55.5t66 143.5q-88 37 -194 37q-88 0 -142 -33.5t-54 -88.5z
M967 575h460q-10 82 -71.5 135.5t-151.5 53.5q-94 0 -160 -53.5t-77 -135.5z" />
    <glyph glyph-name="ccedilla" unicode="&#xe7;" horiz-adv-x="1088" 
d="M75 482q0 210 149 355.5t363 145.5q140 0 261 -71.5t185 -202.5l-195 -124q-40 80 -106.5 121t-140.5 41q-114 0 -187.5 -77.5t-73.5 -192.5q0 -112 73.5 -188.5t183.5 -76.5q164 0 256 166l185 -130q-58 -114 -163 -183t-230 -82l-21 -69q102 -12 156.5 -60.5
t54.5 -121.5q0 -91 -81.5 -145t-217.5 -54q-94 0 -152 26v142q60 -19 130 -19q118 0 118 66q0 67 -126 67h-71l67 172q-183 30 -300 169t-117 326z" />
    <glyph glyph-name="egrave" unicode="&#xe8;" horiz-adv-x="1111" 
d="M76 481q1 219 140.5 359t353.5 140q203 0 334 -127t131 -341q0 -52 -9 -109h-694q14 -83 88.5 -137.5t167.5 -54.5q147 0 239 135l182 -136q-66 -110 -181.5 -170.5t-245.5 -60.5q-150 0 -266.5 67t-178 181t-61.5 254zM473 1121l-233 334h292l157 -334h-216zM336 575
h460q-10 82 -71.5 135.5t-151.5 53.5q-94 0 -160 -53.5t-77 -135.5z" />
    <glyph glyph-name="eacute" unicode="&#xe9;" horiz-adv-x="1111" 
d="M76 481q1 219 140.5 359t353.5 140q203 0 334 -127t131 -341q0 -52 -9 -109h-694q14 -83 88.5 -137.5t167.5 -54.5q147 0 239 135l182 -136q-66 -110 -181.5 -170.5t-245.5 -60.5q-150 0 -266.5 67t-178 181t-61.5 254zM691 1113h-216l157 334h292zM336 575h460
q-10 82 -71.5 135.5t-151.5 53.5q-94 0 -160 -53.5t-77 -135.5z" />
    <glyph glyph-name="ecircumflex" unicode="&#xea;" horiz-adv-x="1111" 
d="M76 481q1 219 140.5 359t353.5 140q203 0 334 -127t131 -341q0 -52 -9 -109h-694q14 -83 88.5 -137.5t167.5 -54.5q147 0 239 135l182 -136q-66 -110 -181.5 -170.5t-245.5 -60.5q-150 0 -266.5 67t-178 181t-61.5 254zM443 1084h-226l287 370h135l287 -370h-227
l-128 178zM336 575h460q-10 82 -71.5 135.5t-151.5 53.5q-94 0 -160 -53.5t-77 -135.5z" />
    <glyph glyph-name="edieresis" unicode="&#xeb;" horiz-adv-x="1111" 
d="M76 481q1 219 140.5 359t353.5 140q203 0 334 -127t131 -341q0 -52 -9 -109h-694q14 -83 88.5 -137.5t167.5 -54.5q147 0 239 135l182 -136q-66 -110 -181.5 -170.5t-245.5 -60.5q-150 0 -266.5 67t-178 181t-61.5 254zM573 764q-94 0 -160 -53.5t-77 -135.5h460
q-10 82 -71.5 135.5t-151.5 53.5zM733 1155q-61 0 -99 37.5t-38 98.5t38 99t99 38t99.5 -38t38.5 -99t-38.5 -98.5t-99.5 -37.5zM231 1291q0 61 38 99t98 38q61 0 99.5 -38t38.5 -99t-38.5 -98.5t-99.5 -37.5q-60 0 -98 37.5t-38 98.5z" />
    <glyph glyph-name="igrave" unicode="&#xec;" horiz-adv-x="548" 
d="M403 0h-257v960h257v-960zM154 1121l-233 334h292l157 -334h-216z" />
    <glyph glyph-name="iacute" unicode="&#xed;" horiz-adv-x="548" 
d="M403 0h-257v960h257v-960zM605 1447l-233 -334h-216l157 334h292z" />
    <glyph glyph-name="icircumflex" unicode="&#xee;" horiz-adv-x="548" 
d="M403 0h-257v960h257v-960zM-80 1084l287 370h135l287 -370h-227l-128 178l-128 -178h-226z" />
    <glyph glyph-name="idieresis" unicode="&#xef;" horiz-adv-x="548" 
d="M146 0v960h257v-960h-257zM319 1291q0 61 38 99t99 38t99.5 -38t38.5 -99t-38.5 -98.5t-99.5 -37.5t-99 37.5t-38 98.5zM90 1155q-60 0 -98 37.5t-38 98.5t38 99t98 38q61 0 99.5 -38t38.5 -99t-38.5 -98.5t-99.5 -37.5z" />
    <glyph glyph-name="eth" unicode="&#xf0;" horiz-adv-x="1161" 
d="M570 -20q-218 0 -355 129t-137 336q0 205 126.5 333t329.5 128q85 0 157 -33t105 -79q-41 187 -230 334l-206 -153l-97 136l151 112q-77 40 -157 67l122 190q125 -46 232 -111l201 149l93 -137l-154 -115q318 -278 318 -727q0 -249 -138 -404t-361 -155zM567 686
q-102 0 -165.5 -67t-63.5 -174q0 -103 63.5 -167.5t165.5 -64.5q103 0 167 64.5t64 167.5q0 107 -64 174t-167 67z" />
    <glyph glyph-name="ntilde" unicode="&#xf1;" horiz-adv-x="1202" 
d="M402 0h-256v960h244l5 -111q42 56 119 93.5t177 37.5q168 0 273.5 -103t105.5 -274v-603h-256v537q0 97 -55.5 151t-143.5 54q-89 0 -151 -54.5t-62 -150.5v-537zM241 1242q103 183 237 183q41 0 87.5 -22.5t88.5 -44.5t72 -22q37 0 64.5 19.5t58.5 64.5l105 -99
q-52 -93 -111 -135.5t-133 -42.5q-49 0 -117.5 37t-92.5 42q-34 7 -55 3q-40 -7 -95 -79z" />
    <glyph glyph-name="ograve" unicode="&#xf2;" horiz-adv-x="1245" 
d="M623 -20q-220 0 -366.5 143.5t-146.5 356.5t146.5 356.5t366.5 143.5t366.5 -143.5t146.5 -356.5q0 -140 -66 -254.5t-184 -180t-263 -65.5zM623 747q-112 0 -185 -76t-73 -191q0 -116 73 -192t185 -76q113 0 185.5 76t72.5 192q0 115 -72.5 191t-185.5 76zM290 1455h292
l157 -334h-216z" />
    <glyph glyph-name="oacute" unicode="&#xf3;" horiz-adv-x="1245" 
d="M110 480q0 213 146.5 356.5t366.5 143.5t366.5 -143.5t146.5 -356.5q0 -140 -66 -254.5t-184 -180t-263 -65.5q-220 0 -366.5 143.5t-146.5 356.5zM623 747q-112 0 -185 -76t-73 -191q0 -116 73 -192t185 -76q113 0 185.5 76t72.5 192q0 115 -72.5 191t-185.5 76z
M550 1113l157 334h292l-233 -334h-216z" />
    <glyph glyph-name="ocircumflex" unicode="&#xf4;" horiz-adv-x="1245" 
d="M110 480q0 213 146.5 356.5t366.5 143.5t366.5 -143.5t146.5 -356.5q0 -140 -66 -254.5t-184 -180t-263 -65.5q-220 0 -366.5 143.5t-146.5 356.5zM365 480q0 -116 73 -192t185 -76q113 0 185.5 76t72.5 192q0 115 -72.5 191t-185.5 76q-112 0 -185 -76t-73 -191z
M269 1084l287 370h135l287 -370h-227l-128 178l-128 -178h-226z" />
    <glyph glyph-name="otilde" unicode="&#xf5;" horiz-adv-x="1245" 
d="M623 -20q-220 0 -366.5 143.5t-146.5 356.5t146.5 356.5t366.5 143.5t366.5 -143.5t146.5 -356.5q0 -140 -66 -254.5t-184 -180t-263 -65.5zM623 747q-112 0 -185 -76t-73 -191q0 -116 73 -192t185 -76q113 0 185.5 76t72.5 192q0 115 -72.5 191t-185.5 76zM267 1242
q103 183 237 183q41 0 87.5 -22.5t88.5 -44.5t72 -22q37 0 64.5 19.5t58.5 64.5l105 -99q-52 -93 -111 -135.5t-133 -42.5q-49 0 -117.5 37t-92.5 42q-34 7 -55 3q-40 -7 -95 -79z" />
    <glyph glyph-name="odieresis" unicode="&#xf6;" horiz-adv-x="1245" 
d="M110 480q0 213 146.5 356.5t366.5 143.5t366.5 -143.5t146.5 -356.5q0 -140 -66 -254.5t-184 -180t-263 -65.5q-220 0 -366.5 143.5t-146.5 356.5zM365 480q0 -116 73 -192t185 -76q113 0 185.5 76t72.5 192q0 115 -72.5 191t-185.5 76q-112 0 -185 -76t-73 -191z
M668 1291q0 61 38 99t99 38t99.5 -38t38.5 -99t-38.5 -98.5t-99.5 -37.5t-99 37.5t-38 98.5zM439 1155q-60 0 -98 37.5t-38 98.5t38 99t98 38q61 0 99.5 -38t38.5 -99t-38.5 -98.5t-99.5 -37.5z" />
    <glyph glyph-name="divide" unicode="&#xf7;" horiz-adv-x="1308" 
d="M108 799h1093v-240h-1093v240zM507 265q0 64 42.5 106t105.5 42t106 -42.5t43 -105.5t-43.5 -104.5t-105.5 -41.5q-63 0 -105.5 42t-42.5 104zM655 948q-63 0 -105.5 42t-42.5 104q0 64 42.5 106t105.5 42t106 -43t43 -105q0 -63 -43.5 -104.5t-105.5 -41.5z" />
    <glyph glyph-name="oslash" unicode="&#xf8;" horiz-adv-x="1245" 
d="M882 916l156 191l114 -95l-152 -186q136 -141 136 -346q0 -140 -66 -254.5t-184 -180t-263 -65.5q-142 0 -259 64l-155 -191l-114 95l151 186q-136 141 -136 346q0 213 146.5 356.5t366.5 143.5q142 0 259 -64zM841 629l-323 -396q48 -21 105 -21q113 0 185.5 76
t72.5 192q0 84 -40 149zM406 330l322 396q-46 21 -105 21q-112 0 -185 -76t-73 -191q0 -84 41 -150z" />
    <glyph glyph-name="ugrave" unicode="&#xf9;" horiz-adv-x="1203" 
d="M511 -25q-168 0 -273 102.5t-105 273.5v609h256v-543q0 -97 55.5 -150.5t142.5 -53.5q91 0 153 54t62 150v543h256v-960h-244l-5 106q-41 -56 -118.5 -93.5t-179.5 -37.5zM251 1429h292l157 -334h-216z" />
    <glyph glyph-name="uacute" unicode="&#xfa;" horiz-adv-x="1203" 
d="M934 1429l-233 -334h-216l157 334h292zM511 -25q-168 0 -273 102.5t-105 273.5v609h256v-543q0 -97 55.5 -150.5t142.5 -53.5q91 0 153 54t62 150v543h256v-960h-244l-5 106q-41 -56 -118.5 -93.5t-179.5 -37.5z" />
    <glyph glyph-name="ucircumflex" unicode="&#xfb;" horiz-adv-x="1203" 
d="M133 960h256v-543q0 -97 55.5 -150.5t142.5 -53.5q91 0 153 54t62 150v543h256v-960h-244l-5 106q-41 -56 -118.5 -93.5t-179.5 -37.5q-168 0 -273 102.5t-105 273.5v609zM232 1079l287 370h135l287 -370h-226l-128 178l-128 -178h-227z" />
    <glyph glyph-name="udieresis" unicode="&#xfc;" horiz-adv-x="1203" 
d="M133 960h256v-543q0 -97 55.5 -150.5t142.5 -53.5q91 0 153 54t62 150v543h256v-960h-244l-5 106q-41 -56 -118.5 -93.5t-179.5 -37.5q-168 0 -273 102.5t-105 273.5v609zM271 1261q0 61 37.5 99t98.5 38t99 -38t38 -99q0 -60 -38 -97.5t-99 -37.5q-60 0 -98 37.5
t-38 97.5zM636 1261q0 61 38 99t98 38q61 0 99 -38t38 -99q0 -60 -38 -97.5t-99 -37.5q-60 0 -98 37.5t-38 97.5z" />
    <glyph glyph-name="yacute" unicode="&#xfd;" horiz-adv-x="1103" 
d="M18 960h284l251 -699l248 699h285l-453 -1091q-60 -144 -156 -216.5t-245 -72.5q-99 0 -183 42l32 206q59 -25 121 -25q79 0 134.5 52t78.5 144zM439 1113l157 334h292l-233 -334h-216z" />
    <glyph glyph-name="thorn" unicode="&#xfe;" horiz-adv-x="1256" 
d="M146 -400v1809h252v-564q108 135 317 135q204 0 334.5 -140t130.5 -359q0 -218 -130.5 -359.5t-334.5 -141.5q-206 0 -312 121v-501h-257zM401 482q0 -115 74.5 -193.5t186.5 -78.5q113 0 186.5 78.5t73.5 193.5q0 117 -73 192.5t-187 75.5q-113 0 -187 -76.5t-74 -191.5
z" />
    <glyph glyph-name="ydieresis" unicode="&#xff;" horiz-adv-x="1103" 
d="M415 -1l-397 961h284l251 -699l248 699h285l-453 -1091q-60 -144 -156 -216.5t-245 -72.5q-99 0 -183 42l32 206q59 -25 121 -25q79 0 134.5 52t78.5 144zM728 1155q-61 0 -99 37.5t-38 98.5t38 99t99 38t99.5 -38t38.5 -99t-38.5 -98.5t-99.5 -37.5zM362 1155
q-60 0 -98 37.5t-38 98.5t38 99t98 38q61 0 99.5 -38t38.5 -99t-38.5 -98.5t-99.5 -37.5z" />
    <glyph glyph-name="Amacron" unicode="&#x100;" horiz-adv-x="1414" 
d="M292 0h-288l548 1358h310l549 -1358h-288l-100 266h-630zM708 1076l-239 -595h476zM1003 1516h-591v174h591v-174z" />
    <glyph glyph-name="amacron" unicode="&#x101;" horiz-adv-x="1093" 
d="M82 275q0 137 115.5 222t305.5 85q109 0 202 -33v22q0 80 -58.5 131.5t-149.5 51.5q-140 0 -254 -121l-147 147q61 79 167 139.5t242 60.5q211 0 333.5 -104.5t122.5 -284.5v-591h-244v107q-39 -59 -110.5 -93t-161.5 -34q-164 0 -263.5 81t-99.5 214zM809 1180h-591v174
h591v-174zM325 289q0 -54 43.5 -86t116.5 -32q94 0 157 57t63 146q-83 37 -184 37q-88 0 -142 -33.5t-54 -88.5z" />
    <glyph glyph-name="Abreve" unicode="&#x102;" horiz-adv-x="1414" 
d="M292 0h-288l548 1358h310l549 -1358h-288l-100 266h-630zM469 481h476l-237 595zM407 1781h185q5 -58 36 -94t79 -36q51 0 82 35.5t33 94.5h186q-7 -139 -89 -220t-212 -81q-129 0 -211 81.5t-89 219.5z" />
    <glyph glyph-name="abreve" unicode="&#x103;" horiz-adv-x="1093" 
d="M445 -20q-164 0 -263.5 81t-99.5 214q0 137 115.5 222t305.5 85q109 0 202 -33v22q0 80 -58.5 131.5t-149.5 51.5q-140 0 -254 -121l-147 147q61 79 167 139.5t242 60.5q211 0 333.5 -104.5t122.5 -284.5v-591h-244v107q-39 -59 -110.5 -93t-161.5 -34zM533 1123
q-129 0 -211 81.5t-89 219.5h185q5 -58 36 -94t79 -36q51 0 82 35.5t33 94.5h186q-7 -139 -89 -220t-212 -81zM521 411q-88 0 -142 -33.5t-54 -88.5q0 -54 43.5 -86t116.5 -32q94 0 157 57t63 146q-83 37 -184 37z" />
    <glyph glyph-name="Aogonek" unicode="&#x104;" horiz-adv-x="1414" 
d="M4 0l548 1358h310l549 -1358h-92q-193 -122 -193 -207q0 -35 25.5 -56t69.5 -21q58 0 112 27l54 -158q-81 -52 -203 -52q-116 0 -183 54t-67 147q0 146 189 266l-100 266h-630l-101 -266h-288zM708 1076l-239 -595h476z" />
    <glyph glyph-name="aogonek" unicode="&#x105;" horiz-adv-x="1093" 
d="M445 -20q-164 0 -263.5 81t-99.5 214q0 137 115.5 222t305.5 85q109 0 202 -33v22q0 80 -58.5 131.5t-149.5 51.5q-140 0 -254 -121l-147 147q61 79 167 139.5t242 60.5q211 0 333.5 -104.5t122.5 -284.5v-591h-48q-193 -122 -193 -207q0 -35 25.5 -56t69.5 -21
q58 0 112 27l54 -158q-81 -52 -203 -52q-116 0 -183 54t-67 147q0 146 189 266v107q-39 -59 -110.5 -93t-161.5 -34zM521 411q-88 0 -142 -33.5t-54 -88.5q0 -54 43.5 -86t116.5 -32q94 0 157 57t63 146q-83 37 -184 37z" />
    <glyph glyph-name="Cacute" unicode="&#x106;" horiz-adv-x="1440" 
d="M81 679q0 196 91 356t250.5 251.5t355.5 91.5q187 0 347.5 -90t260.5 -249l-213 -152q-146 241 -395 241q-185 0 -302.5 -126t-117.5 -323t120.5 -323t306.5 -126q244 0 411 234l199 -144q-97 -162 -259.5 -251t-350.5 -89q-146 0 -276.5 54t-224 146.5t-148.5 222.5
t-55 276zM678 1473l157 334h292l-233 -334h-216z" />
    <glyph glyph-name="cacute" unicode="&#x107;" horiz-adv-x="1088" 
d="M75 482q0 210 149 355.5t363 145.5q140 0 261 -71.5t185 -202.5l-195 -124q-40 80 -106.5 121t-140.5 41q-114 0 -187.5 -77.5t-73.5 -192.5q0 -112 73.5 -188.5t183.5 -76.5q164 0 256 166l185 -130q-64 -128 -186 -198t-261 -70q-141 0 -257.5 66.5t-182.5 182
t-66 253.5zM691 1113h-216l157 334h292z" />
    <glyph glyph-name="Ccircumflex" unicode="&#x108;" horiz-adv-x="1440" 
d="M81 679q0 196 91 356t250.5 251.5t355.5 91.5q187 0 347.5 -90t260.5 -249l-213 -152q-146 241 -395 241q-185 0 -302.5 -126t-117.5 -323t120.5 -323t306.5 -126q244 0 411 234l199 -144q-97 -162 -259.5 -251t-350.5 -89q-146 0 -276.5 54t-224 146.5t-148.5 222.5
t-55 276zM447 1471l287 370h135l287 -370h-227l-128 178l-128 -178h-226z" />
    <glyph glyph-name="ccircumflex" unicode="&#x109;" horiz-adv-x="1088" 
d="M581 -20q-141 0 -257.5 66.5t-182.5 182t-66 253.5q0 210 149 355.5t363 145.5q140 0 261 -71.5t185 -202.5l-195 -124q-40 80 -106.5 121t-140.5 41q-114 0 -187.5 -77.5t-73.5 -192.5q0 -112 73.5 -188.5t183.5 -76.5q164 0 256 166l185 -130q-64 -128 -186 -198
t-261 -70zM473 1084h-226l287 370h135l287 -370h-227l-128 178z" />
    <glyph glyph-name="Cdotaccent" unicode="&#x10a;" horiz-adv-x="1440" 
d="M81 679q0 196 91 356t250.5 251.5t355.5 91.5q187 0 347.5 -90t260.5 -249l-213 -152q-146 241 -395 241q-185 0 -302.5 -126t-117.5 -323t120.5 -323t306.5 -126q244 0 411 234l199 -144q-97 -162 -259.5 -251t-350.5 -89q-146 0 -276.5 54t-224 146.5t-148.5 222.5
t-55 276zM644 1627q0 65 41 106.5t106 41.5t106.5 -41t41.5 -107q0 -65 -41.5 -106t-106.5 -41t-106 41t-41 106z" />
    <glyph glyph-name="cdotaccent" unicode="&#x10b;" horiz-adv-x="1088" 
d="M75 482q0 210 149 355.5t363 145.5q140 0 261 -71.5t185 -202.5l-195 -124q-40 80 -106.5 121t-140.5 41q-114 0 -187.5 -77.5t-73.5 -192.5q0 -112 73.5 -188.5t183.5 -76.5q164 0 256 166l185 -130q-64 -128 -186 -198t-261 -70q-141 0 -257.5 66.5t-182.5 182
t-66 253.5zM594 1146q-65 0 -106 41t-41 106t41 106.5t106 41.5t106.5 -41t41.5 -107q0 -65 -41.5 -106t-106.5 -41z" />
    <glyph glyph-name="Ccaron" unicode="&#x10c;" horiz-adv-x="1440" 
d="M785 -20q-146 0 -276.5 54t-224 146.5t-148.5 222.5t-55 276q0 196 91 356t250.5 251.5t355.5 91.5q187 0 347.5 -90t260.5 -249l-213 -152q-146 241 -395 241q-185 0 -302.5 -126t-117.5 -323t120.5 -323t306.5 -126q244 0 411 234l199 -144q-97 -162 -259.5 -251
t-350.5 -89zM727 1481l-287 370h226l128 -178l128 178h227l-287 -370h-135z" />
    <glyph glyph-name="ccaron" unicode="&#x10d;" horiz-adv-x="1088" 
d="M581 -20q-141 0 -257.5 66.5t-182.5 182t-66 253.5q0 210 149 355.5t363 145.5q140 0 261 -71.5t185 -202.5l-195 -124q-40 80 -106.5 121t-140.5 41q-114 0 -187.5 -77.5t-73.5 -192.5q0 -112 73.5 -188.5t183.5 -76.5q164 0 256 166l185 -130q-64 -128 -186 -198
t-261 -70zM531 1096l-287 370h226l128 -178l128 178h227l-287 -370h-135z" />
    <glyph glyph-name="Dcaron" unicode="&#x10e;" horiz-adv-x="1514" 
d="M170 -1v1358h562q199 0 359.5 -88.5t251 -243.5t90.5 -347t-90.5 -347.5t-251 -243.5t-359.5 -88h-562zM724 1125h-284v-893h284q191 0 312 127.5t121 318.5q0 190 -121 318.5t-312 128.5zM334 1851h226l128 -178l128 178h227l-287 -370h-135z" />
    <glyph glyph-name="dcaron" unicode="&#x10f;" horiz-adv-x="1359" 
d="M542 -20q-204 0 -334.5 141.5t-130.5 359.5q0 219 130.5 359t334.5 140q208 0 317 -136v564h252v-1408h-252l-5 102q-106 -122 -312 -122zM595 750q-114 0 -187 -75.5t-73 -192.5q0 -115 73.5 -193.5t186.5 -78.5q112 0 186.5 78.5t74.5 193.5t-74 191.5t-187 76.5z
M1239 987v422h252l-56 -422h-196z" />
    <glyph glyph-name="Dcroat" unicode="&#x110;" horiz-adv-x="1555" 
d="M78 607v179h133v571h562q199 0 359.5 -88.5t251 -243.5t90.5 -347t-90.5 -347.5t-251 -243.5t-359.5 -88h-562v608h-133zM481 786h400v-179h-400v-375h284q191 0 312 127.5t121 318.5q0 190 -121 318.5t-312 128.5h-284v-339z" />
    <glyph glyph-name="dcroat" unicode="&#x111;" horiz-adv-x="1232" 
d="M542 -20q-204 0 -334.5 141.5t-130.5 359.5q0 219 130.5 359t334.5 140q208 0 317 -136v252h-319v176h319v136h252v-136h118v-176h-118v-1096h-252l-5 102q-106 -122 -312 -122zM335 482q0 -115 73.5 -193.5t186.5 -78.5q112 0 186.5 78.5t74.5 193.5t-74 191.5
t-187 76.5q-114 0 -187 -75.5t-73 -192.5z" />
    <glyph glyph-name="Emacron" unicode="&#x112;" horiz-adv-x="1231" 
d="M1151 0h-981v1358h966v-234h-696v-313h604v-234h-604v-344h711v-233zM955 1516h-591v174h591v-174z" />
    <glyph glyph-name="emacron" unicode="&#x113;" horiz-adv-x="1111" 
d="M582 -21q-150 0 -266.5 67t-178 181t-61.5 254q1 219 140.5 359t353.5 140q203 0 334 -127t131 -341q0 -52 -9 -109h-694q14 -83 88.5 -137.5t167.5 -54.5q147 0 239 135l182 -136q-66 -110 -181.5 -170.5t-245.5 -60.5zM272 1354h591v-174h-591v174zM336 575h460
q-10 82 -71.5 135.5t-151.5 53.5q-94 0 -160 -53.5t-77 -135.5z" />
    <glyph glyph-name="Ebreve" unicode="&#x114;" horiz-adv-x="1231" 
d="M1151 0h-981v1358h966v-234h-696v-313h604v-234h-604v-344h711v-233zM380 1781h185q5 -58 36 -94t79 -36q51 0 82 35.5t33 94.5h186q-7 -139 -89 -220t-212 -81q-129 0 -211 81.5t-89 219.5z" />
    <glyph glyph-name="ebreve" unicode="&#x115;" horiz-adv-x="1111" 
d="M582 -21q-150 0 -266.5 67t-178 181t-61.5 254q1 219 140.5 359t353.5 140q203 0 334 -127t131 -341q0 -52 -9 -109h-694q14 -83 88.5 -137.5t167.5 -54.5q147 0 239 135l182 -136q-66 -110 -181.5 -170.5t-245.5 -60.5zM576 1123q-129 0 -211 81.5t-89 219.5h185
q5 -58 36 -94t79 -36q51 0 82 35.5t33 94.5h186q-7 -139 -89 -220t-212 -81zM573 764q-94 0 -160 -53.5t-77 -135.5h460q-10 82 -71.5 135.5t-151.5 53.5z" />
    <glyph glyph-name="Edotaccent" unicode="&#x116;" horiz-adv-x="1231" 
d="M170 1358h966v-234h-696v-313h604v-234h-604v-344h711v-233h-981v1358zM544 1627q0 65 41 106.5t106 41.5t106.5 -41t41.5 -107q0 -65 -41.5 -106t-106.5 -41t-106 41t-41 106z" />
    <glyph glyph-name="edotaccent" unicode="&#x117;" horiz-adv-x="1111" 
d="M76 481q1 219 140.5 359t353.5 140q203 0 334 -127t131 -341q0 -52 -9 -109h-694q14 -83 88.5 -137.5t167.5 -54.5q147 0 239 135l182 -136q-66 -110 -181.5 -170.5t-245.5 -60.5q-150 0 -266.5 67t-178 181t-61.5 254zM566 1146q-65 0 -106 41t-41 106t41 106.5
t106 41.5t106.5 -41t41.5 -107q0 -65 -41.5 -106t-106.5 -41zM573 764q-94 0 -160 -53.5t-77 -135.5h460q-10 82 -71.5 135.5t-151.5 53.5z" />
    <glyph glyph-name="Eogonek" unicode="&#x118;" horiz-adv-x="1231" 
d="M170 0v1358h966v-234h-696v-313h604v-234h-604v-344h711v-233q-193 -122 -193 -207q0 -35 25.5 -56t69.5 -21q58 0 112 27l54 -158q-81 -52 -203 -52q-116 0 -183 54t-67 147q0 146 189 266h-785z" />
    <glyph glyph-name="eogonek" unicode="&#x119;" horiz-adv-x="1111" 
d="M76 481q1 219 140.5 359t353.5 140q203 0 334 -127t131 -341q0 -52 -9 -109h-694q14 -83 88.5 -137.5t167.5 -54.5q147 0 239 135l182 -136q-48 -79 -122.5 -133t-163.5 -79q-190 -120 -190 -205q0 -35 25.5 -56t69.5 -21q58 0 112 27l54 -158q-81 -52 -203 -52
q-116 0 -183 54t-67 147q0 136 164 250q-195 25 -312 163.5t-117 333.5zM336 575h460q-10 82 -71.5 135.5t-151.5 53.5q-94 0 -160 -53.5t-77 -135.5z" />
    <glyph glyph-name="Ecaron" unicode="&#x11a;" horiz-adv-x="1231" 
d="M170 1358h966v-234h-696v-313h604v-234h-604v-344h711v-233h-981v1358zM621 1481l-287 370h226l128 -178l128 178h227l-287 -370h-135z" />
    <glyph glyph-name="ecaron" unicode="&#x11b;" horiz-adv-x="1111" 
d="M76 481q1 219 140.5 359t353.5 140q203 0 334 -127t131 -341q0 -52 -9 -109h-694q14 -83 88.5 -137.5t167.5 -54.5q147 0 239 135l182 -136q-66 -110 -181.5 -170.5t-245.5 -60.5q-150 0 -266.5 67t-178 181t-61.5 254zM501 1096l-287 370h226l128 -178l128 178h227
l-287 -370h-135zM336 575h460q-10 82 -71.5 135.5t-151.5 53.5q-94 0 -160 -53.5t-77 -135.5z" />
    <glyph glyph-name="Gcircumflex" unicode="&#x11c;" horiz-adv-x="1517" 
d="M785 -20q-195 0 -356.5 91.5t-254.5 252t-93 355.5q0 196 91 356t250.5 251.5t355.5 91.5q178 0 333.5 -82.5t261.5 -236.5l-213 -152q-146 221 -382 221q-185 0 -302.5 -126t-117.5 -323t120.5 -323t306.5 -126q160 0 259.5 80t124.5 197h-411v233h684q5 -44 5 -109
q0 -105 -28.5 -201.5t-85 -178.5t-135.5 -142.5t-185 -94.5t-228 -34zM649 1471h-226l287 370h135l287 -370h-227l-128 178z" />
    <glyph glyph-name="gcircumflex" unicode="&#x11d;" horiz-adv-x="1255" 
d="M546 -20q-204 0 -334.5 141.5t-130.5 359.5q0 219 130.5 359t334.5 140q208 0 317 -136l5 116h246l-2 -859q-1 -239 -151 -380.5t-404 -141.5q-133 0 -256.5 55t-206.5 153l165 162q144 -139 298 -139q136 0 218.5 72.5t82.5 192.5v33q-44 -59 -126 -93.5t-186 -34.5z
M599 750q-114 0 -187 -75.5t-73 -192.5q0 -115 73.5 -193.5t186.5 -78.5q112 0 186.5 78.5t74.5 193.5t-74 191.5t-187 76.5zM201 1084l287 370h135l287 -370h-227l-128 178l-128 -178h-226z" />
    <glyph glyph-name="Gbreve" unicode="&#x11e;" horiz-adv-x="1517" 
d="M785 -20q-195 0 -356.5 91.5t-254.5 252t-93 355.5q0 196 91 356t250.5 251.5t355.5 91.5q178 0 333.5 -82.5t261.5 -236.5l-213 -152q-146 221 -382 221q-185 0 -302.5 -126t-117.5 -323t120.5 -323t306.5 -126q160 0 259.5 80t124.5 197h-411v233h684q5 -44 5 -109
q0 -105 -28.5 -201.5t-85 -178.5t-135.5 -142.5t-185 -94.5t-228 -34zM763 1480q-129 0 -211 81.5t-89 219.5h185q5 -58 36 -94t79 -36q51 0 82 35.5t33 94.5h186q-7 -139 -89 -220t-212 -81z" />
    <glyph glyph-name="gbreve" unicode="&#x11f;" horiz-adv-x="1255" 
d="M81 481q0 219 130.5 359t334.5 140q208 0 317 -136l5 116h246l-2 -859q-1 -239 -151 -380.5t-404 -141.5q-133 0 -256.5 55t-206.5 153l165 162q144 -139 298 -139q136 0 218.5 72.5t82.5 192.5v33q-44 -59 -126 -93.5t-186 -34.5q-204 0 -334.5 141.5t-130.5 359.5z
M599 750q-114 0 -187 -75.5t-73 -192.5q0 -115 73.5 -193.5t186.5 -78.5q112 0 186.5 78.5t74.5 193.5t-74 191.5t-187 76.5zM599 1123q-129 0 -211 81.5t-89 219.5h185q5 -58 36 -94t79 -36q51 0 82 35.5t33 94.5h186q-7 -139 -89 -220t-212 -81z" />
    <glyph glyph-name="Gdotaccent" unicode="&#x120;" horiz-adv-x="1517" 
d="M81 679q0 196 91 356t250.5 251.5t355.5 91.5q178 0 333.5 -82.5t261.5 -236.5l-213 -152q-146 221 -382 221q-185 0 -302.5 -126t-117.5 -323t120.5 -323t306.5 -126q160 0 259.5 80t124.5 197h-411v233h684q5 -44 5 -109q0 -105 -28.5 -201.5t-85 -178.5t-135.5 -142.5
t-185 -94.5t-228 -34q-195 0 -356.5 91.5t-254.5 252t-93 355.5zM794 1480q-65 0 -106 41t-41 106t41 106.5t106 41.5t106.5 -41t41.5 -107q0 -65 -41.5 -106t-106.5 -41z" />
    <glyph glyph-name="gdotaccent" unicode="&#x121;" horiz-adv-x="1255" 
d="M81 481q0 219 130.5 359t334.5 140q208 0 317 -136l5 116h246l-2 -859q-1 -239 -151 -380.5t-404 -141.5q-133 0 -256.5 55t-206.5 153l165 162q144 -139 298 -139q136 0 218.5 72.5t82.5 192.5v33q-44 -59 -126 -93.5t-186 -34.5q-204 0 -334.5 141.5t-130.5 359.5z
M599 750q-114 0 -187 -75.5t-73 -192.5q0 -115 73.5 -193.5t186.5 -78.5q112 0 186.5 78.5t74.5 193.5t-74 191.5t-187 76.5zM594 1146q-65 0 -106 41t-41 106t41 106.5t106 41.5t106.5 -41t41.5 -107q0 -65 -41.5 -106t-106.5 -41z" />
    <glyph glyph-name="uni0122" unicode="&#x122;" horiz-adv-x="1517" 
d="M81 679q0 196 91 356t250.5 251.5t355.5 91.5q178 0 333.5 -82.5t261.5 -236.5l-213 -152q-146 221 -382 221q-185 0 -302.5 -126t-117.5 -323t120.5 -323t306.5 -126q160 0 259.5 80t124.5 197h-411v233h684q5 -44 5 -109q0 -105 -28.5 -201.5t-85 -178.5t-135.5 -142.5
t-185 -94.5t-228 -34q-195 0 -356.5 91.5t-254.5 252t-93 355.5zM840 -528h-196l7 422h252z" />
    <glyph glyph-name="uni0123" unicode="&#x123;" horiz-adv-x="1255" 
d="M546 -20q-204 0 -334.5 141.5t-130.5 359.5q0 219 130.5 359t334.5 140q208 0 317 -136l5 116h246l-2 -859q-1 -239 -151 -380.5t-404 -141.5q-133 0 -256.5 55t-206.5 153l165 162q144 -139 298 -139q136 0 218.5 72.5t82.5 192.5v33q-44 -59 -126 -93.5t-186 -34.5z
M339 482q0 -115 73.5 -193.5t186.5 -78.5q112 0 186.5 78.5t74.5 193.5t-74 191.5t-187 76.5q-114 0 -187 -75.5t-73 -192.5zM424 1094l63 422h196l-7 -422h-252z" />
    <glyph glyph-name="Hcircumflex" unicode="&#x124;" horiz-adv-x="1540" 
d="M170 0v1358h270v-549h662v549h269v-1358h-269v576h-662v-576h-270zM642 1471h-226l287 370h135l287 -370h-227l-128 178z" />
    <glyph glyph-name="hcircumflex" unicode="&#x125;" horiz-adv-x="1200" 
d="M146 0v1408h257v-550q42 51 117 86.5t171 35.5q167 0 272 -103t105 -274v-603h-257v537q0 97 -55 151t-141 54q-89 0 -150.5 -54.5t-61.5 -150.5v-537h-257zM-90 1489l287 370h135l287 -370h-227l-128 178l-128 -178h-226z" />
    <glyph glyph-name="Hbar" unicode="&#x126;" horiz-adv-x="1562" 
d="M1382 1190h145v-174h-145v-1016h-269v576h-662v-576h-270v1016h-145v174h145v168h270v-168h662v168h269v-168zM1113 1016h-662v-207h662v207z" />
    <glyph glyph-name="hbar" unicode="&#x127;" horiz-adv-x="1213" 
d="M31 1096v176h128v136h257v-136h324v-176h-324v-238q42 51 117 86.5t171 35.5q167 0 272 -103t105 -274v-603h-257v537q0 97 -55 151t-141 54q-89 0 -150.5 -54.5t-61.5 -150.5v-537h-257v1096h-128z" />
    <glyph glyph-name="Itilde" unicode="&#x128;" horiz-adv-x="609" 
d="M170 1358h270v-1358h-270v1358zM-52 1602q103 183 237 183q41 0 87.5 -22.5t88.5 -44.5t72 -22q37 0 64.5 19.5t58.5 64.5l105 -99q-52 -93 -111 -135.5t-133 -42.5q-49 0 -117.5 37t-92.5 42q-34 7 -55 3q-40 -7 -95 -79z" />
    <glyph glyph-name="itilde" unicode="&#x129;" horiz-adv-x="548" 
d="M403 0h-257v960h257v-960zM-82 1242q103 183 237 183q41 0 87.5 -22.5t88.5 -44.5t72 -22q37 0 64.5 19.5t58.5 64.5l105 -99q-52 -93 -111 -135.5t-133 -42.5q-49 0 -117.5 37t-92.5 42q-34 7 -55 3q-40 -7 -95 -79z" />
    <glyph glyph-name="Imacron" unicode="&#x12a;" horiz-adv-x="609" 
d="M440 1358v-1358h-270v1358h270zM600 1690v-174h-591v174h591z" />
    <glyph glyph-name="imacron" unicode="&#x12b;" horiz-adv-x="548" 
d="M403 0h-257v960h257v-960zM570 1354v-174h-591v174h591z" />
    <glyph glyph-name="Ibreve" unicode="&#x12c;" horiz-adv-x="609" 
d="M440 0h-270v1358h270v-1358zM4 1781h185q5 -58 36 -94t79 -36q51 0 82 35.5t33 94.5h186q-7 -139 -89 -220t-212 -81q-129 0 -211 81.5t-89 219.5z" />
    <glyph glyph-name="ibreve" unicode="&#x12d;" horiz-adv-x="548" 
d="M403 0h-257v960h257v-960zM-26 1424h185q5 -58 36 -94t79 -36q51 0 82 35.5t33 94.5h186q-7 -139 -89 -220t-212 -81q-129 0 -211 81.5t-89 219.5z" />
    <glyph glyph-name="Iogonek" unicode="&#x12e;" horiz-adv-x="609" 
d="M21 -266q0 146 189 266h-40v1358h270v-1358h-34q-193 -122 -193 -207q0 -35 25.5 -56t69.5 -21q58 0 112 27l54 -158q-81 -52 -203 -52q-116 0 -183 54t-67 147z" />
    <glyph glyph-name="iogonek" unicode="&#x12f;" horiz-adv-x="548" 
d="M-11 -266q0 146 189 266h-32v960h257v-960h-29q-193 -122 -193 -207q0 -35 25.5 -56t69.5 -21q58 0 112 27l54 -158q-81 -52 -203 -52q-116 0 -183 54t-67 147zM274 1146q-65 0 -106 41t-41 106t41 106.5t106 41.5t106.5 -41t41.5 -107q0 -65 -41.5 -106t-106.5 -41z" />
    <glyph glyph-name="Idotaccent" unicode="&#x130;" horiz-adv-x="609" 
d="M170 1358h270v-1358h-270v1358zM158 1627q0 65 41 106.5t106 41.5t106.5 -41t41.5 -107q0 -65 -41.5 -106t-106.5 -41t-106 41t-41 106z" />
    <glyph glyph-name="dotlessi" unicode="&#x131;" horiz-adv-x="548" 
d="M403 0h-257v960h257v-960z" />
    <glyph glyph-name="IJ" unicode="&#x132;" horiz-adv-x="1641" 
d="M1002 -20q-137 0 -248 59.5t-186 174.5l170 174q112 -158 268 -158q99 0 154 72t55 203v853h270v-867q0 -240 -128 -375.5t-355 -135.5zM170 1358h270v-1358h-270v1358z" />
    <glyph glyph-name="ij" unicode="&#x133;" horiz-adv-x="1063" 
d="M564 -420q-117 0 -187 36l24 206q64 -20 121 -20q139 0 139 165v992h257v-1009q0 -177 -96.5 -273.5t-257.5 -96.5zM154 0v960h257v-960h-257zM651 1293q0 65 41 106.5t106 41.5t106.5 -41t41.5 -107q0 -65 -41.5 -106t-106.5 -41t-106 41t-41 106zM125 1293
q0 65 41 106.5t106 41.5t106.5 -41t41.5 -107q0 -65 -41.5 -106t-106.5 -41t-106 41t-41 106z" />
    <glyph glyph-name="Jcircumflex" unicode="&#x134;" horiz-adv-x="1073" 
d="M434 -20q-137 0 -248 59.5t-186 174.5l170 174q112 -158 268 -158q99 0 154 72t55 203v853h270v-867q0 -240 -128 -375.5t-355 -135.5zM647 1471h-226l287 370h135l287 -370h-227l-128 178z" />
    <glyph glyph-name="jcircumflex" unicode="&#x135;" horiz-adv-x="546" 
d="M47 -420q-117 0 -187 36l24 206q64 -20 121 -20q139 0 139 165v992h257v-1009q0 -177 -96.5 -273.5t-257.5 -96.5zM143 1084h-226l287 370h135l287 -370h-227l-128 178z" />
    <glyph glyph-name="uni0136" unicode="&#x136;" horiz-adv-x="1378" 
d="M170 1358h270v-616l571 616h346l-523 -552l554 -806h-328l-418 626l-202 -215v-411h-270v1358zM767 -528h-196l7 422h252z" />
    <glyph glyph-name="uni0137" unicode="&#x137;" horiz-adv-x="1099" 
d="M146 1v1407h254v-806l350 358h341l-420 -409l429 -550h-317l-284 384l-99 -99v-285h-254zM424 -528l7 422h252l-63 -422h-196z" />
    <glyph glyph-name="kgreenlandic" unicode="&#x138;" horiz-adv-x="1099" 
d="M146 960h254v-358l350 358h341l-420 -409l429 -550h-317l-284 384l-99 -99v-285h-254v959z" />
    <glyph glyph-name="Lacute" unicode="&#x139;" horiz-adv-x="1197" 
d="M1171 233v-233h-1001v1358h270v-1125h731zM648 1807l-233 -334h-216l157 334h292z" />
    <glyph glyph-name="lacute" unicode="&#x13a;" horiz-adv-x="547" 
d="M402 1408v-1408h-256v1408h256zM611 1826l-233 -334h-216l157 334h292z" />
    <glyph glyph-name="uni013B" unicode="&#x13b;" horiz-adv-x="1197" 
d="M1171 233v-233h-1001v1358h270v-1125h731zM533 -528l7 422h252l-63 -422h-196z" />
    <glyph glyph-name="uni013C" unicode="&#x13c;" horiz-adv-x="547" 
d="M402 1408v-1408h-256v1408h256zM134 -528l7 422h252l-63 -422h-196z" />
    <glyph glyph-name="Lcaron" unicode="&#x13d;" horiz-adv-x="1197" 
d="M1171 233v-233h-1001v1358h270v-1125h731zM743 927l7 422h252l-63 -422h-196z" />
    <glyph glyph-name="lcaron" unicode="&#x13e;" horiz-adv-x="547" 
d="M146 0v1408h256v-1408h-256zM504 986v422h252l-56 -422h-196z" />
    <glyph glyph-name="Ldot" unicode="&#x13f;" horiz-adv-x="1200" 
d="M170 0v1358h270v-1125h731v-233h-1001zM882 538q-63 0 -105.5 42.5t-42.5 104.5t42.5 104.5t105.5 42.5t106 -42.5t43 -104.5t-43 -104.5t-106 -42.5z" />
    <glyph glyph-name="ldot" unicode="&#x140;" horiz-adv-x="739" 
d="M146 1408h256v-1408h-256v1408zM472 678q0 62 42.5 104.5t105.5 42.5t106 -42.5t43 -104.5t-43 -104.5t-106 -42.5t-105.5 42.5t-42.5 104.5z" />
    <glyph glyph-name="Lslash" unicode="&#x141;" horiz-adv-x="1322" 
d="M93 664v179l202 14v501h270v-483l343 23v-179l-343 -23v-463h731v-233h-1001v678z" />
    <glyph glyph-name="lslash" unicode="&#x142;" horiz-adv-x="728" 
d="M237 442l-182 -72v174l182 74v790h256v-686l181 73v-181l-181 -71v-543h-256v442z" />
    <glyph glyph-name="Nacute" unicode="&#x143;" horiz-adv-x="1605" 
d="M170 1358h245l751 -932v932h270v-1358h-249l-747 922v-922h-270v1358zM920 1473h-216l157 334h292z" />
    <glyph glyph-name="nacute" unicode="&#x144;" horiz-adv-x="1202" 
d="M402 0h-256v960h244l5 -111q42 56 119 93.5t177 37.5q168 0 273.5 -103t105.5 -274v-603h-256v537q0 97 -55.5 151t-143.5 54q-89 0 -151 -54.5t-62 -150.5v-537zM741 1113h-216l157 334h292z" />
    <glyph glyph-name="uni0145" unicode="&#x145;" horiz-adv-x="1605" 
d="M170 1358h245l751 -932v932h270v-1358h-249l-747 922v-922h-270v1358zM909 -528h-196l7 422h252z" />
    <glyph glyph-name="uni0146" unicode="&#x146;" horiz-adv-x="1202" 
d="M402 0h-256v960h244l5 -111q42 56 119 93.5t177 37.5q168 0 273.5 -103t105.5 -274v-603h-256v537q0 97 -55.5 151t-143.5 54q-89 0 -151 -54.5t-62 -150.5v-537zM686 -528h-196l7 422h252z" />
    <glyph glyph-name="Ncaron" unicode="&#x147;" horiz-adv-x="1605" 
d="M440 0h-270v1358h245l751 -932v932h270v-1358h-249l-747 922v-922zM751 1481l-287 370h226l128 -178l128 178h227l-287 -370h-135z" />
    <glyph glyph-name="ncaron" unicode="&#x148;" horiz-adv-x="1202" 
d="M146 960h244l5 -111q42 56 119 93.5t177 37.5q168 0 273.5 -103t105.5 -274v-603h-256v537q0 97 -55.5 151t-143.5 54q-89 0 -151 -54.5t-62 -150.5v-537h-256v960zM571 1096l-287 370h226l128 -178l128 178h227l-287 -370h-135z" />
    <glyph glyph-name="napostrophe" unicode="&#x149;" horiz-adv-x="1481" 
d="M425 0v960h244l5 -111q42 56 119 93.5t177 37.5q168 0 273.5 -103t105.5 -274v-603h-256v537q0 97 -55.5 151t-143.5 54q-89 0 -151 -54.5t-62 -150.5v-537h-256zM256 912h-206l137 516h272z" />
    <glyph glyph-name="Eng" unicode="&#x14a;" horiz-adv-x="1605" 
d="M1166 26l-726 896v-922h-270v1358h245l751 -932v932h270v-1428q0 -167 -92 -258.5t-245 -91.5q-105 0 -167 36l24 206q54 -20 101 -20q109 0 109 145v79z" />
    <glyph glyph-name="eng" unicode="&#x14b;" horiz-adv-x="1202" 
d="M402 0h-256v960h244l5 -111q42 56 119 93.5t177 37.5q168 0 273.5 -103t105.5 -274v-673q0 -167 -88 -258.5t-235 -91.5q-105 0 -167 36l24 206q54 -20 101 -20q109 0 109 145v590q0 97 -55.5 151t-143.5 54q-89 0 -151 -54.5t-62 -150.5v-537z" />
    <glyph glyph-name="Omacron" unicode="&#x14c;" horiz-adv-x="1586" 
d="M793 -20q-204 0 -366 88t-253.5 247t-91.5 361q0 152 53.5 283t147.5 222.5t226 144t284 52.5q204 0 366.5 -89.5t254 -250t91.5 -362.5t-91.5 -361t-254 -247t-366.5 -88zM360 677q0 -198 122 -322t312 -124q191 0 312.5 123.5t121.5 322.5q0 198 -121.5 323.5
t-312.5 125.5q-190 0 -312 -126t-122 -323zM1089 1516h-591v174h591v-174z" />
    <glyph glyph-name="omacron" unicode="&#x14d;" horiz-adv-x="1245" 
d="M110 480q0 213 146.5 356.5t366.5 143.5t366.5 -143.5t146.5 -356.5q0 -140 -66 -254.5t-184 -180t-263 -65.5q-220 0 -366.5 143.5t-146.5 356.5zM623 747q-112 0 -185 -76t-73 -191q0 -116 73 -192t185 -76q113 0 185.5 76t72.5 192q0 115 -72.5 191t-185.5 76z
M328 1354h591v-174h-591v174z" />
    <glyph glyph-name="Obreve" unicode="&#x14e;" horiz-adv-x="1586" 
d="M793 -20q-204 0 -366 88t-253.5 247t-91.5 361q0 152 53.5 283t147.5 222.5t226 144t284 52.5q204 0 366.5 -89.5t254 -250t91.5 -362.5t-91.5 -361t-254 -247t-366.5 -88zM794 1126q-190 0 -312 -126t-122 -323q0 -198 122 -322t312 -124q191 0 312.5 123.5t121.5 322.5
q0 198 -121.5 323.5t-312.5 125.5zM793 1480q-129 0 -211 81.5t-89 219.5h185q5 -58 36 -94t79 -36q51 0 82 35.5t33 94.5h186q-7 -139 -89 -220t-212 -81z" />
    <glyph glyph-name="obreve" unicode="&#x14f;" horiz-adv-x="1245" 
d="M623 -20q-220 0 -366.5 143.5t-146.5 356.5t146.5 356.5t366.5 143.5t366.5 -143.5t146.5 -356.5q0 -140 -66 -254.5t-184 -180t-263 -65.5zM623 747q-112 0 -185 -76t-73 -191q0 -116 73 -192t185 -76q113 0 185.5 76t72.5 192q0 115 -72.5 191t-185.5 76zM623 1123
q-129 0 -211 81.5t-89 219.5h185q5 -58 36 -94t79 -36q51 0 82 35.5t33 94.5h186q-7 -139 -89 -220t-212 -81z" />
    <glyph glyph-name="Ohungarumlaut" unicode="&#x150;" horiz-adv-x="1586" 
d="M793 -20q-204 0 -366 88t-253.5 247t-91.5 361q0 152 53.5 283t147.5 222.5t226 144t284 52.5q204 0 366.5 -89.5t254 -250t91.5 -362.5t-91.5 -361t-254 -247t-366.5 -88zM794 1126q-190 0 -312 -126t-122 -323q0 -198 122 -322t312 -124q191 0 312.5 123.5t121.5 322.5
q0 198 -121.5 323.5t-312.5 125.5zM1093 1473h-216l157 334h292zM547 1473l157 334h292l-233 -334h-216z" />
    <glyph glyph-name="ohungarumlaut" unicode="&#x151;" horiz-adv-x="1245" 
d="M110 480q0 213 146.5 356.5t366.5 143.5t366.5 -143.5t146.5 -356.5q0 -140 -66 -254.5t-184 -180t-263 -65.5q-220 0 -366.5 143.5t-146.5 356.5zM365 480q0 -116 73 -192t185 -76q113 0 185.5 76t72.5 192q0 115 -72.5 191t-185.5 76q-112 0 -185 -76t-73 -191z
M896 1113h-216l157 334h292zM350 1113l157 334h292l-233 -334h-216z" />
    <glyph glyph-name="OE" unicode="&#x152;" horiz-adv-x="2269" 
d="M793 -20q-204 0 -366 88t-253.5 247t-91.5 361q0 152 53.5 283t147.5 222.5t226 144t284 52.5q243 0 415 -152v132h966v-234h-696v-313h604v-234h-604v-344h711v-233h-981v129q-173 -149 -415 -149zM794 1126q-190 0 -312 -126t-122 -323q0 -198 122 -322t312 -124
q191 0 312.5 123.5t121.5 322.5q0 198 -121.5 323.5t-312.5 125.5z" />
    <glyph glyph-name="oe" unicode="&#x153;" horiz-adv-x="1862" 
d="M588 -20q-220 0 -366.5 143.5t-146.5 356.5t146.5 356.5t366.5 143.5q113 0 209 -45.5t162 -127.5q64 82 157 127.5t204 45.5q203 0 334 -127t131 -341q0 -52 -9 -109h-694q14 -83 88.5 -137.5t167.5 -54.5q147 0 239 135l182 -136q-66 -110 -181.5 -170.5t-245.5 -60.5
q-117 0 -212.5 46.5t-158.5 128.5q-67 -82 -163.5 -128t-209.5 -46zM588 747q-112 0 -185 -76t-73 -191q0 -116 73 -192t185 -76q113 0 185.5 76t72.5 192q0 115 -72.5 191t-185.5 76zM1086 575h460q-10 82 -71.5 135.5t-151.5 53.5q-94 0 -160 -53.5t-77 -135.5z" />
    <glyph glyph-name="Racute" unicode="&#x154;" horiz-adv-x="1359" 
d="M441 1h-271v1357h599q220 0 353 -120t133 -316q0 -129 -67 -230.5t-186 -152.5l307 -539h-296l-277 494h-295v-493zM441 728h311q107 0 166.5 56t59.5 138q0 89 -59 145.5t-167 56.5h-311v-396zM554 1473l157 334h292l-233 -334h-216z" />
    <glyph glyph-name="racute" unicode="&#x155;" horiz-adv-x="803" 
d="M403 0h-257v960h248l5 -131q36 74 101.5 112.5t148.5 38.5q62 0 125 -22l-20 -229q-64 22 -119 22q-45 0 -84.5 -13t-73.5 -41.5t-54 -81t-20 -123.5v-492zM593 1113h-216l157 334h292z" />
    <glyph glyph-name="uni0156" unicode="&#x156;" horiz-adv-x="1359" 
d="M170 1358h599q220 0 353 -120t133 -316q0 -129 -67 -230.5t-186 -152.5l307 -539h-296l-277 494h-295v-493h-271v1357zM441 1124v-396h311q107 0 166.5 56t59.5 138q0 89 -59 145.5t-167 56.5h-311zM739 -528h-196l7 422h252z" />
    <glyph glyph-name="uni0157" unicode="&#x157;" horiz-adv-x="803" 
d="M403 0h-257v960h248l5 -131q36 74 101.5 112.5t148.5 38.5q62 0 125 -22l-20 -229q-64 22 -119 22q-45 0 -84.5 -13t-73.5 -41.5t-54 -81t-20 -123.5v-492zM342 -528h-196l7 422h252z" />
    <glyph glyph-name="Rcaron" unicode="&#x158;" horiz-adv-x="1359" 
d="M170 1v1357h599q220 0 353 -120t133 -316q0 -129 -67 -230.5t-186 -152.5l307 -539h-296l-277 494h-295v-493h-271zM752 1124h-311v-396h311q107 0 166.5 56t59.5 138q0 89 -59 145.5t-167 56.5zM581 1481l-287 370h226l128 -178l128 178h227l-287 -370h-135z" />
    <glyph glyph-name="rcaron" unicode="&#x159;" horiz-adv-x="803" 
d="M403 0h-257v960h248l5 -131q36 74 101.5 112.5t148.5 38.5q62 0 125 -22l-20 -229q-64 22 -119 22q-45 0 -84.5 -13t-73.5 -41.5t-54 -81t-20 -123.5v-492zM156 1466h226l128 -178l128 178h227l-287 -370h-135z" />
    <glyph glyph-name="Sacute" unicode="&#x15a;" horiz-adv-x="1224" 
d="M86 301l199 144q50 -102 140 -161.5t209 -59.5q99 0 166 43t67 108q0 63 -64 105t-199 84q-66 21 -109.5 36t-98 38t-89.5 45t-72 54t-57.5 67t-34 82t-13.5 102q0 92 42.5 168t112 123.5t154 73t172.5 25.5q172 0 301 -84.5t201 -210.5l-208 -148q-119 199 -301 199
q-82 0 -140 -40t-58 -105q0 -20 5 -37t12.5 -29.5t23.5 -24.5t29 -19.5t40 -18.5t45 -17t54.5 -18.5t59.5 -20.5q192 -68 262 -105q144 -77 185 -196q20 -56 20 -126q0 -96 -45.5 -173.5t-119.5 -125t-163.5 -73t-182.5 -25.5q-191 0 -336.5 89t-208.5 232zM518 1473
l157 334h292l-233 -334h-216z" />
    <glyph glyph-name="sacute" unicode="&#x15b;" horiz-adv-x="961" 
d="M72 203l172 139q44 -68 112 -108t141 -40q60 0 98.5 22.5t38.5 61.5q0 36 -36.5 55t-131.5 40q-86 19 -145.5 41t-111 57.5t-76.5 88t-25 124.5q0 132 107.5 214t267.5 82q252 0 385 -200l-164 -135q-75 119 -215 119q-63 0 -101.5 -20.5t-38.5 -56.5t39 -54.5t141 -43.5
q87 -21 146 -44.5t108 -59t72.5 -87t23.5 -120.5q0 -132 -110.5 -215t-268.5 -83q-139 0 -250 59.5t-178 163.5zM378 1113l157 334h292l-233 -334h-216z" />
    <glyph glyph-name="Scircumflex" unicode="&#x15c;" horiz-adv-x="1224" 
d="M631 -20q-191 0 -336.5 89t-208.5 232l199 144q50 -102 140 -161.5t209 -59.5q99 0 166 43t67 108q0 63 -64 105t-199 84q-66 21 -109.5 36t-98 38t-89.5 45t-72 54t-57.5 67t-34 82t-13.5 102q0 92 42.5 168t112 123.5t154 73t172.5 25.5q172 0 301 -84.5t201 -210.5
l-208 -148q-119 199 -301 199q-82 0 -140 -40t-58 -105q0 -20 5 -37t12.5 -29.5t23.5 -24.5t29 -19.5t40 -18.5t45 -17t54.5 -18.5t59.5 -20.5q192 -68 262 -105q144 -77 185 -196q20 -56 20 -126q0 -96 -45.5 -173.5t-119.5 -125t-163.5 -73t-182.5 -25.5zM487 1471h-226
l287 370h135l287 -370h-227l-128 178z" />
    <glyph glyph-name="scircumflex" unicode="&#x15d;" horiz-adv-x="961" 
d="M500 -20q-139 0 -250 59.5t-178 163.5l172 139q44 -68 112 -108t141 -40q60 0 98.5 22.5t38.5 61.5q0 36 -36.5 55t-131.5 40q-86 19 -145.5 41t-111 57.5t-76.5 88t-25 124.5q0 132 107.5 214t267.5 82q252 0 385 -200l-164 -135q-75 119 -215 119q-63 0 -101.5 -20.5
t-38.5 -56.5t39 -54.5t141 -43.5q87 -21 146 -44.5t108 -59t72.5 -87t23.5 -120.5q0 -132 -110.5 -215t-268.5 -83zM366 1084h-226l287 370h135l287 -370h-227l-128 178z" />
    <glyph glyph-name="Scedilla" unicode="&#x15e;" horiz-adv-x="1224" 
d="M86 301l199 144q50 -102 140 -161.5t209 -59.5q99 0 166 43t67 108q0 63 -64 105t-199 84q-66 21 -109.5 36t-98 38t-89.5 45t-72 54t-57.5 67t-34 82t-13.5 102q0 92 42.5 168t112 123.5t154 73t172.5 25.5q172 0 301 -84.5t201 -210.5l-208 -148q-119 199 -301 199
q-82 0 -140 -40t-58 -105q0 -20 5 -37t12.5 -29.5t23.5 -24.5t29 -19.5t40 -18.5t45 -17t54.5 -18.5t59.5 -20.5q192 -68 262 -105q144 -77 185 -196q20 -56 20 -126q0 -92 -42 -167.5t-111 -123t-153 -74.5t-174 -31l-21 -67q102 -12 156.5 -60.5t54.5 -121.5
q0 -91 -81.5 -145t-217.5 -54q-94 0 -152 26v142q60 -19 130 -19q118 0 118 66q0 67 -126 67h-71l68 174q-153 24 -267 108t-167 204z" />
    <glyph glyph-name="scedilla" unicode="&#x15f;" horiz-adv-x="961" 
d="M72 203l172 139q44 -68 112 -108t141 -40q60 0 98.5 22.5t38.5 61.5q0 36 -36.5 55t-131.5 40q-86 19 -145.5 41t-111 57.5t-76.5 88t-25 124.5q0 132 107.5 214t267.5 82q252 0 385 -200l-164 -135q-75 119 -215 119q-63 0 -101.5 -20.5t-38.5 -56.5t39 -54.5t141 -43.5
q87 -21 146 -44.5t108 -59t72.5 -87t23.5 -120.5q0 -122 -94.5 -202.5t-236.5 -93.5l-21 -68q102 -12 156.5 -60.5t54.5 -121.5q0 -91 -81.5 -145t-217.5 -54q-94 0 -152 26v142q60 -19 130 -19q118 0 118 66q0 67 -126 67h-71l68 173q-108 17 -193.5 73t-140.5 142z" />
    <glyph glyph-name="Scaron" unicode="&#x160;" horiz-adv-x="1224" 
d="M631 -20q-191 0 -336.5 89t-208.5 232l199 144q50 -102 140 -161.5t209 -59.5q99 0 166 43t67 108q0 63 -64 105t-199 84q-66 21 -109.5 36t-98 38t-89.5 45t-72 54t-57.5 67t-34 82t-13.5 102q0 92 42.5 168t112 123.5t154 73t172.5 25.5q172 0 301 -84.5t201 -210.5
l-208 -148q-119 199 -301 199q-82 0 -140 -40t-58 -105q0 -20 5 -37t12.5 -29.5t23.5 -24.5t29 -19.5t40 -18.5t45 -17t54.5 -18.5t59.5 -20.5q192 -68 262 -105q144 -77 185 -196q20 -56 20 -126q0 -96 -45.5 -173.5t-119.5 -125t-163.5 -73t-182.5 -25.5zM258 1851h226
l128 -178l128 178h227l-287 -370h-135z" />
    <glyph glyph-name="scaron" unicode="&#x161;" horiz-adv-x="961" 
d="M500 -20q-139 0 -250 59.5t-178 163.5l172 139q44 -68 112 -108t141 -40q60 0 98.5 22.5t38.5 61.5q0 36 -36.5 55t-131.5 40q-86 19 -145.5 41t-111 57.5t-76.5 88t-25 124.5q0 132 107.5 214t267.5 82q252 0 385 -200l-164 -135q-75 119 -215 119q-63 0 -101.5 -20.5
t-38.5 -56.5t39 -54.5t141 -43.5q87 -21 146 -44.5t108 -59t72.5 -87t23.5 -120.5q0 -132 -110.5 -215t-268.5 -83zM138 1466h226l128 -178l128 178h227l-287 -370h-135z" />
    <glyph glyph-name="uni0162" unicode="&#x162;" horiz-adv-x="1161" 
d="M447 1118h-425v240h1118v-240h-424v-1118h-81l-27 -86q102 -12 156.5 -60.5t54.5 -121.5q0 -91 -81.5 -145t-217.5 -54q-94 0 -152 26v142q60 -19 130 -19q118 0 118 66q0 67 -126 67h-71l72 185h-44v1118z" />
    <glyph glyph-name="uni0163" unicode="&#x163;" horiz-adv-x="808" 
d="M195 747h-162v213h163v308h249v-308h288v-213h-282v-395q0 -73 37.5 -108.5t104.5 -35.5q82 0 163 33l24 -213q-44 -22 -108.5 -35t-123.5 -13q-18 0 -27 1l-21 -67q102 -12 156.5 -60.5t54.5 -121.5q0 -91 -81.5 -145t-217.5 -54q-94 0 -152 26v142q60 -19 130 -19
q118 0 118 66q0 67 -126 67h-71l75 192q-191 73 -191 308v432z" />
    <glyph glyph-name="Tcaron" unicode="&#x164;" horiz-adv-x="1161" 
d="M22 1118v240h1118v-240h-424v-1118h-269v1118h-425zM514 1481l-287 370h226l128 -178l128 178h227l-287 -370h-135z" />
    <glyph glyph-name="tcaron" unicode="&#x165;" horiz-adv-x="828" 
d="M33 747v213h163v308h249v-308h288v-213h-282v-395q0 -73 37.5 -108.5t104.5 -35.5q82 0 163 33l24 -213q-44 -22 -108.5 -35t-123.5 -13q-163 0 -258 85t-95 250v432h-162zM548 1509h252l-56 -422h-196v422z" />
    <glyph glyph-name="Tbar" unicode="&#x166;" horiz-adv-x="1227" 
d="M480 1118h-425v240h1118v-240h-424v-326h317v-179h-317v-613h-269v613h-317v179h317v326z" />
    <glyph glyph-name="tbar" unicode="&#x167;" horiz-adv-x="827" 
d="M209 747h-162v213h163v308h249v-308h288v-213h-282v-156h261v-176h-261v-63q0 -73 37.5 -108.5t104.5 -35.5q82 0 163 33l24 -213q-44 -22 -108.5 -35t-123.5 -13q-163 0 -258 85t-95 250v100h-145v176h145v156z" />
    <glyph glyph-name="Utilde" unicode="&#x168;" horiz-adv-x="1471" 
d="M155 1358h269v-836q0 -136 87.5 -218t224.5 -82t224.5 82t87.5 218v836h269v-842q0 -244 -159.5 -390t-421.5 -146t-421.5 146t-159.5 390v842zM489 1506l-109 96q103 183 237 183q41 0 87.5 -22.5t88.5 -44.5t72 -22q37 0 64.5 19.5t58.5 64.5l105 -99
q-52 -93 -111 -135.5t-133 -42.5q-49 0 -117.5 37t-92.5 42q-34 7 -55 3q-40 -7 -95 -79z" />
    <glyph glyph-name="utilde" unicode="&#x169;" horiz-adv-x="1203" 
d="M133 960h256v-543q0 -97 55.5 -150.5t142.5 -53.5q91 0 153 54t62 150v543h256v-960h-244l-5 106q-41 -56 -118.5 -93.5t-179.5 -37.5q-168 0 -273 102.5t-105 273.5v609zM344 1127l-109 96q103 183 237 183q41 0 87.5 -22t88.5 -44.5t72 -22.5q37 0 64.5 19.5t58.5 64.5
l105 -99q-52 -93 -111 -135.5t-133 -42.5q-49 0 -117.5 37t-92.5 42q-34 7 -55 3q-40 -7 -95 -79z" />
    <glyph glyph-name="Umacron" unicode="&#x16a;" horiz-adv-x="1471" 
d="M736 -20q-262 0 -421.5 146t-159.5 390v842h269v-836q0 -136 87.5 -218t224.5 -82t224.5 82t87.5 218v836h269v-842q0 -244 -159.5 -390t-421.5 -146zM441 1516v174h591v-174h-591z" />
    <glyph glyph-name="umacron" unicode="&#x16b;" horiz-adv-x="1203" 
d="M511 -25q-168 0 -273 102.5t-105 273.5v609h256v-543q0 -97 55.5 -150.5t142.5 -53.5q91 0 153 54t62 150v543h256v-960h-244l-5 106q-41 -56 -118.5 -93.5t-179.5 -37.5zM887 1151h-591v174h591v-174z" />
    <glyph glyph-name="Ubreve" unicode="&#x16c;" horiz-adv-x="1471" 
d="M155 516v842h269v-836q0 -136 87.5 -218t224.5 -82t224.5 82t87.5 218v836h269v-842q0 -244 -159.5 -390t-421.5 -146t-421.5 146t-159.5 390zM436 1781h185q5 -58 36 -94t79 -36q51 0 82 35.5t33 94.5h186q-7 -139 -89 -220t-212 -81q-129 0 -211 81.5t-89 219.5z" />
    <glyph glyph-name="ubreve" unicode="&#x16d;" horiz-adv-x="1203" 
d="M133 960h256v-543q0 -97 55.5 -150.5t142.5 -53.5q91 0 153 54t62 150v543h256v-960h-244l-5 106q-41 -56 -118.5 -93.5t-179.5 -37.5q-168 0 -273 102.5t-105 273.5v609zM590 1102q-129 0 -211 81.5t-89 219.5h185q5 -58 36 -94t79 -36q51 0 82 35.5t33 94.5h186
q-7 -139 -89 -220t-212 -81z" />
    <glyph glyph-name="Uring" unicode="&#x16e;" horiz-adv-x="1471" 
d="M155 1358h269v-836q0 -136 87.5 -218t224.5 -82t224.5 82t87.5 218v836h269v-842q0 -244 -159.5 -390t-421.5 -146t-421.5 146t-159.5 390v842zM736 1485q-94 0 -154 58t-60 148q0 92 60 150.5t154 58.5t154.5 -58.5t60.5 -150.5q0 -90 -60.5 -148t-154.5 -58zM662 1691
q0 -31 20.5 -51.5t53.5 -20.5t53 20.5t20 51.5q0 33 -20 54.5t-53 21.5t-53.5 -21.5t-20.5 -54.5z" />
    <glyph glyph-name="uring" unicode="&#x16f;" horiz-adv-x="1203" 
d="M133 351v609h256v-543q0 -97 55.5 -150.5t142.5 -53.5q91 0 153 54t62 150v543h256v-960h-244l-5 106q-41 -56 -118.5 -93.5t-179.5 -37.5q-168 0 -273 102.5t-105 273.5zM590 1082q-94 0 -154 58t-60 148q0 92 60 150.5t154 58.5t154.5 -58.5t60.5 -150.5
q0 -90 -60.5 -148t-154.5 -58zM590 1364q-33 0 -53.5 -22t-20.5 -55q0 -31 20.5 -51.5t53.5 -20.5t53 20.5t20 51.5q0 33 -20 55t-53 22z" />
    <glyph glyph-name="Uhungarumlaut" unicode="&#x170;" horiz-adv-x="1471" 
d="M736 -20q-262 0 -421.5 146t-159.5 390v842h269v-836q0 -136 87.5 -218t224.5 -82t224.5 82t87.5 218v836h269v-842q0 -244 -159.5 -390t-421.5 -146zM1009 1473h-216l157 334h292zM680 1473h-216l157 334h292z" />
    <glyph glyph-name="uhungarumlaut" unicode="&#x171;" horiz-adv-x="1249" 
d="M511 -25q-168 0 -273 102.5t-105 273.5v609h256v-543q0 -97 55.5 -150.5t142.5 -53.5q91 0 153 54t62 150v543h256v-960h-244l-5 106q-41 -56 -118.5 -93.5t-179.5 -37.5zM866 1095h-211l167 334h282zM510 1095h-211l157 334h272z" />
    <glyph glyph-name="Uogonek" unicode="&#x172;" horiz-adv-x="1471" 
d="M155 516v842h269v-836q0 -136 87.5 -218t224.5 -82t224.5 82t87.5 218v836h269v-842q0 -201 -111.5 -338.5t-304.5 -180.5q-189 -120 -189 -204q0 -35 25.5 -56t69.5 -21q58 0 112 27l54 -158q-81 -52 -203 -52q-116 0 -183 54t-67 147q0 133 161 248q-239 16 -382.5 160
t-143.5 374z" />
    <glyph glyph-name="uogonek" unicode="&#x173;" horiz-adv-x="1219" 
d="M133 960h256v-543q0 -97 55.5 -150.5t142.5 -53.5q91 0 153 54t62 150v543h256v-960h-48q-193 -122 -193 -207q0 -35 25.5 -56t69.5 -21q58 0 112 27l54 -158q-81 -52 -203 -52q-116 0 -183 54t-67 147q0 79 53 147t136 120l-5 105q-41 -56 -118.5 -93.5t-179.5 -37.5
q-168 0 -273 102.5t-105 273.5v609z" />
    <glyph glyph-name="Wcircumflex" unicode="&#x174;" horiz-adv-x="2044" 
d="M24 1358h271l301 -1089l305 1068h243l305 -1068l301 1089h271l-372 -1358h-378l-249 875l-248 -875h-378zM894 1471h-226l287 370h135l287 -370h-227l-128 178z" />
    <glyph glyph-name="wcircumflex" unicode="&#x175;" horiz-adv-x="1613" 
d="M33 960h265l189 -699l206 684h228l205 -684l190 699h265l-283 -960h-319l-172 582l-172 -582h-319zM679 1084h-226l287 370h135l287 -370h-227l-128 178z" />
    <glyph glyph-name="Ycircumflex" unicode="&#x176;" horiz-adv-x="1337" 
d="M9 1358h322l341 -571l345 571h312l-524 -845v-513h-269v513zM541 1471h-226l287 370h135l287 -370h-227l-128 178z" />
    <glyph glyph-name="ycircumflex" unicode="&#x177;" horiz-adv-x="1103" 
d="M415 -1l-397 961h284l251 -699l248 699h285l-453 -1091q-60 -144 -156 -216.5t-245 -72.5q-99 0 -183 42l32 206q59 -25 121 -25q79 0 134.5 52t78.5 144zM184 1084l287 370h135l287 -370h-227l-128 178l-128 -178h-226z" />
    <glyph glyph-name="Ydieresis" unicode="&#x178;" horiz-adv-x="1337" 
d="M9 1358h322l341 -571l345 571h312l-524 -845v-513h-269v513zM714 1628q0 61 38 99t99 38t99.5 -38t38.5 -99t-38.5 -98.5t-99.5 -37.5t-99 37.5t-38 98.5zM485 1492q-60 0 -98 37.5t-38 98.5t38 99t98 38q61 0 99.5 -38t38.5 -99t-38.5 -98.5t-99.5 -37.5z" />
    <glyph glyph-name="Zacute" unicode="&#x179;" horiz-adv-x="1209" 
d="M74 0v193l701 929h-691v236h1045v-196l-702 -927h712v-235h-1065zM913 1807l-233 -334h-216l157 334h292z" />
    <glyph glyph-name="zacute" unicode="&#x17a;" horiz-adv-x="916" 
d="M77 0v185l454 561h-449v214h742v-186l-454 -560h484v-214h-777zM794 1447l-233 -334h-216l157 334h292z" />
    <glyph glyph-name="Zdotaccent" unicode="&#x17b;" horiz-adv-x="1209" 
d="M74 0v193l701 929h-691v236h1045v-196l-702 -927h712v-235h-1065zM492 1627q0 65 41 106.5t106 41.5t106.5 -41t41.5 -107q0 -65 -41.5 -106t-106.5 -41t-106 41t-41 106z" />
    <glyph glyph-name="zdotaccent" unicode="&#x17c;" horiz-adv-x="916" 
d="M77 185l454 561h-449v214h742v-186l-454 -560h484v-214h-777v185zM464 1146q-65 0 -106 41t-41 106t41 106.5t106 41.5t106.5 -41t41.5 -107q0 -65 -41.5 -106t-106.5 -41z" />
    <glyph glyph-name="Zcaron" unicode="&#x17d;" horiz-adv-x="1209" 
d="M74 0v193l701 929h-691v236h1045v-196l-702 -927h712v-235h-1065zM551 1481l-287 370h226l128 -178l128 178h227l-287 -370h-135z" />
    <glyph glyph-name="zcaron" unicode="&#x17e;" horiz-adv-x="916" 
d="M77 0v185l454 561h-449v214h742v-186l-454 -560h484v-214h-777zM123 1466h226l128 -178l128 178h227l-287 -370h-135z" />
    <glyph glyph-name="uni018F" unicode="&#x18f;" horiz-adv-x="1524" 
d="M737 -20q-191 0 -342 85t-235 236t-84 342q0 59 7 112h1081q-23 167 -139 269t-287 102q-247 0 -395 -227l-212 154q100 153 260 239t346 86q199 0 361 -91t254 -251.5t92 -356.5q0 -194 -93 -354.5t-255 -252.5t-359 -92zM1147 527h-788q20 -132 124 -213.5t255 -81.5
q148 0 257.5 80t151.5 215z" />
    <glyph glyph-name="florin" unicode="&#x192;" horiz-adv-x="1203" 
d="M40 28l71 218q61 -35 128 -35q73 0 124 43t64 129l41 301h-170l29 217h167l17 99q22 173 145.5 275.5t289.5 102.5q114 0 210 -48l-71 -216q-61 35 -128 35q-74 0 -128.5 -44.5t-67.5 -129.5l-11 -74h274l-29 -217h-267l-43 -326q-23 -174 -146 -276t-289 -102
q-114 0 -210 48z" />
    <glyph glyph-name="uni019D" unicode="&#x19d;" horiz-adv-x="1605" 
d="M-64 -384l24 206q54 -20 101 -20q109 0 109 145v1411h245l751 -932v932h270v-1358h-249l-747 922v-992q0 -167 -92 -258.5t-245 -91.5q-105 0 -167 36z" />
    <glyph glyph-name="Gcaron" unicode="&#x1e6;" horiz-adv-x="1517" 
d="M785 -20q-195 0 -356.5 91.5t-254.5 252t-93 355.5q0 196 91 356t250.5 251.5t355.5 91.5q178 0 333.5 -82.5t261.5 -236.5l-213 -152q-146 221 -382 221q-185 0 -302.5 -126t-117.5 -323t120.5 -323t306.5 -126q160 0 259.5 80t124.5 197h-411v233h684q5 -44 5 -109
q0 -105 -28.5 -201.5t-85 -178.5t-135.5 -142.5t-185 -94.5t-228 -34zM700 1481l-287 370h226l128 -178l128 178h227l-287 -370h-135z" />
    <glyph glyph-name="gcaron" unicode="&#x1e7;" horiz-adv-x="1255" 
d="M546 -20q-204 0 -334.5 141.5t-130.5 359.5q0 219 130.5 359t334.5 140q208 0 317 -136l5 116h246l-2 -859q-1 -239 -151 -380.5t-404 -141.5q-133 0 -256.5 55t-206.5 153l165 162q144 -139 298 -139q136 0 218.5 72.5t82.5 192.5v33q-44 -59 -126 -93.5t-186 -34.5z
M339 482q0 -115 73.5 -193.5t186.5 -78.5q112 0 186.5 78.5t74.5 193.5t-74 191.5t-187 76.5q-114 0 -187 -75.5t-73 -192.5zM527 1096l-287 370h226l128 -178l128 178h227l-287 -370h-135z" />
    <glyph glyph-name="uni01EA" unicode="&#x1ea;" horiz-adv-x="1586" 
d="M751 -19q-193 9 -345 99t-238 245.5t-86 350.5q0 152 53.5 283t147.5 222.5t226 144t284 52.5q204 0 366.5 -89.5t254 -250t91.5 -362.5q0 -257 -145 -439t-384 -237q-193 -122 -193 -207q0 -35 25.5 -56t69.5 -21q58 0 112 27l54 -158q-81 -52 -203 -52q-116 0 -183 54
t-67 147q0 135 160 247zM360 677q0 -198 122 -322t312 -124q191 0 312.5 123.5t121.5 322.5q0 198 -121.5 323.5t-312.5 125.5q-190 0 -312 -126t-122 -323z" />
    <glyph glyph-name="uni01EB" unicode="&#x1eb;" horiz-adv-x="1245" 
d="M550 -15q-193 24 -316.5 162.5t-123.5 332.5q0 213 146.5 356.5t366.5 143.5t366.5 -143.5t146.5 -356.5q0 -175 -102 -306.5t-267 -175.5q-190 -120 -190 -205q0 -35 25.5 -56t69.5 -21q58 0 112 27l54 -158q-81 -52 -203 -52q-116 0 -183 54t-67 147q0 136 165 251z
M365 480q0 -116 73 -192t185 -76q113 0 185.5 76t72.5 192q0 115 -72.5 191t-185.5 76q-112 0 -185 -76t-73 -191z" />
    <glyph glyph-name="Aringacute" unicode="&#x1fa;" horiz-adv-x="1414" 
d="M292 0h-288l548 1358h310l549 -1358h-288l-100 266h-630zM707 1485q-94 0 -154 58t-60 148q0 92 60 150.5t154 58.5t154.5 -58.5t60.5 -150.5q0 -90 -60.5 -148t-154.5 -58zM708 1076l-239 -595h476zM593 1962l157 334h292l-233 -334h-216zM633 1691q0 -31 20.5 -51.5
t53.5 -20.5t53 20.5t20 51.5q0 33 -20 54.5t-53 21.5t-53.5 -21.5t-20.5 -54.5z" />
    <glyph glyph-name="aringacute" unicode="&#x1fb;" horiz-adv-x="1093" 
d="M82 275q0 137 115.5 222t305.5 85q109 0 202 -33v22q0 80 -58.5 131.5t-149.5 51.5q-140 0 -254 -121l-147 147q61 79 167 139.5t242 60.5q211 0 333.5 -104.5t122.5 -284.5v-591h-244v107q-39 -59 -110.5 -93t-161.5 -34q-164 0 -263.5 81t-99.5 214zM321 1289
q0 92 60 150.5t154 58.5t154.5 -58.5t60.5 -150.5q0 -90 -60.5 -148t-154.5 -58t-154 58t-60 148zM649 1567h-216l157 334h292zM521 411q-88 0 -142 -33.5t-54 -88.5q0 -54 43.5 -86t116.5 -32q94 0 157 57t63 146q-83 37 -184 37zM535 1365q-33 0 -53.5 -21.5t-20.5 -54.5
q0 -31 20.5 -51.5t53.5 -20.5t53 20.5t20 51.5q0 33 -20 54.5t-53 21.5z" />
    <glyph glyph-name="AEacute" unicode="&#x1fc;" horiz-adv-x="1997" 
d="M-50 0l829 1358h1123v-234h-696v-313h604v-234h-604v-344h711v-233h-982v266h-517l-160 -266h-308zM935 1124l-388 -643h388v643zM1248 1473l157 334h292l-233 -334h-216z" />
    <glyph glyph-name="aeacute" unicode="&#x1fd;" horiz-adv-x="1743" 
d="M486 -20q-182 0 -292.5 81t-110.5 214q0 137 115.5 222t305.5 85q114 0 212 -33v22q0 80 -61 131.5t-157 51.5q-140 0 -254 -121l-147 147q61 79 167 139.5t242 60.5q232 0 341 -156q65 75 156 115.5t198 40.5q203 0 334 -127t131 -341q0 -52 -9 -109h-694
q14 -83 88.5 -137.5t167.5 -54.5q147 0 239 135l182 -136q-66 -110 -181.5 -170.5t-245.5 -60.5q-119 0 -215.5 45.5t-161.5 127.5q-63 -82 -153.5 -127t-196.5 -45zM971 1113h-216l157 334h292zM326 289q0 -52 43 -83t117 -31q98 0 164 55.5t66 143.5q-88 37 -194 37
q-88 0 -142 -33.5t-54 -88.5zM967 575h460q-10 82 -71.5 135.5t-151.5 53.5q-94 0 -160 -53.5t-77 -135.5z" />
    <glyph glyph-name="Oslashacute" unicode="&#x1fe;" horiz-adv-x="1586" 
d="M324 138q-115 94 -178.5 232.5t-63.5 305.5q0 152 53.5 283t147.5 222.5t226 144t284 52.5q187 0 341 -77l113 163l128 -88l-111 -159q114 -95 177.5 -234.5t63.5 -306.5q0 -202 -91.5 -361t-254 -247t-366.5 -88q-184 0 -339 75l-118 -169l-125 89zM478 359l506 727
q-86 40 -190 40q-190 0 -312 -126t-122 -323q0 -194 118 -318zM1110 996l-506 -726q87 -39 190 -39q191 0 312.5 123.5t121.5 322.5q0 195 -118 319zM727 1473l157 334h292l-233 -334h-216z" />
    <glyph glyph-name="oslashacute" unicode="&#x1ff;" horiz-adv-x="1245" 
d="M202 -141l-103 83l152 187q-141 143 -141 351q0 213 146.5 356.5t366.5 143.5q147 0 265 -67l155 190l104 -85l-152 -187q141 -143 141 -351q0 -140 -66 -254.5t-184 -180t-263 -65.5t-267 68zM735 1113h-216l157 334h292zM836 637l-326 -401q53 -24 113 -24
q113 0 185.5 76t72.5 192q0 89 -45 157zM409 324l325 400q-51 23 -111 23q-112 0 -185 -76t-73 -191q0 -88 44 -156z" />
    <glyph glyph-name="uni0218" unicode="&#x218;" horiz-adv-x="1224" 
d="M86 301l199 144q50 -102 140 -161.5t209 -59.5q99 0 166 43t67 108q0 63 -64 105t-199 84q-66 21 -109.5 36t-98 38t-89.5 45t-72 54t-57.5 67t-34 82t-13.5 102q0 92 42.5 168t112 123.5t154 73t172.5 25.5q172 0 301 -84.5t201 -210.5l-208 -148q-119 199 -301 199
q-82 0 -140 -40t-58 -105q0 -20 5 -37t12.5 -29.5t23.5 -24.5t29 -19.5t40 -18.5t45 -17t54.5 -18.5t59.5 -20.5q192 -68 262 -105q144 -77 185 -196q20 -56 20 -126q0 -96 -45.5 -173.5t-119.5 -125t-163.5 -73t-182.5 -25.5q-191 0 -336.5 89t-208.5 232zM687 -528h-196
l7 422h252z" />
    <glyph glyph-name="uni0219" unicode="&#x219;" horiz-adv-x="961" 
d="M72 203l172 139q44 -68 112 -108t141 -40q60 0 98.5 22.5t38.5 61.5q0 36 -36.5 55t-131.5 40q-86 19 -145.5 41t-111 57.5t-76.5 88t-25 124.5q0 132 107.5 214t267.5 82q252 0 385 -200l-164 -135q-75 119 -215 119q-63 0 -101.5 -20.5t-38.5 -56.5t39 -54.5t141 -43.5
q87 -21 146 -44.5t108 -59t72.5 -87t23.5 -120.5q0 -132 -110.5 -215t-268.5 -83q-139 0 -250 59.5t-178 163.5zM573 -528h-196l7 422h252z" />
    <glyph glyph-name="uni021A" unicode="&#x21a;" horiz-adv-x="1161" 
d="M447 1118h-425v240h1118v-240h-424v-1118h-269v1118zM643 -528h-196l7 422h252z" />
    <glyph glyph-name="uni021B" unicode="&#x21b;" horiz-adv-x="808" 
d="M33 747v213h163v308h249v-308h288v-213h-282v-395q0 -73 37.5 -108.5t104.5 -35.5q82 0 163 33l24 -213q-44 -22 -108.5 -35t-123.5 -13q-163 0 -258 85t-95 250v432h-162zM564 -528h-196l7 422h252z" />
    <glyph glyph-name="uni0232" unicode="&#x232;" horiz-adv-x="1337" 
d="M536 513l-527 845h322l341 -571l345 571h312l-524 -845v-513h-269v513zM374 1516v174h591v-174h-591z" />
    <glyph glyph-name="uni0233" unicode="&#x233;" horiz-adv-x="1103" 
d="M18 960h284l251 -699l248 699h285l-453 -1091q-60 -144 -156 -216.5t-245 -72.5q-99 0 -183 42l32 206q59 -25 121 -25q79 0 134.5 52t78.5 144zM258 1180v174h591v-174h-591z" />
    <glyph glyph-name="uni0237" unicode="&#x237;" horiz-adv-x="546" 
d="M-140 -384l24 206q64 -20 121 -20q139 0 139 165v992h257v-1009q0 -177 -96.5 -273.5t-257.5 -96.5q-117 0 -187 36z" />
    <glyph glyph-name="uni0259" unicode="&#x259;" horiz-adv-x="1111" 
d="M89 450q0 52 9 109h694q-14 83 -88.5 137.5t-167.5 54.5q-147 0 -239 -135l-182 136q66 110 181.5 170.5t245.5 60.5q150 0 266.5 -67t178 -181t61.5 -254q-1 -219 -140.5 -359t-353.5 -140q-203 0 -334 127t-131 341zM788 387h-460q10 -82 71.5 -135.5t151.5 -53.5
q94 0 160 53.5t77 135.5z" />
    <glyph glyph-name="uni0272" unicode="&#x272;" horiz-adv-x="1202" 
d="M-88 -384l24 206q54 -20 101 -20q109 0 109 145v1013h244l5 -111q42 56 119 93.5t177 37.5q168 0 273.5 -103t105.5 -274v-603h-256v537q0 97 -55.5 151t-143.5 54q-89 0 -151 -54.5t-62 -150.5v-607q0 -167 -88 -258.5t-235 -91.5q-105 0 -167 36z" />
    <glyph glyph-name="circumflex" unicode="&#x2c6;" horiz-adv-x="996" 
d="M144 1471l287 370h135l287 -370h-227l-128 178l-128 -178h-226z" />
    <glyph glyph-name="caron" unicode="&#x2c7;" horiz-adv-x="996" 
d="M431 1481l-287 370h226l128 -178l128 178h227l-287 -370h-135z" />
    <glyph glyph-name="breve" unicode="&#x2d8;" horiz-adv-x="868" 
d="M134 1781h185q5 -58 36 -94t79 -36q51 0 82 35.5t33 94.5h186q-7 -139 -89 -220t-212 -81q-129 0 -211 81.5t-89 219.5z" />
    <glyph glyph-name="dotaccent" unicode="&#x2d9;" horiz-adv-x="582" 
d="M144 1627q0 65 41 106.5t106 41.5t106.5 -41t41.5 -107q0 -65 -41.5 -106t-106.5 -41t-106 41t-41 106z" />
    <glyph glyph-name="ring" unicode="&#x2da;" horiz-adv-x="716" 
d="M358 1485q-94 0 -154 58t-60 148q0 92 60 150.5t154 58.5t154.5 -58.5t60.5 -150.5q0 -90 -60.5 -148t-154.5 -58zM284 1691q0 -31 20.5 -51.5t53.5 -20.5t53 20.5t20 51.5q0 33 -20 54.5t-53 21.5t-53.5 -21.5t-20.5 -54.5z" />
    <glyph glyph-name="ogonek" unicode="&#x2db;" horiz-adv-x="688" 
d="M125 -266q0 95 75 173t183 132l127 -39q-193 -122 -193 -207q0 -35 25.5 -56t69.5 -21q58 0 112 27l54 -158q-81 -52 -203 -52q-116 0 -183 54t-67 147z" />
    <glyph glyph-name="tilde" unicode="&#x2dc;" horiz-adv-x="1000" 
d="M253 1506l-109 96q103 183 237 183q41 0 87.5 -22.5t88.5 -44.5t72 -22q37 0 64.5 19.5t58.5 64.5l105 -99q-52 -93 -111 -135.5t-133 -42.5q-49 0 -117.5 37t-92.5 42q-34 7 -55 3q-40 -7 -95 -79z" />
    <glyph glyph-name="hungarumlaut" unicode="&#x2dd;" horiz-adv-x="1092" 
d="M500 1473l167 334h282l-238 -334h-211zM355 1473h-211l157 334h272z" />
    <glyph glyph-name="acutecomb" unicode="&#x301;" horiz-adv-x="736" 
d="M593 2277l-233 -334h-216l157 334h292z" />
    <glyph glyph-name="uni030A" unicode="&#x30a;" horiz-adv-x="716" 
d="M358 1485q-94 0 -154 58t-60 148q0 92 60 150.5t154 58.5t154.5 -58.5t60.5 -150.5q0 -90 -60.5 -148t-154.5 -58zM284 1691q0 -31 20.5 -51.5t53.5 -20.5t53 20.5t20 51.5q0 33 -20 54.5t-53 21.5t-53.5 -21.5t-20.5 -54.5z" />
    <glyph glyph-name="dotbelowcomb" unicode="&#x323;" horiz-adv-x="584" 
d="M144 -284q0 64 42.5 106t104.5 42q64 0 107 -43t43 -105q0 -63 -44 -104.5t-106 -41.5q-63 0 -105 42t-42 104z" />
    <glyph glyph-name="uni0326" unicode="&#x326;" horiz-adv-x="546" 
d="M144 -528l7 422h252l-63 -422h-196z" />
    <glyph glyph-name="uni03BC" unicode="&#x3bc;" horiz-adv-x="1214" 
d="M146 960h257v-552q3 -90 58 -140t137 -50q90 0 152.5 54.5t62.5 149.5v538h256v-960h-244l-5 111q-35 -54 -99.5 -90t-149.5 -36q-108 0 -168 51v-436h-257v1360z" />
    <glyph glyph-name="pi" unicode="&#x3c0;" horiz-adv-x="1373" 
d="M31 1104h1242v-241h-175v-537q0 -64 35.5 -91t113.5 -27q31 0 54 4v-216q-42 -13 -129 -13q-88 0 -161 32.5t-120.5 104t-47.5 172.5v571h-375v-863h-255v863h-182v241z" />
    <glyph glyph-name="Wgrave" unicode="&#x1e80;" horiz-adv-x="2044" 
d="M24 1358h271l301 -1089l305 1068h243l305 -1068l301 1089h271l-372 -1358h-378l-249 875l-248 -875h-378zM671 1807h292l157 -334h-216z" />
    <glyph glyph-name="wgrave" unicode="&#x1e81;" horiz-adv-x="1613" 
d="M33 960h265l189 -699l206 684h228l205 -684l190 699h265l-283 -960h-319l-172 582l-172 -582h-319zM451 1455h292l157 -334h-216z" />
    <glyph glyph-name="Wacute" unicode="&#x1e82;" horiz-adv-x="2044" 
d="M396 0l-372 1358h271l301 -1089l305 1068h243l305 -1068l301 1089h271l-372 -1358h-378l-249 875l-248 -875h-378zM1160 1473h-216l157 334h292z" />
    <glyph glyph-name="wacute" unicode="&#x1e83;" horiz-adv-x="1613" 
d="M316 0l-283 960h265l189 -699l206 684h228l205 -684l190 699h265l-283 -960h-319l-172 582l-172 -582h-319zM944 1113h-216l157 334h292z" />
    <glyph glyph-name="Wdieresis" unicode="&#x1e84;" horiz-adv-x="2044" 
d="M396 0l-372 1358h271l301 -1089l305 1068h243l305 -1068l301 1089h271l-372 -1358h-378l-249 875l-248 -875h-378zM1205 1492q-61 0 -99 37.5t-38 98.5t38 99t99 38t99.5 -38t38.5 -99t-38.5 -98.5t-99.5 -37.5zM703 1628q0 61 38 99t98 38q61 0 99.5 -38t38.5 -99
t-38.5 -98.5t-99.5 -37.5q-60 0 -98 37.5t-38 98.5z" />
    <glyph glyph-name="wdieresis" unicode="&#x1e85;" horiz-adv-x="1613" 
d="M33 960h265l189 -699l206 684h228l205 -684l190 699h265l-283 -960h-319l-172 582l-172 -582h-319zM852 1291q0 61 38 99t99 38t99.5 -38t38.5 -99t-38.5 -98.5t-99.5 -37.5t-99 37.5t-38 98.5zM623 1155q-60 0 -98 37.5t-38 98.5t38 99t98 38q61 0 99.5 -38t38.5 -99
t-38.5 -98.5t-99.5 -37.5z" />
    <glyph glyph-name="Germandbls" unicode="&#x1e9e;" horiz-adv-x="1455" 
d="M154 0v820q0 164 82 292t223.5 197t317.5 69q162 0 298.5 -68t208.5 -181v-80l-334 -290h31q167 0 282 -104t115 -257q0 -187 -128.5 -302t-332.5 -115q-132 0 -238.5 60.5t-171.5 172.5l187 150q98 -146 231 -146q82 0 129 48.5t47 123.5q0 70 -58 118t-147 48h-296v164
l396 356q-85 58 -219 58q-142 0 -248 -88t-106 -231v-815h-269z" />
    <glyph glyph-name="uni1EA0" unicode="&#x1ea0;" horiz-adv-x="1414" 
d="M4 0l548 1358h310l549 -1358h-288l-100 266h-630l-101 -266h-288zM469 481h476l-237 595zM706 -431q-63 0 -105 42t-42 104q0 64 42.5 106t104.5 42q64 0 107 -43t43 -105q0 -63 -44 -104.5t-106 -41.5z" />
    <glyph glyph-name="uni1EA1" unicode="&#x1ea1;" horiz-adv-x="1093" 
d="M82 275q0 137 115.5 222t305.5 85q109 0 202 -33v22q0 80 -58.5 131.5t-149.5 51.5q-140 0 -254 -121l-147 147q61 79 167 139.5t242 60.5q211 0 333.5 -104.5t122.5 -284.5v-591h-244v107q-39 -59 -110.5 -93t-161.5 -34q-164 0 -263.5 81t-99.5 214zM521 411
q-88 0 -142 -33.5t-54 -88.5q0 -54 43.5 -86t116.5 -32q94 0 157 57t63 146q-83 37 -184 37zM536 -430q-63 0 -105 42t-42 104q0 64 42.5 106t104.5 42q64 0 107 -43t43 -105q0 -63 -44 -104.5t-106 -41.5z" />
    <glyph glyph-name="uni1EB8" unicode="&#x1eb8;" horiz-adv-x="1231" 
d="M170 1358h966v-234h-696v-313h604v-234h-604v-344h711v-233h-981v1358zM553 -284q0 64 42.5 106t104.5 42q64 0 107 -43t43 -105q0 -63 -44 -104.5t-106 -41.5q-63 0 -105 42t-42 104z" />
    <glyph glyph-name="uni1EB9" unicode="&#x1eb9;" horiz-adv-x="1111" 
d="M76 481q1 219 140.5 359t353.5 140q203 0 334 -127t131 -341q0 -52 -9 -109h-694q14 -83 88.5 -137.5t167.5 -54.5q147 0 239 135l182 -136q-66 -110 -181.5 -170.5t-245.5 -60.5q-150 0 -266.5 67t-178 181t-61.5 254zM611 -430q-63 0 -105 42t-42 104q0 64 42.5 106
t104.5 42q64 0 107 -43t43 -105q0 -63 -44 -104.5t-106 -41.5zM573 764q-94 0 -160 -53.5t-77 -135.5h460q-10 82 -71.5 135.5t-151.5 53.5z" />
    <glyph glyph-name="uni1EBC" unicode="&#x1ebc;" horiz-adv-x="1231" 
d="M170 0v1358h966v-234h-696v-313h604v-234h-604v-344h711v-233h-981zM433 1506l-109 96q103 183 237 183q41 0 87.5 -22.5t88.5 -44.5t72 -22q37 0 64.5 19.5t58.5 64.5l105 -99q-52 -93 -111 -135.5t-133 -42.5q-49 0 -117.5 37t-92.5 42q-34 7 -55 3q-40 -7 -95 -79z
" />
    <glyph glyph-name="uni1EBD" unicode="&#x1ebd;" horiz-adv-x="1111" 
d="M582 -21q-150 0 -266.5 67t-178 181t-61.5 254q1 219 140.5 359t353.5 140q203 0 334 -127t131 -341q0 -52 -9 -109h-694q14 -83 88.5 -137.5t167.5 -54.5q147 0 239 135l182 -136q-66 -110 -181.5 -170.5t-245.5 -60.5zM329 1146l-109 96q103 183 237 183
q41 0 87.5 -22.5t88.5 -44.5t72 -22q37 0 64.5 19.5t58.5 64.5l105 -99q-52 -93 -111 -135.5t-133 -42.5q-49 0 -117.5 37t-92.5 42q-34 7 -55 3q-40 -7 -95 -79zM336 575h460q-10 82 -71.5 135.5t-151.5 53.5q-94 0 -160 -53.5t-77 -135.5z" />
    <glyph glyph-name="uni1ECA" unicode="&#x1eca;" horiz-adv-x="609" 
d="M170 1358h270v-1358h-270v1358zM157 -284q0 64 42.5 106t104.5 42q64 0 107 -43t43 -105q0 -63 -44 -104.5t-106 -41.5q-63 0 -105 42t-42 104z" />
    <glyph glyph-name="uni1ECB" unicode="&#x1ecb;" horiz-adv-x="548" 
d="M146 960h257v-960h-257v960zM274 1146q-65 0 -106 41t-41 106t41 106.5t106 41.5t106.5 -41t41.5 -107q0 -65 -41.5 -106t-106.5 -41zM273 -430q-63 0 -105 42t-42 104q0 64 42.5 106t104.5 42q64 0 107 -43t43 -105q0 -63 -44 -104.5t-106 -41.5z" />
    <glyph glyph-name="uni1ECC" unicode="&#x1ecc;" horiz-adv-x="1586" 
d="M793 -20q-204 0 -366 88t-253.5 247t-91.5 361q0 152 53.5 283t147.5 222.5t226 144t284 52.5q204 0 366.5 -89.5t254 -250t91.5 -362.5t-91.5 -361t-254 -247t-366.5 -88zM360 677q0 -198 122 -322t312 -124q191 0 312.5 123.5t121.5 322.5q0 198 -121.5 323.5
t-312.5 125.5q-190 0 -312 -126t-122 -323zM645 -284q0 64 42.5 106t104.5 42q64 0 107 -43t43 -105q0 -63 -44 -104.5t-106 -41.5q-63 0 -105 42t-42 104z" />
    <glyph glyph-name="uni1ECD" unicode="&#x1ecd;" horiz-adv-x="1245" 
d="M623 -20q-220 0 -366.5 143.5t-146.5 356.5t146.5 356.5t366.5 143.5t366.5 -143.5t146.5 -356.5q0 -140 -66 -254.5t-184 -180t-263 -65.5zM365 480q0 -116 73 -192t185 -76q113 0 185.5 76t72.5 192q0 115 -72.5 191t-185.5 76q-112 0 -185 -76t-73 -191zM475 -284
q0 64 42.5 106t104.5 42q64 0 107 -43t43 -105q0 -63 -44 -104.5t-106 -41.5q-63 0 -105 42t-42 104z" />
    <glyph glyph-name="uni1EE4" unicode="&#x1ee4;" horiz-adv-x="1471" 
d="M736 -20q-262 0 -421.5 146t-159.5 390v842h269v-836q0 -136 87.5 -218t224.5 -82t224.5 82t87.5 218v836h269v-842q0 -244 -159.5 -390t-421.5 -146zM588 -284q0 64 42.5 106t104.5 42q64 0 107 -43t43 -105q0 -63 -44 -104.5t-106 -41.5q-63 0 -105 42t-42 104z" />
    <glyph glyph-name="uni1EE5" unicode="&#x1ee5;" horiz-adv-x="1203" 
d="M511 -25q-168 0 -273 102.5t-105 273.5v609h256v-543q0 -97 55.5 -150.5t142.5 -53.5q91 0 153 54t62 150v543h256v-960h-244l-5 106q-41 -56 -118.5 -93.5t-179.5 -37.5zM442 -284q0 64 42.5 106t105.5 42q64 0 106.5 -43t42.5 -105q0 -63 -43.5 -104.5t-105.5 -41.5
q-63 0 -105.5 42t-42.5 104z" />
    <glyph glyph-name="Ygrave" unicode="&#x1ef2;" horiz-adv-x="1337" 
d="M9 1358h322l341 -571l345 571h312l-524 -845v-513h-269v513zM558 1473l-233 334h292l157 -334h-216z" />
    <glyph glyph-name="ygrave" unicode="&#x1ef3;" horiz-adv-x="1103" 
d="M18 960h284l251 -699l248 699h285l-453 -1091q-60 -144 -156 -216.5t-245 -72.5q-99 0 -183 42l32 206q59 -25 121 -25q79 0 134.5 52t78.5 144zM222 1455h292l157 -334h-216z" />
    <glyph glyph-name="uni1EF8" unicode="&#x1ef8;" horiz-adv-x="1337" 
d="M9 1358h322l341 -571l345 571h312l-524 -845v-513h-269v513zM313 1602q103 183 237 183q41 0 87.5 -22.5t88.5 -44.5t72 -22q37 0 64.5 19.5t58.5 64.5l105 -99q-52 -93 -111 -135.5t-133 -42.5q-49 0 -117.5 37t-92.5 42q-34 7 -55 3q-40 -7 -95 -79z" />
    <glyph glyph-name="uni1EF9" unicode="&#x1ef9;" horiz-adv-x="1103" 
d="M18 960h284l251 -699l248 699h285l-453 -1091q-60 -144 -156 -216.5t-245 -72.5q-99 0 -183 42l32 206q59 -25 121 -25q79 0 134.5 52t78.5 144zM179 1242q103 183 237 183q41 0 87.5 -22.5t88.5 -44.5t72 -22q37 0 64.5 19.5t58.5 64.5l105 -99q-52 -93 -111 -135.5
t-133 -42.5q-49 0 -117.5 37t-92.5 42q-34 7 -55 3q-40 -7 -95 -79z" />
    <glyph glyph-name="endash" unicode="&#x2013;" horiz-adv-x="1244" 
d="M1125 667v-214h-1005v214h1005z" />
    <glyph glyph-name="emdash" unicode="&#x2014;" horiz-adv-x="2277" 
d="M2158 667v-214h-2038v214h2038z" />
    <glyph glyph-name="quoteleft" unicode="&#x2018;" horiz-adv-x="530" 
d="M342 912h-272l203 516h206z" />
    <glyph glyph-name="quoteright" unicode="&#x2019;" horiz-adv-x="522" 
d="M215 1428h272l-203 -516h-206z" />
    <glyph glyph-name="quotesinglbase" unicode="&#x201a;" horiz-adv-x="516" 
d="M146 233h272l-188 -516h-221z" />
    <glyph glyph-name="quotedblleft" unicode="&#x201c;" horiz-adv-x="958" 
d="M498 912l203 516h206l-137 -516h-272zM342 912h-272l203 516h206z" />
    <glyph glyph-name="quotedblright" unicode="&#x201d;" horiz-adv-x="944" 
d="M500 912l137 516h272l-203 -516h-206zM78 912l137 516h272l-203 -516h-206z" />
    <glyph glyph-name="quotedblbase" unicode="&#x201e;" horiz-adv-x="944" 
d="M432 -287l137 516h272l-203 -516h-206zM215 -287h-206l137 516h272z" />
    <glyph glyph-name="dagger" unicode="&#x2020;" horiz-adv-x="785" 
d="M62 1339h229v268h203v-268h231v-179h-231v-653h-203v653h-229v179z" />
    <glyph glyph-name="daggerdbl" unicode="&#x2021;" horiz-adv-x="856" 
d="M97 1231v180h229v227h203v-227h231v-180h-231v-348h231v-180h-231v-226h-203v226h-229v180h229v348h-229z" />
    <glyph glyph-name="bullet" unicode="&#x2022;" horiz-adv-x="721" 
d="M119 671q0 101 69.5 171t172.5 70t173 -70t70 -171t-70 -170.5t-173 -69.5q-102 0 -172 69.5t-70 170.5z" />
    <glyph glyph-name="ellipsis" unicode="&#x2026;" horiz-adv-x="1419" 
d="M708 -20q-62 0 -105 43t-43 103q0 62 43 105t105 43q63 0 106 -43.5t43 -104.5q0 -62 -43.5 -104t-105.5 -42zM1033 126q0 62 43 105t104 43q63 0 106.5 -43.5t43.5 -104.5q0 -62 -44 -104t-106 -42t-104.5 43t-42.5 103zM90 126q0 62 43 105t104 43q63 0 106.5 -43.5
t43.5 -104.5q0 -62 -44 -104t-106 -42t-104.5 43t-42.5 103z" />
    <glyph glyph-name="perthousand" unicode="&#x2030;" horiz-adv-x="2677" 
d="M1382 -20q-164 0 -273 107.5t-109 267.5q0 162 109 270t273 108q165 0 274.5 -108t109.5 -270q0 -160 -109.5 -267.5t-274.5 -107.5zM1856 355q0 162 109 270t273 108q165 0 274.5 -108t109.5 -270q0 -160 -109.5 -267.5t-274.5 -107.5q-164 0 -273 107.5t-109 267.5z
M435 625q-164 0 -273 107.5t-109 267.5q0 162 108.5 270t273.5 108t274 -108t109 -270q0 -160 -109.5 -267.5t-273.5 -107.5zM465 26l734 1332h155v-24l-732 -1334h-157v26zM252 1000q0 -78 52 -131t131 -53t130.5 53t51.5 131q0 79 -51.5 133t-130.5 54t-131 -54t-52 -133z
M2238 542q-78 0 -130 -54t-52 -133q0 -78 52 -131t130 -53q79 0 130.5 53t51.5 131q0 80 -51.5 133.5t-130.5 53.5zM1200 355q0 -78 52 -131t130 -53q79 0 130.5 53t51.5 131q0 80 -51.5 133.5t-130.5 53.5q-78 0 -130 -54t-52 -133z" />
    <glyph glyph-name="guilsinglleft" unicode="&#x2039;" horiz-adv-x="678" 
d="M594 86h-235l-272 394l272 395h235l-254 -395z" />
    <glyph glyph-name="guilsinglright" unicode="&#x203a;" horiz-adv-x="678" 
d="M320 85h-235l254 394l-254 395h235l272 -395z" />
    <glyph glyph-name="fraction" unicode="&#x2044;" horiz-adv-x="357" 
d="M-263 0v26l734 1332h155v-24l-732 -1334h-157z" />
    <glyph glyph-name="uni2070" unicode="&#x2070;" horiz-adv-x="844" 
d="M437 514q-91 0 -160 34.5t-110 95.5t-61.5 137.5t-20.5 165.5q0 88 20 164t61 136.5t110.5 95.5t160.5 35q92 0 162 -36t110 -98t59.5 -136.5t19.5 -160.5q0 -71 -12.5 -134t-39.5 -118t-67 -95t-99.5 -63t-132.5 -23zM437 1214q-85 0 -127 -77t-42 -190
q0 -116 42 -192.5t127 -76.5t127 77.5t42 191.5t-42 190.5t-127 76.5z" />
    <glyph glyph-name="uni2074" unicode="&#x2074;" horiz-adv-x="757" 
d="M39 717v139l387 502h176v-481h108v-160h-108v-183h-173v183h-390zM429 1103l-170 -226h170v226z" />
    <glyph glyph-name="uni2075" unicode="&#x2075;" horiz-adv-x="743" 
d="M364 514q-109 0 -193 54.5t-123 154.5l143 89q22 -62 69 -97t98 -35q56 0 91.5 31.5t35.5 87.5q0 54 -39.5 89.5t-98.5 35.5q-77 0 -126 -51l-129 41l41 444h499v-163h-332l-13 -141q40 22 95 22q133 0 216 -77.5t83 -201.5q0 -123 -89.5 -203t-227.5 -80z" />
    <glyph glyph-name="uni2076" unicode="&#x2076;" horiz-adv-x="788" 
d="M406 514q-91 0 -158.5 32.5t-104.5 89t-54.5 122t-17.5 142.5q0 102 23 186.5t69.5 151t123.5 103.5t179 37q142 0 240 -72l-64 -159q-78 56 -184 56q-75 0 -129 -50.5t-60 -130.5q23 32 69 51.5t96 19.5q127 0 208.5 -77.5t81.5 -198.5q0 -141 -94.5 -222t-223.5 -81z
M406 943q-58 0 -95.5 -38.5t-37.5 -97.5q0 -57 37.5 -94.5t95.5 -37.5t97 37.5t39 97.5q0 57 -39 95t-97 38z" />
    <glyph glyph-name="uni2077" unicode="&#x2077;" horiz-adv-x="662" 
d="M67 1358h583v-134q-211 -326 -339 -690h-192q112 324 329 661h-381v163z" />
    <glyph glyph-name="uni2078" unicode="&#x2078;" horiz-adv-x="795" 
d="M80 767q0 65 32.5 117.5t90.5 82.5q-47 27 -74 75t-27 104q0 73 44.5 127t113 79.5t148.5 25.5q123 0 214.5 -62t91.5 -170q0 -55 -27 -103t-72 -76q56 -30 88 -82.5t32 -117.5q0 -120 -94.5 -186.5t-232.5 -66.5q-89 0 -162 27.5t-119.5 86.5t-46.5 139zM272 778
q0 -57 39.5 -85.5t98.5 -28.5t98.5 29.5t39.5 84.5q0 57 -39.5 85.5t-98.5 28.5t-98.5 -28.5t-39.5 -85.5zM410 1228q-55 0 -88.5 -27t-33.5 -70q0 -44 33.5 -71.5t88.5 -27.5q53 0 86 27.5t33 71.5q0 43 -33 70t-86 27z" />
    <glyph glyph-name="uni2079" unicode="&#x2079;" horiz-adv-x="787" 
d="M359 799q-127 0 -208.5 77.5t-81.5 198.5q0 141 94.5 222t223.5 81q91 0 158.5 -32.5t104.5 -89t54.5 -122t17.5 -142.5q0 -102 -23 -186.5t-69.5 -151t-123.5 -103.5t-179 -37q-142 0 -240 72l64 159q78 -56 184 -56q75 0 129 50.5t60 130.5q-23 -32 -69 -51.5
t-96 -19.5zM387 1217q-58 0 -97 -37.5t-39 -97.5q0 -57 39 -95t97 -38t95.5 38.5t37.5 97.5q0 57 -37.5 94.5t-95.5 37.5z" />
    <glyph glyph-name="uni2080" unicode="&#x2080;" horiz-adv-x="844" 
d="M423 -20q-91 0 -160 34.5t-110 95.5t-61.5 137.5t-20.5 165.5q0 88 20 164t61 136.5t110.5 95.5t160.5 35q92 0 162 -36t110 -98t59.5 -136.5t19.5 -160.5q0 -71 -12.5 -134t-39.5 -118t-67 -95t-99.5 -63t-132.5 -23zM423 680q-85 0 -127 -77t-42 -190q0 -116 42 -192.5
t127 -76.5t127 77.5t42 191.5t-42 190.5t-127 76.5z" />
    <glyph glyph-name="uni2081" unicode="&#x2081;" horiz-adv-x="498" 
d="M199 0v664h-170v160h353v-824h-183z" />
    <glyph glyph-name="uni2082" unicode="&#x2082;" horiz-adv-x="734" 
d="M59 632q33 94 115.5 153t179.5 59q131 0 218 -71.5t87 -189.5q0 -30 -7.5 -58t-18 -50.5t-30 -46t-35.5 -39.5t-42 -36.5t-43 -32.5t-45 -31.5t-41 -28.5t-37.5 -26t-38.5 -26.5t-28 -22.5t-18 -22h390v-163h-592v102q0 28 6.5 54t24 51.5t29.5 42.5t42.5 43t42 35.5
t49.5 37.5t44 33q9 7 32 24.5t31 23.5t25.5 20t24 21.5t17.5 20t15 22.5t7.5 22.5t3.5 25.5q0 46 -30.5 72t-80.5 26q-48 0 -88.5 -32t-61.5 -88z" />
    <glyph glyph-name="uni2083" unicode="&#x2083;" horiz-adv-x="745" 
d="M58 184l144 85q22 -56 70 -91t101 -35q51 0 80.5 26.5t29.5 66.5q0 51 -36.5 81.5t-92.5 30.5h-127v141h127q50 0 80.5 29t30.5 76q0 39 -29.5 63t-76.5 24q-56 0 -97 -32.5t-62 -86.5l-141 85q34 84 112 140.5t188 56.5q125 0 210.5 -65.5t85.5 -182.5q0 -55 -28 -103
t-71 -72q50 -23 84 -74.5t34 -112.5q0 -118 -88 -186t-209 -68q-109 0 -194 53.5t-125 150.5z" />
    <glyph glyph-name="uni2084" unicode="&#x2084;" horiz-adv-x="759" 
d="M39 183v139l387 502h176v-481h108v-160h-108v-183h-173v183h-390zM429 569l-170 -226h170v226z" />
    <glyph glyph-name="uni2085" unicode="&#x2085;" horiz-adv-x="743" 
d="M364 -20q-109 0 -193 54.5t-123 154.5l143 89q22 -62 69 -97t98 -35q56 0 91.5 31.5t35.5 87.5q0 54 -39.5 89.5t-98.5 35.5q-77 0 -126 -51l-129 41l41 444h499v-163h-332l-13 -141q40 22 95 22q133 0 216 -77.5t83 -201.5q0 -123 -89.5 -203t-227.5 -80z" />
    <glyph glyph-name="uni2086" unicode="&#x2086;" horiz-adv-x="789" 
d="M407 -20q-91 0 -158.5 32.5t-104.5 89t-54.5 122t-17.5 142.5q0 102 23 186.5t69.5 151t123.5 103.5t179 37q142 0 240 -72l-64 -159q-78 56 -184 56q-75 0 -129 -50.5t-60 -130.5q23 32 69 51.5t96 19.5q127 0 208.5 -77.5t81.5 -198.5q0 -141 -94.5 -222t-223.5 -81z
M407 409q-58 0 -95.5 -38.5t-37.5 -97.5q0 -57 37.5 -94.5t95.5 -37.5t97 37.5t39 97.5q0 57 -39 95t-97 38z" />
    <glyph glyph-name="uni2087" unicode="&#x2087;" horiz-adv-x="663" 
d="M47 824h583v-134q-211 -326 -339 -690h-192q112 324 329 661h-381v163z" />
    <glyph glyph-name="uni2088" unicode="&#x2088;" horiz-adv-x="796" 
d="M71 233q0 65 32.5 117.5t90.5 82.5q-47 27 -74 75t-27 104q0 73 44.5 127t113 79.5t148.5 25.5q123 0 214.5 -62t91.5 -170q0 -55 -27 -103t-72 -76q56 -30 88 -82.5t32 -117.5q0 -120 -94.5 -186.5t-232.5 -66.5q-89 0 -162 27.5t-119.5 86.5t-46.5 139zM263 244
q0 -57 39.5 -85.5t98.5 -28.5t98.5 29.5t39.5 84.5q0 57 -39.5 85.5t-98.5 28.5t-98.5 -28.5t-39.5 -85.5zM401 694q-55 0 -88.5 -27t-33.5 -70q0 -44 33.5 -71.5t88.5 -27.5q53 0 86 27.5t33 71.5q0 43 -33 70t-86 27z" />
    <glyph glyph-name="uni2089" unicode="&#x2089;" horiz-adv-x="789" 
d="M367 265q-127 0 -208.5 77.5t-81.5 198.5q0 141 94.5 222t223.5 81q91 0 158.5 -32.5t104.5 -89t54.5 -122t17.5 -142.5q0 -102 -23 -186.5t-69.5 -151t-123.5 -103.5t-179 -37q-142 0 -240 72l64 159q78 -56 184 -56q75 0 129 50.5t60 130.5q-23 -32 -69 -51.5
t-96 -19.5zM395 683q-58 0 -97 -37.5t-39 -97.5q0 -57 39 -95t97 -38t95.5 38.5t37.5 97.5q0 57 -37.5 94.5t-95.5 37.5z" />
    <glyph glyph-name="Euro" unicode="&#x20ac;" horiz-adv-x="1462" 
d="M90 734v154h159q51 229 208 359.5t388 130.5q188 0 330 -89t203 -246l-218 -124q-50 103 -132 159.5t-183 56.5q-109 0 -189 -65t-119 -182h415v-154h-443q-2 -36 -2 -55q0 -18 2 -52h443v-154h-415q38 -118 118 -183.5t190 -65.5q109 0 195 58.5t133 159.5l209 -127
q-61 -155 -205.5 -245t-331.5 -90q-233 0 -390 131t-207 362h-158v154h138q-1 17 -1 52q0 37 1 55h-138z" />
    <glyph glyph-name="uni20B9" unicode="&#x20b9;" horiz-adv-x="1228" 
d="M1128 1011v-174h-199q-27 -142 -136.5 -232.5t-272.5 -107.5l523 -497h-376l-526 494v216h293q78 0 131.5 34.5t77.5 92.5h-502v174h503q-23 57 -76.5 90t-133.5 33h-293l-1 224h988v-170h-289q67 -78 89 -177h200z" />
    <glyph glyph-name="trademark" unicode="&#x2122;" horiz-adv-x="1374" 
d="M616 818v590h99l210 -433l209 433h99v-590h-85v431l-193 -389h-61l-193 388v-430h-85zM251 1328h-197v80h479v-80h-197v-510h-85v510z" />
    <glyph glyph-name="estimated" unicode="&#x212e;" horiz-adv-x="1712" 
d="M879 -20q-216 0 -394.5 93t-280 253t-101.5 351t104 352.5t282.5 255t389.5 93.5q157 0 301 -57t247.5 -152.5t165 -226.5t61.5 -274v-23h-1257q-11 0 -11 -9v-359q0 -24 17 -47q185 -177 478 -177q150 0 279.5 51.5t219.5 147.5h113q-105 -125 -265 -198.5t-349 -73.5z
M386 1077v-351q0 -13 11 -13h966q6 0 6 13v358q0 23 -17 46q-87 85 -210.5 130t-260.5 45q-293 0 -475 -175q-20 -24 -20 -53z" />
    <glyph glyph-name="onethird" unicode="&#x2153;" horiz-adv-x="1718" 
d="M980 184l144 85q22 -56 70 -91t101 -35q51 0 80.5 26.5t29.5 66.5q0 51 -36.5 81.5t-92.5 30.5h-127v141h127q50 0 80.5 29t30.5 76q0 39 -29.5 63t-76.5 24q-56 0 -97 -32.5t-62 -86.5l-141 85q34 84 112 140.5t188 56.5q125 0 210.5 -65.5t85.5 -182.5q0 -55 -28 -103
t-71 -72q50 -23 84 -74.5t34 -112.5q0 -118 -88 -186t-209 -68q-109 0 -194 53.5t-125 150.5zM269 26l734 1332h155v-24l-732 -1334h-157v26zM81 1354h353v-824h-183v664h-170v160z" />
    <glyph glyph-name="twothirds" unicode="&#x2154;" horiz-adv-x="1892" 
d="M1187 184l144 85q22 -56 70 -91t101 -35q51 0 80.5 26.5t29.5 66.5q0 51 -36.5 81.5t-92.5 30.5h-127v141h127q50 0 80.5 29t30.5 76q0 39 -29.5 63t-76.5 24q-56 0 -97 -32.5t-62 -86.5l-141 85q34 84 112 140.5t188 56.5q125 0 210.5 -65.5t85.5 -182.5q0 -55 -28 -103
t-71 -72q50 -23 84 -74.5t34 -112.5q0 -118 -88 -186t-209 -68q-109 0 -194 53.5t-125 150.5zM73 1172q33 94 115.5 153t179.5 59q131 0 218 -71.5t87 -189.5q0 -30 -7.5 -58t-18 -50.5t-30 -46t-35.5 -39.5t-42 -36.5t-43 -32.5t-45 -31.5t-41 -28.5t-37.5 -26t-38.5 -26.5
t-28 -22.5t-18 -22h390v-163h-592v102q0 28 6.5 54t24 51.5t29.5 42.5t42.5 43t42 35.5t49.5 37.5t44 33q9 7 32 24.5t31 23.5t25.5 20t24 21.5t17.5 20t15 22.5t7.5 22.5t3.5 25.5q0 46 -30.5 72t-80.5 26q-48 0 -88.5 -32t-61.5 -88zM673 0h-157v26l734 1332h155v-24z" />
    <glyph glyph-name="minus" unicode="&#x2212;" horiz-adv-x="1168" 
d="M1062 561h-955v240h955v-240z" />
    <glyph glyph-name="uni2215" unicode="&#x2215;" horiz-adv-x="828" 
d="M-27 0v26l734 1332h155v-24l-732 -1334h-157z" />
    <glyph glyph-name="uni2219" unicode="&#x2219;" horiz-adv-x="546" 
d="M125 489q0 62 42.5 104.5t105.5 42.5t106 -42.5t43 -104.5t-43 -104.5t-106 -42.5t-105.5 42.5t-42.5 104.5z" />
    <glyph glyph-name="approxequal" unicode="&#x2248;" horiz-adv-x="1315" 
d="M105 919q185 175 349 175q57 0 103.5 -12.5t78.5 -30t63 -34.5t72 -29.5t90 -12.5q64 0 112.5 20.5t109.5 68.5l128 -180q-184 -174 -348 -174q-55 0 -100 12.5t-77 30t-63.5 34.5t-73.5 29.5t-93 12.5q-105 0 -222 -94zM105 465q185 175 349 175q56 0 102.5 -12.5
t78.5 -30t63.5 -34.5t72.5 -29.5t90 -12.5q64 0 112 20.5t109 68.5l129 -180q-184 -174 -349 -174q-55 0 -100 12.5t-77 30t-63 34.5t-73.5 29.5t-92.5 12.5q-105 0 -222 -94z" />
    <glyph glyph-name="notequal" unicode="&#x2260;" horiz-adv-x="1316" 
d="M403 318h-279v244h388l105 234h-493v243h603l165 367l160 -59l-140 -308h281v-243h-391l-106 -234h497v-244h-607l-167 -368l-153 64z" />
    <glyph glyph-name="lessequal" unicode="&#x2264;" horiz-adv-x="1347" 
d="M1200 712v-242h-1076v335l1061 502v-282l-744 -313h759zM1201 275v-238h-1085v238h1085z" />
    <glyph glyph-name="greaterequal" unicode="&#x2265;" horiz-adv-x="1350" 
d="M152 712h759l-745 313v282l1061 -502v-335h-1075v242zM148 275h1085v-238h-1085v238z" />
    <glyph glyph-name="numbersign.onum" horiz-adv-x="1278" 
d="M263 246h-202l33 180h202l42 238h-201l34 181h199l41 222h203l-41 -222h235l41 222h203l-41 -222h210l-34 -181h-208l-42 -238h207l-33 -180h-207l-44 -246h-203l44 246h-235l-44 -246h-203zM541 664l-42 -238h235l42 238h-235z" />
    <glyph glyph-name="numbersign.onum.tnum" 
d="M317 246h-202l33 180h202l42 238h-201l34 181h199l41 222h203l-41 -222h235l41 222h203l-41 -222h210l-34 -181h-208l-42 -238h207l-33 -180h-207l-44 -246h-203l44 246h-235l-44 -246h-203zM595 664l-42 -238h235l42 238h-235z" />
    <glyph glyph-name="numbersign.tnum" 
d="M43 332l34 190h234q10 57 30 169.5t30 170.5h-234l35 189h231l55 307h215l-52 -307h275l55 307h216l-54 -307h235l-34 -189h-235l-61 -340h235l-36 -190h-232l-61 -333h-217l61 333h-276l-61 -333h-218l62 333h-232zM586 862l-61 -340h279l61 340h-279z" />
    <glyph glyph-name="dollar.onum" horiz-adv-x="1064" 
d="M470 -16q-130 14 -231.5 77.5t-154.5 162.5l176 136q73 -127 210 -154v234q-84 21 -143 45.5t-108.5 61.5t-74 91.5t-24.5 127.5q0 130 98.5 214.5t251.5 98.5v154h131v-158q114 -17 202 -75t136 -137l-155 -130q-71 97 -183 122v-224q91 -24 152.5 -49.5t113.5 -63.5
t77 -93t25 -128q0 -128 -105.5 -213.5t-262.5 -100.5v-164h-131v165zM724 297q0 41 -28.5 65.5t-94.5 44.5v-201q56 9 89.5 33t33.5 58zM361 769q0 -37 26 -60t83 -42v190q-51 -9 -80 -32t-29 -56z" />
    <glyph glyph-name="dollar.onum.tnum" 
d="M677 -16q-130 14 -231.5 77.5t-154.5 162.5l176 136q73 -127 210 -154v234q-84 21 -143 45.5t-108.5 61.5t-74 91.5t-24.5 127.5q0 130 98.5 214.5t251.5 98.5v154h131v-158q114 -17 202 -75t136 -137l-155 -130q-71 97 -183 122v-224q91 -24 152.5 -49.5t113.5 -63.5
t77 -93t25 -128q0 -128 -105.5 -213.5t-262.5 -100.5v-164h-131v165zM931 297q0 41 -28.5 65.5t-94.5 44.5v-201q56 9 89.5 33t33.5 58zM568 769q0 -37 26 -60t83 -42v190q-51 -9 -80 -32t-29 -56z" />
    <glyph glyph-name="dollar.tnum" 
d="M166 301l199 144q83 -170 256 -210v349q-78 26 -132.5 48.5t-111 57t-90.5 74t-55.5 97t-21.5 127.5q0 83 34.5 153t93 117t131 76.5t152.5 39.5v162h164v-165q138 -22 242.5 -101t165.5 -187l-208 -148q-82 138 -200 181v-322q51 -18 79.5 -28.5t72.5 -29t69 -32
t59.5 -34.5t54 -41t42 -48t34 -57.5t19 -67t7.5 -79.5q0 -87 -37 -159t-99.5 -119.5t-139 -76.5t-161.5 -38v-160h-164v162q-160 20 -280.5 105t-174.5 210zM486 989q0 -54 32 -83.5t103 -55.5v277q-59 -13 -97 -50t-38 -88zM947 375q0 50 -40.5 86t-121.5 68v-298
q72 14 117 53t45 91z" />
    <glyph glyph-name="percent.onum" horiz-adv-x="1808" 
d="M1378 -165q-164 0 -273 107.5t-109 267.5q0 162 109 270t273 108q165 0 274.5 -108t109.5 -270q0 -160 -109.5 -267.5t-274.5 -107.5zM431 480q-164 0 -273 107.5t-109 267.5q0 162 108.5 270t273.5 108t274 -108t109 -270q0 -160 -109.5 -267.5t-273.5 -107.5zM461 -119
l734 1332h155v-24l-732 -1334h-157v26zM431 1042q-79 0 -131 -54t-52 -133q0 -78 52 -131t131 -53t130.5 53t51.5 131q0 79 -51.5 133t-130.5 54zM1378 397q-78 0 -130 -54t-52 -133q0 -78 52 -131t130 -53q79 0 130.5 53t51.5 131q0 80 -51.5 133.5t-130.5 53.5z" />
    <glyph glyph-name="ampersand.smcp" horiz-adv-x="1110" 
d="M68 268q0 165 203 273q-109 103 -109 210q0 127 94.5 200.5t233.5 73.5t229 -73.5t90 -189.5q0 -80 -53.5 -142.5t-165.5 -121.5l157 -150q17 36 22.5 100t-1.5 102h198q13 -101 -1 -178.5t-66 -156.5l229 -220h-287l-81 77q-125 -92 -290 -92q-183 0 -292.5 79.5
t-109.5 208.5zM615 211l-214 205q-108 -54 -108 -136q0 -52 49.5 -80.5t129.5 -28.5t143 40zM377 754q0 -29 14.5 -56t26.5 -39t44 -41q132 70 132 142q0 40 -31.5 61.5t-76.5 21.5q-44 0 -76.5 -24t-32.5 -65z" />
    <glyph glyph-name="plus.onum" horiz-adv-x="1242" 
d="M74 657h412v404h268v-404h415v-240h-415v-411h-268v411h-412v240z" />
    <glyph glyph-name="plus.onum.tnum" 
d="M148 657h412v404h268v-404h415v-240h-415v-411h-268v411h-412v240z" />
    <glyph glyph-name="plus.tnum" 
d="M148 802h412v404h268v-404h415v-240h-415v-411h-268v411h-412v240z" />
    <glyph glyph-name="zero.onum" horiz-adv-x="1308" 
d="M655 -20q-250 0 -409 155t-159 399t159 398.5t409 154.5q249 0 408 -154.5t159 -398.5t-159 -399t-408 -155zM339 534q0 -139 88 -226.5t228 -87.5t227.5 87.5t87.5 226.5t-87.5 226t-227.5 87q-139 0 -227.5 -86.5t-88.5 -226.5z" />
    <glyph glyph-name="zero.onum.tnum" 
d="M697 -20q-250 0 -409 155t-159 399t159 398.5t409 154.5q249 0 408 -154.5t159 -398.5t-159 -399t-408 -155zM381 534q0 -139 88 -226.5t228 -87.5t227.5 87.5t87.5 226.5t-87.5 226t-227.5 87q-139 0 -227.5 -86.5t-88.5 -226.5z" />
    <glyph glyph-name="zero.slash" horiz-adv-x="1315" 
d="M970 1289l149 219l144 -100l-166 -244q133 -189 133 -490q0 -144 -34 -267t-102 -219.5t-180 -152t-257 -55.5q-179 0 -308 85l-146 -214l-144 100l161 237q-135 186 -135 486q0 115 20.5 217t65.5 192t110.5 155t162 102.5t213.5 37.5q181 0 313 -89zM394 443l430 631
q-70 62 -167 62q-77 0 -135.5 -38t-92.5 -103.5t-51 -145t-17 -170.5q0 -136 33 -236zM922 908l-427 -629q67 -57 162 -57q77 0 135.5 37t93 102t51.5 145t17 173q0 127 -32 229z" />
    <glyph glyph-name="zero.slash.onum" horiz-adv-x="1295" 
d="M940 1017l170 206l126 -102l-167 -202q146 -154 146 -385q0 -244 -159 -399t-408 -155q-164 0 -294 71l-169 -205l-125 101l166 202q-146 152 -146 385q0 244 159 398.5t409 154.5q163 0 292 -70zM907 722l-393 -477q62 -25 134 -25q140 0 227.5 87.5t87.5 226.5
q0 109 -56 188zM388 346l392 476q-61 25 -132 25q-139 0 -227.5 -86.5t-88.5 -226.5q0 -109 56 -188z" />
    <glyph glyph-name="zero.slash.onum.tnum" 
d="M989 1017l169 206l126 -102l-166 -202q146 -152 146 -385q0 -244 -159 -399t-408 -155q-165 0 -295 71l-169 -205l-125 101l166 202q-145 153 -145 385q0 244 159 398.5t409 154.5q161 0 292 -70zM956 723l-394 -477q61 -26 135 -26q140 0 227.5 87.5t87.5 226.5
q0 110 -56 189zM436 346l393 477q-64 24 -132 24q-139 0 -227.5 -86.5t-88.5 -226.5q0 -108 55 -188z" />
    <glyph glyph-name="zero.slash.tnum" 
d="M1006 1291l148 217l144 -100l-164 -242q135 -189 135 -492q0 -144 -34 -267t-102 -219.5t-180 -152t-257 -55.5q-181 0 -311 87l-147 -216l-144 100l163 240q-133 184 -133 483q0 115 20.5 217t65.5 192t110.5 155t162 102.5t213.5 37.5q180 0 310 -87zM960 912
l-429 -630q68 -60 165 -60q77 0 135.5 37t93 102t51.5 145t17 173q0 131 -33 233zM432 447l428 629q-68 60 -164 60q-77 0 -135.5 -38t-92.5 -103.5t-51 -145t-17 -170.5q0 -132 32 -232z" />
    <glyph glyph-name="zero.tnum" 
d="M124 674q0 115 20.5 217t65.5 192t110.5 155t162 102.5t213.5 37.5q118 0 214 -37.5t162 -102.5t111 -155t65.5 -192t20.5 -217q0 -144 -34 -267t-102 -219.5t-180 -152t-257 -55.5q-117 0 -212.5 36.5t-161.5 100t-111 151.5t-66 190t-21 216zM696 1136
q-77 0 -135.5 -38t-92.5 -103.5t-51 -145t-17 -170.5q0 -93 17 -173t51 -145t92.5 -102t135.5 -37t135.5 37t93 102t51.5 145t17 173q0 91 -17 170.5t-51 145t-93 103.5t-136 38z" />
    <glyph glyph-name="one.onum" horiz-adv-x="1023" 
d="M69 0v234h347v609h-314v234h579v-843h316v-234h-928z" />
    <glyph glyph-name="one.onum.tnum" 
d="M252 0v234h347v609h-314v234h579v-843h316v-234h-928z" />
    <glyph glyph-name="one.tnum" 
d="M239 0v236h343v885h-309v237h579v-1122h321v-236h-934z" />
    <glyph glyph-name="two.onum" horiz-adv-x="1072" 
d="M289 692l-221 107q53 132 173.5 210.5t269.5 78.5q197 0 315.5 -102.5t118.5 -274.5q0 -107 -71.5 -195t-237.5 -192l-140 -88h509v-236h-922v218l330 225q146 99 200.5 153t54.5 111q0 65 -41 101.5t-113 36.5q-81 0 -138.5 -44.5t-86.5 -108.5z" />
    <glyph glyph-name="two.onum.tnum" 
d="M452 692l-221 107q53 132 173.5 210.5t269.5 78.5q197 0 315.5 -102.5t118.5 -274.5q0 -107 -71.5 -195t-237.5 -192l-140 -88h509v-236h-922v218l330 225q146 99 200.5 153t54.5 111q0 65 -41 101.5t-113 36.5q-81 0 -138.5 -44.5t-86.5 -108.5z" />
    <glyph glyph-name="two.tnum" 
d="M214 1042q55 151 183.5 243.5t283.5 92.5q213 0 350 -123t137 -314q0 -56 -13.5 -107t-42 -95.5t-58.5 -81t-77 -76t-82.5 -66.5t-88.5 -66q-21 -15 -32 -23q-194 -139 -216 -190h628v-236h-942v113q0 47 13.5 94t33 85t54.5 80.5t63 71.5t74 67t73.5 59t74.5 55
q138 101 199 168.5t61 144.5q0 91 -56.5 144t-149.5 53q-85 0 -147 -54t-96 -147z" />
    <glyph glyph-name="three.onum" horiz-adv-x="1121" 
d="M60 766q37 88 99.5 158t161.5 117t215 47q93 0 177 -26.5t150.5 -75t105.5 -125t39 -170.5q0 -89 -55 -169.5t-134 -117.5q91 -30 153.5 -118.5t62.5 -186.5q0 -96 -41 -175.5t-109 -129.5t-153 -77t-176 -27q-167 0 -299 87t-196 244l218 120q36 -96 109 -152t164 -56
q85 0 145.5 47.5t60.5 126.5q0 85 -62 134.5t-165 49.5h-198v211h198q87 0 143 50t56 132q0 71 -53.5 116t-139.5 45q-89 0 -157.5 -57t-101.5 -141z" />
    <glyph glyph-name="three.onum.tnum" 
d="M216 766q37 88 99.5 158t161.5 117t215 47q93 0 177 -26.5t150.5 -75t105.5 -125t39 -170.5q0 -89 -55 -169.5t-134 -117.5q91 -30 153.5 -118.5t62.5 -186.5q0 -96 -41 -175.5t-109 -129.5t-153 -77t-176 -27q-167 0 -299 87t-196 244l218 120q36 -96 109 -152t164 -56
q85 0 145.5 47.5t60.5 126.5q0 85 -62 134.5t-165 49.5h-198v211h198q87 0 143 50t56 132q0 71 -53.5 116t-139.5 45q-89 0 -157.5 -57t-101.5 -141z" />
    <glyph glyph-name="three.tnum" 
d="M199 1056q37 88 99.5 158t161.5 117t215 47q93 0 177 -26.5t150.5 -75t105.5 -125t39 -170.5q0 -89 -55 -169.5t-134 -117.5q91 -30 153.5 -118.5t62.5 -186.5q0 -96 -41 -175.5t-109 -129.5t-153 -77t-176 -27q-167 0 -299 87t-196 244l218 120q36 -96 109 -152t164 -56
q85 0 145.5 47.5t60.5 126.5q0 85 -62 134.5t-165 49.5h-198v211h198q87 0 143 50t56 132q0 71 -53.5 116t-139.5 45q-89 0 -157.5 -57t-101.5 -141z" />
    <glyph glyph-name="four.onum" horiz-adv-x="1177" 
d="M684 50h-642v209l584 808h317v-787h188v-230h-188v-342h-259v342zM336 280h348v479z" />
    <glyph glyph-name="four.onum.tnum" 
d="M794 50h-642v209l584 808h317v-787h188v-230h-188v-342h-259v342zM446 280h348v479z" />
    <glyph glyph-name="four.tnum" 
d="M842 341h-642v209l584 808h317v-787h188v-230h-188v-342h-259v342zM494 571h348v479z" />
    <glyph glyph-name="five.onum" horiz-adv-x="1103" 
d="M538 -311q-177 0 -303.5 87t-193.5 249l218 113q40 -98 110 -152t163 -54q101 0 167.5 60.5t66.5 153.5q0 98 -66.5 157.5t-175.5 59.5q-135 0 -235 -100l-185 83l80 721h791v-238h-572l-32 -299q33 28 92.5 47t128.5 19q198 0 324.5 -122.5t126.5 -323.5
q0 -202 -142 -331.5t-363 -129.5z" />
    <glyph glyph-name="five.onum.tnum" 
d="M702 -311q-177 0 -303.5 87t-193.5 249l218 113q40 -98 110 -152t163 -54q101 0 167.5 60.5t66.5 153.5q0 98 -66.5 157.5t-175.5 59.5q-135 0 -235 -100l-185 83l80 721h791v-238h-572l-32 -299q33 28 92.5 47t128.5 19q198 0 324.5 -122.5t126.5 -323.5
q0 -202 -142 -331.5t-363 -129.5z" />
    <glyph glyph-name="five.tnum" 
d="M692 -20q-177 0 -303.5 87t-193.5 249l218 113q40 -98 110 -152t163 -54q101 0 167.5 60.5t66.5 153.5q0 98 -66.5 157.5t-175.5 59.5q-135 0 -235 -100l-185 83l80 721h791v-238h-572l-32 -299q33 28 92.5 47t128.5 19q198 0 324.5 -122.5t126.5 -323.5
q0 -202 -142 -331.5t-363 -129.5z" />
    <glyph glyph-name="six.onum" horiz-adv-x="1202" 
d="M627 -20q-114 0 -205 33t-153 91t-103.5 140t-60 175.5t-18.5 201.5q0 352 164.5 554.5t469.5 202.5q199 0 346 -79l-64 -215q-117 65 -263 65q-103 0 -184 -39t-135 -128t-60 -220q38 61 122.5 99.5t186.5 38.5q74 0 141.5 -16t127.5 -51.5t104.5 -86.5t70.5 -125.5
t26 -165.5q0 -216 -142 -345.5t-371 -129.5zM624 679q-106 0 -172 -64t-66 -167q0 -105 65.5 -171.5t172.5 -66.5q109 0 177 65.5t68 170.5q0 107 -66.5 170t-178.5 63z" />
    <glyph glyph-name="six.onum.tnum" 
d="M721 -20q-114 0 -205 33t-153 91t-103.5 140t-60 175.5t-18.5 201.5q0 352 164.5 554.5t469.5 202.5q199 0 346 -79l-64 -215q-117 65 -263 65q-103 0 -184 -39t-135 -128t-60 -220q38 61 122.5 99.5t186.5 38.5q74 0 141.5 -16t127.5 -51.5t104.5 -86.5t70.5 -125.5
t26 -165.5q0 -216 -142 -345.5t-371 -129.5zM718 679q-106 0 -172 -64t-66 -167q0 -105 65.5 -171.5t172.5 -66.5q109 0 177 65.5t68 170.5q0 107 -66.5 170t-178.5 63z" />
    <glyph glyph-name="six.tnum" 
d="M720 -20q-114 0 -205 33t-153 91t-103.5 140t-60 175.5t-18.5 201.5q0 352 164.5 554.5t469.5 202.5q199 0 346 -79l-64 -215q-117 65 -263 65q-103 0 -184 -39t-135 -128t-60 -220q38 61 122.5 99.5t186.5 38.5q74 0 141.5 -16t127.5 -51.5t104.5 -86.5t70.5 -125.5
t26 -165.5q0 -216 -142 -345.5t-371 -129.5zM717 679q-106 0 -172 -64t-66 -167q0 -105 65.5 -171.5t172.5 -66.5q109 0 177 65.5t68 170.5q0 107 -66.5 170t-178.5 63z" />
    <glyph glyph-name="seven.onum" horiz-adv-x="963" 
d="M33 1067h910v-202q-328 -524 -527 -1156h-292q192 600 511 1113h-602v245z" />
    <glyph glyph-name="seven.onum.tnum" 
d="M241 1067h910v-202q-328 -524 -527 -1156h-292q192 600 511 1113h-602v245z" />
    <glyph glyph-name="seven.tnum" 
d="M251 1358h910v-202q-328 -524 -527 -1156h-292q192 600 511 1113h-602v245z" />
    <glyph glyph-name="eight.onum" horiz-adv-x="1184" 
d="M591 -20q-78 0 -150 14t-138 45.5t-114.5 76.5t-77.5 112.5t-29 148.5q0 116 57.5 203.5t154.5 132.5q-81 43 -130.5 119.5t-49.5 175.5q0 92 41 165t110 116.5t152 66t174 22.5t174.5 -22.5t152 -66t109.5 -116.5t41 -165q0 -99 -49 -175.5t-130 -119.5
q97 -45 155 -132.5t58 -203.5q0 -81 -29 -148.5t-78 -112.5t-115 -76.5t-138.5 -45.5t-150.5 -14zM591 606q-102 0 -167 -54.5t-65 -147.5q0 -94 65.5 -147.5t166.5 -53.5q102 0 168 53.5t66 147.5q0 93 -66 147.5t-168 54.5zM391 976q0 -84 54 -134t146 -50q93 0 147 50
t54 134q0 79 -54.5 127.5t-146.5 48.5t-146 -48.5t-54 -127.5z" />
    <glyph glyph-name="eight.onum.tnum" 
d="M695 -20q-78 0 -150 14t-138 45.5t-114.5 76.5t-77.5 112.5t-29 148.5q0 116 57.5 203.5t154.5 132.5q-81 43 -130.5 119.5t-49.5 175.5q0 92 41 165t110 116.5t152 66t174 22.5t174.5 -22.5t152 -66t109.5 -116.5t41 -165q0 -99 -49 -175.5t-130 -119.5
q97 -45 155 -132.5t58 -203.5q0 -81 -29 -148.5t-78 -112.5t-115 -76.5t-138.5 -45.5t-150.5 -14zM695 606q-102 0 -167 -54.5t-65 -147.5q0 -94 65.5 -147.5t166.5 -53.5q102 0 168 53.5t66 147.5q0 93 -66 147.5t-168 54.5zM495 976q0 -84 54 -134t146 -50q93 0 147 50
t54 134q0 79 -54.5 127.5t-146.5 48.5t-146 -48.5t-54 -127.5z" />
    <glyph glyph-name="eight.tnum" 
d="M695 -20q-78 0 -150 14t-138 45.5t-114.5 76.5t-77.5 112.5t-29 148.5q0 116 57.5 203.5t154.5 132.5q-81 43 -130.5 119.5t-49.5 175.5q0 92 41 165t110 116.5t152 66t174 22.5t174.5 -22.5t152 -66t109.5 -116.5t41 -165q0 -99 -49 -175.5t-130 -119.5
q97 -45 155 -132.5t58 -203.5q0 -81 -29 -148.5t-78 -112.5t-115 -76.5t-138.5 -45.5t-150.5 -14zM695 606q-102 0 -167 -54.5t-65 -147.5q0 -94 65.5 -147.5t166.5 -53.5q102 0 168 53.5t66 147.5q0 93 -66 147.5t-168 54.5zM495 976q0 -84 54 -134t146 -50q93 0 147 50
t54 134q0 79 -54.5 127.5t-146.5 48.5t-146 -48.5t-54 -127.5z" />
    <glyph glyph-name="nine.onum" horiz-adv-x="1200" 
d="M543 165q-74 0 -141.5 16t-127.5 51.5t-104.5 86.5t-70.5 125.5t-26 165.5q0 216 142 345.5t371 129.5q114 0 205 -33t153 -91t103.5 -140t60 -175.5t18.5 -201.5q0 -352 -164.5 -554.5t-469.5 -202.5q-199 0 -346 79l64 215q117 -65 263 -65q103 0 184 39t135 128
t60 220q-38 -61 -122.5 -99.5t-186.5 -38.5zM589 855q-109 0 -177 -65.5t-68 -170.5q0 -107 66.5 -170t178.5 -63q106 0 172 64t66 167q0 105 -65.5 171.5t-172.5 66.5z" />
    <glyph glyph-name="nine.onum.tnum" 
d="M608 165q-74 0 -141.5 16t-127.5 51.5t-104.5 86.5t-70.5 125.5t-26 165.5q0 216 142 345.5t371 129.5q114 0 205 -33t153 -91t103.5 -140t60 -175.5t18.5 -201.5q0 -352 -164.5 -554.5t-469.5 -202.5q-199 0 -346 79l64 215q117 -65 263 -65q103 0 184 39t135 128
t60 220q-38 -61 -122.5 -99.5t-186.5 -38.5zM654 855q-109 0 -177 -65.5t-68 -170.5q0 -107 66.5 -170t178.5 -63q106 0 172 64t66 167q0 105 -65.5 171.5t-172.5 66.5z" />
    <glyph glyph-name="nine.tnum" 
d="M578 458q-74 0 -141.5 16t-127.5 51.5t-104.5 86.5t-70.5 125.5t-26 165.5q0 216 142 345.5t371 129.5q114 0 205 -33t153 -91t103.5 -140t60 -175.5t18.5 -201.5q0 -352 -164.5 -554.5t-469.5 -202.5q-199 0 -346 79l64 215q117 -65 263 -65q103 0 184 39t135 128
t60 220q-38 -61 -122.5 -99.5t-186.5 -38.5zM624 1148q-109 0 -177 -65.5t-68 -170.5q0 -107 66.5 -170t178.5 -63q106 0 172 64t66 167q0 105 -65.5 171.5t-172.5 66.5z" />
    <glyph glyph-name="less.onum" horiz-adv-x="1149" 
d="M1043 -17l-968 431v238l968 437v-268l-662 -287l662 -283v-268z" />
    <glyph glyph-name="less.onum.tnum" 
d="M1179 -17l-968 431v238l968 437v-268l-662 -287l662 -283v-268z" />
    <glyph glyph-name="less.tnum" 
d="M1179 128l-968 431v238l968 437v-268l-662 -287l662 -283v-268z" />
    <glyph glyph-name="equal.onum" horiz-adv-x="1306" 
d="M1188 173h-1069v244h1069v-244zM119 894h1069v-243h-1069v243z" />
    <glyph glyph-name="equal.onum.tnum" 
d="M1230 173h-1069v244h1069v-244zM161 894h1069v-243h-1069v243z" />
    <glyph glyph-name="equal.tnum" 
d="M1230 318h-1069v244h1069v-244zM161 1039h1069v-243h-1069v243z" />
    <glyph glyph-name="greater.onum" horiz-adv-x="1149" 
d="M769 534l-662 287v268l968 -437v-237l-968 -432v268z" />
    <glyph glyph-name="greater.onum.tnum" 
d="M873 534l-662 287v268l968 -437v-237l-968 -432v268z" />
    <glyph glyph-name="greater.tnum" 
d="M873 679l-662 287v268l968 -437v-237l-968 -432v268z" />
    <glyph glyph-name="A.smcp" horiz-adv-x="1137" 
d="M290 0h-271l401 1005h297l402 -1005h-271l-67 179h-424zM569 751l-139 -371h278z" />
    <glyph glyph-name="B.smcp" horiz-adv-x="1058" 
d="M141 0v1005h487q135 0 224.5 -74.5t89.5 -196.5q0 -137 -132 -216q85 -28 129.5 -93t44.5 -146q0 -126 -88.5 -202.5t-227.5 -76.5h-527zM616 411h-220v-207h220q50 0 80.5 29t30.5 73q0 48 -30 76.5t-81 28.5zM557 801h-161v-196h189q48 0 76 26.5t28 72.5q0 97 -132 97
z" />
    <glyph glyph-name="C.smcp" horiz-adv-x="1113" 
d="M601 -20q-145 0 -265.5 68t-190.5 188.5t-70 266.5q0 220 150.5 370.5t372.5 150.5q146 0 268 -70t198 -202l-193 -136q-102 175 -273 175q-114 0 -189.5 -82.5t-75.5 -205.5q0 -125 76.5 -208t191.5 -83q162 0 268 169l191 -135q-79 -127 -199 -196.5t-260 -69.5z" />
    <glyph glyph-name="D.smcp" horiz-adv-x="1166" 
d="M141 0v1005h432q223 0 370.5 -143.5t147.5 -359.5q0 -217 -147 -359.5t-371 -142.5h-432zM396 792v-578h186q110 0 180 81t70 203q0 123 -70 208.5t-180 85.5h-186z" />
    <glyph glyph-name="E.smcp" horiz-adv-x="981" 
d="M141 0v1005h755v-213h-500v-179h438v-204h-438v-196h508v-213h-763z" />
    <glyph glyph-name="F.smcp" horiz-adv-x="944" 
d="M141 0v1005h748v-213h-493v-188h387v-206h-387v-398h-255z" />
    <glyph glyph-name="G.smcp" horiz-adv-x="1176" 
d="M603 -20q-146 0 -267 68.5t-191 188.5t-70 266t69 265.5t190 188t267 68.5q141 0 263.5 -63.5t197.5 -189.5l-190 -140q-95 159 -271 159q-115 0 -191.5 -81.5t-76.5 -206.5t79 -208t192 -83q101 0 163.5 41t90.5 106h-311v191h552q7 -42 7 -89q0 -97 -33.5 -184
t-96 -153t-159 -105t-214.5 -39z" />
    <glyph glyph-name="H.smcp" horiz-adv-x="1225" 
d="M141 1005h255v-387h434v387h255v-1005h-255v405h-434v-405h-255v1005z" />
    <glyph glyph-name="I.smcp" horiz-adv-x="536" 
d="M396 1005v-1005h-255v1005h255z" />
    <glyph glyph-name="J.smcp" horiz-adv-x="877" 
d="M357 -21q-104 0 -197 48t-146 126l161 165q89 -109 181 -109q137 0 137 171v626h255v-636q0 -186 -103 -288.5t-288 -102.5z" />
    <glyph glyph-name="K.smcp" horiz-adv-x="1098" 
d="M396 -1h-255v1007h255v-378l354 378h326l-410 -434l421 -573h-302l-292 403l-97 -97v-306z" />
    <glyph glyph-name="L.smcp" horiz-adv-x="952" 
d="M913 213v-213h-772v1005h255v-792h517z" />
    <glyph glyph-name="M.smcp" horiz-adv-x="1403" 
d="M141 0v1004h283l278 -578l278 578h283v-1004h-250v585l-248 -518h-126l-248 518v-585h-250z" />
    <glyph glyph-name="N.smcp" horiz-adv-x="1235" 
d="M391 599v-599h-250v1005h212l492 -605v605h250v-1005h-212z" />
    <glyph glyph-name="O.smcp" horiz-adv-x="1205" 
d="M603 -20q-232 0 -379.5 146.5t-147.5 376.5t147.5 376t379.5 146t379.5 -146t147.5 -376t-147.5 -376.5t-379.5 -146.5zM334 503q0 -129 75.5 -210t194.5 -81t194.5 81t75.5 210q0 128 -75.5 208.5t-194.5 80.5t-194.5 -80t-75.5 -209z" />
    <glyph glyph-name="P.smcp" horiz-adv-x="1022" 
d="M396 0h-255v1005h445q174 0 279.5 -93.5t105.5 -246.5q0 -147 -106 -240.5t-279 -93.5h-190v-331zM396 792v-256h171q69 0 107.5 35.5t38.5 90.5q0 59 -38 94.5t-108 35.5h-171z" />
    <glyph glyph-name="Q.alt" horiz-adv-x="1586" 
d="M82 676q0 152 53.5 283t147.5 222.5t226 144t284 52.5q204 0 366.5 -89.5t254 -250t91.5 -362.5t-91.5 -360.5t-252.5 -246.5l293 -264l-185 -189l-404 367q-35 -3 -72 -3q-204 0 -366 88t-253.5 247t-91.5 361zM794 1126q-190 0 -312 -126t-122 -323q0 -198 122 -322
t312 -124q191 0 312.5 123.5t121.5 322.5q0 198 -121.5 323.5t-312.5 125.5z" />
    <glyph glyph-name="Q.alt.smcp" horiz-adv-x="1211" 
d="M622 -20q-232 0 -379.5 146.5t-147.5 376.5t147.5 376t379.5 146t379.5 -146t147.5 -376q0 -145 -61 -260.5t-171 -183.5l227 -204l-172 -175l-330 300h-20zM353 503q0 -129 75.5 -210t194.5 -81t194.5 81t75.5 210q0 128 -75.5 208.5t-194.5 80.5t-194.5 -80t-75.5 -209
z" />
    <glyph glyph-name="Q.smcp" horiz-adv-x="1205" 
d="M622 -20q-232 0 -379.5 146.5t-147.5 376.5t147.5 376t379.5 146t379.5 -146t147.5 -376q0 -123 -44.5 -225t-126.5 -173l86 -116l-170 -119l-100 134q-80 -24 -172 -24zM353 503q0 -129 75.5 -210t194.5 -81h17l-95 129l168 121l116 -156q64 80 64 197
q0 128 -75.5 208.5t-194.5 80.5t-194.5 -80t-75.5 -209z" />
    <glyph glyph-name="R.smcp" horiz-adv-x="1080" 
d="M396 0h-255v1005h464q168 0 269 -92t101 -243q0 -183 -163 -274l224 -397h-281l-189 348h-170v-347zM586 793h-190v-244h190q62 0 96.5 35t34.5 85q0 54 -34 89t-97 35z" />
    <glyph glyph-name="S.smcp" horiz-adv-x="1003" 
d="M70 239l194 125q44 -72 112 -116.5t147 -44.5q144 0 144 66q0 9 -2 16.5t-7.5 14.5t-11 12.5t-17 12t-20.5 11t-27 12t-31.5 13t-38 15.5t-42.5 17q-140 56 -179 78q-139 74 -167 188q-7 32 -7 67q0 131 113.5 215t279.5 84q130 0 236.5 -63t165.5 -155l-178 -135
q-32 54 -92 92t-135 38q-59 0 -95.5 -20t-36.5 -53q0 -9 2 -16.5t7 -14.5t10.5 -12.5t17 -12t21.5 -11t28 -12t32.5 -13t40.5 -15.5t46 -18q148 -58 196 -86q126 -72 145 -187q4 -23 4 -48q0 -136 -116.5 -219.5t-293.5 -83.5q-148 0 -264.5 66.5t-180.5 192.5z" />
    <glyph glyph-name="T.smcp" horiz-adv-x="938" 
d="M36 791v214h867v-214h-306v-791h-255v791h-306z" />
    <glyph glyph-name="U.smcp" horiz-adv-x="1162" 
d="M582 -19q-207 0 -329.5 112t-122.5 300v612h255v-613q0 -82 54 -131t143 -49q88 0 142 49t54 131v613h255v-612q0 -188 -122 -300t-329 -112z" />
    <glyph glyph-name="V.smcp" horiz-adv-x="1120" 
d="M396 0l-371 1005h275l261 -755l261 755h275l-371 -1005h-330z" />
    <glyph glyph-name="W.smcp" horiz-adv-x="1601" 
d="M34 1005h260l196 -733l207 718h208l207 -718l196 733h260l-275 -1005h-329l-163 574l-163 -574h-329z" />
    <glyph glyph-name="X.smcp" horiz-adv-x="1102" 
d="M17 0l383 514l-365 491h297l220 -305l217 305h300l-363 -491l381 -514h-297l-238 332l-235 -332h-300z" />
    <glyph glyph-name="Y.smcp" horiz-adv-x="1124" 
d="M24 1005h295l243 -394l247 394h292l-410 -633v-372h-256v372z" />
    <glyph glyph-name="Z.smcp" horiz-adv-x="985" 
d="M78 0v182l497 610h-491v213h820v-183l-497 -610h501v-212h-830z" />
    <glyph glyph-name="a.alt" horiz-adv-x="1256" 
d="M77 481q0 219 130.5 359t334.5 140t312 -122l5 102h252v-960h-252l-5 102q-106 -122 -312 -122q-204 0 -334.5 141.5t-130.5 359.5zM595 750q-114 0 -187 -75.5t-73 -192.5q0 -115 73.5 -193.5t186.5 -78.5q112 0 186.5 78.5t74.5 193.5t-74 191.5t-187 76.5z" />
    <glyph glyph-name="g.alt" horiz-adv-x="1105" 
d="M542 -439q-140 0 -244 26.5t-166.5 86t-62.5 147.5q0 63 35.5 115.5t97.5 87.5q-60 41 -60 126q0 91 109 177q-78 46 -123 122t-45 172q0 164 119.5 261.5t306.5 97.5q72 0 146 -20h390v-191q-25 0 -75 -0.5t-76 -0.5q40 -72 40 -147q0 -164 -119 -261t-306 -97
q-59 0 -111 11q-35 -37 -35 -68q0 -24 17.5 -37t43.5 -13h273q75 0 137 -15t112 -47.5t78 -88.5t28 -131q0 -104 -69.5 -176t-182 -104.5t-258.5 -32.5zM509 788q-90 0 -141 -45t-51 -122q0 -76 51.5 -121.5t140.5 -45.5t140 45.5t51 121.5q0 77 -51 122t-140 45zM350 -44
q-43 -37 -43 -84q0 -103 233 -103q268 0 268 103q0 39 -32 61.5t-87 22.5h-339z" />
    <glyph glyph-name="i.TRK" horiz-adv-x="548" 
d="M403 0h-257v960h257v-960zM127 1293q0 65 41 106.5t106 41.5t106.5 -41t41.5 -107q0 -65 -41.5 -106t-106.5 -41t-106 41t-41 106z" />
    <glyph glyph-name="l.alt" horiz-adv-x="603" 
d="M137 1408h256v-1127q0 -81 83 -81q45 0 96 18l20 -205q-74 -33 -182 -33q-130 0 -201.5 65t-71.5 199v1164z" />
    <glyph glyph-name="u.alt" horiz-adv-x="1166" 
d="M132 389v571h257v-539q0 -91 53.5 -148t138.5 -57q89 0 143.5 56.5t54.5 148.5v539h256v-565q0 -183 -126 -299t-328 -116t-325.5 114t-123.5 295z" />
    <glyph glyph-name="y.alt" horiz-adv-x="1123" 
d="M19 960h287l253 -679l263 679h285l-592 -1360h-258l166 422z" />
    <glyph glyph-name="cent.onum" horiz-adv-x="1127" 
d="M94 561q0 191 125 330.5t313 165.5v164h131v-162q124 -14 227.5 -84t161.5 -187l-195 -124q-33 65 -84 104.5t-110 51.5v-524q123 25 199 161l185 -130q-57 -113 -159.5 -181t-224.5 -83v-183h-131v183q-191 24 -314.5 164.5t-123.5 333.5zM532 815q-83 -24 -133 -94.5
t-50 -164.5q0 -91 50.5 -161t132.5 -94v514z" />
    <glyph glyph-name="cent.onum.tnum" 
d="M230 561q0 194 128 334t320 163v163h131v-163q121 -16 222 -85.5t157 -184.5l-195 -124q-62 123 -184 154v-519q115 26 189 158l185 -130q-55 -110 -155 -178t-219 -85v-184h-131v182q-194 21 -321 162t-127 337zM678 818q-87 -22 -140 -94t-53 -168q0 -94 53.5 -165
t139.5 -92v519z" />
    <glyph glyph-name="cent.tnum" 
d="M216 681q0 187 120 325t302 168v167h164v-164q119 -18 218 -87t154 -182l-195 -124q-61 121 -177 152v-515q112 29 182 156l185 -130q-55 -109 -152.5 -176t-214.5 -86v-185h-164v186q-185 29 -303.5 167.5t-118.5 327.5zM638 427v503q-76 -28 -121.5 -96.5t-45.5 -157.5
q0 -86 46 -153.5t121 -95.5z" />
    <glyph glyph-name="sterling.onum" horiz-adv-x="1045" 
d="M953 0h-858v201q73 36 108.5 73t35.5 97v89h-140v162h138v128q0 150 107 242t281 92q130 0 224 -67t135 -187l-195 -102q-56 132 -166 132q-63 0 -99 -33t-36 -91v-114h275v-162h-274v-76q0 -110 -77 -162h541v-222z" />
    <glyph glyph-name="sterling.onum.tnum" 
d="M1120 0h-858v201q73 36 108.5 73t35.5 97v89h-140v162h138v128q0 150 107 242t281 92q130 0 224 -67t135 -187l-195 -102q-56 132 -166 132q-63 0 -99 -33t-36 -91v-114h275v-162h-274v-76q0 -110 -77 -162h541v-222z" />
    <glyph glyph-name="sterling.tnum" 
d="M1210 0h-1032v202q102 58 145 116t42 145l-1 145h-179v179h178l-1 167q-1 194 127 309t329 115q160 0 281.5 -85t175.5 -243l-216 -110q-79 194 -240 194q-88 0 -143 -50t-55 -144v-153h365v-179h-364v-116q0 -188 -100 -264h688v-228z" />
    <glyph glyph-name="currency.onum" horiz-adv-x="1211" 
d="M75 898l155 155l167 -168q98 56 207 56q112 0 211 -56l167 168l155 -155l-169 -167q55 -94 55 -204q0 -115 -60 -209l174 -172l-155 -155l-174 176q-97 -51 -204 -51q-104 0 -198 51l-176 -176l-155 155l172 172q-57 97 -57 209q0 111 54 204zM402 527q0 -83 59 -141
t143 -58q86 0 147 58t61 141q0 85 -61 145t-147 60q-84 0 -143 -60t-59 -145z" />
    <glyph glyph-name="currency.onum.tnum" 
d="M172 898l155 155l167 -168q98 56 207 56q112 0 211 -56l167 168l155 -155l-169 -167q55 -94 55 -204q0 -115 -60 -209l174 -172l-155 -155l-174 176q-97 -51 -204 -51q-104 0 -198 51l-176 -176l-155 155l172 172q-57 97 -57 209q0 111 54 204zM499 527q0 -83 59 -141
t143 -58q86 0 147 58t61 141q0 85 -61 145t-147 60q-84 0 -143 -60t-59 -145z" />
    <glyph glyph-name="currency.tnum" 
d="M165 1032l155 155l168 -168q98 56 207 56q112 0 211 -56l166 168l155 -155l-168 -167q55 -94 55 -204q0 -115 -60 -209l173 -172l-155 -155l-174 176q-97 -51 -203 -51q-105 0 -199 51l-176 -176l-155 155l173 172q-57 97 -57 209q0 111 54 204zM492 661
q0 -82 59.5 -140.5t142.5 -58.5q86 0 147 58t61 141q0 85 -61 145t-147 60q-83 0 -142.5 -60t-59.5 -145z" />
    <glyph glyph-name="yen.onum" horiz-adv-x="1203" 
d="M406 504l-373 563h295l274 -436l277 436h292l-374 -563h169v-115h-236v-91h235v-115h-235v-183h-256v183h-230v115h230v91h-230v115h162z" />
    <glyph glyph-name="yen.onum.tnum" 
d="M500 504l-373 563h295l274 -436l277 436h292l-374 -563h169v-115h-236v-96h224v-115h-224v-178h-256v178h-219v115h219v96h-230v115h162z" />
    <glyph glyph-name="yen.tnum" 
d="M251 496v154h228l-442 708h322l341 -571l345 571h312l-439 -708h221v-154h-306v-102h306v-154h-306v-240h-269v240h-313v154h313v102h-313z" />
    <glyph glyph-name="ordfeminine.onum" horiz-adv-x="818" 
d="M350 552q-100 0 -161 50.5t-61 133.5q0 85 70.5 137.5t184.5 52.5q77 0 131 -21v6q0 48 -34 79t-90 31q-93 0 -158 -65l-96 116q41 44 113.5 76t153.5 32q129 0 204.5 -64t75.5 -174v-378h-159v66q-56 -78 -174 -78zM134 317v140h554v-140h-554zM401 808q-50 0 -78 -17
t-28 -47t23 -47t59 -17q53 0 95 31.5t42 71.5q-38 25 -113 25z" />
    <glyph glyph-name="ordfeminine.onum.tnum" 
d="M628 552q-100 0 -161 50.5t-61 133.5q0 85 70.5 137.5t184.5 52.5q77 0 131 -21v6q0 48 -34 79t-90 31q-93 0 -158 -65l-96 116q41 44 113.5 76t153.5 32q129 0 204.5 -64t75.5 -174v-378h-159v66q-56 -78 -174 -78zM412 317v140h554v-140h-554zM679 808q-50 0 -78 -17
t-28 -47t23 -47t59 -17q53 0 95 31.5t42 71.5q-38 25 -113 25z" />
    <glyph glyph-name="ordfeminine.tnum" 
d="M626 752q-100 0 -161 50.5t-61 133.5q0 85 70.5 137.5t184.5 52.5q77 0 131 -21v6q0 48 -34 79t-90 31q-93 0 -158 -65l-96 116q41 44 113.5 76t153.5 32q129 0 204.5 -64t75.5 -174v-378h-159v66q-56 -78 -174 -78zM410 517v140h554v-140h-554zM677 1008q-50 0 -78 -17
t-28 -47t23 -47t59 -17q53 0 95 31.5t42 71.5q-38 25 -113 25z" />
    <glyph glyph-name="logicalnot.onum" horiz-adv-x="1313" 
d="M921 241v359h-842v240h1110v-599h-268z" />
    <glyph glyph-name="logicalnot.onum.tnum" 
d="M982 241v359h-842v240h1110v-599h-268z" />
    <glyph glyph-name="logicalnot.tnum" 
d="M982 386v359h-842v240h1110v-599h-268z" />
    <glyph glyph-name="degree.onum" horiz-adv-x="888" 
d="M443 478q-157 0 -256.5 98t-99.5 250q0 154 100 253t256 99q157 0 258 -99t101 -253q0 -152 -101 -250t-258 -98zM272 825q0 -75 48 -124.5t123 -49.5q74 0 121.5 49t47.5 125q0 78 -47 128.5t-122 50.5t-123 -50.5t-48 -128.5z" />
    <glyph glyph-name="degree.onum.tnum" 
d="M694 478q-156 0 -256 98t-100 250q0 154 100 253t256 99q157 0 258 -99t101 -253q0 -152 -101 -250t-258 -98zM523 825q0 -75 48 -124.5t123 -49.5t122 49t47 125q0 79 -47 129t-122 50t-123 -50.5t-48 -128.5z" />
    <glyph glyph-name="degree.tnum" 
d="M694 678q-156 0 -256 98t-100 250q0 154 100 253t256 99q157 0 258 -99t101 -253q0 -152 -101 -250t-258 -98zM523 1025q0 -75 48 -124.5t123 -49.5t122 49t47 125q0 79 -47 129t-122 50t-123 -50.5t-48 -128.5z" />
    <glyph glyph-name="plusminus.onum" horiz-adv-x="1250" 
d="M98 873h394v339h265v-339h395v-240h-395v-348h-265v348h-394v240zM90 -123v237h1070v-237h-1070z" />
    <glyph glyph-name="plusminus.onum.tnum" 
d="M168 873h394v339h265v-339h395v-240h-395v-348h-265v348h-394v240zM160 -123v237h1070v-237h-1070z" />
    <glyph glyph-name="plusminus.tnum" 
d="M168 1018h394v339h265v-339h395v-240h-395v-348h-265v348h-394v240zM160 22v237h1070v-237h-1070z" />
    <glyph glyph-name="ordmasculine.onum" horiz-adv-x="893" 
d="M120 858q0 139 92 229.5t234 90.5t235 -90.5t93 -229.5q0 -138 -93 -226.5t-235 -88.5t-234 88.5t-92 226.5zM135 445h624v-148h-624v148zM296 858q0 -65 42 -107t108 -42q65 0 105.5 42t40.5 107q0 67 -40.5 110t-105.5 43q-66 0 -108 -43.5t-42 -109.5z" />
    <glyph glyph-name="ordmasculine.onum.tnum" 
d="M368 858q0 139 92 229.5t234 90.5t235 -90.5t93 -229.5q0 -138 -93 -226.5t-235 -88.5t-234 88.5t-92 226.5zM383 445h624v-148h-624v148zM544 858q0 -65 42 -107t108 -42q65 0 105.5 42t40.5 107q0 67 -40.5 110t-105.5 43q-66 0 -108 -43.5t-42 -109.5z" />
    <glyph glyph-name="ordmasculine.tnum" 
d="M368 1058q0 139 92 229.5t234 90.5t235 -90.5t93 -229.5q0 -138 -93 -226.5t-235 -88.5t-234 88.5t-92 226.5zM383 645h624v-148h-624v148zM544 1058q0 -65 42 -107t108 -42q65 0 105.5 42t40.5 107q0 67 -40.5 110t-105.5 43q-66 0 -108 -43.5t-42 -109.5z" />
    <glyph glyph-name="onequarter.onum" horiz-adv-x="1643" 
d="M892 182l387 502h176v-481h108v-160h-108v-183h-173v183h-390v139zM340 -114l734 1332h155v-24l-732 -1334h-157v26zM292 1054h-170v160h353v-824h-183v664zM1112 203h170v226z" />
    <glyph glyph-name="onehalf.onum" horiz-adv-x="1743" 
d="M1149 417l-147 75q33 94 115.5 153t179.5 59q131 0 218 -71.5t87 -189.5q0 -30 -7.5 -58t-18 -50.5t-30 -46t-35.5 -39.5t-42 -36.5t-43 -32.5t-45 -31.5t-41 -28.5t-37.5 -26t-38.5 -26.5t-28 -22.5t-18 -22h390v-163h-592v102q0 28 6.5 54t24 51.5t29.5 42.5t42.5 43
t42 35.5t49.5 37.5t44 33q9 7 32 24.5t31 23.5t25.5 20t24 21.5t17.5 20t15 22.5t7.5 22.5t3.5 25.5q0 46 -30.5 72t-80.5 26q-48 0 -88.5 -32t-61.5 -88zM340 -114l734 1332h155v-24l-732 -1334h-157v26zM292 1054h-170v160h353v-824h-183v664z" />
    <glyph glyph-name="threequarters.onum" horiz-adv-x="1778" 
d="M58 584l144 85q22 -56 70 -91t101 -35q51 0 80.5 26.5t29.5 66.5q0 51 -36.5 81.5t-92.5 30.5h-127v141h127q50 0 80.5 29t30.5 76q0 39 -29.5 63t-76.5 24q-56 0 -97 -32.5t-62 -86.5l-141 85q34 84 112 140.5t188 56.5q125 0 210.5 -65.5t85.5 -182.5q0 -55 -28 -103
t-71 -72q50 -23 84 -74.5t34 -112.5q0 -118 -88 -186t-209 -68q-109 0 -194 53.5t-125 150.5zM1059 43v139l387 502h176v-481h108v-160h-108v-183h-173v183h-390zM477 -114l734 1332h155v-24l-732 -1334h-157v26zM1279 203h170v226z" />
    <glyph glyph-name="Agrave.smcp" horiz-adv-x="1137" 
d="M290 0h-271l401 1005h297l402 -1005h-271l-67 179h-424zM218 1490h292l157 -334h-216zM569 751l-139 -371h278z" />
    <glyph glyph-name="Aacute.smcp" horiz-adv-x="1137" 
d="M290 0h-271l401 1005h297l402 -1005h-271l-67 179h-424zM467 1153l157 334h292l-233 -334h-216zM569 751l-139 -371h278z" />
    <glyph glyph-name="Acircumflex.smcp" horiz-adv-x="1137" 
d="M19 0l401 1005h297l402 -1005h-271l-67 179h-424l-67 -179h-271zM441 1125h-226l287 370h135l287 -370h-227l-128 178zM569 751l-139 -371h278z" />
    <glyph glyph-name="Atilde.smcp" horiz-adv-x="1137" 
d="M19 0l401 1005h297l402 -1005h-271l-67 179h-424l-67 -179h-271zM322 1191l-109 96q103 183 237 183q41 0 87.5 -22t88.5 -44.5t72 -22.5q37 0 64.5 19.5t58.5 64.5l105 -99q-52 -93 -111 -135.5t-133 -42.5q-49 0 -117.5 37t-92.5 42q-34 7 -55 3q-40 -7 -95 -79z
M569 751l-139 -371h278z" />
    <glyph glyph-name="Adieresis.smcp" horiz-adv-x="1137" 
d="M19 0l401 1005h297l402 -1005h-271l-67 179h-424l-67 -179h-271zM751 1192q-61 0 -99 37.5t-38 98.5t38 99t99 38t99.5 -38t38.5 -99t-38.5 -98.5t-99.5 -37.5zM249 1328q0 61 38 99t98 38q61 0 99.5 -38t38.5 -99t-38.5 -98.5t-99.5 -37.5q-60 0 -98 37.5t-38 98.5z
M430 380h278l-139 371z" />
    <glyph glyph-name="Aring.smcp" horiz-adv-x="1137" 
d="M290 0h-271l401 1005h297l402 -1005h-271l-67 179h-424zM355 1329q0 92 60 150.5t154 58.5t154.5 -58.5t60.5 -150.5q0 -90 -60.5 -148t-154.5 -58t-154 58t-60 148zM430 380h278l-139 371zM569 1405q-33 0 -53.5 -21.5t-20.5 -54.5q0 -31 20.5 -51.5t53.5 -20.5t53 20.5
t20 51.5q0 33 -20 54.5t-53 21.5z" />
    <glyph glyph-name="AE.smcp" horiz-adv-x="1549" 
d="M240 0h-262l593 1005h895v-213h-501v-179h440v-204h-440v-197h507v-212h-763v178h-366zM459 381h250v426z" />
    <glyph glyph-name="Ccedilla.smcp" horiz-adv-x="1113" 
d="M75 503q0 220 150.5 370.5t372.5 150.5q146 0 268 -70t198 -202l-193 -136q-102 175 -273 175q-114 0 -189.5 -82.5t-75.5 -205.5q0 -125 76.5 -208t191.5 -83q162 0 268 169l191 -135q-69 -113 -172 -180.5t-224 -81.5l-22 -70q102 -12 156.5 -60.5t54.5 -121.5
q0 -91 -81.5 -145t-217.5 -54q-94 0 -152 26v142q60 -19 130 -19q118 0 118 66q0 67 -126 67h-71l67 171q-193 28 -319 172.5t-126 344.5z" />
    <glyph glyph-name="Egrave.smcp" horiz-adv-x="981" 
d="M141 0v1005h755v-213h-500v-179h438v-204h-438v-196h508v-213h-763zM198 1490h292l157 -334h-216z" />
    <glyph glyph-name="Eacute.smcp" horiz-adv-x="981" 
d="M904 0h-763v1005h755v-213h-500v-179h438v-204h-438v-196h508v-213zM407 1153l157 334h292l-233 -334h-216z" />
    <glyph glyph-name="Ecircumflex.smcp" horiz-adv-x="981" 
d="M141 1005h755v-213h-500v-179h438v-204h-438v-196h508v-213h-763v1005zM401 1125h-226l287 370h135l287 -370h-227l-128 178z" />
    <glyph glyph-name="Edieresis.smcp" horiz-adv-x="981" 
d="M141 1005h755v-213h-500v-179h438v-204h-438v-196h508v-213h-763v1005zM580 1328q0 61 38 99t99 38t99.5 -38t38.5 -99t-38.5 -98.5t-99.5 -37.5t-99 37.5t-38 98.5zM351 1192q-60 0 -98 37.5t-38 98.5t38 99t98 38q61 0 99.5 -38t38.5 -99t-38.5 -98.5t-99.5 -37.5z" />
    <glyph glyph-name="Igrave.smcp" horiz-adv-x="536" 
d="M396 1005v-1005h-255v1005h255zM157 1156l-233 334h292l157 -334h-216z" />
    <glyph glyph-name="Iacute.smcp" horiz-adv-x="536" 
d="M396 1005v-1005h-255v1005h255zM604 1487l-233 -334h-216l157 334h292z" />
    <glyph glyph-name="Icircumflex.smcp" horiz-adv-x="536" 
d="M141 1005h255v-1005h-255v1005zM-86 1125l287 370h135l287 -370h-227l-128 178l-128 -178h-226z" />
    <glyph glyph-name="Idieresis.smcp" horiz-adv-x="536" 
d="M141 1005h255v-1005h-255v1005zM313 1328q0 61 38 99t99 38t99.5 -38t38.5 -99t-38.5 -98.5t-99.5 -37.5t-99 37.5t-38 98.5zM84 1192q-60 0 -98 37.5t-38 98.5t38 99t98 38q61 0 99.5 -38t38.5 -99t-38.5 -98.5t-99.5 -37.5z" />
    <glyph glyph-name="Eth.smcp" horiz-adv-x="1213" 
d="M46 434v158h113v413h456q247 0 385 -133.5t138 -367.5q0 -236 -138.5 -370t-384.5 -134h-456v434h-113zM416 434v-222h179q141 0 213 76.5t72 215.5q0 138 -72 213t-213 75h-179v-200h245v-158h-245z" />
    <glyph glyph-name="Ntilde.smcp" horiz-adv-x="1235" 
d="M391 599v-599h-250v1005h212l492 -605v605h250v-1005h-212zM368 1191l-109 96q103 183 237 183q41 0 87.5 -22t88.5 -44.5t72 -22.5q37 0 64.5 19.5t58.5 64.5l105 -99q-52 -93 -111 -135.5t-133 -42.5q-49 0 -117.5 37t-92.5 42q-34 7 -55 3q-40 -7 -95 -79z" />
    <glyph glyph-name="Ograve.smcp" horiz-adv-x="1277" 
d="M639 -20q-232 0 -379.5 146.5t-147.5 376.5t147.5 376t379.5 146t379.5 -146t147.5 -376t-147.5 -376.5t-379.5 -146.5zM640 792q-119 0 -194.5 -80t-75.5 -209t75.5 -210t194.5 -81t194.5 81t75.5 210q0 128 -75.5 208.5t-194.5 80.5zM301 1490h292l157 -334h-216z" />
    <glyph glyph-name="Oacute.smcp" horiz-adv-x="1277" 
d="M639 -20q-232 0 -379.5 146.5t-147.5 376.5t147.5 376t379.5 146t379.5 -146t147.5 -376t-147.5 -376.5t-379.5 -146.5zM370 503q0 -129 75.5 -210t194.5 -81t194.5 81t75.5 210q0 128 -75.5 208.5t-194.5 80.5t-194.5 -80t-75.5 -209zM538 1153l157 334h292l-233 -334
h-216z" />
    <glyph glyph-name="Ocircumflex.smcp" horiz-adv-x="1277" 
d="M112 503q0 230 147.5 376t379.5 146t379.5 -146t147.5 -376t-147.5 -376.5t-379.5 -146.5t-379.5 146.5t-147.5 376.5zM370 503q0 -129 75.5 -210t194.5 -81t194.5 81t75.5 210q0 128 -75.5 208.5t-194.5 80.5t-194.5 -80t-75.5 -209zM285 1125l287 370h135l287 -370
h-227l-128 178l-128 -178h-226z" />
    <glyph glyph-name="Otilde.smcp" horiz-adv-x="1277" 
d="M639 -20q-232 0 -379.5 146.5t-147.5 376.5t147.5 376t379.5 146t379.5 -146t147.5 -376t-147.5 -376.5t-379.5 -146.5zM640 792q-119 0 -194.5 -80t-75.5 -209t75.5 -210t194.5 -81t194.5 81t75.5 210q0 128 -75.5 208.5t-194.5 80.5zM283 1287q103 183 237 183
q41 0 87.5 -22t88.5 -44.5t72 -22.5q37 0 64.5 19.5t58.5 64.5l105 -99q-52 -93 -111 -135.5t-133 -42.5q-49 0 -117.5 37t-92.5 42q-34 7 -55 3q-40 -7 -95 -79z" />
    <glyph glyph-name="Odieresis.smcp" horiz-adv-x="1277" 
d="M112 503q0 230 147.5 376t379.5 146t379.5 -146t147.5 -376t-147.5 -376.5t-379.5 -146.5t-379.5 146.5t-147.5 376.5zM370 503q0 -129 75.5 -210t194.5 -81t194.5 81t75.5 210q0 128 -75.5 208.5t-194.5 80.5t-194.5 -80t-75.5 -209zM684 1328q0 61 38 99t99 38
t99.5 -38t38.5 -99t-38.5 -98.5t-99.5 -37.5t-99 37.5t-38 98.5zM455 1192q-60 0 -98 37.5t-38 98.5t38 99t98 38q61 0 99.5 -38t38.5 -99t-38.5 -98.5t-99.5 -37.5z" />
    <glyph glyph-name="multiply.onum" horiz-adv-x="1169" 
d="M405 534l-342 343l179 179l343 -343l343 343l179 -179l-343 -343l343 -343l-179 -179l-343 343l-343 -343l-179 179z" />
    <glyph glyph-name="multiply.onum.tnum" 
d="M515 534l-342 343l179 179l343 -343l343 343l179 -179l-343 -343l343 -343l-179 -179l-343 343l-343 -343l-179 179z" />
    <glyph glyph-name="multiply.tnum" 
d="M515 679l-342 343l179 179l343 -343l343 343l179 -179l-343 -343l343 -343l-179 -179l-343 343l-343 -343l-179 179z" />
    <glyph glyph-name="Oslash.smcp" horiz-adv-x="1297" 
d="M920 960l168 203l126 -102l-166 -202q128 -142 128 -356q0 -230 -147.5 -376.5t-379.5 -146.5q-149 0 -272 66l-167 -203l-126 102l166 202q-128 144 -128 356q0 230 147.5 376t379.5 146q152 0 271 -65zM882 659l-348 -423q52 -24 116 -24q119 0 194.5 81t75.5 210
q0 89 -38 156zM416 348l347 421q-52 23 -113 23q-119 0 -194.5 -80t-75.5 -209q0 -86 36 -155z" />
    <glyph glyph-name="Ugrave.smcp" horiz-adv-x="1200" 
d="M601 -19q-207 0 -329.5 112t-122.5 300v612h255v-613q0 -82 54 -131t143 -49q88 0 142 49t54 131v613h255v-612q0 -188 -122 -300t-329 -112zM257 1490h292l157 -334h-216z" />
    <glyph glyph-name="Uacute.smcp" horiz-adv-x="1200" 
d="M601 -19q-207 0 -329.5 112t-122.5 300v612h255v-613q0 -82 54 -131t143 -49q88 0 142 49t54 131v613h255v-612q0 -188 -122 -300t-329 -112zM722 1153h-216l157 334h292z" />
    <glyph glyph-name="Ucircumflex.smcp" horiz-adv-x="1200" 
d="M601 -19q-207 0 -329.5 112t-122.5 300v612h255v-613q0 -82 54 -131t143 -49q88 0 142 49t54 131v613h255v-612q0 -188 -122 -300t-329 -112zM472 1125h-226l287 370h135l287 -370h-227l-128 178z" />
    <glyph glyph-name="Udieresis.smcp" horiz-adv-x="1200" 
d="M601 -19q-207 0 -329.5 112t-122.5 300v612h255v-613q0 -82 54 -131t143 -49q88 0 142 49t54 131v613h255v-612q0 -188 -122 -300t-329 -112zM783 1192q-61 0 -99 37.5t-38 98.5t38 99t99 38t99.5 -38t38.5 -99t-38.5 -98.5t-99.5 -37.5zM417 1192q-60 0 -98 37.5
t-38 98.5t38 99t98 38q61 0 99.5 -38t38.5 -99t-38.5 -98.5t-99.5 -37.5z" />
    <glyph glyph-name="Yacute.smcp" horiz-adv-x="1124" 
d="M24 1005h295l243 -394l247 394h292l-410 -633v-372h-256v372zM653 1153h-216l157 334h292z" />
    <glyph glyph-name="Thorn.smcp" horiz-adv-x="1096" 
d="M141 0v990h256v-126h237q168 0 276 -99t108 -264q0 -161 -108.5 -261t-275.5 -100h-237v-140h-256zM397 347h201q71 0 116.5 42.5t45.5 109.5q0 69 -45 110.5t-117 41.5h-201v-304z" />
    <glyph glyph-name="agrave.alt" horiz-adv-x="1256" 
d="M542 -20q-204 0 -334.5 141.5t-130.5 359.5q0 219 130.5 359t334.5 140t312 -122l5 102h252v-960h-252l-5 102q-106 -122 -312 -122zM595 750q-114 0 -187 -75.5t-73 -192.5q0 -115 73.5 -193.5t186.5 -78.5q112 0 186.5 78.5t74.5 193.5t-74 191.5t-187 76.5zM482 1121
l-233 334h292l157 -334h-216z" />
    <glyph glyph-name="aacute.alt" horiz-adv-x="1256" 
d="M542 -20q-204 0 -334.5 141.5t-130.5 359.5q0 219 130.5 359t334.5 140t312 -122l5 102h252v-960h-252l-5 102q-106 -122 -312 -122zM595 750q-114 0 -187 -75.5t-73 -192.5q0 -115 73.5 -193.5t186.5 -78.5q112 0 186.5 78.5t74.5 193.5t-74 191.5t-187 76.5zM721 1113
h-216l157 334h292z" />
    <glyph glyph-name="acircumflex.alt" horiz-adv-x="1256" 
d="M77 481q0 219 130.5 359t334.5 140t312 -122l5 102h252v-960h-252l-5 102q-106 -122 -312 -122q-204 0 -334.5 141.5t-130.5 359.5zM335 482q0 -115 73.5 -193.5t186.5 -78.5q112 0 186.5 78.5t74.5 193.5t-74 191.5t-187 76.5q-114 0 -187 -75.5t-73 -192.5zM457 1084
h-226l287 370h135l287 -370h-227l-128 178z" />
    <glyph glyph-name="atilde.alt" horiz-adv-x="1256" 
d="M542 -20q-204 0 -334.5 141.5t-130.5 359.5q0 219 130.5 359t334.5 140t312 -122l5 102h252v-960h-252l-5 102q-106 -122 -312 -122zM595 750q-114 0 -187 -75.5t-73 -192.5q0 -115 73.5 -193.5t186.5 -78.5q112 0 186.5 78.5t74.5 193.5t-74 191.5t-187 76.5zM333 1146
l-109 96q103 183 237 183q41 0 87.5 -22.5t88.5 -44.5t72 -22q37 0 64.5 19.5t58.5 64.5l105 -99q-52 -93 -111 -135.5t-133 -42.5q-49 0 -117.5 37t-92.5 42q-34 7 -55 3q-40 -7 -95 -79z" />
    <glyph glyph-name="adieresis.alt" horiz-adv-x="1256" 
d="M542 -20q-204 0 -334.5 141.5t-130.5 359.5q0 219 130.5 359t334.5 140t312 -122l5 102h252v-960h-252l-5 102q-106 -122 -312 -122zM595 750q-114 0 -187 -75.5t-73 -192.5q0 -115 73.5 -193.5t186.5 -78.5q112 0 186.5 78.5t74.5 193.5t-74 191.5t-187 76.5zM626 1291
q0 61 38 99t99 38t99.5 -38t38.5 -99t-38.5 -98.5t-99.5 -37.5t-99 37.5t-38 98.5zM261 1291q0 61 38 99t98 38q61 0 99.5 -38t38.5 -99t-38.5 -98.5t-99.5 -37.5q-60 0 -98 37.5t-38 98.5z" />
    <glyph glyph-name="aring.alt" horiz-adv-x="1256" 
d="M77 481q0 219 130.5 359t334.5 140t312 -122l5 102h252v-960h-252l-5 102q-106 -122 -312 -122q-204 0 -334.5 141.5t-130.5 359.5zM595 750q-114 0 -187 -75.5t-73 -192.5q0 -115 73.5 -193.5t186.5 -78.5q112 0 186.5 78.5t74.5 193.5t-74 191.5t-187 76.5zM566 1081
q-94 0 -154 58t-60 148q0 92 60 150.5t154 58.5t154.5 -58.5t60.5 -150.5q0 -90 -60.5 -148t-154.5 -58zM492 1287q0 -31 20.5 -51.5t53.5 -20.5t53 20.5t20 51.5q0 33 -20 54.5t-53 21.5t-53.5 -21.5t-20.5 -54.5z" />
    <glyph glyph-name="divide.onum" horiz-adv-x="1273" 
d="M91 654h1092v-240h-1092v240zM491 122q0 63 42.5 105.5t104.5 42.5q64 0 107 -43t43 -105q0 -63 -43.5 -104.5t-106.5 -41.5t-105 42t-42 104zM638 805q-63 0 -105 42t-42 104q0 63 42.5 105.5t104.5 42.5q64 0 107 -43t43 -105q0 -63 -43.5 -104.5t-106.5 -41.5z" />
    <glyph glyph-name="divide.onum.tnum" 
d="M149 654h1093v-240h-1093v240zM548 121q0 63 42.5 105.5t105.5 42.5q64 0 106.5 -42.5t42.5 -105.5q0 -64 -43 -105t-106 -41t-105.5 42t-42.5 104zM696 804q-63 0 -105.5 42t-42.5 104q0 63 42.5 105.5t105.5 42.5q64 0 106.5 -43t42.5 -105q0 -64 -43 -105t-106 -41z
" />
    <glyph glyph-name="divide.tnum" 
d="M149 799h1093v-240h-1093v240zM548 265q0 64 42.5 106t104.5 42q64 0 107 -43t43 -105q0 -63 -44 -104.5t-106 -41.5q-63 0 -105 42t-42 104zM695 948q-63 0 -105 42t-42 104q0 64 42.5 106t104.5 42q64 0 107 -43t43 -105q0 -63 -44 -104.5t-106 -41.5z" />
    <glyph glyph-name="ugrave.alt" horiz-adv-x="1166" 
d="M132 960h257v-539q0 -91 53.5 -148t138.5 -57q89 0 143.5 56.5t54.5 148.5v539h256v-565q0 -183 -126 -299t-328 -116t-325.5 114t-123.5 295v571zM249 1455h292l157 -334h-216z" />
    <glyph glyph-name="uacute.alt" horiz-adv-x="1166" 
d="M581 -20q-202 0 -325.5 114t-123.5 295v571h257v-539q0 -91 53.5 -148t138.5 -57q89 0 143.5 56.5t54.5 148.5v539h256v-565q0 -183 -126 -299t-328 -116zM465 1113l157 334h292l-233 -334h-216z" />
    <glyph glyph-name="ucircumflex.alt" horiz-adv-x="1166" 
d="M132 960h257v-539q0 -91 53.5 -148t138.5 -57q89 0 143.5 56.5t54.5 148.5v539h256v-565q0 -183 -126 -299t-328 -116t-325.5 114t-123.5 295v571zM229 1087l287 370h135l287 -370h-227l-128 178l-128 -178h-226z" />
    <glyph glyph-name="udieresis.alt" horiz-adv-x="1166" 
d="M581 -20q-202 0 -325.5 114t-123.5 295v571h257v-539q0 -91 53.5 -148t138.5 -57q89 0 143.5 56.5t54.5 148.5v539h256v-565q0 -183 -126 -299t-328 -116zM766 1155q-61 0 -99 37.5t-38 98.5t38 99t99 38t99.5 -38t38.5 -99t-38.5 -98.5t-99.5 -37.5zM264 1291
q0 61 38 99t98 38q61 0 99.5 -38t38.5 -99t-38.5 -98.5t-99.5 -37.5q-60 0 -98 37.5t-38 98.5z" />
    <glyph glyph-name="yacute.alt" horiz-adv-x="1123" 
d="M19 960h287l253 -679l263 679h285l-592 -1360h-258l166 422zM661 1113h-216l157 334h292z" />
    <glyph glyph-name="ydieresis.alt" horiz-adv-x="1123" 
d="M19 960h287l253 -679l263 679h285l-592 -1360h-258l166 422zM730 1159q-61 0 -99 37.5t-38 98.5t38 99t99 38t99.5 -38t38.5 -99t-38.5 -98.5t-99.5 -37.5zM364 1159q-60 0 -98 37.5t-38 98.5t38 99t98 38q61 0 99.5 -38t38.5 -99t-38.5 -98.5t-99.5 -37.5z" />
    <glyph glyph-name="Amacron.smcp" horiz-adv-x="1137" 
d="M290 0h-271l401 1005h297l402 -1005h-271l-67 179h-424zM274 1219v174h591v-174h-591zM569 751l-139 -371h278z" />
    <glyph glyph-name="amacron.alt" horiz-adv-x="1256" 
d="M542 -20q-204 0 -334.5 141.5t-130.5 359.5q0 219 130.5 359t334.5 140t312 -122l5 102h252v-960h-252l-5 102q-106 -122 -312 -122zM335 482q0 -115 73.5 -193.5t186.5 -78.5q112 0 186.5 78.5t74.5 193.5t-74 191.5t-187 76.5q-114 0 -187 -75.5t-73 -192.5zM293 1177
v174h591v-174h-591z" />
    <glyph glyph-name="Abreve.smcp" horiz-adv-x="1137" 
d="M19 0l401 1005h297l402 -1005h-271l-67 179h-424l-67 -179h-271zM269 1469h185q5 -58 36 -94t79 -36q51 0 82 35.5t33 94.5h186q-7 -139 -89 -220t-212 -81q-129 0 -211 81.5t-89 219.5zM430 380h278l-139 371z" />
    <glyph glyph-name="abreve.alt" horiz-adv-x="1256" 
d="M542 -20q-204 0 -334.5 141.5t-130.5 359.5q0 219 130.5 359t334.5 140t312 -122l5 102h252v-960h-252l-5 102q-106 -122 -312 -122zM595 750q-114 0 -187 -75.5t-73 -192.5q0 -115 73.5 -193.5t186.5 -78.5q112 0 186.5 78.5t74.5 193.5t-74 191.5t-187 76.5zM574 1127
q-129 0 -211 81.5t-89 219.5h185q5 -58 36 -94t79 -36q51 0 82 35.5t33 94.5h186q-7 -139 -89 -220t-212 -81z" />
    <glyph glyph-name="Aogonek.smcp" horiz-adv-x="1137" 
d="M19 0l401 1005h297l402 -1005h-79q-193 -122 -193 -207q0 -35 25.5 -56t69.5 -21q58 0 112 27l54 -158q-81 -52 -203 -52q-116 0 -183 54t-67 147q0 147 192 268l-66 177h-424l-67 -179h-271zM569 751l-139 -371h278z" />
    <glyph glyph-name="aogonek.alt" horiz-adv-x="1256" 
d="M542 -20q-204 0 -334.5 141.5t-130.5 359.5q0 219 130.5 359t334.5 140t312 -122l5 102h252v-960h-56q-193 -122 -193 -207q0 -35 25.5 -56t69.5 -21q58 0 112 27l54 -158q-81 -52 -203 -52q-116 0 -183 54t-67 147q0 146 189 266l-5 102q-106 -122 -312 -122zM335 482
q0 -115 73.5 -193.5t186.5 -78.5q112 0 186.5 78.5t74.5 193.5t-74 191.5t-187 76.5q-114 0 -187 -75.5t-73 -192.5z" />
    <glyph glyph-name="Cacute.smcp" horiz-adv-x="1113" 
d="M75 503q0 220 150.5 370.5t372.5 150.5q146 0 268 -70t198 -202l-193 -136q-102 175 -273 175q-114 0 -189.5 -82.5t-75.5 -205.5q0 -125 76.5 -208t191.5 -83q162 0 268 169l191 -135q-79 -127 -199 -196.5t-260 -69.5q-145 0 -265.5 68t-190.5 188.5t-70 266.5z
M495 1153l157 334h292l-233 -334h-216z" />
    <glyph glyph-name="Ccircumflex.smcp" horiz-adv-x="1113" 
d="M601 -20q-145 0 -265.5 68t-190.5 188.5t-70 266.5q0 220 150.5 370.5t372.5 150.5q146 0 268 -70t198 -202l-193 -136q-102 175 -273 175q-114 0 -189.5 -82.5t-75.5 -205.5q0 -125 76.5 -208t191.5 -83q162 0 268 169l191 -135q-79 -127 -199 -196.5t-260 -69.5z
M478 1125h-226l287 370h135l287 -370h-227l-128 178z" />
    <glyph glyph-name="Cdotaccent.smcp" horiz-adv-x="1113" 
d="M601 -20q-145 0 -265.5 68t-190.5 188.5t-70 266.5q0 220 150.5 370.5t372.5 150.5q146 0 268 -70t198 -202l-193 -136q-102 175 -273 175q-114 0 -189.5 -82.5t-75.5 -205.5q0 -125 76.5 -208t191.5 -83q162 0 268 169l191 -135q-79 -127 -199 -196.5t-260 -69.5z
M452 1330q0 65 41 106.5t106 41.5t106.5 -41t41.5 -107q0 -65 -41.5 -106t-106.5 -41t-106 41t-41 106z" />
    <glyph glyph-name="Ccaron.smcp" horiz-adv-x="1113" 
d="M75 503q0 220 150.5 370.5t372.5 150.5q146 0 268 -70t198 -202l-193 -136q-102 175 -273 175q-114 0 -189.5 -82.5t-75.5 -205.5q0 -125 76.5 -208t191.5 -83q162 0 268 169l191 -135q-79 -127 -199 -196.5t-260 -69.5q-145 0 -265.5 68t-190.5 188.5t-70 266.5z
M526 1133l-287 370h226l128 -178l128 178h227l-287 -370h-135z" />
    <glyph glyph-name="Dcaron.smcp" horiz-adv-x="1166" 
d="M141 0v1005h432q223 0 370.5 -143.5t147.5 -359.5q0 -217 -147 -359.5t-371 -142.5h-432zM582 792h-186v-578h186q110 0 180 81t70 203q0 123 -70 208.5t-180 85.5zM191 1503h226l128 -178l128 178h227l-287 -370h-135z" />
    <glyph glyph-name="Dcroat.smcp" horiz-adv-x="1213" 
d="M46 434v158h113v413h456q247 0 385 -133.5t138 -367.5q0 -236 -138.5 -370t-384.5 -134h-456v434h-113zM416 434v-222h179q141 0 213 76.5t72 215.5q0 138 -72 213t-213 75h-179v-200h245v-158h-245z" />
    <glyph glyph-name="Emacron.smcp" horiz-adv-x="981" 
d="M904 0h-763v1005h755v-213h-500v-179h438v-204h-438v-196h508v-213zM807 1219h-591v174h591v-174z" />
    <glyph glyph-name="Ebreve.smcp" horiz-adv-x="981" 
d="M904 0h-763v1005h755v-213h-500v-179h438v-204h-438v-196h508v-213zM229 1469h185q5 -58 36 -94t79 -36q51 0 82 35.5t33 94.5h186q-7 -139 -89 -220t-212 -81q-129 0 -211 81.5t-89 219.5z" />
    <glyph glyph-name="Edotaccent.smcp" horiz-adv-x="981" 
d="M141 1005h755v-213h-500v-179h438v-204h-438v-196h508v-213h-763v1005zM404 1330q0 65 41 106.5t106 41.5t106.5 -41t41.5 -107q0 -65 -41.5 -106t-106.5 -41t-106 41t-41 106z" />
    <glyph glyph-name="Eogonek.smcp" horiz-adv-x="981" 
d="M141 0v1005h755v-213h-500v-179h438v-204h-438v-196h508v-213h-1q-193 -122 -193 -207q0 -35 25.5 -56t69.5 -21q58 0 112 27l54 -158q-81 -52 -203 -52q-116 0 -183 54t-67 147q0 146 189 266h-566z" />
    <glyph glyph-name="Ecaron.smcp" horiz-adv-x="981" 
d="M141 1005h755v-213h-500v-179h438v-204h-438v-196h508v-213h-763v1005zM468 1133l-287 370h226l128 -178l128 178h227l-287 -370h-135z" />
    <glyph glyph-name="Gcircumflex.smcp" horiz-adv-x="1176" 
d="M603 -20q-146 0 -267 68.5t-191 188.5t-70 266t69 265.5t190 188t267 68.5q141 0 263.5 -63.5t197.5 -189.5l-190 -140q-95 159 -271 159q-115 0 -191.5 -81.5t-76.5 -206.5t79 -208t192 -83q101 0 163.5 41t90.5 106h-311v191h552q7 -42 7 -89q0 -97 -33.5 -184
t-96 -153t-159 -105t-214.5 -39zM459 1125h-226l287 370h135l287 -370h-227l-128 178z" />
    <glyph glyph-name="gcircumflex.alt" horiz-adv-x="1105" 
d="M542 -439q-140 0 -244 26.5t-166.5 86t-62.5 147.5q0 63 35.5 115.5t97.5 87.5q-60 41 -60 126q0 91 109 177q-78 46 -123 122t-45 172q0 164 119.5 261.5t306.5 97.5q72 0 146 -20h390v-191q-25 0 -75 -0.5t-76 -0.5q40 -72 40 -147q0 -164 -119 -261t-306 -97
q-59 0 -111 11q-35 -37 -35 -68q0 -24 17.5 -37t43.5 -13h273q75 0 137 -15t112 -47.5t78 -88.5t28 -131q0 -104 -69.5 -176t-182 -104.5t-258.5 -32.5zM509 788q-90 0 -141 -45t-51 -122q0 -76 51.5 -121.5t140.5 -45.5t140 45.5t51 121.5q0 77 -51 122t-140 45zM350 -44
q-43 -37 -43 -84q0 -103 233 -103q268 0 268 103q0 39 -32 61.5t-87 22.5h-339zM395 1084h-226l287 370h135l287 -370h-227l-128 178z" />
    <glyph glyph-name="Gbreve.smcp" horiz-adv-x="1176" 
d="M603 -20q-146 0 -267 68.5t-191 188.5t-70 266t69 265.5t190 188t267 68.5q141 0 263.5 -63.5t197.5 -189.5l-190 -140q-95 159 -271 159q-115 0 -191.5 -81.5t-76.5 -206.5t79 -208t192 -83q101 0 163.5 41t90.5 106h-311v191h552q7 -42 7 -89q0 -97 -33.5 -184
t-96 -153t-159 -105t-214.5 -39zM587 1168q-129 0 -211 81.5t-89 219.5h185q5 -58 36 -94t79 -36q51 0 82 35.5t33 94.5h186q-7 -139 -89 -220t-212 -81z" />
    <glyph glyph-name="gbreve.alt" horiz-adv-x="1105" 
d="M69 -179q0 63 35.5 115.5t97.5 87.5q-60 41 -60 126q0 91 109 177q-78 46 -123 122t-45 172q0 164 119.5 261.5t306.5 97.5q72 0 146 -20h390v-191q-25 0 -75 -0.5t-76 -0.5q40 -72 40 -147q0 -164 -119 -261t-306 -97q-59 0 -111 11q-35 -37 -35 -68q0 -24 17.5 -37
t43.5 -13h273q75 0 137 -15t112 -47.5t78 -88.5t28 -131q0 -104 -69.5 -176t-182 -104.5t-258.5 -32.5q-140 0 -244 26.5t-166.5 86t-62.5 147.5zM500 1102q-129 0 -211 81.5t-89 219.5h185q5 -58 36 -94t79 -36q51 0 82 35.5t33 94.5h186q-7 -139 -89 -220t-212 -81z
M509 788q-90 0 -141 -45t-51 -122q0 -76 51.5 -121.5t140.5 -45.5t140 45.5t51 121.5q0 77 -51 122t-140 45zM307 -128q0 -103 233 -103q268 0 268 103q0 39 -32 61.5t-87 22.5h-339q-43 -37 -43 -84z" />
    <glyph glyph-name="Gdotaccent.smcp" horiz-adv-x="1176" 
d="M603 -20q-146 0 -267 68.5t-191 188.5t-70 266t69 265.5t190 188t267 68.5q141 0 263.5 -63.5t197.5 -189.5l-190 -140q-95 159 -271 159q-115 0 -191.5 -81.5t-76.5 -206.5t79 -208t192 -83q101 0 163.5 41t90.5 106h-311v191h552q7 -42 7 -89q0 -97 -33.5 -184
t-96 -153t-159 -105t-214.5 -39zM452 1330q0 65 41 106.5t106 41.5t106.5 -41t41.5 -107q0 -65 -41.5 -106t-106.5 -41t-106 41t-41 106z" />
    <glyph glyph-name="gdotaccent.alt" horiz-adv-x="1105" 
d="M542 -439q-140 0 -244 26.5t-166.5 86t-62.5 147.5q0 63 35.5 115.5t97.5 87.5q-60 41 -60 126q0 91 109 177q-78 46 -123 122t-45 172q0 164 119.5 261.5t306.5 97.5q72 0 146 -20h390v-191q-25 0 -75 -0.5t-76 -0.5q40 -72 40 -147q0 -164 -119 -261t-306 -97
q-59 0 -111 11q-35 -37 -35 -68q0 -24 17.5 -37t43.5 -13h273q75 0 137 -15t112 -47.5t78 -88.5t28 -131q0 -104 -69.5 -176t-182 -104.5t-258.5 -32.5zM509 788q-90 0 -141 -45t-51 -122q0 -76 51.5 -121.5t140.5 -45.5t140 45.5t51 121.5q0 77 -51 122t-140 45zM307 -128
q0 -103 233 -103q268 0 268 103q0 39 -32 61.5t-87 22.5h-339q-43 -37 -43 -84zM358 1263q0 65 41 106t106 41t107 -41t42 -106t-42 -106t-107 -41t-106 41t-41 106z" />
    <glyph glyph-name="Gcommaaccent.smcp" horiz-adv-x="1176" 
d="M603 -20q-146 0 -267 68.5t-191 188.5t-70 266t69 265.5t190 188t267 68.5q141 0 263.5 -63.5t197.5 -189.5l-190 -140q-95 159 -271 159q-115 0 -191.5 -81.5t-76.5 -206.5t79 -208t192 -83q101 0 163.5 41t90.5 106h-311v191h552q7 -42 7 -89q0 -97 -33.5 -184
t-96 -153t-159 -105t-214.5 -39zM668 -528h-196l7 422h252z" />
    <glyph glyph-name="gcommaaccent.alt" horiz-adv-x="1105" 
d="M542 -439q-140 0 -244 26.5t-166.5 86t-62.5 147.5q0 63 35.5 115.5t97.5 87.5q-60 41 -60 126q0 91 109 177q-78 46 -123 122t-45 172q0 164 119.5 261.5t306.5 97.5q72 0 146 -20h390v-191q-25 0 -75 -0.5t-76 -0.5q40 -72 40 -147q0 -164 -119 -261t-306 -97
q-59 0 -111 11q-35 -37 -35 -68q0 -24 17.5 -37t43.5 -13h273q75 0 137 -15t112 -47.5t78 -88.5t28 -131q0 -104 -69.5 -176t-182 -104.5t-258.5 -32.5zM317 621q0 -76 51.5 -121.5t140.5 -45.5t140 45.5t51 121.5q0 77 -51 122t-140 45q-90 0 -141 -45t-51 -122zM623 1100
h-252l63 422h196zM350 -44q-43 -37 -43 -84q0 -103 233 -103q268 0 268 103q0 39 -32 61.5t-87 22.5h-339z" />
    <glyph glyph-name="Hcircumflex.smcp" horiz-adv-x="1225" 
d="M141 0v1005h255v-387h434v387h255v-1005h-255v405h-434v-405h-255zM485 1125h-226l287 370h135l287 -370h-227l-128 178z" />
    <glyph glyph-name="Hbar.smcp" horiz-adv-x="1285" 
d="M49 739v153h120v113h257v-113h434v113h256v-113h121v-153h-121v-739h-256v405h-434v-405h-257v739h-120zM860 739h-434v-121h434v121z" />
    <glyph glyph-name="Itilde.smcp" horiz-adv-x="536" 
d="M141 1005h255v-1005h-255v1005zM-88 1287q103 183 237 183q41 0 87.5 -22t88.5 -44.5t72 -22.5q37 0 64.5 19.5t58.5 64.5l105 -99q-52 -93 -111 -135.5t-133 -42.5q-49 0 -117.5 37t-92.5 42q-34 7 -55 3q-40 -7 -95 -79z" />
    <glyph glyph-name="Imacron.smcp" horiz-adv-x="536" 
d="M396 1005v-1005h-255v1005h255zM564 1393v-174h-591v174h591z" />
    <glyph glyph-name="Ibreve.smcp" horiz-adv-x="536" 
d="M396 0h-255v1005h255v-1005zM-32 1469h185q5 -58 36 -94t79 -36q51 0 82 35.5t33 94.5h186q-7 -139 -89 -220t-212 -81q-129 0 -211 81.5t-89 219.5z" />
    <glyph glyph-name="Iogonek.smcp" horiz-adv-x="536" 
d="M-16 -266q0 146 189 266h-32v1005h255v-1005h-27q-193 -122 -193 -207q0 -35 25.5 -56t69.5 -21q58 0 112 27l54 -158q-81 -52 -203 -52q-116 0 -183 54t-67 147z" />
    <glyph glyph-name="Idotaccent.smcp" horiz-adv-x="536" 
d="M141 1005h255v-1005h-255v1005zM121 1330q0 65 41 106.5t106 41.5t106.5 -41t41.5 -107q0 -65 -41.5 -106t-106.5 -41t-106 41t-41 106z" />
    <glyph glyph-name="dotlessi.smcp" horiz-adv-x="536" 
d="M396 1005v-1005h-255v1005h255z" />
    <glyph glyph-name="IJ.smcp" horiz-adv-x="1371" 
d="M851 -21q-104 0 -197 48t-146 126l161 165q89 -109 181 -109q137 0 137 171v626h255v-636q0 -186 -103 -288.5t-288 -102.5zM396 0h-255v1005h255v-1005z" />
    <glyph glyph-name="Jcircumflex.smcp" horiz-adv-x="889" 
d="M343 -21q-104 0 -197 48t-146 126l161 165q89 -109 181 -109q137 0 137 171v626h255v-636q0 -186 -103 -288.5t-288 -102.5zM467 1125h-226l287 370h135l287 -370h-227l-128 178z" />
    <glyph glyph-name="Kcommaaccent.smcp" horiz-adv-x="1098" 
d="M141 1006h255v-378l354 378h326l-410 -434l421 -573h-302l-292 403l-97 -97v-306h-255v1007zM620 -528h-196l7 422h252z" />
    <glyph glyph-name="kgreenlandic.smcp" horiz-adv-x="1098" 
d="M429 -1h-255v1007h255v-378l354 378h326l-410 -434l421 -573h-302l-292 403l-97 -97v-306z" />
    <glyph glyph-name="Lacute.smcp" horiz-adv-x="952" 
d="M913 213v-213h-772v1005h255v-792h517zM616 1487l-233 -334h-216l157 334h292z" />
    <glyph glyph-name="lacute.alt" horiz-adv-x="622" 
d="M137 244v1164h256v-1127q0 -81 83 -81q45 0 96 18l20 -205q-74 -33 -182 -33q-130 0 -201.5 65t-71.5 199zM376 1473h-216l157 334h292z" />
    <glyph glyph-name="Lcommaaccent.smcp" horiz-adv-x="952" 
d="M913 213v-213h-772v1005h255v-792h517zM404 -528l7 422h252l-63 -422h-196z" />
    <glyph glyph-name="lcommaaccent.alt" horiz-adv-x="603" 
d="M137 244v1164h256v-1127q0 -81 83 -81q45 0 96 18l20 -205q-74 -33 -182 -33q-130 0 -201.5 65t-71.5 199zM373 -528h-196l7 422h252z" />
    <glyph glyph-name="Lcaron.smcp" horiz-adv-x="957" 
d="M571 625l3 377h243l-59 -377h-187zM914 212v-212h-773v1005h256v-793h517z" />
    <glyph glyph-name="lcaron.alt" horiz-adv-x="635" 
d="M137 1408h285v-1127q0 -75 71 -81q41 3 82 14v-4q11 3 26 8l20 -205q-74 -33 -211 -33q-130 0 -201.5 65t-71.5 199v1164zM530 1409h279l-63 -422h-216v422z" />
    <glyph glyph-name="Ldot.smcp" horiz-adv-x="955" 
d="M914 0h-773v1005h256v-793h517v-212zM560 516q0 65 41 106t106 41t106.5 -41t41.5 -106t-41.5 -106t-106.5 -41t-106 41t-41 106z" />
    <glyph glyph-name="ldot.alt" horiz-adv-x="765" 
d="M166 244v1164h256v-1127q0 -81 83 -81q45 0 96 18l20 -205q-74 -33 -182 -33q-130 0 -201.5 65t-71.5 199zM498 678q0 62 42.5 104.5t105.5 42.5t106 -42.5t43 -104.5t-43 -104.5t-106 -42.5t-105.5 42.5t-42.5 104.5z" />
    <glyph glyph-name="Lslash.smcp" horiz-adv-x="1022" 
d="M64 633l146 10v362h256v-346l249 17v-154l-249 -16v-294h517v-212h-773v489l-146 -9v153z" />
    <glyph glyph-name="lslash.alt" horiz-adv-x="769" 
d="M277 441l-181 -71v174l181 73v791h256v-687l182 74v-181l-182 -72v-261q0 -81 83 -81q45 0 96 18l20 -205q-74 -33 -182 -33q-130 0 -201.5 65t-71.5 199v197z" />
    <glyph glyph-name="Nacute.smcp" horiz-adv-x="1235" 
d="M391 599v-599h-250v1005h212l492 -605v605h250v-1005h-212zM956 1487l-233 -334h-216l157 334h292z" />
    <glyph glyph-name="Ncommaaccent.smcp" horiz-adv-x="1235" 
d="M391 599v-599h-250v1005h212l492 -605v605h250v-1005h-212zM514 -528l7 422h252l-63 -422h-196z" />
    <glyph glyph-name="Ncaron.smcp" horiz-adv-x="1235" 
d="M391 599v-599h-250v1005h212l492 -605v605h250v-1005h-212zM507 1503l128 -178l128 178h227l-287 -370h-135l-287 370h226z" />
    <glyph glyph-name="napostrophe.smcp" horiz-adv-x="1490" 
d="M679 0h-250v1005h212l492 -605v605h250v-1005h-212l-492 599v-599zM38 912l137 516h272l-203 -516h-206z" />
    <glyph glyph-name="Eng.smcp" horiz-adv-x="1271" 
d="M141 0v1005h218l516 -602v602h256v-1096q0 -158 -81.5 -243.5t-219.5 -85.5q-99 0 -155 29l22 212q30 -12 89 -12q49 0 69 35t20 101v99l-478 558v-602h-256z" />
    <glyph glyph-name="Omacron.smcp" horiz-adv-x="1277" 
d="M112 503q0 230 147.5 376t379.5 146t379.5 -146t147.5 -376t-147.5 -376.5t-379.5 -146.5t-379.5 146.5t-147.5 376.5zM370 503q0 -129 75.5 -210t194.5 -81t194.5 81t75.5 210q0 128 -75.5 208.5t-194.5 80.5t-194.5 -80t-75.5 -209zM935 1219h-591v174h591v-174z" />
    <glyph glyph-name="Obreve.smcp" horiz-adv-x="1277" 
d="M639 -20q-232 0 -379.5 146.5t-147.5 376.5t147.5 376t379.5 146t379.5 -146t147.5 -376t-147.5 -376.5t-379.5 -146.5zM640 792q-119 0 -194.5 -80t-75.5 -209t75.5 -210t194.5 -81t194.5 81t75.5 210q0 128 -75.5 208.5t-194.5 80.5zM639 1168q-129 0 -211 81.5
t-89 219.5h185q5 -58 36 -94t79 -36q51 0 82 35.5t33 94.5h186q-7 -139 -89 -220t-212 -81z" />
    <glyph glyph-name="Ohungarumlaut.smcp" horiz-adv-x="1277" 
d="M639 -20q-232 0 -379.5 146.5t-147.5 376.5t147.5 376t379.5 146t379.5 -146t147.5 -376t-147.5 -376.5t-379.5 -146.5zM640 792q-119 0 -194.5 -80t-75.5 -209t75.5 -210t194.5 -81t194.5 81t75.5 210q0 128 -75.5 208.5t-194.5 80.5zM916 1153h-216l157 334h292z
M371 1153l157 334h292l-233 -334h-216z" />
    <glyph glyph-name="OE.smcp" horiz-adv-x="1738" 
d="M614 -20q-236 0 -387 146.5t-151 376.5t151 376t387 146q161 0 283 -91v71h756v-213h-500v-179h441v-204h-441v-197h508v-212h-764v71q-121 -91 -283 -91zM334 503q0 -129 79.5 -210t206.5 -81q122 0 199.5 80t77.5 206q0 131 -76 212.5t-201 81.5q-127 0 -206.5 -80
t-79.5 -209z" />
    <glyph glyph-name="Racute.smcp" horiz-adv-x="1028" 
d="M396 0h-255v1005h464q168 0 269 -92t101 -243q0 -183 -163 -274l224 -397h-281l-189 348h-170v-347zM407 1153l157 334h292l-233 -334h-216zM396 549h190q62 0 96.5 35t34.5 85q0 54 -34 89t-97 35h-190v-244z" />
    <glyph glyph-name="Rcommaaccent.smcp" horiz-adv-x="1028" 
d="M141 0v1005h464q168 0 269 -92t101 -243q0 -183 -163 -274l224 -397h-281l-189 348h-170v-347h-255zM610 -528h-196l7 422h252zM396 793v-244h190q62 0 96.5 35t34.5 85q0 54 -34 89t-97 35h-190z" />
    <glyph glyph-name="Rcaron.smcp" horiz-adv-x="1028" 
d="M141 0v1005h464q168 0 269 -92t101 -243q0 -183 -163 -274l224 -397h-281l-189 348h-170v-347h-255zM159 1503h226l128 -178l128 178h227l-287 -370h-135zM586 793h-190v-244h190q62 0 96.5 35t34.5 85q0 54 -34 89t-97 35z" />
    <glyph glyph-name="Sacute.smcp" horiz-adv-x="1003" 
d="M70 239l194 125q44 -72 112 -116.5t147 -44.5q144 0 144 66q0 9 -2 16.5t-7.5 14.5t-11 12.5t-17 12t-20.5 11t-27 12t-31.5 13t-38 15.5t-42.5 17q-140 56 -179 78q-139 74 -167 188q-7 32 -7 67q0 131 113.5 215t279.5 84q130 0 236.5 -63t165.5 -155l-178 -135
q-32 54 -92 92t-135 38q-59 0 -95.5 -20t-36.5 -53q0 -9 2 -16.5t7 -14.5t10.5 -12.5t17 -12t21.5 -11t28 -12t32.5 -13t40.5 -15.5t46 -18q148 -58 196 -86q126 -72 145 -187q4 -23 4 -48q0 -136 -116.5 -219.5t-293.5 -83.5q-148 0 -264.5 66.5t-180.5 192.5zM396 1153
l157 334h292l-233 -334h-216z" />
    <glyph glyph-name="Scircumflex.smcp" horiz-adv-x="1003" 
d="M70 239l194 125q44 -72 112 -116.5t147 -44.5q144 0 144 66q0 9 -2 16.5t-7.5 14.5t-11 12.5t-17 12t-20.5 11t-27 12t-31.5 13t-38 15.5t-42.5 17q-140 56 -179 78q-139 74 -167 188q-7 32 -7 67q0 131 113.5 215t279.5 84q130 0 236.5 -63t165.5 -155l-178 -135
q-32 54 -92 92t-135 38q-59 0 -95.5 -20t-36.5 -53q0 -9 2 -16.5t7 -14.5t10.5 -12.5t17 -12t21.5 -11t28 -12t32.5 -13t40.5 -15.5t46 -18q148 -58 196 -86q126 -72 145 -187q4 -23 4 -48q0 -136 -116.5 -219.5t-293.5 -83.5q-148 0 -264.5 66.5t-180.5 192.5zM148 1125
l287 370h135l287 -370h-227l-128 178l-128 -178h-226z" />
    <glyph glyph-name="Scedilla.smcp" horiz-adv-x="1003" 
d="M70 239l194 125q44 -72 112 -116.5t147 -44.5q144 0 144 66q0 9 -2 16.5t-7.5 14.5t-11 12.5t-17 12t-20.5 11t-27 12t-31.5 13t-38 15.5t-42.5 17q-140 56 -179 78q-139 74 -167 188q-7 32 -7 67q0 131 113.5 215t279.5 84q130 0 236.5 -63t165.5 -155l-178 -135
q-32 54 -92 92t-135 38q-59 0 -95.5 -20t-36.5 -53q0 -9 2 -16.5t7 -14.5t10.5 -12.5t17 -12t21.5 -11t28 -12t32.5 -13t40.5 -15.5t46 -18q148 -58 196 -86q126 -72 145 -187q4 -23 4 -48q0 -129 -106 -211.5t-271 -90.5l-21 -67q102 -12 156.5 -60.5t54.5 -121.5
q0 -91 -81.5 -145t-217.5 -54q-94 0 -152 26v142q60 -19 130 -19q118 0 118 66q0 67 -126 67h-71l68 175q-231 43 -336 249z" />
    <glyph glyph-name="Scaron.smcp" horiz-adv-x="1003" 
d="M515 -20q-148 0 -264.5 66.5t-180.5 192.5l194 125q44 -72 112 -116.5t147 -44.5q144 0 144 66q0 9 -2 16.5t-7.5 14.5t-11 12.5t-17 12t-20.5 11t-27 12t-31.5 13t-38 15.5t-42.5 17q-140 56 -179 78q-139 74 -167 188q-7 32 -7 67q0 131 113.5 215t279.5 84
q130 0 236.5 -63t165.5 -155l-178 -135q-32 54 -92 92t-135 38q-59 0 -95.5 -20t-36.5 -53q0 -9 2 -16.5t7 -14.5t10.5 -12.5t17 -12t21.5 -11t28 -12t32.5 -13t40.5 -15.5t46 -18q148 -58 196 -86q126 -72 145 -187q4 -23 4 -48q0 -136 -116.5 -219.5t-293.5 -83.5z
M158 1503h226l128 -178l128 178h227l-287 -370h-135z" />
    <glyph glyph-name="Tcedilla.smcp" horiz-adv-x="938" 
d="M342 791h-306v214h867v-214h-306v-791h-77l-27 -86q102 -12 156.5 -60.5t54.5 -121.5q0 -91 -81.5 -145t-217.5 -54q-94 0 -152 26v142q60 -19 130 -19q118 0 118 66q0 67 -126 67h-71l72 185h-34v791z" />
    <glyph glyph-name="Tcaron.smcp" horiz-adv-x="938" 
d="M36 791v214h867v-214h-306v-791h-255v791h-306zM115 1503h226l128 -178l128 178h227l-287 -370h-135z" />
    <glyph glyph-name="Tbar.smcp" horiz-adv-x="980" 
d="M57 791v214h867v-214h-305v-197h224v-155h-224v-439h-256v439h-225v155h225v197h-306z" />
    <glyph glyph-name="Utilde.smcp" horiz-adv-x="1200" 
d="M149 1005h255v-613q0 -82 54 -131t143 -49q88 0 142 49t54 131v613h255v-612q0 -188 -122 -300t-329 -112t-329.5 112t-122.5 300v612zM353 1191l-109 96q103 183 237 183q41 0 87.5 -22t88.5 -44.5t72 -22.5q37 0 64.5 19.5t58.5 64.5l105 -99q-52 -93 -111 -135.5
t-133 -42.5q-49 0 -117.5 37t-92.5 42q-34 7 -55 3q-40 -7 -95 -79z" />
    <glyph glyph-name="utilde.alt" horiz-adv-x="1166" 
d="M132 960h257v-539q0 -91 53.5 -148t138.5 -57q89 0 143.5 56.5t54.5 148.5v539h256v-565q0 -183 -126 -299t-328 -116t-325.5 114t-123.5 295v571zM227 1242q103 183 237 183q41 0 87.5 -22.5t88.5 -44.5t72 -22q37 0 64.5 19.5t58.5 64.5l105 -99q-52 -93 -111 -135.5
t-133 -42.5q-49 0 -117.5 37t-92.5 42q-34 7 -55 3q-40 -7 -95 -79z" />
    <glyph glyph-name="Umacron.smcp" horiz-adv-x="1200" 
d="M601 -19q-207 0 -329.5 112t-122.5 300v612h255v-613q0 -82 54 -131t143 -49q88 0 142 49t54 131v613h255v-612q0 -188 -122 -300t-329 -112zM896 1219h-591v174h591v-174z" />
    <glyph glyph-name="umacron.alt" horiz-adv-x="1166" 
d="M132 960h257v-539q0 -91 53.5 -148t138.5 -57q89 0 143.5 56.5t54.5 148.5v539h256v-565q0 -183 -126 -299t-328 -116t-325.5 114t-123.5 295v571zM288 1178v174h591v-174h-591z" />
    <glyph glyph-name="Ubreve.smcp" horiz-adv-x="1200" 
d="M601 -19q-207 0 -329.5 112t-122.5 300v612h255v-613q0 -82 54 -131t143 -49q88 0 142 49t54 131v613h255v-612q0 -188 -122 -300t-329 -112zM600 1168q-129 0 -211 81.5t-89 219.5h185q5 -58 36 -94t79 -36q51 0 82 35.5t33 94.5h186q-7 -139 -89 -220t-212 -81z" />
    <glyph glyph-name="ubreve.alt" horiz-adv-x="1166" 
d="M581 -20q-202 0 -325.5 114t-123.5 295v571h257v-539q0 -91 53.5 -148t138.5 -57q89 0 143.5 56.5t54.5 148.5v539h256v-565q0 -183 -126 -299t-328 -116zM283 1426h185q5 -58 36 -94t79 -36q51 0 82 35.5t33 94.5h186q-7 -139 -89 -220t-212 -81q-129 0 -211 81.5
t-89 219.5z" />
    <glyph glyph-name="Uring.smcp" horiz-adv-x="1200" 
d="M149 393v612h255v-613q0 -82 54 -131t143 -49q88 0 142 49t54 131v613h255v-612q0 -188 -122 -300t-329 -112t-329.5 112t-122.5 300zM386 1329q0 92 60 150.5t154 58.5t154.5 -58.5t60.5 -150.5q0 -90 -60.5 -148t-154.5 -58t-154 58t-60 148zM600 1405
q-33 0 -53.5 -21.5t-20.5 -54.5q0 -31 20.5 -51.5t53.5 -20.5t53 20.5t20 51.5q0 33 -20 54.5t-53 21.5z" />
    <glyph glyph-name="uring.alt" horiz-adv-x="1166" 
d="M132 960h257v-539q0 -91 53.5 -148t138.5 -57q89 0 143.5 56.5t54.5 148.5v539h256v-565q0 -183 -126 -299t-328 -116t-325.5 114t-123.5 295v571zM369 1286q0 92 60 150.5t154 58.5t154.5 -58.5t60.5 -150.5q0 -90 -60.5 -148t-154.5 -58t-154 58t-60 148zM583 1362
q-33 0 -53.5 -21.5t-20.5 -54.5q0 -31 20.5 -51.5t53.5 -20.5t53 20.5t20 51.5q0 33 -20 54.5t-53 21.5z" />
    <glyph glyph-name="Uhungarumlaut.smcp" horiz-adv-x="1200" 
d="M601 -19q-207 0 -329.5 112t-122.5 300v612h255v-613q0 -82 54 -131t143 -49q88 0 142 49t54 131v613h255v-612q0 -188 -122 -300t-329 -112zM872 1153h-216l157 334h292zM552 1153h-216l157 334h292z" />
    <glyph glyph-name="uhungarumlaut.alt" horiz-adv-x="1166" 
d="M132 389v571h257v-539q0 -91 53.5 -148t138.5 -57q89 0 143.5 56.5t54.5 148.5v539h256v-565q0 -183 -126 -299t-328 -116t-325.5 114t-123.5 295zM861 1113h-216l157 334h292zM531 1113h-216l157 334h292z" />
    <glyph glyph-name="Uogonek.smcp" horiz-adv-x="1200" 
d="M149 1005h255v-613q0 -82 54 -131t143 -49q88 0 142 49t54 131v613h255v-612q0 -150 -80 -254t-222 -140q-191 -121 -191 -206q0 -35 25.5 -56t69.5 -21q58 0 112 27l54 -158q-81 -52 -203 -52q-116 0 -183 54t-67 147q0 136 165 251q-177 18 -280 127.5t-103 280.5v612z
" />
    <glyph glyph-name="uogonek.alt" horiz-adv-x="1166" 
d="M504 -15q-171 22 -271.5 132t-100.5 272v571h257v-539q0 -91 53.5 -148t138.5 -57q89 0 143.5 56.5t54.5 148.5v539h256v-565q0 -149 -86 -256.5t-233 -142.5q-186 -120 -186 -203q0 -35 25.5 -56t69.5 -21q58 0 112 27l54 -158q-81 -52 -203 -52q-116 0 -183 54t-67 147
q0 137 166 251z" />
    <glyph glyph-name="Wcircumflex.smcp" horiz-adv-x="1651" 
d="M334 0l-275 1005h260l196 -733l207 718h208l207 -718l196 733h260l-275 -1005h-329l-163 574l-163 -574h-329zM472 1125l287 370h135l287 -370h-227l-128 178l-128 -178h-226z" />
    <glyph glyph-name="Ycircumflex.smcp" horiz-adv-x="1124" 
d="M435 372l-411 633h295l243 -394l247 394h292l-410 -633v-372h-256v372zM208 1125l287 370h135l287 -370h-227l-128 178l-128 -178h-226z" />
    <glyph glyph-name="ycircumflex.alt" horiz-adv-x="1123" 
d="M423 22l-404 938h287l253 -679l263 679h285l-592 -1360h-258zM427 1085h-226l287 370h135l287 -370h-227l-128 178z" />
    <glyph glyph-name="Ydieresis.smcp" horiz-adv-x="1124" 
d="M24 1005h295l243 -394l247 394h292l-410 -633v-372h-256v372zM608 1328q0 61 38 99t99 38t99.5 -38t38.5 -99t-38.5 -98.5t-99.5 -37.5t-99 37.5t-38 98.5zM379 1192q-60 0 -98 37.5t-38 98.5t38 99t98 38q61 0 99.5 -38t38.5 -99t-38.5 -98.5t-99.5 -37.5z" />
    <glyph glyph-name="Zacute.smcp" horiz-adv-x="985" 
d="M78 0v182l497 610h-491v213h820v-183l-497 -610h501v-212h-830zM852 1487l-233 -334h-216l157 334h292z" />
    <glyph glyph-name="Zdotaccent.smcp" horiz-adv-x="985" 
d="M78 182l497 610h-491v213h820v-183l-497 -610h501v-212h-830v182zM501 1183q-65 0 -106 41t-41 106t41 106.5t106 41.5t106.5 -41t41.5 -107q0 -65 -41.5 -106t-106.5 -41z" />
    <glyph glyph-name="Zcaron.smcp" horiz-adv-x="985" 
d="M78 0v182l497 610h-491v213h820v-183l-497 -610h501v-212h-830zM151 1503h226l128 -178l128 178h227l-287 -370h-135z" />
    <glyph glyph-name="Schwa.smcp" horiz-adv-x="1150" 
d="M71 463q0 54 9 114h727q-15 94 -92 153t-176 59q-71 0 -136.5 -34.5t-108.5 -102.5l-201 126q72 120 193.5 185t258.5 65q158 0 279.5 -70.5t186 -189.5t64.5 -266q-1 -229 -147 -375.5t-370 -146.5q-212 0 -349.5 132t-137.5 351zM803 397h-482q11 -83 75.5 -138.5
t158.5 -55.5q98 0 167.5 55.5t80.5 138.5z" />
    <glyph glyph-name="florin.onum" horiz-adv-x="1195" 
d="M33 -111l71 218q61 -35 128 -35q73 0 124 43t64 129l41 301h-170l29 217h167l17 99q22 173 145.5 275.5t289.5 102.5q114 0 210 -48l-71 -216q-61 35 -128 35q-74 0 -128.5 -44.5t-67.5 -129.5l-11 -74h274l-29 -217h-267l-43 -326q-23 -174 -146 -276t-289 -102
q-114 0 -210 48z" />
    </font>
</defs>
</svg>
