<?xml version="1.0" standalone="no"?>
<!DOCTYPE svg PUBLIC "-//W3C//DTD SVG 1.1//EN" "http://www.w3.org/Graphics/SVG/1.1/DTD/svg11.dtd" >
<svg xmlns="http://www.w3.org/2000/svg" xmlns:xlink="http://www.w3.org/1999/xlink" version="1.1">
<metadata>
Created by FontForge 20201107 at Thu Aug 11 13:55:08 2022
 By 
Copyright (c) 2022 by TipoType Team. All rights reserved.
</metadata>
<defs>
<font id="AirtelSans-Regular" horiz-adv-x="1350" >
  <font-face 
    font-family="Airtel Sans Regular"
    font-weight="400"
    font-stretch="normal"
    units-per-em="2048"
    panose-1="2 0 0 0 0 0 0 0 0 0"
    ascent="1638"
    descent="-410"
    x-height="960"
    cap-height="1358"
    bbox="-257 -518 2619 2296"
    underline-thickness="150"
    underline-position="-350"
    unicode-range="U+000D-FB04"
  />
<missing-glyph horiz-adv-x="1360" 
d="M438 1018l-97 -97l242 -240l-244 -245l97 -97l245 242l243 -242l97 97l-244 245l242 240l-97 97l-241 -242zM171 0v1358h1018v-1358h-1018z" />
    <glyph glyph-name="f_f" unicode="ff" horiz-adv-x="1417" 
d="M43 792v168h184v104q0 168 99 266t273 98q93 0 159 -35l-21 -164q-56 25 -129 25q-97 0 -143 -48.5t-46 -152.5v-93h493v104q0 168 99 266t273 98q93 0 159 -35l-21 -164q-56 25 -129 25q-97 0 -143 -48.5t-46 -152.5v-93h283v-168h-280v-792h-198v792h-487v-792h-198
v792h-181z" />
    <glyph glyph-name="fi" unicode="fi" horiz-adv-x="1234" 
d="M224 792h-181v168h184v104q0 168 99 266t273 98q93 0 159 -35l-21 -164q-56 25 -129 25q-97 0 -143 -48.5t-46 -152.5v-93h283v-168h-280v-792h-198v792zM884 0v960h198v-960h-198zM861 1282q0 54 34 88t88 34t88.5 -34t34.5 -88t-34.5 -88t-88.5 -34t-88 34t-34 88z" />
    <glyph glyph-name="fl" unicode="fl" horiz-adv-x="1234" 
d="M224 792h-181v168h184v104q0 168 99 266t273 98q93 0 159 -35l-21 -164q-56 25 -129 25q-97 0 -143 -48.5t-46 -152.5v-93h283v-168h-280v-792h-198v792zM884 1408h198v-1408h-198v1408z" />
    <glyph glyph-name="f_f_i" unicode="ffi" horiz-adv-x="1919" 
d="M224 792h-181v168h184v104q0 168 99 266t273 98q93 0 159 -35l-21 -164q-56 25 -129 25q-97 0 -143 -48.5t-46 -152.5v-93h493v104q0 168 99 266t273 98q93 0 159 -35l-21 -164q-56 25 -129 25q-97 0 -143 -48.5t-46 -152.5v-93h283v-168h-280v-792h-198v792h-487v-792
h-198v792zM1767 0h-198v960h198v-960zM1546 1282q0 54 34 88t88 34t88.5 -34t34.5 -88t-34.5 -88t-88.5 -34t-88 34t-34 88z" />
    <glyph glyph-name="f_f_l" unicode="ffl" horiz-adv-x="1919" 
d="M224 792h-181v168h184v104q0 168 99 266t273 98q93 0 159 -35l-21 -164q-56 25 -129 25q-97 0 -143 -48.5t-46 -152.5v-93h493v104q0 168 99 266t273 98q93 0 159 -35l-21 -164q-56 25 -129 25q-97 0 -143 -48.5t-46 -152.5v-93h283v-168h-280v-792h-198v792h-487v-792
h-198v792zM1569 0v1408h198v-1408h-198z" />
    <glyph glyph-name=".notdef" horiz-adv-x="1360" 
d="M438 1018l-97 -97l242 -240l-244 -245l97 -97l245 242l243 -242l97 97l-244 245l242 240l-97 97l-241 -242zM171 0v1358h1018v-1358h-1018z" />
    <glyph glyph-name="uni0000" horiz-adv-x="0" 
 />
    <glyph glyph-name="uni0000" horiz-adv-x="0" 
 />
    <glyph glyph-name="uni000D" unicode="&#xd;" horiz-adv-x="470" 
 />
    <glyph glyph-name="space" unicode=" " horiz-adv-x="470" 
 />
    <glyph glyph-name="exclam" unicode="!" horiz-adv-x="545" 
d="M154 1358h241l-38 -990h-172zM271 -20q-52 0 -87 35.5t-35 86.5t35 87t87 36t87.5 -36t35.5 -87t-35.5 -86.5t-87.5 -35.5z" />
    <glyph glyph-name="quotedbl" unicode="&#x22;" horiz-adv-x="770" 
d="M446 1428h219l-33 -510h-153zM105 1428h219l-33 -510h-153z" />
    <glyph glyph-name="numbersign" unicode="#" horiz-adv-x="1418" 
d="M72 352l28 154h245q11 65 33 189t33 189h-244l27 153h241l57 321h175l-54 -321h309l58 321h176l-56 -321h248l-27 -153h-247l-67 -378h246l-29 -154h-243l-66 -353h-178l66 353h-310l-67 -353h-178l67 353h-243zM586 884l-67 -378h315l67 378h-315z" />
    <glyph glyph-name="dollar" unicode="$" horiz-adv-x="1197" 
d="M81 288l157 109q84 -173 264 -216v437q-90 31 -152.5 62.5t-117.5 76t-82 105t-26 138.5q1 104 55.5 185.5t137.5 126.5t185 60v164h180v-165q138 -20 237.5 -95t153.5 -178l-163 -114q-36 66 -94.5 117.5t-133.5 72.5v-405q59 -20 97.5 -34.5t87 -37t79.5 -43.5
t63.5 -51t50.5 -63.5t30 -78t12 -96.5q0 -85 -35.5 -155t-95.5 -116t-133.5 -74.5t-155.5 -36.5v-159h-180v165q-150 23 -260 104t-161 195zM891 363q0 67 -50.5 110.5t-158.5 83.5v-383q94 15 151.5 65t57.5 124zM335 1001q0 -62 40 -99.5t127 -70.5v346
q-74 -17 -120.5 -63t-46.5 -113z" />
    <glyph glyph-name="percent" unicode="%" horiz-adv-x="1837" 
d="M444 622q-164 0 -274.5 109t-110.5 269t110.5 269t274.5 109q166 0 276 -108.5t110 -269.5q0 -160 -110 -269t-276 -109zM1392 -20q-164 0 -274.5 109t-110.5 269t110.5 269t274.5 109q166 0 276 -108.5t110 -269.5q0 -160 -110 -269t-276 -109zM479 26l734 1332h145v-24
l-732 -1334h-147v26zM1177 358q0 -92 61.5 -154.5t153.5 -62.5q94 0 155.5 62.5t61.5 154.5t-61.5 154.5t-155.5 62.5q-92 0 -153.5 -62.5t-61.5 -154.5zM444 1217q-92 0 -153.5 -62.5t-61.5 -154.5t61.5 -154.5t153.5 -62.5q94 0 155.5 62.5t61.5 154.5t-61.5 154.5
t-155.5 62.5z" />
    <glyph glyph-name="ampersand" unicode="&#x26;" horiz-adv-x="1369" 
d="M77 355q0 110 73 204t212 164q-85 84 -121.5 154.5t-36.5 148.5q0 155 113 253.5t290 98.5q169 0 277.5 -93t108.5 -237q0 -223 -330 -362l320 -305q40 64 40 191q0 71 -15 170h188q12 -106 12 -165q0 -193 -90 -313l275 -264h-272l-131 122q-184 -142 -415 -142
q-220 0 -359 105t-139 270zM275 365q0 -92 86.5 -151.5t220.5 -59.5q172 0 278 94l-373 355q-30 -14 -50.5 -25t-54 -34t-54.5 -46.5t-37 -58.5t-16 -74zM397 1031q0 -28 8 -54t17 -43.5t32.5 -44t36 -39t46.5 -44.5q132 58 197.5 112t65.5 124q0 74 -53 119.5t-138 45.5
q-94 0 -153 -49t-59 -127z" />
    <glyph glyph-name="quotesingle" unicode="'" horiz-adv-x="429" 
d="M291 918h-153l-33 510h219z" />
    <glyph glyph-name="parenleft" unicode="(" horiz-adv-x="596" 
d="M87 580q0 191 42 373t103.5 319.5t152.5 287.5h197q-12 -18 -31.5 -51.5t-69 -139t-88 -214.5t-69.5 -267t-31 -308q0 -109 16 -222t42 -206.5t57 -181t62.5 -153.5t57.5 -116t42 -75l16 -26h-200q-126 167 -212.5 436t-86.5 544z" />
    <glyph glyph-name="parenright" unicode=")" horiz-adv-x="596" 
d="M210 -400h-200q12 18 31.5 51t70 139t89.5 215t70.5 267t31.5 308q0 109 -16 222t-41.5 206.5t-56 181t-61.5 153.5t-56.5 115.5t-41.5 75.5l-16 26h197q91 -150 152.5 -287.5t103.5 -319.5t42 -373q0 -275 -86.5 -544t-212.5 -436z" />
    <glyph glyph-name="asterisk" unicode="*" horiz-adv-x="924" 
d="M540 1408l-10 -271l247 91l48 -149l-257 -74l180 -229l-126 -92l-160 237l-160 -237l-126 92l180 229l-257 74l48 149l246 -91l-9 271h156z" />
    <glyph glyph-name="plus" unicode="+" horiz-adv-x="1159" 
d="M47 780h427v425h208v-425h429v-197h-429v-432h-208v432h-427v197z" />
    <glyph glyph-name="comma" unicode="," horiz-adv-x="475" 
d="M157 253h208l-160 -516h-175z" />
    <glyph glyph-name="hyphen" unicode="-" horiz-adv-x="908" 
d="M782 667v-184h-656v184h656z" />
    <glyph glyph-name="period" unicode="." horiz-adv-x="437" 
d="M96 102q0 51 35 87t87 36t87.5 -36t35.5 -87t-35.5 -86.5t-87.5 -35.5t-87 35.5t-35 86.5z" />
    <glyph glyph-name="slash" unicode="/" horiz-adv-x="1078" 
d="M1040 1529l-786 -1929h-214l785 1929h215z" />
    <glyph glyph-name="zero" unicode="0" horiz-adv-x="1279" 
d="M640 -20q-248 0 -395 189.5t-147 509.5q0 319 147 509t395 190t394.5 -190t146.5 -509q0 -320 -146.5 -509.5t-394.5 -189.5zM640 1180q-150 0 -241 -136t-91 -365q0 -230 91 -365t241 -135t240.5 135.5t90.5 364.5t-91 365t-240 136z" />
    <glyph glyph-name="one" unicode="1" horiz-adv-x="682" 
d="M295 0v1168h-259v190h469v-1358h-210z" />
    <glyph glyph-name="two" unicode="2" horiz-adv-x="1097" 
d="M75 1062q49 140 174 228t275 88q202 0 330.5 -116.5t128.5 -300.5q0 -48 -10 -92t-23.5 -78t-40.5 -70.5t-48.5 -60.5t-59.5 -56.5t-62 -50.5t-69 -50.5t-67 -49.5q-57 -43 -91.5 -70t-80 -66t-69 -68.5t-24.5 -49.5h667v-199h-910v91q0 35 7.5 69.5t17 63.5t30 61
t36 54.5t45.5 53t47.5 48t53.5 47t53 42t55.5 42t51.5 39.5q60 46 93.5 73t73 64.5t58.5 67t32.5 66t13.5 75.5q0 98 -66.5 160t-172.5 62q-88 0 -161 -54t-109 -148z" />
    <glyph glyph-name="three" unicode="3" horiz-adv-x="1111" 
d="M77 285l176 97q39 -95 118 -150t180 -55q107 0 177 57.5t70 145.5q0 96 -77 156t-200 60h-169v183h169q104 0 174.5 54.5t70.5 158.5q0 85 -66 138.5t-170 53.5q-98 0 -171.5 -57.5t-106.5 -137.5l-175 94q56 137 176.5 216t272.5 79q201 0 328 -107t127 -276
q0 -102 -53 -183.5t-142 -116.5q103 -35 165 -121.5t62 -196.5q0 -172 -129.5 -284.5t-328.5 -112.5q-166 0 -292.5 81t-185.5 224z" />
    <glyph glyph-name="four" unicode="4" horiz-adv-x="1164" 
d="M46 350v175l604 833h248v-823h200v-184h-200v-352h-207v351h-645zM691 1099l-401 -564h401v564z" />
    <glyph glyph-name="five" unicode="5" horiz-adv-x="1104" 
d="M534 -20q-162 0 -287 81.5t-184 228.5l175 97q38 -97 117.5 -153.5t182.5 -56.5q119 0 194 71t75 178q0 111 -71 186t-198 75q-137 0 -246 -99l-159 65l64 705h759v-199h-579l-33 -350q85 63 210 63q206 0 337 -122.5t131 -323.5q0 -198 -139.5 -322t-348.5 -124z" />
    <glyph glyph-name="six" unicode="6" horiz-adv-x="1189" 
d="M634 -20q-111 0 -201 33.5t-151.5 92t-103.5 141t-61 178t-19 205.5q0 167 36.5 302t110.5 235.5t193.5 155.5t276.5 55q193 0 323 -77l-61 -179q-120 66 -258 66q-388 0 -412 -463q50 83 143 121.5t194 38.5q88 0 169 -26t150 -77t110.5 -139t41.5 -202
q0 -206 -135.5 -333.5t-345.5 -127.5zM616 699q-120 0 -197.5 -71.5t-77.5 -190.5q0 -121 79 -197.5t200 -76.5q125 0 202.5 75t77.5 196q0 124 -75.5 194.5t-208.5 70.5z" />
    <glyph glyph-name="seven" unicode="7" horiz-adv-x="969" 
d="M54 1358h876v-172q-353 -578 -558 -1186h-228q210 631 546 1159h-636v199z" />
    <glyph glyph-name="eight" unicode="8" horiz-adv-x="1176" 
d="M587 -20q-221 0 -357 110.5t-136 290.5q0 235 232 333q-180 89 -180 293q0 169 120.5 271t320.5 102q202 0 323.5 -102t121.5 -271q0 -97 -46.5 -174t-141.5 -120q238 -97 238 -332q0 -181 -136 -291t-359 -110zM587 617q-129 0 -206 -60t-77 -162q0 -100 78 -165
t205 -65q130 0 208.5 64.5t78.5 165.5q0 102 -77.5 162t-209.5 60zM353 998q0 -91 63.5 -145.5t170.5 -54.5q109 0 173.5 54.5t64.5 145.5q0 85 -65.5 140.5t-172.5 55.5q-105 0 -169.5 -55.5t-64.5 -140.5z" />
    <glyph glyph-name="nine" unicode="9" horiz-adv-x="1187" 
d="M553 473q-216 0 -346 121t-130 323q0 213 134 337t355 124q134 0 236.5 -50.5t164 -140.5t92 -205.5t30.5 -253.5q0 -167 -36 -302t-108.5 -235.5t-190 -155.5t-272.5 -55q-202 0 -338 92l71 178q122 -78 253 -78q174 0 287 120t120 341q-47 -78 -131 -119t-191 -41z
M574 1195q-129 0 -205.5 -73.5t-76.5 -197.5q0 -128 74 -196.5t207 -68.5q124 0 196 78.5t72 183.5q0 110 -72 192t-195 82z" />
    <glyph glyph-name="colon" unicode=":" horiz-adv-x="495" 
d="M125 102q0 51 35 87t87 36t87.5 -36t35.5 -87t-35.5 -86.5t-87.5 -35.5t-87 35.5t-35 86.5zM125 857q0 51 35 87t87 36t87.5 -36t35.5 -87t-35.5 -86.5t-87.5 -35.5t-87 35.5t-35 86.5z" />
    <glyph glyph-name="semicolon" unicode=";" horiz-adv-x="525" 
d="M49 -263l127 516h208l-160 -516h-175zM158 857q0 51 35 87t87 36t87.5 -36t35.5 -87t-35.5 -86.5t-87.5 -35.5t-87 35.5t-35 86.5z" />
    <glyph glyph-name="less" unicode="&#x3c;" horiz-adv-x="1152" 
d="M1004 167l-909 401v218l909 412v-217l-694 -303l694 -294v-217z" />
    <glyph glyph-name="equal" unicode="=" horiz-adv-x="1314" 
d="M1184 330h-1054v201h1054v-201zM130 1026h1054v-200h-1054v200z" />
    <glyph glyph-name="greater" unicode="&#x3e;" horiz-adv-x="1152" 
d="M842 678l-694 303v217l909 -412v-218l-909 -401v217z" />
    <glyph glyph-name="question" unicode="?" horiz-adv-x="1012" 
d="M228 977l-177 85q49 142 173 229t276 87q192 0 312 -105.5t120 -274.5q0 -46 -14 -92t-30.5 -78.5t-52 -75.5t-56.5 -65t-65 -66l-21 -21q-41 -41 -57.5 -59.5t-40 -54.5t-30.5 -75t-3 -90h-191q-8 41 -8 76q0 41 12 81t24.5 66.5t44.5 66.5t47.5 56.5t56.5 60.5
q96 101 121 137q43 62 43 129q0 83 -59 134t-156 51q-93 0 -161.5 -56t-107.5 -146zM471 -20q-54 0 -88 34t-34 88t34 88t88 34t88.5 -34t34.5 -88t-34.5 -88t-88.5 -34z" />
    <glyph glyph-name="at" unicode="@" horiz-adv-x="1910" 
d="M78 535q0 193 71.5 358t193.5 277t286 175t347 63q169 0 324.5 -63t270 -171.5t183 -262.5t68.5 -326q0 -242 -95.5 -372t-268.5 -130q-88 0 -150.5 48t-96.5 129q-34 -67 -119 -110t-195 -43q-176 0 -292 116.5t-116 306.5t116.5 308.5t291.5 118.5q191 0 291 -128
l9 111h148v-545q0 -95 39.5 -137.5t105.5 -42.5q88 0 136 104.5t48 265.5q0 141 -53.5 267t-146 217t-224.5 144t-283 53q-334 0 -539.5 -202.5t-205.5 -530.5q0 -204 97 -370t265 -259.5t372 -93.5q210 0 417 108l58 -120q-239 -132 -475 -132q-177 0 -337.5 64.5t-280 177
t-190 276t-70.5 351.5zM650 536q0 -116 73 -197t189 -81t192.5 81.5t76.5 196.5q0 114 -76.5 192t-192.5 78q-117 0 -189.5 -77.5t-72.5 -192.5z" />
    <glyph glyph-name="A" unicode="A" horiz-adv-x="1370" 
d="M685 1123l-280 -665h560zM342 283l-108 -283h-224l561 1358h228l561 -1358h-224l-108 283h-686z" />
    <glyph glyph-name="B" unicode="B" horiz-adv-x="1317" 
d="M802 0h-626v1358h586q187 0 300.5 -110t113.5 -270q0 -83 -40 -158.5t-109 -115.5q94 -40 147 -124.5t53 -186.5q0 -167 -121 -280t-304 -113zM387 603v-415h415q97 0 157 61t60 148q0 83 -61.5 144.5t-155.5 61.5h-415zM387 780h375q91 0 146.5 56.5t55.5 136.5
q0 79 -54.5 138.5t-147.5 59.5h-375v-391z" />
    <glyph glyph-name="C" unicode="C" horiz-adv-x="1439" 
d="M87 679q0 195 92 355.5t252 252t354 91.5q185 0 342 -87t255 -244l-163 -114q-163 246 -434 246q-209 0 -343.5 -141t-134.5 -359t136.5 -359t346.5 -141q135 0 247.5 61.5t192.5 178.5l157 -109q-96 -156 -253 -243t-344 -87q-146 0 -276 54t-223.5 146.5t-148.5 222.5
t-55 276z" />
    <glyph glyph-name="D" unicode="D" horiz-adv-x="1508" 
d="M176 1357h546q199 0 358.5 -88t249.5 -243.5t90 -347.5q0 -193 -90 -348t-249.5 -242.5t-358.5 -87.5h-546v1357zM386 190h333q141 0 251.5 64.5t170 175.5t59.5 248q0 209 -134 350t-347 141h-333v-979z" />
    <glyph glyph-name="E" unicode="E" horiz-adv-x="1236" 
d="M176 0v1358h952v-191h-742v-374h637v-191h-637v-411h763v-191h-973z" />
    <glyph glyph-name="F" unicode="F" horiz-adv-x="1177" 
d="M176 0v1358h945v-191h-735v-379h577v-191h-577v-597h-210z" />
    <glyph glyph-name="G" unicode="G" horiz-adv-x="1525" 
d="M790 -20q-146 0 -276 54t-223.5 146.5t-148.5 222.5t-55 276q0 195 92 355.5t252 252t354 91.5q183 0 333 -81.5t247 -226.5l-163 -114q-85 114 -185 168.5t-232 54.5q-209 0 -344 -141t-135 -359t137 -359t347 -141q187 0 300.5 97t135.5 244h-468v190h686q4 -36 4 -79
q0 -133 -45 -251t-127.5 -207t-208 -141t-277.5 -52z" />
    <glyph glyph-name="H" unicode="H" horiz-adv-x="1508" 
d="M176 1358h210v-570h736v570h210v-1358h-210v598h-736v-598h-210v1358z" />
    <glyph glyph-name="I" unicode="I" horiz-adv-x="562" 
d="M386 1358v-1358h-210v1358h210z" />
    <glyph glyph-name="J" unicode="J" horiz-adv-x="1041" 
d="M413 -20q-128 0 -233.5 54.5t-173.5 153.5l138 141q117 -155 268 -155q121 0 188.5 82.5t67.5 231.5v870h210v-885q0 -232 -123.5 -362.5t-341.5 -130.5z" />
    <glyph glyph-name="K" unicode="K" horiz-adv-x="1310" 
d="M176 0v1358h210v-675l622 675h271l-510 -554l544 -804h-256l-436 662l-235 -253v-409h-210z" />
    <glyph glyph-name="L" unicode="L" horiz-adv-x="1193" 
d="M1160 191v-191h-984v1358h211v-1167h773z" />
    <glyph glyph-name="M" unicode="M" horiz-adv-x="1788" 
d="M176 0v1358h249l469 -966l470 966h248v-1358h-212v973l-431 -877h-150l-431 877v-973h-212z" />
    <glyph glyph-name="N" unicode="N" horiz-adv-x="1599" 
d="M386 0h-210v1358h210l827 -1035v1035h210v-1358h-212l-825 1025v-1025z" />
    <glyph glyph-name="O" unicode="O" horiz-adv-x="1579" 
d="M789 -20q-198 0 -358 88t-251.5 247.5t-91.5 361.5q0 200 91.5 361t251.5 250.5t358 89.5q149 0 279.5 -52.5t223 -145t146 -223t53.5 -280.5q0 -202 -91 -361.5t-251 -247.5t-360 -88zM308 679q0 -224 133 -362t348 -138q218 0 350 137.5t132 362.5q0 221 -132.5 360.5
t-349.5 139.5q-214 0 -347.5 -140t-133.5 -360z" />
    <glyph glyph-name="P" unicode="P" horiz-adv-x="1250" 
d="M386 0h-210v1357h558q209 0 335 -117.5t126 -307.5q0 -188 -126.5 -307t-334.5 -119h-348v-506zM386 1166v-468h339q119 0 185 66t66 168q0 103 -65.5 168.5t-185.5 65.5h-339z" />
    <glyph glyph-name="Q" unicode="Q" horiz-adv-x="1580" 
d="M789 -20q-198 0 -358 88t-251.5 247.5t-91.5 361.5q0 200 91.5 361t251.5 250.5t358 89.5q149 0 279.5 -52.5t223 -145t146 -223t53.5 -280.5q0 -165 -61.5 -301.5t-172.5 -231.5l162 -219l-156 -108l-167 226q-141 -63 -307 -63zM789 1179q-214 0 -347.5 -140
t-133.5 -360q0 -224 133 -362t348 -138q96 0 183 30l-153 207l154 112l160 -217q138 138 138 368q0 221 -132.5 360.5t-349.5 139.5z" />
    <glyph glyph-name="R" unicode="R" horiz-adv-x="1333" 
d="M176 1357h584q211 0 336.5 -111t125.5 -301q0 -138 -73.5 -238t-201.5 -145l329 -562h-244l-307 533h-339v-533h-210v1357zM750 1168h-364v-448h364q122 0 187.5 61.5t65.5 163.5q0 104 -65 163.5t-188 59.5z" />
    <glyph glyph-name="S" unicode="S" horiz-adv-x="1202" 
d="M92 288l157 109q51 -105 146 -166.5t228 -61.5q120 0 199.5 53t79.5 141q0 80 -71 127.5t-237 100.5q-89 29 -148.5 52t-124 58.5t-101.5 75t-61.5 96.5t-23.5 127q1 72 27.5 134t71 106.5t103.5 76t125 46.5t135 15q176 0 300 -79.5t187 -200.5l-163 -114
q-48 88 -131.5 145.5t-192.5 57.5q-103 0 -177 -50t-74 -136q0 -34 12 -60t35 -46t57 -36.5t77.5 -32.5t96.5 -34q17 -5 25 -8q194 -66 269 -107q146 -80 181 -206q14 -48 14 -106q0 -93 -43 -168.5t-113 -121.5t-155 -70.5t-175 -24.5q-192 0 -332.5 86t-202.5 222z" />
    <glyph glyph-name="T" unicode="T" horiz-adv-x="1160" 
d="M28 1161v197h1104v-197h-447v-1161h-209v1161h-448z" />
    <glyph glyph-name="U" unicode="U" horiz-adv-x="1463" 
d="M732 -20q-261 0 -416 139t-155 372v867h208v-858q0 -149 98.5 -237t264.5 -88t264 88t98 237v858h208v-867q0 -233 -154.5 -372t-415.5 -139z" />
    <glyph glyph-name="V" unicode="V" horiz-adv-x="1328" 
d="M539 0l-523 1358h219l429 -1134l429 1134h219l-523 -1358h-250z" />
    <glyph glyph-name="W" unicode="W" horiz-adv-x="2039" 
d="M30 1358h210l338 -1169l329 1147h225l329 -1147l337 1169h211l-378 -1358h-339l-273 1006l-272 -1006h-339z" />
    <glyph glyph-name="X" unicode="X" horiz-adv-x="1286" 
d="M5 0l502 698l-477 660h262l351 -501l349 501h263l-476 -660l502 -698h-263l-375 532l-375 -532h-263z" />
    <glyph glyph-name="Y" unicode="Y" horiz-adv-x="1269" 
d="M15 1358h250l369 -614l370 614h250l-515 -836v-522h-209v522z" />
    <glyph glyph-name="Z" unicode="Z" horiz-adv-x="1206" 
d="M80 0v166l765 1001h-755v191h1029v-169l-767 -998h777v-191h-1049z" />
    <glyph glyph-name="bracketleft" unicode="[" horiz-adv-x="651" 
d="M611 -400h-438v1953h438v-143h-253v-1667h253v-143z" />
    <glyph glyph-name="backslash" unicode="\" horiz-adv-x="1078" 
d="M38 1529h215l785 -1929h-214z" />
    <glyph glyph-name="bracketright" unicode="]" horiz-adv-x="651" 
d="M293 1410h-253v143h438v-1953h-438v143h253v1667z" />
    <glyph glyph-name="asciicircum" unicode="^" horiz-adv-x="1155" 
d="M55 510l418 848h209l418 -848h-243l-280 598l-279 -598h-243z" />
    <glyph glyph-name="underscore" unicode="_" horiz-adv-x="1139" 
d="M1051 -259h-963v170h963v-170z" />
    <glyph glyph-name="grave" unicode="`" horiz-adv-x="674" 
d="M353 1473l-203 334h222l152 -334h-171z" />
    <glyph glyph-name="a" unicode="a" horiz-adv-x="1091" 
d="M288 280q0 -64 56.5 -101t143.5 -37q115 0 190.5 69t75.5 169q-35 18 -100 32t-137 14q-101 0 -165 -36t-64 -110zM88 273q0 135 117.5 219.5t306.5 84.5q148 0 242 -45v52q0 91 -68 150.5t-178 59.5q-82 0 -154 -38.5t-121 -94.5l-125 124q62 79 171.5 137t231.5 58
q203 0 322 -102t119 -277v-601h-194v124q-44 -68 -123 -106t-176 -38q-162 0 -266.5 78t-104.5 215z" />
    <glyph glyph-name="b" unicode="b" horiz-adv-x="1257" 
d="M152 0v1408h198v-579q118 151 342 151q207 0 344.5 -138t137.5 -357q0 -220 -138 -362.5t-344 -142.5q-224 0 -342 151v-131h-198zM351 485q0 -135 90.5 -231t226.5 -96t222 95.5t86 231.5q0 135 -86 226t-222 91q-137 0 -227 -91.5t-90 -225.5z" />
    <glyph glyph-name="c" unicode="c" horiz-adv-x="1097" 
d="M590 -20q-217 0 -363 145t-146 356q0 138 68.5 253t187 180.5t261.5 65.5q141 0 255 -69.5t182 -193.5l-153 -104q-45 84 -122 132.5t-166 48.5q-137 0 -225 -89.5t-88 -223.5t88 -224.5t221 -90.5q93 0 169 47t126 133l149 -105q-67 -121 -184 -191t-260 -70z" />
    <glyph glyph-name="d" unicode="d" horiz-adv-x="1257" 
d="M83 485q0 219 137.5 357t344.5 138q224 0 342 -151v579h198v-1408h-198v131q-118 -151 -342 -151q-206 0 -344 142.5t-138 362.5zM589 802q-136 0 -222 -91t-86 -226q0 -136 86 -231.5t222 -95.5t226.5 96t90.5 231q0 134 -90 225.5t-227 91.5z" />
    <glyph glyph-name="e" unicode="e" horiz-adv-x="1123" 
d="M292 571h547q-9 101 -84 165.5t-179 64.5q-109 0 -187 -64t-97 -166zM82 479q0 216 139.5 358.5t356.5 142.5q137 0 243 -62.5t162.5 -168t56.5 -234.5q0 -51 -8 -92h-745q7 -109 91 -183t207 -74q184 0 288 164l146 -106q-65 -116 -183.5 -180t-250.5 -64
q-217 0 -360 142.5t-143 356.5z" />
    <glyph glyph-name="f" unicode="f" horiz-adv-x="732" 
d="M224 792h-181v168h184v104q0 168 99 266t273 98q93 0 159 -35l-21 -164q-56 25 -129 25q-97 0 -143 -48.5t-46 -152.5v-93h283v-168h-280v-792h-198v792z" />
    <glyph glyph-name="g" unicode="g" horiz-adv-x="1257" 
d="M593 802q-136 0 -222 -91t-86 -226q0 -136 86 -231.5t222 -95.5t226.5 96t90.5 231q0 134 -90 225.5t-227 91.5zM569 -20q-206 0 -344 142.5t-138 362.5q0 219 137.5 357t344.5 138q224 0 342 -151v131h198v-885q0 -227 -143 -361t-385 -134q-132 0 -249.5 53.5
t-199.5 152.5l130 129q142 -155 323 -155q148 0 237 79.5t89 210.5v81q-116 -151 -342 -151z" />
    <glyph glyph-name="h" unicode="h" horiz-adv-x="1183" 
d="M350 0h-198v1408h199v-569q14 22 36.5 43.5t57.5 45t87.5 38t113.5 14.5q190 0 294 -109t104 -288v-583h-198v541q0 119 -61.5 185t-169.5 66q-114 0 -189.5 -67.5t-75.5 -183.5v-541z" />
    <glyph glyph-name="i" unicode="i" horiz-adv-x="502" 
d="M350 0h-198v960h198v-960zM129 1282q0 54 34 88t88 34t88.5 -34t34.5 -88t-34.5 -88t-88.5 -34t-88 34t-34 88z" />
    <glyph glyph-name="j" unicode="j" horiz-adv-x="512" 
d="M25 -420q-95 0 -159 30l21 164q52 -20 124 -20q79 0 115 46t36 145v1015h198v-1026q0 -168 -84 -261t-251 -93zM261 1160q-54 0 -88 34t-34 88t34 88t88 34t88.5 -34t34.5 -88t-34.5 -88t-88.5 -34z" />
    <glyph glyph-name="k" unicode="k" horiz-adv-x="1065" 
d="M152 1408h200v-865l419 417h272l-413 -402l429 -558h-251l-322 419l-134 -134v-285h-200v1408z" />
    <glyph glyph-name="l" unicode="l" horiz-adv-x="502" 
d="M350 1408v-1408h-198v1408h198z" />
    <glyph glyph-name="m" unicode="m" horiz-adv-x="1860" 
d="M152 0v960h199v-121q14 22 36 43.5t57 45t86.5 38t111.5 14.5q121 0 208 -47t134 -132q47 77 137 128t206 51q188 0 291 -109t103 -288v-583h-199v541q0 119 -60 185t-166 66q-109 0 -182.5 -64.5t-77.5 -174.5v-553h-199v541q0 119 -60 185t-166 66q-111 0 -185.5 -67.5
t-74.5 -183.5v-541h-199z" />
    <glyph glyph-name="n" unicode="n" horiz-adv-x="1188" 
d="M350 0h-198v960h199v-121q14 22 36.5 43.5t57.5 45t87.5 38t113.5 14.5q193 0 298 -108.5t105 -288.5v-583h-198v541q0 119 -62 185t-174 66q-114 0 -189.5 -67.5t-75.5 -183.5v-541z" />
    <glyph glyph-name="o" unicode="o" horiz-adv-x="1182" 
d="M591 -20q-218 0 -364 144t-146 356t146 356t364 144t364 -144t146 -356t-146 -356t-364 -144zM279 480q0 -134 88.5 -224t223.5 -90t223.5 90t88.5 224t-88.5 224t-223.5 90t-223.5 -90t-88.5 -224z" />
    <glyph glyph-name="p" unicode="p" horiz-adv-x="1257" 
d="M351 475q0 -134 90 -225.5t227 -91.5q136 0 222 91t86 226q0 136 -86 231.5t-222 95.5t-226.5 -96t-90.5 -231zM350 -400h-198v1360h198v-131q118 151 342 151q206 0 344 -142.5t138 -362.5q0 -219 -137.5 -357t-344.5 -138q-224 0 -342 151v-531z" />
    <glyph glyph-name="q" unicode="q" horiz-adv-x="1253" 
d="M281 475q0 -135 86 -226t222 -91q137 0 227 91.5t90 225.5q0 135 -90.5 231t-226.5 96t-222 -95.5t-86 -231.5zM83 475q0 220 138 362.5t344 142.5q224 0 342 -151v131h198v-1360h-198v531q-118 -151 -342 -151q-207 0 -344.5 138t-137.5 357z" />
    <glyph glyph-name="r" unicode="r" horiz-adv-x="769" 
d="M351 0h-199v960h199v-131q78 151 250 151q33 0 66 -6t49 -12l17 -6l-21 -182q-60 22 -117 22q-44 0 -83.5 -13t-77.5 -41.5t-60.5 -85t-22.5 -133.5v-523z" />
    <glyph glyph-name="s" unicode="s" horiz-adv-x="962" 
d="M78 202l147 119q42 -74 111 -116.5t157 -42.5q79 0 129.5 29t50.5 77q0 50 -43 74.5t-157 50.5q-85 19 -143.5 40.5t-109 55.5t-75.5 85t-25 120q0 128 102 207t253 79q127 0 227.5 -56.5t152.5 -141.5l-133 -114q-92 131 -247 131q-72 0 -115.5 -28t-43.5 -74
q0 -22 9.5 -38.5t23.5 -28t44.5 -22.5t57.5 -18.5t77 -19.5q85 -21 143 -43.5t106.5 -57.5t72 -84.5t23.5 -116.5q0 -128 -111 -208t-269 -80q-139 0 -249 59.5t-166 162.5z" />
    <glyph glyph-name="t" unicode="t" horiz-adv-x="782" 
d="M210 792h-171v168h174v308h193v-308h305v-168h-303v-480q0 -75 41 -114t116 -39q78 0 156 33l26 -170q-81 -42 -210 -42q-152 0 -239.5 81.5t-87.5 226.5v504z" />
    <glyph glyph-name="u" unicode="u" horiz-adv-x="1191" 
d="M139 960h198v-541q0 -119 62 -185t172 -66q117 0 193.5 67.5t76.5 183.5v541h198v-960h-199v121q-14 -22 -36.5 -43.5t-58 -45t-89.5 -38t-116 -14.5q-192 0 -296.5 108.5t-104.5 288.5v583z" />
    <glyph glyph-name="v" unicode="v" horiz-adv-x="1054" 
d="M409 0l-378 960h213l283 -766l283 766h213l-378 -960h-236z" />
    <glyph glyph-name="w" unicode="w" horiz-adv-x="1576" 
d="M322 0l-283 960h209l211 -766l224 756h210l224 -756l211 766h209l-283 -960h-270l-196 683l-196 -683h-270z" />
    <glyph glyph-name="x" unicode="x" horiz-adv-x="1020" 
d="M25 0l362 490l-354 470h228l249 -338l249 338h228l-354 -470l362 -490h-228l-257 359l-257 -359h-228z" />
    <glyph glyph-name="y" unicode="y" horiz-adv-x="1080" 
d="M438 -14l-414 974h218l299 -756l297 756h218l-460 -1082q-26 -59 -48.5 -100t-56 -81t-72 -64t-93.5 -38.5t-124 -14.5q-93 0 -159 35l21 164q56 -25 129 -25q91 0 140 43t84 134z" />
    <glyph glyph-name="z" unicode="z" horiz-adv-x="903" 
d="M83 0v165l495 627h-485v168h710v-165l-495 -627h526v-168h-751z" />
    <glyph glyph-name="braceleft" unicode="{" horiz-adv-x="703" 
d="M36 499v156q16 -1 42 1q91 8 123 50.5t32 125.5v375q0 181 80.5 274t278.5 93q32 0 70 -3v-158q-73 2 -119 -7t-79.5 -35.5t-47.5 -75.5t-14 -128v-349q0 -195 -108 -241q118 -58 118 -240v-336q0 -87 11 -137.5t42 -79t75.5 -36.5t121.5 -6v-157q-39 -4 -70 -4
q-102 0 -173 27t-111 79t-57.5 118.5t-17.5 155.5v361q0 83 -31.5 125.5t-120.5 50.5q-28 2 -45 1z" />
    <glyph glyph-name="bar" unicode="|" horiz-adv-x="539" 
d="M366 1758v-2158h-193v2158h193z" />
    <glyph glyph-name="braceright" unicode="}" horiz-adv-x="703" 
d="M301 1167q0 79 -14 128t-47.5 75.5t-79.5 35.5t-119 7v158q37 3 70 3q198 0 278.5 -93t80.5 -274v-375q0 -83 32 -125.5t123 -50.5q26 -2 42 -1v-156q-17 1 -45 -1q-89 -8 -120.5 -50.5t-31.5 -125.5v-361q0 -89 -17.5 -155.5t-57.5 -118.5t-111 -79t-173 -27
q-31 0 -70 4v157q77 -2 121.5 6t75.5 36.5t42 79t11 137.5v336q0 182 118 240q-108 46 -108 241v349z" />
    <glyph glyph-name="asciitilde" unicode="~" horiz-adv-x="1163" 
d="M211 442l-121 156q169 148 310 148q61 0 111 -16t79 -35t74.5 -35t97.5 -16q37 0 71 12t54.5 25t64.5 44l121 -156q-169 -148 -310 -148q-59 0 -108 16t-77.5 35.5t-75 35.5t-100.5 16q-81 0 -191 -82z" />
    <glyph glyph-name="uni00A0" unicode="&#xa0;" horiz-adv-x="470" 
 />
    <glyph glyph-name="exclamdown" unicode="&#xa1;" horiz-adv-x="520" 
d="M383 -398h-241l31 990h172zM256 735q-52 0 -87 35.5t-35 86.5t35 87t87 36t87.5 -36t35.5 -87t-35.5 -86.5t-87.5 -35.5z" />
    <glyph glyph-name="cent" unicode="&#xa2;" horiz-adv-x="1156" 
d="M108 680q0 181 114 316.5t291 171.5v173h171v-165q122 -14 220 -81.5t158 -178.5l-153 -104q-37 68 -96 114t-129 60v-614q144 29 228 173l149 -105q-59 -106 -157.5 -173.5t-219.5 -83.5v-183h-171v189q-178 34 -291.5 171t-113.5 320zM513 976q-94 -32 -149.5 -112
t-55.5 -184t56 -185t149 -113v594z" />
    <glyph glyph-name="sterling" unicode="&#xa3;" horiz-adv-x="1206" 
d="M1088 0h-1000v174q63 38 102 73t64.5 87.5t25.5 119.5v149h-185v178h182v184q0 190 122 302.5t311 112.5q148 0 266.5 -78.5t166.5 -222.5l-174 -89q-88 192 -260 192q-109 0 -171.5 -62t-62.5 -169v-170h384v-178h-383v-118q0 -198 -120 -296h732v-189z" />
    <glyph glyph-name="currency" unicode="&#xa4;" horiz-adv-x="1221" 
d="M97 1023l147 147l169 -170q93 53 196 53q105 0 200 -53l168 170l147 -147l-170 -169q52 -90 52 -193q0 -109 -57 -198l175 -173l-147 -147l-175 177q-93 -48 -193 -48q-98 0 -188 48l-177 -177l-147 147l174 173q-54 92 -54 198q0 105 51 193zM608 887q-92 0 -157.5 -66
t-65.5 -160q0 -91 65.5 -155.5t157.5 -64.5q95 0 162.5 64.5t67.5 155.5q0 94 -67.5 160t-162.5 66z" />
    <glyph glyph-name="yen" unicode="&#xa5;" horiz-adv-x="1364" 
d="M250 478v154h257l-464 726h250l389 -623l390 623h250l-465 -726h255v-154h-325v-109h325v-154h-325v-215h-209v215h-328v154h328v109h-328z" />
    <glyph glyph-name="brokenbar" unicode="&#xa6;" horiz-adv-x="539" 
d="M366 910h-193v848h193v-848zM173 449h193v-848h-193v848z" />
    <glyph glyph-name="section" unicode="&#xa7;" horiz-adv-x="1124" 
d="M553 -342q-171 0 -289.5 75.5t-179.5 195.5l147 106q118 -199 328 -199q111 0 179 45.5t68 122.5q0 76 -65.5 120t-223.5 92q-79 25 -131 44.5t-111 51.5t-92.5 67t-56 87.5t-22.5 116.5q0 129 125 215q-102 91 -102 233q0 145 123 246t299 101q165 0 281 -71.5
t175 -181.5l-143 -103q-46 75 -128 125t-185 50q-100 0 -159 -48t-59 -117q0 -76 66.5 -120t225.5 -92q78 -24 131.5 -44t111 -51.5t92 -67t56.5 -88t22 -116.5q0 -65 -33.5 -120t-91.5 -94q102 -91 102 -234q0 -147 -129.5 -247t-330.5 -100zM561 645q-113 33 -191 67
q-70 -47 -70 -119q0 -69 65.5 -113t213.5 -88q112 -32 192 -67q69 48 69 118q0 69 -65.5 113.5t-213.5 88.5z" />
    <glyph glyph-name="dieresis" unicode="&#xa8;" horiz-adv-x="894" 
d="M501 1618q0 54 34 88t88 34t88.5 -34t34.5 -88t-34.5 -88t-88.5 -34t-88 34t-34 88zM148 1618q0 54 34 88t88 34t88.5 -34t34.5 -88t-34.5 -88t-88.5 -34t-88 34t-34 88z" />
    <glyph glyph-name="copyright" unicode="&#xa9;" horiz-adv-x="1676" 
d="M109 680q0 146 60.5 276.5t160 222.5t232.5 145.5t275 53.5q192 0 359 -90.5t269 -252.5t102 -355q0 -147 -60 -278.5t-159.5 -223t-233 -145t-277.5 -53.5t-277.5 54t-232.5 146.5t-158.5 223.5t-59.5 276zM205 680q0 -128 51.5 -242.5t137 -196t202 -129t241.5 -47.5
t241.5 48t202.5 130t138 196.5t52 240.5q0 168 -87.5 310t-233.5 223.5t-313 81.5t-312 -81.5t-232.5 -223.5t-87.5 -310zM435 678q0 168 115 281.5t291 113.5q105 0 191.5 -50t137.5 -137l-70 -49q-94 148 -260 148q-133 0 -222 -88.5t-89 -218.5q0 -127 88 -215t220 -88
q82 0 152.5 40.5t114.5 107.5l69 -49q-51 -86 -141.5 -136.5t-195.5 -50.5q-171 0 -286 113t-115 278z" />
    <glyph glyph-name="ordfeminine" unicode="&#xaa;" horiz-adv-x="822" 
d="M367 750q-103 0 -169.5 49t-66.5 135t74.5 139t195.5 53q83 0 147 -27v30q0 54 -41.5 89t-108.5 35q-97 0 -171 -80l-83 87q39 48 108.5 83t147.5 35q129 0 204.5 -64t75.5 -174v-378h-130v78q-27 -42 -75.5 -66t-107.5 -24zM685 515h-554v140h554v-140zM267 938
q0 -37 33.5 -58.5t85.5 -21.5q70 0 116 40.5t46 97.5q-56 29 -144 29q-60 0 -98.5 -22t-38.5 -65z" />
    <glyph glyph-name="guillemotleft" unicode="&#xab;" horiz-adv-x="1066" 
d="M493 480l272 395h210l-254 -395l254 -394h-210zM365 86l-272 394l272 395h210l-254 -395l254 -394h-210z" />
    <glyph glyph-name="logicalnot" unicode="&#xac;" horiz-adv-x="1304" 
d="M961 408v373h-888v197h1096v-570h-208z" />
    <glyph glyph-name="uni00AD" unicode="&#xad;" horiz-adv-x="819" 
d="M693 667v-184h-567v184h567z" />
    <glyph glyph-name="registered" unicode="&#xae;" horiz-adv-x="1276" 
d="M635 541q-148 0 -270.5 68t-192.5 186t-70 260t70 260t192.5 185.5t270.5 67.5q149 0 273 -67.5t195.5 -185.5t71.5 -260t-71.5 -260.5t-195.5 -186t-273 -67.5zM635 1488q-186 0 -314.5 -125.5t-128.5 -307.5q0 -181 128.5 -305.5t314.5 -124.5q188 0 319 124.5
t131 305.5q0 182 -130.5 307.5t-319.5 125.5zM445 805v506h216q80 0 127.5 -42t47.5 -113q0 -52 -26.5 -89t-71.5 -51l123 -211h-99l-110 197h-122v-197h-85zM530 1078h129q43 0 66 21t23 57t-23 57.5t-66 21.5h-129v-157z" />
    <glyph glyph-name="macron" unicode="&#xaf;" horiz-adv-x="891" 
d="M741 1675v-144h-591v144h591z" />
    <glyph glyph-name="degree" unicode="&#xb0;" horiz-adv-x="875" 
d="M436 678q-158 0 -257 96.5t-99 251.5q0 157 99 254.5t257 97.5q160 0 259.5 -97.5t99.5 -254.5q0 -155 -99.5 -251.5t-259.5 -96.5zM234 1025q0 -92 56 -149t146 -57q89 0 144.5 57t55.5 149q0 95 -55.5 153.5t-144.5 58.5q-90 0 -146 -59t-56 -153z" />
    <glyph glyph-name="plusminus" unicode="&#xb1;" horiz-adv-x="1277" 
d="M127 995h407v361h208v-361h409v-197h-409v-368h-208v368h-407v197zM111 44v199h1054v-199h-1054z" />
    <glyph glyph-name="twosuperior" unicode="&#xb2;" horiz-adv-x="745" 
d="M65 1156q33 99 115 160.5t178 61.5q127 0 212 -77t85 -205q0 -33 -7.5 -62.5t-25.5 -56t-33.5 -46t-45 -43.5t-46 -36.5t-51 -36t-45.5 -31.5q-8 -6 -34 -24t-37.5 -26.5t-27.5 -22t-24 -24.5h391v-153h-592v72q1 29 9 56.5t18 48.5t29.5 44.5t33.5 38t40.5 36t40.5 32
t44 31.5t42 29q80 57 113.5 93.5t33.5 84.5q0 58 -33.5 91.5t-87.5 33.5q-49 0 -91 -38t-64 -104z" />
    <glyph glyph-name="threesuperior" unicode="&#xb3;" horiz-adv-x="753" 
d="M64 723l139 80q22 -61 70.5 -99t101.5 -38q55 0 88 29.5t33 74.5q0 54 -39.5 86.5t-99.5 32.5h-129v131h129q54 0 87.5 29.5t33.5 77.5q0 43 -32.5 70.5t-83.5 27.5q-57 0 -98.5 -35.5t-62.5 -93.5l-137 80q34 86 110.5 144t185.5 58q125 0 210.5 -66t85.5 -183
q0 -54 -31 -101.5t-78 -70.5q54 -23 91 -75.5t37 -113.5q0 -118 -88 -186t-209 -68q-108 0 -191.5 55t-122.5 154z" />
    <glyph glyph-name="acute" unicode="&#xb4;" horiz-adv-x="674" 
d="M524 1807l-203 -334h-171l152 334h222z" />
    <glyph glyph-name="paragraph" unicode="&#xb6;" horiz-adv-x="1277" 
d="M534 453q-205 0 -341 126.5t-136 326.5t136 326t341 126h637v-123h-347v-1635h-151v853h-139zM970 -400v1499h136v-1499h-136z" />
    <glyph glyph-name="periodcentered" unicode="&#xb7;" horiz-adv-x="479" 
d="M117 464q0 51 35 87t87 36t87.5 -36t35.5 -87t-35.5 -86.5t-87.5 -35.5t-87 35.5t-35 86.5z" />
    <glyph glyph-name="cedilla" unicode="&#xb8;" horiz-adv-x="678" 
d="M100 -422l35 123q55 -26 123 -26q116 0 116 66q0 69 -130 69h-69l84 217h118l-36 -118q96 -8 150.5 -53t54.5 -118q0 -91 -73.5 -143t-203.5 -52q-101 0 -169 35z" />
    <glyph glyph-name="onesuperior" unicode="&#xb9;" horiz-adv-x="482" 
d="M35 1358h324v-824h-153v671h-170z" />
    <glyph glyph-name="ordmasculine" unicode="&#xba;" horiz-adv-x="896" 
d="M126 1066q0 138 90.5 225t230.5 87q141 0 232 -87t91 -225q0 -136 -91 -222t-232 -86q-140 0 -230.5 86t-90.5 222zM279 1065q0 -74 46.5 -120t121.5 -46q74 0 119.5 46t45.5 120q0 77 -46 124.5t-119 47.5q-75 0 -121.5 -47.5t-46.5 -124.5zM136 655h624v-140h-624v140z
" />
    <glyph glyph-name="guillemotright" unicode="&#xbb;" horiz-adv-x="1066" 
d="M701 86h-210l254 394l-254 395h210l272 -395zM345 480l-254 395h210l272 -395l-272 -394h-210z" />
    <glyph glyph-name="onequarter" unicode="&#xbc;" horiz-adv-x="1573" 
d="M824 322l387 502h166v-482h118v-144h-118v-198h-153v197h-400v125zM269 26l734 1332h145v-24l-732 -1334h-147v26zM84 1201l-1 153h324v-824h-153v671h-170zM1224 602l-200 -260h200v260z" />
    <glyph glyph-name="onehalf" unicode="&#xbd;" horiz-adv-x="1671" 
d="M1113 549l-140 73q33 99 115 160.5t178 61.5q127 0 212 -77t85 -205q0 -33 -7.5 -62.5t-25.5 -56t-33.5 -46t-45 -43.5t-46 -36.5t-51 -36t-45.5 -31.5q-8 -6 -34 -24t-37.5 -26.5t-27.5 -22t-24 -24.5h391v-153h-592v72q1 29 9 56.5t18 48.5t29.5 44.5t33.5 38t40.5 36
t40.5 32t44 31.5t42 29q80 57 113.5 93.5t33.5 84.5q0 58 -33.5 91.5t-87.5 33.5q-49 0 -91 -38t-64 -104zM446 0h-147v26l734 1332h145v-24zM83 1354h324v-824h-153v671h-170z" />
    <glyph glyph-name="threequarters" unicode="&#xbe;" horiz-adv-x="1821" 
d="M424 520q-108 0 -191.5 55t-122.5 154l139 80q22 -61 70.5 -99t101.5 -38q55 0 88 29.5t33 74.5q0 54 -39.5 86.5t-99.5 32.5h-129v131h129q54 0 87.5 29.5t33.5 77.5q0 43 -32.5 70.5t-83.5 27.5q-57 0 -98.5 -35.5t-62.5 -93.5l-137 80q34 86 110.5 144t185.5 58
q125 0 210.5 -66t85.5 -183q0 -54 -31 -101.5t-78 -70.5q54 -23 91 -75.5t37 -113.5q0 -118 -88 -186t-209 -68zM1087 197v125l387 502h166v-482h118v-144h-118v-198h-153v197h-400zM522 26l734 1332h145v-24l-732 -1334h-147v26zM1287 342h200v260z" />
    <glyph glyph-name="questiondown" unicode="&#xbf;" horiz-adv-x="1000" 
d="M506 -416q-192 0 -312 105.5t-120 274.5q0 58 18.5 111.5t52.5 101t69 85.5t81 83q12 11 18 17q41 41 57.5 59.5t40 54.5t30.5 75t3 90h191q8 -41 8 -76q0 -41 -12 -81t-24.5 -66.5t-44.5 -66.5t-47.5 -56.5t-56.5 -60.5q-96 -101 -121 -137q-43 -62 -43 -129
q0 -83 59 -134t156 -51q94 0 162 55.5t107 146.5l177 -85q-50 -142 -173.5 -229t-275.5 -87zM535 738q-54 0 -88.5 34t-34.5 88t34.5 88t88.5 34t88 -34t34 -88t-34 -88t-88 -34z" />
    <glyph glyph-name="Agrave" unicode="&#xc0;" horiz-adv-x="1370" 
d="M10 0l561 1358h228l561 -1358h-224l-108 283h-686l-108 -283h-224zM685 1123l-280 -665h560zM392 1807h222l152 -334h-171z" />
    <glyph glyph-name="Aacute" unicode="&#xc1;" horiz-adv-x="1370" 
d="M234 0h-224l561 1358h228l561 -1358h-224l-108 283h-686zM685 1123l-280 -665h560zM594 1473l152 334h222l-203 -334h-171z" />
    <glyph glyph-name="Acircumflex" unicode="&#xc2;" horiz-adv-x="1370" 
d="M234 0h-224l561 1358h228l561 -1358h-224l-108 283h-686zM685 1123l-280 -665h560zM361 1471l287 370h74l287 -370h-189l-135 187l-135 -187h-189z" />
    <glyph glyph-name="Atilde" unicode="&#xc3;" horiz-adv-x="1370" 
d="M10 0l561 1358h228l561 -1358h-224l-108 283h-686l-108 -283h-224zM685 1123l-280 -665h560zM344 1607q96 160 217 160q47 0 87.5 -20.5t76.5 -41t72 -20.5q43 0 71.5 18t61.5 64l95 -95q-49 -80 -101.5 -114.5t-128.5 -34.5q-43 0 -83.5 19.5t-75.5 38.5t-64 19
q-38 0 -62.5 -17t-62.5 -63z" />
    <glyph glyph-name="Adieresis" unicode="&#xc4;" horiz-adv-x="1370" 
d="M234 0h-224l561 1358h228l561 -1358h-224l-108 283h-686zM405 458h560l-280 665zM739 1618q0 54 34 88t88 34t88.5 -34t34.5 -88t-34.5 -88t-88.5 -34t-88 34t-34 88zM508 1496q-54 0 -88 34t-34 88t34 88t88 34t88.5 -34t34.5 -88t-34.5 -88t-88.5 -34z" />
    <glyph glyph-name="Aring" unicode="&#xc5;" horiz-adv-x="1370" 
d="M234 0h-224l561 1358h228l561 -1358h-224l-108 283h-686zM405 458h560l-280 665zM685 1497q-92 0 -149 54t-57 141q0 88 57 143t149 55t149 -55t57 -143q0 -87 -57 -141t-149 -54zM685 1778q-39 0 -62.5 -24t-23.5 -63q0 -36 23.5 -58.5t62.5 -22.5q38 0 61.5 22.5
t23.5 58.5q0 39 -23.5 63t-61.5 24z" />
    <glyph glyph-name="AE" unicode="&#xc6;" horiz-adv-x="1979" 
d="M186 0h-230l836 1358h1079v-191h-742v-374h637v-191h-637v-411h763v-191h-973v283h-555zM919 1167l-445 -709h445v709z" />
    <glyph glyph-name="Ccedilla" unicode="&#xc7;" horiz-adv-x="1439" 
d="M715 -16q-177 17 -320.5 111.5t-225.5 247.5t-82 336q0 195 92 355.5t252 252t354 91.5q185 0 342 -87t255 -244l-163 -114q-163 246 -434 246q-209 0 -343.5 -141t-134.5 -359t136.5 -359t346.5 -141q135 0 247.5 61.5t192.5 178.5l157 -109q-90 -146 -234 -232
t-317 -97l-22 -72q96 -8 150.5 -53t54.5 -118q0 -91 -73.5 -143t-203.5 -52q-101 0 -169 35l35 123q55 -26 123 -26q116 0 116 66q0 69 -130 69h-69z" />
    <glyph glyph-name="Egrave" unicode="&#xc8;" horiz-adv-x="1236" 
d="M1149 0h-973v1358h952v-191h-742v-374h637v-191h-637v-411h763v-191zM395 1807h222l152 -334h-171z" />
    <glyph glyph-name="Eacute" unicode="&#xc9;" horiz-adv-x="1236" 
d="M1149 0h-973v1358h952v-191h-742v-374h637v-191h-637v-411h763v-191zM580 1473l152 334h222l-203 -334h-171z" />
    <glyph glyph-name="Ecircumflex" unicode="&#xca;" horiz-adv-x="1236" 
d="M176 1358h952v-191h-742v-374h637v-191h-637v-411h763v-191h-973v1358zM540 1471h-189l287 370h74l287 -370h-189l-135 187z" />
    <glyph glyph-name="Edieresis" unicode="&#xcb;" horiz-adv-x="1236" 
d="M176 1358h952v-191h-742v-374h637v-191h-637v-411h763v-191h-973v1358zM863 1496q-54 0 -88 34t-34 88t34 88t88 34t88.5 -34t34.5 -88t-34.5 -88t-88.5 -34zM388 1618q0 54 34 88t88 34t88.5 -34t34.5 -88t-34.5 -88t-88.5 -34t-88 34t-34 88z" />
    <glyph glyph-name="Igrave" unicode="&#xcc;" horiz-adv-x="562" 
d="M386 1358v-1358h-210v1358h210zM191 1473l-203 334h222l152 -334h-171z" />
    <glyph glyph-name="Iacute" unicode="&#xcd;" horiz-adv-x="562" 
d="M386 1358v-1358h-210v1358h210zM574 1807l-203 -334h-171l152 334h222z" />
    <glyph glyph-name="Icircumflex" unicode="&#xce;" horiz-adv-x="562" 
d="M176 1358h210v-1358h-210v1358zM-43 1471l287 370h74l287 -370h-189l-135 187l-135 -187h-189z" />
    <glyph glyph-name="Idieresis" unicode="&#xcf;" horiz-adv-x="562" 
d="M176 1358h210v-1358h-210v1358zM335 1618q0 54 34 88t88 34t88.5 -34t34.5 -88t-34.5 -88t-88.5 -34t-88 34t-34 88zM104 1496q-54 0 -88 34t-34 88t34 88t88 34t88.5 -34t34.5 -88t-34.5 -88t-88.5 -34z" />
    <glyph glyph-name="Eth" unicode="&#xd0;" horiz-adv-x="1520" 
d="M188 603h-135v184h135v570h546q199 0 358.5 -88t249.5 -243.5t90 -347.5q0 -193 -90 -348t-249.5 -242.5t-358.5 -87.5h-546v603zM850 603h-452v-413h333q141 0 251.5 64.5t170 175.5t59.5 248q0 209 -134 350t-347 141h-333v-382h452v-184z" />
    <glyph glyph-name="Ntilde" unicode="&#xd1;" horiz-adv-x="1599" 
d="M176 0v1358h210l827 -1035v1035h210v-1358h-212l-825 1025v-1025h-210zM459 1607q96 160 217 160q47 0 87.5 -20.5t76.5 -41t72 -20.5q43 0 71.5 18t61.5 64l95 -95q-49 -80 -101.5 -114.5t-128.5 -34.5q-43 0 -83.5 19.5t-75.5 38.5t-64 19q-38 0 -62.5 -17t-62.5 -63z
" />
    <glyph glyph-name="Ograve" unicode="&#xd2;" horiz-adv-x="1579" 
d="M789 -20q-198 0 -358 88t-251.5 247.5t-91.5 361.5q0 200 91.5 361t251.5 250.5t358 89.5q149 0 279.5 -52.5t223 -145t146 -223t53.5 -280.5q0 -202 -91 -361.5t-251 -247.5t-360 -88zM308 679q0 -224 133 -362t348 -138q218 0 350 137.5t132 362.5q0 221 -132.5 360.5
t-349.5 139.5q-214 0 -347.5 -140t-133.5 -360zM488 1807h222l152 -334h-171z" />
    <glyph glyph-name="Oacute" unicode="&#xd3;" horiz-adv-x="1579" 
d="M88 677q0 200 91.5 361t251.5 250.5t358 89.5q149 0 279.5 -52.5t223 -145t146 -223t53.5 -280.5q0 -202 -91 -361.5t-251 -247.5t-360 -88q-198 0 -358 88t-251.5 247.5t-91.5 361.5zM789 1179q-214 0 -347.5 -140t-133.5 -360q0 -224 133 -362t348 -138
q218 0 350 137.5t132 362.5q0 221 -132.5 360.5t-349.5 139.5zM697 1473l152 334h222l-203 -334h-171z" />
    <glyph glyph-name="Ocircumflex" unicode="&#xd4;" horiz-adv-x="1579" 
d="M789 -20q-198 0 -358 88t-251.5 247.5t-91.5 361.5q0 200 91.5 361t251.5 250.5t358 89.5q149 0 279.5 -52.5t223 -145t146 -223t53.5 -280.5q0 -202 -91 -361.5t-251 -247.5t-360 -88zM789 1179q-214 0 -347.5 -140t-133.5 -360q0 -224 133 -362t348 -138
q218 0 350 137.5t132 362.5q0 221 -132.5 360.5t-349.5 139.5zM655 1471h-189l287 370h74l287 -370h-189l-135 187z" />
    <glyph glyph-name="Otilde" unicode="&#xd5;" horiz-adv-x="1579" 
d="M789 -20q-198 0 -358 88t-251.5 247.5t-91.5 361.5q0 200 91.5 361t251.5 250.5t358 89.5q149 0 279.5 -52.5t223 -145t146 -223t53.5 -280.5q0 -202 -91 -361.5t-251 -247.5t-360 -88zM308 679q0 -224 133 -362t348 -138q218 0 350 137.5t132 362.5q0 221 -132.5 360.5
t-349.5 139.5q-214 0 -347.5 -140t-133.5 -360zM449 1607q96 160 217 160q47 0 87.5 -20.5t76.5 -41t72 -20.5q43 0 71.5 18t61.5 64l95 -95q-49 -80 -101.5 -114.5t-128.5 -34.5q-43 0 -83.5 19.5t-75.5 38.5t-64 19q-38 0 -62.5 -17t-62.5 -63z" />
    <glyph glyph-name="Odieresis" unicode="&#xd6;" horiz-adv-x="1579" 
d="M88 677q0 200 91.5 361t251.5 250.5t358 89.5q149 0 279.5 -52.5t223 -145t146 -223t53.5 -280.5q0 -202 -91 -361.5t-251 -247.5t-360 -88q-198 0 -358 88t-251.5 247.5t-91.5 361.5zM308 679q0 -224 133 -362t348 -138q218 0 350 137.5t132 362.5q0 221 -132.5 360.5
t-349.5 139.5q-214 0 -347.5 -140t-133.5 -360zM844 1618q0 54 34 88t88 34t88.5 -34t34.5 -88t-34.5 -88t-88.5 -34t-88 34t-34 88zM613 1496q-54 0 -88 34t-34 88t34 88t88 34t88.5 -34t34.5 -88t-34.5 -88t-88.5 -34z" />
    <glyph glyph-name="multiply" unicode="&#xd7;" horiz-adv-x="1186" 
d="M92 322l357 357l-357 357l145 144l356 -357l357 357l144 -144l-357 -357l357 -357l-144 -144l-357 357l-357 -357z" />
    <glyph glyph-name="Oslash" unicode="&#xd8;" horiz-adv-x="1579" 
d="M311 154q-106 95 -164.5 229t-58.5 294q0 200 91.5 361t251.5 250.5t358 89.5q175 0 325 -72l119 170l153 -103l-119 -170q107 -95 165.5 -230.5t58.5 -295.5q0 -202 -91 -361.5t-251 -247.5t-360 -88q-178 0 -325 72l-117 -170l-153 103zM582 220q93 -41 207 -41
q218 0 350 137.5t132 362.5q0 213 -124 351zM432 327l565 811q-96 41 -208 41q-214 0 -347.5 -140t-133.5 -360q0 -215 124 -352z" />
    <glyph glyph-name="Ugrave" unicode="&#xd9;" horiz-adv-x="1463" 
d="M732 -20q-261 0 -416 139t-155 372v867h208v-858q0 -149 98.5 -237t264.5 -88t264 88t98 237v858h208v-867q0 -233 -154.5 -372t-415.5 -139zM442 1807h222l152 -334h-171z" />
    <glyph glyph-name="Uacute" unicode="&#xda;" horiz-adv-x="1463" 
d="M732 -20q-261 0 -416 139t-155 372v867h208v-858q0 -149 98.5 -237t264.5 -88t264 88t98 237v858h208v-867q0 -233 -154.5 -372t-415.5 -139zM811 1473h-171l152 334h222z" />
    <glyph glyph-name="Ucircumflex" unicode="&#xdb;" horiz-adv-x="1463" 
d="M161 491v867h208v-858q0 -149 98.5 -237t264.5 -88t264 88t98 237v858h208v-867q0 -233 -154.5 -372t-415.5 -139t-416 139t-155 372zM408 1471l287 370h74l287 -370h-189l-135 187l-135 -187h-189z" />
    <glyph glyph-name="Udieresis" unicode="&#xdc;" horiz-adv-x="1463" 
d="M161 1358h208v-858q0 -149 98.5 -237t264.5 -88t264 88t98 237v858h208v-867q0 -233 -154.5 -372t-415.5 -139t-416 139t-155 372v867zM908 1496q-54 0 -88 34t-34 88t34 88t88 34t88.5 -34t34.5 -88t-34.5 -88t-88.5 -34zM555 1496q-54 0 -88 34t-34 88t34 88t88 34
t88.5 -34t34.5 -88t-34.5 -88t-88.5 -34z" />
    <glyph glyph-name="Yacute" unicode="&#xdd;" horiz-adv-x="1269" 
d="M15 1358h250l369 -614l370 614h250l-515 -836v-522h-209v522zM711 1473h-171l152 334h222z" />
    <glyph glyph-name="Thorn" unicode="&#xde;" horiz-adv-x="1359" 
d="M386 0h-210v1358h210v-203h405q98 0 182 -29t150 -85.5t104 -149t38 -210.5q0 -142 -65.5 -250t-172.5 -163t-236 -55h-405v-213zM386 402h366q125 0 209.5 75.5t84.5 201.5q0 137 -83 211t-211 74h-366v-562z" />
    <glyph glyph-name="germandbls" unicode="&#xdf;" horiz-adv-x="1304" 
d="M152 0v954q0 216 141.5 345t378.5 129q205 0 335.5 -102t130.5 -267q0 -113 -61.5 -199t-171.5 -126q147 -25 233 -124.5t86 -246.5q0 -170 -112 -276t-290 -106q-123 0 -224.5 53.5t-160.5 150.5l148 120q41 -70 102.5 -108.5t133.5 -38.5q91 0 146.5 58.5t55.5 153.5
q0 119 -90.5 185t-254.5 66h-91v172q161 0 257 66t96 176q0 98 -75 158.5t-196 60.5q-143 0 -231 -86t-88 -225v-943h-198z" />
    <glyph glyph-name="agrave" unicode="&#xe0;" horiz-adv-x="1091" 
d="M88 273q0 135 117.5 219.5t306.5 84.5q148 0 242 -45v52q0 91 -68 150.5t-178 59.5q-82 0 -154 -38.5t-121 -94.5l-125 124q62 79 171.5 137t231.5 58q203 0 322 -102t119 -277v-601h-194v124q-44 -68 -123 -106t-176 -38q-162 0 -266.5 78t-104.5 215zM288 280
q0 -64 56.5 -101t143.5 -37q115 0 190.5 69t75.5 169q-35 18 -100 32t-137 14q-101 0 -165 -36t-64 -110zM427 1121l-203 334h222l152 -334h-171z" />
    <glyph glyph-name="aacute" unicode="&#xe1;" horiz-adv-x="1091" 
d="M459 -20q-162 0 -266.5 78t-104.5 215q0 135 117.5 219.5t306.5 84.5q148 0 242 -45v52q0 91 -68 150.5t-178 59.5q-82 0 -154 -38.5t-121 -94.5l-125 124q62 79 171.5 137t231.5 58q203 0 322 -102t119 -277v-601h-194v124q-44 -68 -123 -106t-176 -38zM288 280
q0 -64 56.5 -101t143.5 -37q115 0 190.5 69t75.5 169q-35 18 -100 32t-137 14q-101 0 -165 -36t-64 -110zM599 1113h-171l152 334h222z" />
    <glyph glyph-name="acircumflex" unicode="&#xe2;" horiz-adv-x="1091" 
d="M88 273q0 135 117.5 219.5t306.5 84.5q148 0 242 -45v52q0 91 -68 150.5t-178 59.5q-82 0 -154 -38.5t-121 -94.5l-125 124q62 79 171.5 137t231.5 58q203 0 322 -102t119 -277v-601h-194v124q-44 -68 -123 -106t-176 -38q-162 0 -266.5 78t-104.5 215zM517 426
q-101 0 -165 -36t-64 -110q0 -64 56.5 -101t143.5 -37q115 0 190.5 69t75.5 169q-35 18 -100 32t-137 14zM190 1084l287 370h74l287 -370h-189l-135 187l-135 -187h-189z" />
    <glyph glyph-name="atilde" unicode="&#xe3;" horiz-adv-x="1091" 
d="M88 273q0 135 117.5 219.5t306.5 84.5q148 0 242 -45v52q0 91 -68 150.5t-178 59.5q-82 0 -154 -38.5t-121 -94.5l-125 124q62 79 171.5 137t231.5 58q203 0 322 -102t119 -277v-601h-194v124q-44 -68 -123 -106t-176 -38q-162 0 -266.5 78t-104.5 215zM288 280
q0 -64 56.5 -101t143.5 -37q115 0 190.5 69t75.5 169q-35 18 -100 32t-137 14q-101 0 -165 -36t-64 -110zM154 1247q96 160 217 160q47 0 87.5 -20.5t76.5 -41t72 -20.5q43 0 71.5 18t61.5 64l95 -95q-49 -80 -101.5 -114.5t-128.5 -34.5q-43 0 -83.5 19.5t-75.5 38.5
t-64 19q-38 0 -62.5 -17t-62.5 -63z" />
    <glyph glyph-name="adieresis" unicode="&#xe4;" horiz-adv-x="1091" 
d="M459 -20q-162 0 -266.5 78t-104.5 215q0 135 117.5 219.5t306.5 84.5q148 0 242 -45v52q0 91 -68 150.5t-178 59.5q-82 0 -154 -38.5t-121 -94.5l-125 124q62 79 171.5 137t231.5 58q203 0 322 -102t119 -277v-601h-194v124q-44 -68 -123 -106t-176 -38zM517 426
q-101 0 -165 -36t-64 -110q0 -64 56.5 -101t143.5 -37q115 0 190.5 69t75.5 169q-35 18 -100 32t-137 14zM677 1159q-54 0 -88 34t-34 88t34 88t88 34t88.5 -34t34.5 -88t-34.5 -88t-88.5 -34zM202 1281q0 54 34 88t88 34t88.5 -34t34.5 -88t-34.5 -88t-88.5 -34t-88 34
t-34 88z" />
    <glyph glyph-name="aring" unicode="&#xe5;" horiz-adv-x="1091" 
d="M459 -20q-162 0 -266.5 78t-104.5 215q0 135 117.5 219.5t306.5 84.5q148 0 242 -45v52q0 91 -68 150.5t-178 59.5q-82 0 -154 -38.5t-121 -94.5l-125 124q62 79 171.5 137t231.5 58q203 0 322 -102t119 -277v-601h-194v124q-44 -68 -123 -106t-176 -38zM299 1290
q0 88 57 143t149 55t149 -55t57 -143q0 -87 -57 -141t-149 -54t-149 54t-57 141zM517 426q-101 0 -165 -36t-64 -110q0 -64 56.5 -101t143.5 -37q115 0 190.5 69t75.5 169q-35 18 -100 32t-137 14zM505 1376q-39 0 -62.5 -24t-23.5 -63q0 -36 23.5 -58.5t62.5 -22.5
q38 0 61.5 22.5t23.5 58.5q0 39 -23.5 63t-61.5 24z" />
    <glyph glyph-name="ae" unicode="&#xe6;" horiz-adv-x="1787" 
d="M459 -20q-94 0 -177 34t-138 104t-55 161q0 97 58.5 166.5t147.5 101.5t196 32q143 0 263 -56v61q0 90 -67.5 150t-171.5 60q-91 0 -161.5 -40t-108.5 -92l-136 125q153 193 409 193q117 0 213.5 -47t147.5 -128q57 84 155.5 129.5t210.5 45.5q204 0 331 -134t127 -331
q0 -51 -8 -92h-745q7 -109 91 -183.5t207 -74.5q84 0 159.5 41t125.5 120l156 -99q-67 -119 -187.5 -183t-253.5 -64q-127 0 -235.5 52.5t-174.5 155.5q-113 -208 -379 -208zM297 281q0 -61 53.5 -95t131.5 -34q66 0 126 23t102 74t42 120q-38 27 -101.5 42t-130.5 15
q-95 0 -159 -36.5t-64 -108.5zM955 571h551q-16 102 -88.5 166t-174.5 64q-111 0 -190 -64t-98 -166z" />
    <glyph glyph-name="ccedilla" unicode="&#xe7;" horiz-adv-x="1097" 
d="M81 481q0 138 68.5 253t187 180.5t261.5 65.5q141 0 255 -69.5t182 -193.5l-153 -104q-45 84 -122 132.5t-166 48.5q-137 0 -225 -89.5t-88 -223.5t88 -224.5t221 -90.5q93 0 169 47t126 133l149 -105q-63 -113 -171 -182.5t-240 -77.5l-22 -72q96 -8 150.5 -53
t54.5 -118q0 -91 -73.5 -143t-203.5 -52q-101 0 -169 35l35 123q55 -26 123 -26q116 0 116 66q0 69 -130 69h-69l68 177q-185 29 -303.5 167.5t-118.5 326.5z" />
    <glyph glyph-name="egrave" unicode="&#xe8;" horiz-adv-x="1123" 
d="M82 479q0 216 139.5 358.5t356.5 142.5q137 0 243 -62.5t162.5 -168t56.5 -234.5q0 -51 -8 -92h-745q7 -109 91 -183t207 -74q184 0 288 164l146 -106q-65 -116 -183.5 -180t-250.5 -64q-217 0 -360 142.5t-143 356.5zM576 801q-109 0 -187 -64t-97 -166h547
q-9 101 -84 165.5t-179 64.5zM287 1455h222l152 -334h-171z" />
    <glyph glyph-name="eacute" unicode="&#xe9;" horiz-adv-x="1123" 
d="M82 479q0 216 139.5 358.5t356.5 142.5q137 0 243 -62.5t162.5 -168t56.5 -234.5q0 -51 -8 -92h-745q7 -109 91 -183t207 -74q184 0 288 164l146 -106q-65 -116 -183.5 -180t-250.5 -64q-217 0 -360 142.5t-143 356.5zM292 571h547q-9 101 -84 165.5t-179 64.5
q-109 0 -187 -64t-97 -166zM672 1113h-171l152 334h222z" />
    <glyph glyph-name="ecircumflex" unicode="&#xea;" horiz-adv-x="1123" 
d="M585 -20q-217 0 -360 142.5t-143 356.5q0 216 139.5 358.5t356.5 142.5q137 0 243 -62.5t162.5 -168t56.5 -234.5q0 -51 -8 -92h-745q7 -109 91 -183t207 -74q184 0 288 164l146 -106q-65 -116 -183.5 -180t-250.5 -64zM576 801q-109 0 -187 -64t-97 -166h547
q-9 101 -84 165.5t-179 64.5zM440 1084h-189l287 370h74l287 -370h-189l-135 187z" />
    <glyph glyph-name="edieresis" unicode="&#xeb;" horiz-adv-x="1123" 
d="M82 479q0 216 139.5 358.5t356.5 142.5q137 0 243 -62.5t162.5 -168t56.5 -234.5q0 -51 -8 -92h-745q7 -109 91 -183t207 -74q184 0 288 164l146 -106q-65 -116 -183.5 -180t-250.5 -64q-217 0 -360 142.5t-143 356.5zM576 801q-109 0 -187 -64t-97 -166h547
q-9 101 -84 165.5t-179 64.5zM632 1281q0 54 34 88t88 34t88.5 -34t34.5 -88t-34.5 -88t-88.5 -34t-88 34t-34 88zM279 1281q0 54 34 88t88 34t88.5 -34t34.5 -88t-34.5 -88t-88.5 -34t-88 34t-34 88z" />
    <glyph glyph-name="igrave" unicode="&#xec;" horiz-adv-x="502" 
d="M350 0h-198v960h198v-960zM165 1121l-203 334h222l152 -334h-171z" />
    <glyph glyph-name="iacute" unicode="&#xed;" horiz-adv-x="502" 
d="M350 0h-198v960h198v-960zM541 1447l-203 -334h-171l152 334h222z" />
    <glyph glyph-name="icircumflex" unicode="&#xee;" horiz-adv-x="502" 
d="M350 0h-198v960h198v-960zM-74 1084l288 370h74l287 -370h-189l-135 187l-135 -187h-190z" />
    <glyph glyph-name="idieresis" unicode="&#xef;" horiz-adv-x="502" 
d="M152 0v960h198v-960h-198zM305 1281q0 54 34 88t88 34t88.5 -34t34.5 -88t-34.5 -88t-88.5 -34t-88 34t-34 88zM74 1159q-54 0 -88.5 34t-34.5 88t34.5 88t88.5 34t88.5 -34t34.5 -88t-34.5 -88t-88.5 -34z" />
    <glyph glyph-name="eth" unicode="&#xf0;" horiz-adv-x="1145" 
d="M565 -20q-213 0 -347 127t-134 330q0 209 129 339t337 130q82 0 156.5 -34t105.5 -75q-11 85 -69 180t-153 176l-215 -160l-97 136l166 123q-81 44 -164 69l99 159q121 -41 228 -107l196 145l93 -137l-152 -113q145 -134 223.5 -319t78.5 -407q0 -251 -132.5 -406.5
t-348.5 -155.5zM555 730q-122 0 -197.5 -81.5t-75.5 -211.5q0 -121 75.5 -196t197.5 -75t197.5 75t75.5 196q0 130 -75.5 211.5t-197.5 81.5z" />
    <glyph glyph-name="ntilde" unicode="&#xf1;" horiz-adv-x="1188" 
d="M152 960h199v-121q14 22 36.5 43.5t57.5 45t87.5 38t113.5 14.5q193 0 298 -108.5t105 -288.5v-583h-198v541q0 119 -62 185t-174 66q-114 0 -189.5 -67.5t-75.5 -183.5v-541h-198v960zM262 1247q96 160 217 160q47 0 87.5 -20.5t76.5 -41t72 -20.5q43 0 71.5 18t61.5 64
l95 -95q-49 -80 -101.5 -114.5t-128.5 -34.5q-43 0 -83.5 19.5t-75.5 38.5t-64 19q-38 0 -62.5 -17t-62.5 -63z" />
    <glyph glyph-name="ograve" unicode="&#xf2;" horiz-adv-x="1182" 
d="M591 -20q-218 0 -364 144t-146 356t146 356t364 144t364 -144t146 -356t-146 -356t-364 -144zM279 480q0 -134 88.5 -224t223.5 -90t223.5 90t88.5 224t-88.5 224t-223.5 90t-223.5 -90t-88.5 -224zM301 1455h222l152 -334h-171z" />
    <glyph glyph-name="oacute" unicode="&#xf3;" horiz-adv-x="1182" 
d="M81 480q0 212 146 356t364 144t364 -144t146 -356t-146 -356t-364 -144t-364 144t-146 356zM591 794q-135 0 -223.5 -90t-88.5 -224t88.5 -224t223.5 -90t223.5 90t88.5 224t-88.5 224t-223.5 90zM501 1113l152 334h222l-203 -334h-171z" />
    <glyph glyph-name="ocircumflex" unicode="&#xf4;" horiz-adv-x="1182" 
d="M81 480q0 212 146 356t364 144t364 -144t146 -356t-146 -356t-364 -144t-364 144t-146 356zM279 480q0 -134 88.5 -224t223.5 -90t223.5 90t88.5 224t-88.5 224t-223.5 90t-223.5 -90t-88.5 -224zM267 1084l287 370h74l287 -370h-189l-135 187l-135 -187h-189z" />
    <glyph glyph-name="otilde" unicode="&#xf5;" horiz-adv-x="1182" 
d="M591 -20q-218 0 -364 144t-146 356t146 356t364 144t364 -144t146 -356t-146 -356t-364 -144zM279 480q0 -134 88.5 -224t223.5 -90t223.5 90t88.5 224t-88.5 224t-223.5 90t-223.5 -90t-88.5 -224zM251 1247q96 160 217 160q47 0 87.5 -20.5t76.5 -41t72 -20.5
q43 0 71.5 18t61.5 64l95 -95q-49 -80 -101.5 -114.5t-128.5 -34.5q-43 0 -83.5 19.5t-75.5 38.5t-64 19q-38 0 -62.5 -17t-62.5 -63z" />
    <glyph glyph-name="odieresis" unicode="&#xf6;" horiz-adv-x="1182" 
d="M81 480q0 212 146 356t364 144t364 -144t146 -356t-146 -356t-364 -144t-364 144t-146 356zM279 480q0 -134 88.5 -224t223.5 -90t223.5 90t88.5 224t-88.5 224t-223.5 90t-223.5 -90t-88.5 -224zM645 1281q0 54 34 88t88 34t88.5 -34t34.5 -88t-34.5 -88t-88.5 -34
t-88 34t-34 88zM414 1159q-54 0 -88 34t-34 88t34 88t88 34t88.5 -34t34.5 -88t-34.5 -88t-88.5 -34z" />
    <glyph glyph-name="divide" unicode="&#xf7;" horiz-adv-x="1306" 
d="M114 778h1078v-197h-1078v197zM531 267q0 54 34 88t88 34t88.5 -34t34.5 -88t-34.5 -88t-88.5 -34t-88 34t-34 88zM653 974q-54 0 -88 34t-34 88t34 88t88 34t88.5 -34t34.5 -88t-34.5 -88t-88.5 -34z" />
    <glyph glyph-name="oslash" unicode="&#xf8;" horiz-adv-x="1196" 
d="M845 923l166 203l119 -106l-157 -192q138 -143 138 -348q0 -212 -146 -356t-364 -144q-145 0 -266 69l-175 -214l-119 106l171 209q-121 140 -121 330q0 212 146 356t364 144q130 0 244 -57zM849 676l-391 -478q67 -32 143 -32q135 0 223.5 90t88.5 224q0 111 -64 196z
M339 305l382 467q-57 22 -120 22q-135 0 -223.5 -90t-88.5 -224q0 -98 50 -175z" />
    <glyph glyph-name="ugrave" unicode="&#xf9;" horiz-adv-x="1191" 
d="M139 960h198v-541q0 -119 62 -185t172 -66q117 0 193.5 67.5t76.5 183.5v541h198v-960h-199v121q-14 -22 -36.5 -43.5t-58 -45t-89.5 -38t-116 -14.5q-192 0 -296.5 108.5t-104.5 288.5v583zM321 1455h222l152 -334h-171z" />
    <glyph glyph-name="uacute" unicode="&#xfa;" horiz-adv-x="1191" 
d="M139 960h198v-541q0 -119 62 -185t172 -66q117 0 193.5 67.5t76.5 183.5v541h198v-960h-199v121q-14 -22 -36.5 -43.5t-58 -45t-89.5 -38t-116 -14.5q-192 0 -296.5 108.5t-104.5 288.5v583zM666 1113h-171l152 334h222z" />
    <glyph glyph-name="ucircumflex" unicode="&#xfb;" horiz-adv-x="1191" 
d="M139 960h198v-541q0 -119 62 -185t172 -66q117 0 193.5 67.5t76.5 183.5v541h198v-960h-199v121q-14 -22 -36.5 -43.5t-58 -45t-89.5 -38t-116 -14.5q-192 0 -296.5 108.5t-104.5 288.5v583zM446 1084h-189l287 370h74l287 -370h-189l-135 187z" />
    <glyph glyph-name="udieresis" unicode="&#xfc;" horiz-adv-x="1191" 
d="M139 960h198v-541q0 -119 62 -185t172 -66q117 0 193.5 67.5t76.5 183.5v541h198v-960h-199v121q-14 -22 -36.5 -43.5t-58 -45t-89.5 -38t-116 -14.5q-192 0 -296.5 108.5t-104.5 288.5v583zM654 1281q0 54 34 88t88 34t88.5 -34t34.5 -88t-34.5 -88t-88.5 -34t-88 34
t-34 88zM301 1281q0 54 34 88t88 34t88.5 -34t34.5 -88t-34.5 -88t-88.5 -34t-88 34t-34 88z" />
    <glyph glyph-name="yacute" unicode="&#xfd;" horiz-adv-x="1080" 
d="M438 -14l-414 974h218l299 -756l297 756h218l-460 -1082q-26 -59 -48.5 -100t-56 -81t-72 -64t-93.5 -38.5t-124 -14.5q-93 0 -159 35l21 164q56 -25 129 -25q91 0 140 43t84 134zM441 1113l152 334h222l-203 -334h-171z" />
    <glyph glyph-name="thorn" unicode="&#xfe;" horiz-adv-x="1257" 
d="M152 -400v1808h198v-579q118 151 342 151q206 0 344 -142.5t138 -362.5q0 -219 -137.5 -357t-344.5 -138q-224 0 -342 151v-531h-198zM351 475q0 -134 90 -225.5t227 -91.5q136 0 222 91t86 226q0 136 -86 231.5t-222 95.5t-226.5 -96t-90.5 -231z" />
    <glyph glyph-name="ydieresis" unicode="&#xff;" horiz-adv-x="1080" 
d="M24 960h218l299 -756l297 756h218l-460 -1082q-26 -59 -48.5 -100t-56 -81t-72 -64t-93.5 -38.5t-124 -14.5q-93 0 -159 35l21 164q56 -25 129 -25q91 0 140 43t84 134l21 55zM698 1159q-54 0 -88 34t-34 88t34 88t88 34t88.5 -34t34.5 -88t-34.5 -88t-88.5 -34z
M223 1281q0 54 34 88t88 34t88.5 -34t34.5 -88t-34.5 -88t-88.5 -34t-88 34t-34 88z" />
    <glyph glyph-name="Amacron" unicode="&#x100;" horiz-adv-x="1370" 
d="M234 0h-224l561 1358h228l561 -1358h-224l-108 283h-686zM685 1123l-280 -665h560zM980 1531h-591v144h591v-144z" />
    <glyph glyph-name="amacron" unicode="&#x101;" horiz-adv-x="1091" 
d="M88 273q0 135 117.5 219.5t306.5 84.5q148 0 242 -45v52q0 91 -68 150.5t-178 59.5q-82 0 -154 -38.5t-121 -94.5l-125 124q62 79 171.5 137t231.5 58q203 0 322 -102t119 -277v-601h-194v124q-44 -68 -123 -106t-176 -38q-162 0 -266.5 78t-104.5 215zM288 280
q0 -64 56.5 -101t143.5 -37q115 0 190.5 69t75.5 169q-35 18 -100 32t-137 14q-101 0 -165 -36t-64 -110zM194 1195v144h591v-144h-591z" />
    <glyph glyph-name="Abreve" unicode="&#x102;" horiz-adv-x="1370" 
d="M10 0l561 1358h228l561 -1358h-224l-108 283h-686l-108 -283h-224zM405 458h560l-280 665zM408 1770h161q7 -60 37.5 -96.5t78.5 -36.5q51 0 81.5 36.5t34.5 96.5h161q-6 -129 -82 -203.5t-195 -74.5t-194.5 74.5t-82.5 203.5z" />
    <glyph glyph-name="abreve" unicode="&#x103;" horiz-adv-x="1091" 
d="M459 -20q-162 0 -266.5 78t-104.5 215q0 135 117.5 219.5t306.5 84.5q148 0 242 -45v52q0 91 -68 150.5t-178 59.5q-82 0 -154 -38.5t-121 -94.5l-125 124q62 79 171.5 137t231.5 58q203 0 322 -102t119 -277v-601h-194v124q-44 -68 -123 -106t-176 -38zM517 426
q-101 0 -165 -36t-64 -110q0 -64 56.5 -101t143.5 -37q115 0 190.5 69t75.5 169q-35 18 -100 32t-137 14zM493 1135q-119 0 -194.5 74.5t-82.5 203.5h161q7 -60 37.5 -96.5t78.5 -36.5q51 0 81.5 36.5t34.5 96.5h161q-6 -129 -82 -203.5t-195 -74.5z" />
    <glyph glyph-name="Aogonek" unicode="&#x104;" horiz-adv-x="1370" 
d="M10 0l561 1358h228l561 -1358h-50q-191 -129 -191 -219q0 -36 26 -56.5t72 -20.5q58 0 114 27l45 -140q-78 -48 -186 -48q-112 0 -176 51t-64 140q0 76 52.5 144t133.5 122l-108 283h-686l-108 -283h-224zM685 1123l-280 -665h560z" />
    <glyph glyph-name="aogonek" unicode="&#x105;" horiz-adv-x="1091" 
d="M459 -20q-162 0 -266.5 78t-104.5 215q0 135 117.5 219.5t306.5 84.5q148 0 242 -45v52q0 91 -68 150.5t-178 59.5q-82 0 -154 -38.5t-121 -94.5l-125 124q62 79 171.5 137t231.5 58q203 0 322 -102t119 -277v-601h-19q-191 -129 -191 -219q0 -36 26 -56.5t72 -20.5
q58 0 114 27l45 -140q-78 -48 -186 -48q-112 0 -176 51t-64 140q0 140 185 266v124q-44 -68 -123 -106t-176 -38zM288 280q0 -64 56.5 -101t143.5 -37q115 0 190.5 69t75.5 169q-35 18 -100 32t-137 14q-101 0 -165 -36t-64 -110z" />
    <glyph glyph-name="Cacute" unicode="&#x106;" horiz-adv-x="1439" 
d="M790 -20q-146 0 -276 54t-223.5 146.5t-148.5 222.5t-55 276q0 195 92 355.5t252 252t354 91.5q185 0 342 -87t255 -244l-163 -114q-163 246 -434 246q-209 0 -343.5 -141t-134.5 -359t136.5 -359t346.5 -141q135 0 247.5 61.5t192.5 178.5l157 -109q-96 -156 -253 -243
t-344 -87zM708 1473l152 334h222l-203 -334h-171z" />
    <glyph glyph-name="cacute" unicode="&#x107;" horiz-adv-x="1096" 
d="M589 -20q-217 0 -363 145t-146 356q0 138 68.5 253t187 180.5t261.5 65.5q141 0 255 -69.5t182 -193.5l-153 -104q-45 84 -122 132.5t-166 48.5q-137 0 -225 -89.5t-88 -223.5t88 -224.5t221 -90.5q93 0 169 47t126 133l149 -105q-67 -121 -184 -191t-260 -70zM520 1113
l152 334h222l-203 -334h-171z" />
    <glyph glyph-name="Ccircumflex" unicode="&#x108;" horiz-adv-x="1439" 
d="M790 -20q-146 0 -276 54t-223.5 146.5t-148.5 222.5t-55 276q0 195 92 355.5t252 252t354 91.5q185 0 342 -87t255 -244l-163 -114q-163 246 -434 246q-209 0 -343.5 -141t-134.5 -359t136.5 -359t346.5 -141q135 0 247.5 61.5t192.5 178.5l157 -109q-96 -156 -253 -243
t-344 -87zM657 1471h-189l287 370h74l287 -370h-189l-135 187z" />
    <glyph glyph-name="ccircumflex" unicode="&#x109;" horiz-adv-x="1096" 
d="M589 -20q-217 0 -363 145t-146 356q0 138 68.5 253t187 180.5t261.5 65.5q141 0 255 -69.5t182 -193.5l-153 -104q-45 84 -122 132.5t-166 48.5q-137 0 -225 -89.5t-88 -223.5t88 -224.5t221 -90.5q93 0 169 47t126 133l149 -105q-67 -121 -184 -191t-260 -70zM252 1084
l287 370h74l287 -370h-189l-135 187l-135 -187h-189z" />
    <glyph glyph-name="Cdotaccent" unicode="&#x10a;" horiz-adv-x="1439" 
d="M87 679q0 195 92 355.5t252 252t354 91.5q185 0 342 -87t255 -244l-163 -114q-163 246 -434 246q-209 0 -343.5 -141t-134.5 -359t136.5 -359t346.5 -141q135 0 247.5 61.5t192.5 178.5l157 -109q-96 -156 -253 -243t-344 -87q-146 0 -276 54t-223.5 146.5t-148.5 222.5
t-55 276zM664 1616q0 54 34 88t88 34t88.5 -34t34.5 -88t-34.5 -88t-88.5 -34t-88 34t-34 88z" />
    <glyph glyph-name="cdotaccent" unicode="&#x10b;" horiz-adv-x="1096" 
d="M589 -20q-217 0 -363 145t-146 356q0 138 68.5 253t187 180.5t261.5 65.5q141 0 255 -69.5t182 -193.5l-153 -104q-45 84 -122 132.5t-166 48.5q-137 0 -225 -89.5t-88 -223.5t88 -224.5t221 -90.5q93 0 169 47t126 133l149 -105q-67 -121 -184 -191t-260 -70zM462 1282
q0 54 34 88t88 34t88.5 -34t34.5 -88t-34.5 -88t-88.5 -34t-88 34t-34 88z" />
    <glyph glyph-name="Ccaron" unicode="&#x10c;" horiz-adv-x="1439" 
d="M87 679q0 195 92 355.5t252 252t354 91.5q185 0 342 -87t255 -244l-163 -114q-163 246 -434 246q-209 0 -343.5 -141t-134.5 -359t136.5 -359t346.5 -141q135 0 247.5 61.5t192.5 178.5l157 -109q-96 -156 -253 -243t-344 -87q-146 0 -276 54t-223.5 146.5t-148.5 222.5
t-55 276zM747 1481l-287 370h189l135 -187l135 187h189l-287 -370h-74z" />
    <glyph glyph-name="ccaron" unicode="&#x10d;" horiz-adv-x="1096" 
d="M80 481q0 138 68.5 253t187 180.5t261.5 65.5q141 0 255 -69.5t182 -193.5l-153 -104q-45 84 -122 132.5t-166 48.5q-137 0 -225 -89.5t-88 -223.5t88 -224.5t221 -90.5q93 0 169 47t126 133l149 -105q-67 -121 -184 -191t-260 -70q-217 0 -363 145t-146 356zM259 1466
h189l135 -187l135 187h189l-287 -370h-74z" />
    <glyph glyph-name="Dcaron" unicode="&#x10e;" horiz-adv-x="1508" 
d="M176 1357h546q199 0 358.5 -88t249.5 -243.5t90 -347.5q0 -193 -90 -348t-249.5 -242.5t-358.5 -87.5h-546v1357zM386 1169v-979h333q141 0 251.5 64.5t170 175.5t59.5 248q0 209 -134 350t-347 141h-333zM359 1851h189l135 -187l135 187h189l-287 -370h-74z" />
    <glyph glyph-name="dcaron" unicode="&#x10f;" horiz-adv-x="1337" 
d="M83 485q0 219 137.5 357t344.5 138q224 0 342 -151v579h198v-1408h-198v131q-118 -151 -342 -151q-206 0 -344 142.5t-138 362.5zM281 485q0 -136 86 -231.5t222 -95.5t226.5 96t90.5 231q0 134 -90 225.5t-227 91.5q-136 0 -222 -91t-86 -226zM1421 1008h-166v402h207z
" />
    <glyph glyph-name="Dcroat" unicode="&#x110;" horiz-adv-x="1520" 
d="M188 603h-135v184h135v570h546q199 0 358.5 -88t249.5 -243.5t90 -347.5q0 -193 -90 -348t-249.5 -242.5t-358.5 -87.5h-546v603zM850 603h-452v-413h333q141 0 251.5 64.5t170 175.5t59.5 248q0 209 -134 350t-347 141h-333v-382h452v-184z" />
    <glyph glyph-name="dcroat" unicode="&#x111;" horiz-adv-x="1257" 
d="M565 -20q-206 0 -344 142.5t-138 362.5q0 219 137.5 357t344.5 138q224 0 342 -151v271h-349v168h349v140h198v-140h128v-168h-128v-1100h-198v131q-118 -151 -342 -151zM281 485q0 -136 86 -231.5t222 -95.5t226.5 96t90.5 231q0 134 -90 225.5t-227 91.5
q-136 0 -222 -91t-86 -226z" />
    <glyph glyph-name="Emacron" unicode="&#x112;" horiz-adv-x="1236" 
d="M1149 0h-973v1358h952v-191h-742v-374h637v-191h-637v-411h763v-191zM961 1531h-591v144h591v-144z" />
    <glyph glyph-name="emacron" unicode="&#x113;" horiz-adv-x="1123" 
d="M585 -20q-217 0 -360 142.5t-143 356.5q0 216 139.5 358.5t356.5 142.5q137 0 243 -62.5t162.5 -168t56.5 -234.5q0 -51 -8 -92h-745q7 -109 91 -183t207 -74q184 0 288 164l146 -106q-65 -116 -183.5 -180t-250.5 -64zM292 571h547q-9 101 -84 165.5t-179 64.5
q-109 0 -187 -64t-97 -166zM268 1339h591v-144h-591v144z" />
    <glyph glyph-name="Ebreve" unicode="&#x114;" horiz-adv-x="1236" 
d="M176 0v1358h952v-191h-742v-374h637v-191h-637v-411h763v-191h-973zM664 1492q-119 0 -194.5 74.5t-82.5 203.5h161q7 -60 37.5 -96.5t78.5 -36.5q51 0 81.5 36.5t34.5 96.5h161q-6 -129 -82 -203.5t-195 -74.5z" />
    <glyph glyph-name="ebreve" unicode="&#x115;" horiz-adv-x="1123" 
d="M82 479q0 216 139.5 358.5t356.5 142.5q137 0 243 -62.5t162.5 -168t56.5 -234.5q0 -51 -8 -92h-745q7 -109 91 -183t207 -74q184 0 288 164l146 -106q-65 -116 -183.5 -180t-250.5 -64q-217 0 -360 142.5t-143 356.5zM302 1413h161q7 -60 37.5 -96.5t78.5 -36.5
q51 0 81.5 36.5t34.5 96.5h161q-6 -129 -82 -203.5t-195 -74.5t-194.5 74.5t-82.5 203.5zM576 801q-109 0 -187 -64t-97 -166h547q-9 101 -84 165.5t-179 64.5z" />
    <glyph glyph-name="Edotaccent" unicode="&#x116;" horiz-adv-x="1236" 
d="M176 1358h952v-191h-742v-374h637v-191h-637v-411h763v-191h-973v1358zM550 1616q0 54 34 88t88 34t88.5 -34t34.5 -88t-34.5 -88t-88.5 -34t-88 34t-34 88z" />
    <glyph glyph-name="edotaccent" unicode="&#x117;" horiz-adv-x="1123" 
d="M82 479q0 216 139.5 358.5t356.5 142.5q137 0 243 -62.5t162.5 -168t56.5 -234.5q0 -51 -8 -92h-745q7 -109 91 -183t207 -74q184 0 288 164l146 -106q-65 -116 -183.5 -180t-250.5 -64q-217 0 -360 142.5t-143 356.5zM292 571h547q-9 101 -84 165.5t-179 64.5
q-109 0 -187 -64t-97 -166zM577 1160q-54 0 -88 34t-34 88t34 88t88 34t88.5 -34t34.5 -88t-34.5 -88t-88.5 -34z" />
    <glyph glyph-name="Eogonek" unicode="&#x118;" horiz-adv-x="1236" 
d="M176 1358h952v-191h-742v-374h637v-191h-637v-411h763v-191q-191 -129 -191 -219q0 -36 26 -56.5t72 -20.5q58 0 114 27l45 -140q-78 -48 -186 -48q-112 0 -176 51t-64 140q0 140 185 266h-798v1358z" />
    <glyph glyph-name="eogonek" unicode="&#x119;" horiz-adv-x="1123" 
d="M82 479q0 216 139.5 358.5t356.5 142.5q137 0 243 -62.5t162.5 -168t56.5 -234.5q0 -51 -8 -92h-745q7 -109 91 -183t207 -74q184 0 288 164l146 -106q-47 -85 -124 -142t-171 -83q-189 -129 -189 -218q0 -36 26 -56.5t72 -20.5q58 0 114 27l45 -140q-78 -48 -186 -48
q-112 0 -176 51t-64 140q0 130 161 249q-195 20 -320 158.5t-125 337.5zM576 801q-109 0 -187 -64t-97 -166h547q-9 101 -84 165.5t-179 64.5z" />
    <glyph glyph-name="Ecaron" unicode="&#x11a;" horiz-adv-x="1236" 
d="M176 1358h952v-191h-742v-374h637v-191h-637v-411h763v-191h-973v1358zM627 1481l-287 370h189l135 -187l135 187h189l-287 -370h-74z" />
    <glyph glyph-name="ecaron" unicode="&#x11b;" horiz-adv-x="1123" 
d="M82 479q0 216 139.5 358.5t356.5 142.5q137 0 243 -62.5t162.5 -168t56.5 -234.5q0 -51 -8 -92h-745q7 -109 91 -183t207 -74q184 0 288 164l146 -106q-65 -116 -183.5 -180t-250.5 -64q-217 0 -360 142.5t-143 356.5zM292 571h547q-9 101 -84 165.5t-179 64.5
q-109 0 -187 -64t-97 -166zM248 1466h189l135 -187l135 187h189l-287 -370h-74z" />
    <glyph glyph-name="Gcircumflex" unicode="&#x11c;" horiz-adv-x="1525" 
d="M790 -20q-146 0 -276 54t-223.5 146.5t-148.5 222.5t-55 276q0 195 92 355.5t252 252t354 91.5q183 0 333 -81.5t247 -226.5l-163 -114q-85 114 -185 168.5t-232 54.5q-209 0 -344 -141t-135 -359t137 -359t347 -141q187 0 300.5 97t135.5 244h-468v190h686q4 -36 4 -79
q0 -133 -45 -251t-127.5 -207t-208 -141t-277.5 -52zM641 1471h-189l287 370h74l287 -370h-189l-135 187z" />
    <glyph glyph-name="gcircumflex" unicode="&#x11d;" horiz-adv-x="1257" 
d="M569 -20q-206 0 -344 142.5t-138 362.5q0 219 137.5 357t344.5 138q224 0 342 -151v131h198v-885q0 -227 -143 -361t-385 -134q-132 0 -249.5 53.5t-199.5 152.5l130 129q142 -155 323 -155q148 0 237 79.5t89 210.5v81q-116 -151 -342 -151zM285 485q0 -136 86 -231.5
t222 -95.5t226.5 96t90.5 231q0 134 -90 225.5t-227 91.5q-136 0 -222 -91t-86 -226zM274 1084l287 370h74l287 -370h-189l-135 187l-135 -187h-189z" />
    <glyph glyph-name="Gbreve" unicode="&#x11e;" horiz-adv-x="1525" 
d="M790 -20q-146 0 -276 54t-223.5 146.5t-148.5 222.5t-55 276q0 195 92 355.5t252 252t354 91.5q183 0 333 -81.5t247 -226.5l-163 -114q-85 114 -185 168.5t-232 54.5q-209 0 -344 -141t-135 -359t137 -359t347 -141q187 0 300.5 97t135.5 244h-468v190h686q4 -36 4 -79
q0 -133 -45 -251t-127.5 -207t-208 -141t-277.5 -52zM759 1492q-119 0 -194.5 74.5t-82.5 203.5h161q7 -60 37.5 -96.5t78.5 -36.5q51 0 81.5 36.5t34.5 96.5h161q-6 -129 -82 -203.5t-195 -74.5z" />
    <glyph glyph-name="gbreve" unicode="&#x11f;" horiz-adv-x="1257" 
d="M569 -20q-206 0 -344 142.5t-138 362.5q0 219 137.5 357t344.5 138q224 0 342 -151v131h198v-885q0 -227 -143 -361t-385 -134q-132 0 -249.5 53.5t-199.5 152.5l130 129q142 -155 323 -155q148 0 237 79.5t89 210.5v81q-116 -151 -342 -151zM593 802q-136 0 -222 -91
t-86 -226q0 -136 86 -231.5t222 -95.5t226.5 96t90.5 231q0 134 -90 225.5t-227 91.5zM577 1135q-119 0 -194.5 74.5t-82.5 203.5h161q7 -60 37.5 -96.5t78.5 -36.5q51 0 81.5 36.5t34.5 96.5h161q-6 -129 -82 -203.5t-195 -74.5z" />
    <glyph glyph-name="Gdotaccent" unicode="&#x120;" horiz-adv-x="1525" 
d="M790 -20q-146 0 -276 54t-223.5 146.5t-148.5 222.5t-55 276q0 195 92 355.5t252 252t354 91.5q183 0 333 -81.5t247 -226.5l-163 -114q-85 114 -185 168.5t-232 54.5q-209 0 -344 -141t-135 -359t137 -359t347 -141q187 0 300.5 97t135.5 244h-468v190h686q4 -36 4 -79
q0 -133 -45 -251t-127.5 -207t-208 -141t-277.5 -52zM641 1616q0 54 34 88t88 34t88.5 -34t34.5 -88t-34.5 -88t-88.5 -34t-88 34t-34 88z" />
    <glyph glyph-name="gdotaccent" unicode="&#x121;" horiz-adv-x="1257" 
d="M569 -20q-206 0 -344 142.5t-138 362.5q0 219 137.5 357t344.5 138q224 0 342 -151v131h198v-885q0 -227 -143 -361t-385 -134q-132 0 -249.5 53.5t-199.5 152.5l130 129q142 -155 323 -155q148 0 237 79.5t89 210.5v81q-116 -151 -342 -151zM285 485q0 -136 86 -231.5
t222 -95.5t226.5 96t90.5 231q0 134 -90 225.5t-227 91.5q-136 0 -222 -91t-86 -226zM470 1282q0 54 34 88t88 34t88.5 -34t34.5 -88t-34.5 -88t-88.5 -34t-88 34t-34 88z" />
    <glyph glyph-name="uni0122" unicode="&#x122;" horiz-adv-x="1525" 
d="M790 -20q-146 0 -276 54t-223.5 146.5t-148.5 222.5t-55 276q0 195 92 355.5t252 252t354 91.5q183 0 333 -81.5t247 -226.5l-163 -114q-85 114 -185 168.5t-232 54.5q-209 0 -344 -141t-135 -359t137 -359t347 -141q187 0 300.5 97t135.5 244h-468v190h686q4 -36 4 -79
q0 -133 -45 -251t-127.5 -207t-208 -141t-277.5 -52zM849 -518h-166l14 402h207z" />
    <glyph glyph-name="uni0123" unicode="&#x123;" horiz-adv-x="1257" 
d="M569 -20q-206 0 -344 142.5t-138 362.5q0 219 137.5 357t344.5 138q224 0 342 -151v131h198v-885q0 -227 -143 -361t-385 -134q-132 0 -249.5 53.5t-199.5 152.5l130 129q142 -155 323 -155q148 0 237 79.5t89 210.5v81q-116 -151 -342 -151zM593 802q-136 0 -222 -91
t-86 -226q0 -136 86 -231.5t222 -95.5t226.5 96t90.5 231q0 134 -90 225.5t-227 91.5zM507 1104l55 402h166l-14 -402h-207z" />
    <glyph glyph-name="Hcircumflex" unicode="&#x124;" horiz-adv-x="1508" 
d="M176 1358h210v-570h736v570h210v-1358h-210v598h-736v-598h-210v1358zM619 1471h-189l287 370h74l287 -370h-189l-135 187z" />
    <glyph glyph-name="hcircumflex" unicode="&#x125;" horiz-adv-x="1183" 
d="M152 1408h199v-569q14 22 36.5 43.5t57.5 45t87.5 38t113.5 14.5q190 0 294 -109t104 -288v-583h-198v541q0 119 -61.5 185t-169.5 66q-114 0 -189.5 -67.5t-75.5 -183.5v-541h-198v1408zM110 1489h-189l287 370h74l287 -370h-189l-135 187z" />
    <glyph glyph-name="Hbar" unicode="&#x126;" horiz-adv-x="1586" 
d="M1371 1200h173v-180h-173v-1020h-210v598h-736v-598h-210v1020h-173v180h173v158h210v-158h736v158h210v-158zM1161 1020h-736v-232h736v232z" />
    <glyph glyph-name="hbar" unicode="&#x127;" horiz-adv-x="1183" 
d="M152 1100h-146v168h146v140h199v-140h349v-168h-349v-261q14 22 36.5 43.5t57.5 45t87.5 38t113.5 14.5q190 0 294 -109t104 -288v-583h-198v541q0 119 -61.5 185t-169.5 66q-114 0 -189.5 -67.5t-75.5 -183.5v-541h-198v1100z" />
    <glyph glyph-name="Itilde" unicode="&#x128;" horiz-adv-x="562" 
d="M386 0h-210v1358h210v-1358zM44 1520l-104 87q97 160 218 160q47 0 87.5 -20.5t76.5 -41t72 -20.5q43 0 71.5 18t61.5 64l95 -95q-49 -80 -101.5 -114.5t-128.5 -34.5q-43 0 -83.5 19.5t-75.5 38.5t-64 19q-38 0 -62.5 -17t-62.5 -63z" />
    <glyph glyph-name="itilde" unicode="&#x129;" horiz-adv-x="502" 
d="M350 0h-198v960h198v-960zM13 1160l-103 87q96 160 217 160q47 0 87.5 -20.5t76.5 -41t72 -20.5q43 0 71.5 18t61.5 64l95 -95q-49 -80 -101.5 -114.5t-128.5 -34.5q-43 0 -83.5 19.5t-75.5 38.5t-64 19q-38 0 -62.5 -17t-62.5 -63z" />
    <glyph glyph-name="Imacron" unicode="&#x12a;" horiz-adv-x="562" 
d="M386 1358v-1358h-210v1358h210zM577 1675v-144h-592v144h592z" />
    <glyph glyph-name="imacron" unicode="&#x12b;" horiz-adv-x="502" 
d="M350 0h-198v960h198v-960zM546 1339v-144h-591v144h591z" />
    <glyph glyph-name="Ibreve" unicode="&#x12c;" horiz-adv-x="562" 
d="M386 0h-210v1358h210v-1358zM4 1770h161q7 -60 37.5 -96.5t78.5 -36.5q51 0 81.5 36.5t34.5 96.5h161q-6 -129 -82 -203.5t-195 -74.5t-194.5 74.5t-82.5 203.5z" />
    <glyph glyph-name="ibreve" unicode="&#x12d;" horiz-adv-x="502" 
d="M152 0v960h198v-960h-198zM-27 1413h162q7 -60 37.5 -96.5t78.5 -36.5q51 0 81.5 36.5t34.5 96.5h161q-6 -129 -82 -203.5t-195 -74.5t-195 74.5t-83 203.5z" />
    <glyph glyph-name="Iogonek" unicode="&#x12e;" horiz-adv-x="562" 
d="M8 -266q0 140 185 266h-17v1358h210v-1358h-18q-191 -129 -191 -219q0 -36 26 -56.5t72 -20.5q58 0 114 27l45 -140q-78 -48 -186 -48q-112 0 -176 51t-64 140z" />
    <glyph glyph-name="iogonek" unicode="&#x12f;" horiz-adv-x="502" 
d="M-23 -266q0 140 185 266h-10v960h198v-960h-13q-191 -129 -191 -219q0 -36 26 -56.5t72 -20.5q58 0 114 27l45 -140q-78 -48 -186 -48q-112 0 -176 51t-64 140zM256 1160q-54 0 -88 34t-34 88t34 88t88 34t88.5 -34t34.5 -88t-34.5 -88t-88.5 -34z" />
    <glyph glyph-name="Idotaccent" unicode="&#x130;" horiz-adv-x="562" 
d="M176 1358h210v-1358h-210v1358zM162 1616q0 54 34 88t88 34t88.5 -34t34.5 -88t-34.5 -88t-88.5 -34t-88 34t-34 88z" />
    <glyph glyph-name="dotlessi" unicode="&#x131;" horiz-adv-x="502" 
d="M350 0h-198v960h198v-960z" />
    <glyph glyph-name="IJ" unicode="&#x132;" horiz-adv-x="1614" 
d="M986 -20q-128 0 -233.5 54.5t-173.5 153.5l138 141q117 -155 268 -155q121 0 188.5 82.5t67.5 231.5v870h210v-885q0 -232 -123.5 -362.5t-341.5 -130.5zM176 1358h210v-1358h-210v1358z" />
    <glyph glyph-name="ij" unicode="&#x133;" horiz-adv-x="991" 
d="M504 -420q-95 0 -159 30l21 164q52 -20 124 -20q79 0 115 46t36 145v1015h198v-1026q0 -168 -84 -261t-251 -93zM152 960h198v-960h-198v960zM618 1282q0 54 34 88t88 34t88.5 -34t34.5 -88t-34.5 -88t-88.5 -34t-88 34t-34 88zM250 1160q-54 0 -88 34t-34 88t34 88
t88 34t88.5 -34t34.5 -88t-34.5 -88t-88.5 -34z" />
    <glyph glyph-name="Jcircumflex" unicode="&#x134;" horiz-adv-x="1041" 
d="M6 188l138 141q117 -155 268 -155q121 0 188.5 82.5t67.5 231.5v870h210v-885q0 -232 -123.5 -362.5t-341.5 -130.5q-128 0 -233.5 54.5t-173.5 153.5zM627 1471h-189l287 370h74l287 -370h-189l-135 187z" />
    <glyph glyph-name="jcircumflex" unicode="&#x135;" horiz-adv-x="512" 
d="M25 -420q-95 0 -159 30l21 164q52 -20 124 -20q79 0 115 46t36 145v1015h198v-1026q0 -168 -84 -261t-251 -93zM119 1084h-189l287 370h74l287 -370h-189l-135 187z" />
    <glyph glyph-name="uni0136" unicode="&#x136;" horiz-adv-x="1310" 
d="M176 1358h210v-675l622 675h271l-510 -554l544 -804h-256l-436 662l-235 -253v-409h-210v1358zM744 -518h-166l14 402h207z" />
    <glyph glyph-name="uni0137" unicode="&#x137;" horiz-adv-x="1065" 
d="M152 0v1408h200v-865l419 417h272l-413 -402l429 -558h-251l-322 419l-134 -134v-285h-200zM443 -518l14 402h207l-55 -402h-166z" />
    <glyph glyph-name="kgreenlandic" unicode="&#x138;" horiz-adv-x="1065" 
d="M152 0v960h200v-417l419 417h272l-413 -402l429 -558h-251l-322 419l-134 -134v-285h-200z" />
    <glyph glyph-name="Lacute" unicode="&#x139;" horiz-adv-x="1193" 
d="M1160 191v-191h-984v1358h211v-1167h773zM569 1807l-203 -334h-171l152 334h222z" />
    <glyph glyph-name="lacute" unicode="&#x13a;" horiz-adv-x="502" 
d="M350 1408v-1408h-198v1408h198zM537 1826l-203 -334h-171l152 334h222z" />
    <glyph glyph-name="uni013B" unicode="&#x13b;" horiz-adv-x="1193" 
d="M1160 191v-191h-984v1358h211v-1167h773zM559 -518l14 402h207l-55 -402h-166z" />
    <glyph glyph-name="uni013C" unicode="&#x13c;" horiz-adv-x="502" 
d="M350 1408v-1408h-198v1408h198zM135 -518l14 402h207l-55 -402h-166z" />
    <glyph glyph-name="Lcaron" unicode="&#x13d;" horiz-adv-x="1198" 
d="M743 938l14 402h207l-55 -402h-166zM1160 191v-191h-984v1358h211v-1167h773z" />
    <glyph glyph-name="lcaron" unicode="&#x13e;" horiz-adv-x="582" 
d="M350 0h-198v1408h198v-1408zM666 1006h-166v402h207z" />
    <glyph glyph-name="Ldot" unicode="&#x13f;" horiz-adv-x="1196" 
d="M1160 0h-984v1358h211v-1167h773v-191zM750 675q0 54 34 88t88 34t88.5 -34t34.5 -88t-34.5 -88t-88.5 -34t-88 34t-34 88z" />
    <glyph glyph-name="ldot" unicode="&#x140;" horiz-adv-x="713" 
d="M152 1408h198v-1408h-198v1408zM607 555q-54 0 -88 34t-34 88t34 88t88 34t88.5 -34t34.5 -88t-34.5 -88t-88.5 -34z" />
    <glyph glyph-name="Lslash" unicode="&#x141;" horiz-adv-x="1295" 
d="M489 870l372 28v-174l-372 -28v-505h773v-191h-984v680l-211 -16v174l211 16v504h211v-488z" />
    <glyph glyph-name="lslash" unicode="&#x142;" horiz-adv-x="726" 
d="M71 361v178l203 84v785h198v-702l203 84v-178l-203 -84v-528h-198v445z" />
    <glyph glyph-name="Nacute" unicode="&#x143;" horiz-adv-x="1599" 
d="M386 0h-210v1358h210l827 -1035v1035h210v-1358h-212l-825 1025v-1025zM891 1473h-171l152 334h222z" />
    <glyph glyph-name="nacute" unicode="&#x144;" horiz-adv-x="1188" 
d="M350 0h-198v960h199v-121q14 22 36.5 43.5t57.5 45t87.5 38t113.5 14.5q193 0 298 -108.5t105 -288.5v-583h-198v541q0 119 -62 185t-174 66q-114 0 -189.5 -67.5t-75.5 -183.5v-541zM556 1113l152 334h222l-203 -334h-171z" />
    <glyph glyph-name="uni0145" unicode="&#x145;" horiz-adv-x="1599" 
d="M386 0h-210v1358h210l827 -1035v1035h210v-1358h-212l-825 1025v-1025zM679 -518l14 402h207l-55 -402h-166z" />
    <glyph glyph-name="uni0146" unicode="&#x146;" horiz-adv-x="1188" 
d="M152 960h199v-121q14 22 36.5 43.5t57.5 45t87.5 38t113.5 14.5q193 0 298 -108.5t105 -288.5v-583h-198v541q0 119 -62 185t-174 66q-114 0 -189.5 -67.5t-75.5 -183.5v-541h-198v960zM667 -518h-166l14 402h207z" />
    <glyph glyph-name="Ncaron" unicode="&#x147;" horiz-adv-x="1599" 
d="M386 0h-210v1358h210l827 -1035v1035h210v-1358h-212l-825 1025v-1025zM476 1851h189l135 -187l135 187h189l-287 -370h-74z" />
    <glyph glyph-name="ncaron" unicode="&#x148;" horiz-adv-x="1188" 
d="M152 0v960h199v-121q14 22 36.5 43.5t57.5 45t87.5 38t113.5 14.5q193 0 298 -108.5t105 -288.5v-583h-198v541q0 119 -62 185t-174 66q-114 0 -189.5 -67.5t-75.5 -183.5v-541h-198zM305 1466h189l135 -187l135 187h189l-287 -370h-74z" />
    <glyph glyph-name="napostrophe" unicode="&#x149;" horiz-adv-x="1441" 
d="M405 960h199v-121q14 22 36.5 43.5t57.5 45t87.5 38t113.5 14.5q193 0 298 -108.5t105 -288.5v-583h-198v541q0 119 -62 185t-174 66q-114 0 -189.5 -67.5t-75.5 -183.5v-541h-198v960zM210 912h-186l137 516h232z" />
    <glyph glyph-name="Eng" unicode="&#x14a;" horiz-adv-x="1599" 
d="M176 1358h210l827 -1035v1035h210v-1444q0 -159 -81.5 -246.5t-243.5 -87.5q-85 0 -141 30l21 164q44 -20 106 -20q68 0 98.5 41t30.5 130v75h-2l-825 1025v-1025h-210v1358z" />
    <glyph glyph-name="eng" unicode="&#x14b;" horiz-adv-x="1188" 
d="M350 0h-198v960h199v-121q14 22 36.5 43.5t57.5 45t87.5 38t113.5 14.5q193 0 298 -108.5t105 -288.5v-679q0 -154 -77 -239t-228 -85q-83 0 -139 30l21 164q44 -20 104 -20q63 0 92 39t29 122v626q0 119 -62 185t-174 66q-114 0 -189.5 -67.5t-75.5 -183.5v-541z" />
    <glyph glyph-name="Omacron" unicode="&#x14c;" horiz-adv-x="1579" 
d="M88 677q0 200 91.5 361t251.5 250.5t358 89.5q149 0 279.5 -52.5t223 -145t146 -223t53.5 -280.5q0 -202 -91 -361.5t-251 -247.5t-360 -88q-198 0 -358 88t-251.5 247.5t-91.5 361.5zM308 679q0 -224 133 -362t348 -138q218 0 350 137.5t132 362.5q0 221 -132.5 360.5
t-349.5 139.5q-214 0 -347.5 -140t-133.5 -360zM1085 1531h-591v144h591v-144z" />
    <glyph glyph-name="omacron" unicode="&#x14d;" horiz-adv-x="1182" 
d="M81 480q0 212 146 356t364 144t364 -144t146 -356t-146 -356t-364 -144t-364 144t-146 356zM279 480q0 -134 88.5 -224t223.5 -90t223.5 90t88.5 224t-88.5 224t-223.5 90t-223.5 -90t-88.5 -224zM887 1195h-591v144h591v-144z" />
    <glyph glyph-name="Obreve" unicode="&#x14e;" horiz-adv-x="1579" 
d="M789 -20q-198 0 -358 88t-251.5 247.5t-91.5 361.5q0 200 91.5 361t251.5 250.5t358 89.5q149 0 279.5 -52.5t223 -145t146 -223t53.5 -280.5q0 -202 -91 -361.5t-251 -247.5t-360 -88zM789 1179q-214 0 -347.5 -140t-133.5 -360q0 -224 133 -362t348 -138
q218 0 350 137.5t132 362.5q0 221 -132.5 360.5t-349.5 139.5zM513 1770h161q7 -60 37.5 -96.5t78.5 -36.5q51 0 81.5 36.5t34.5 96.5h161q-6 -129 -82 -203.5t-195 -74.5t-194.5 74.5t-82.5 203.5z" />
    <glyph glyph-name="obreve" unicode="&#x14f;" horiz-adv-x="1182" 
d="M591 -20q-218 0 -364 144t-146 356t146 356t364 144t364 -144t146 -356t-146 -356t-364 -144zM591 794q-135 0 -223.5 -90t-88.5 -224t88.5 -224t223.5 -90t223.5 90t88.5 224t-88.5 224t-223.5 90zM591 1135q-119 0 -194.5 74.5t-82.5 203.5h161q7 -60 37.5 -96.5
t78.5 -36.5q51 0 81.5 36.5t34.5 96.5h161q-6 -129 -82 -203.5t-195 -74.5z" />
    <glyph glyph-name="Ohungarumlaut" unicode="&#x150;" horiz-adv-x="1579" 
d="M789 -20q-198 0 -358 88t-251.5 247.5t-91.5 361.5q0 200 91.5 361t251.5 250.5t358 89.5q149 0 279.5 -52.5t223 -145t146 -223t53.5 -280.5q0 -202 -91 -361.5t-251 -247.5t-360 -88zM789 1179q-214 0 -347.5 -140t-133.5 -360q0 -224 133 -362t348 -138
q218 0 350 137.5t132 362.5q0 221 -132.5 360.5t-349.5 139.5zM1031 1473h-171l152 334h222zM530 1473l152 334h222l-203 -334h-171z" />
    <glyph glyph-name="ohungarumlaut" unicode="&#x151;" horiz-adv-x="1182" 
d="M591 -20q-218 0 -364 144t-146 356t146 356t364 144t364 -144t146 -356t-146 -356t-364 -144zM591 794q-135 0 -223.5 -90t-88.5 -224t88.5 -224t223.5 -90t223.5 90t88.5 224t-88.5 224t-223.5 90zM852 1113h-171l152 334h222zM351 1113l152 334h222l-203 -334h-171z
" />
    <glyph glyph-name="OE" unicode="&#x152;" horiz-adv-x="2307" 
d="M790 -21q-147 0 -276.5 51t-223.5 141t-148 220t-54 281q0 154 54 286.5t148 224t223.5 143.5t276.5 52q284 0 459 -182v162h950v-191h-740v-374h635v-191h-635v-411h761v-191h-971v157q-176 -178 -459 -178zM310 674q0 -221 133 -358.5t347 -137.5q209 0 339 137.5
t130 358.5q0 225 -130 365t-339 140q-214 0 -347 -140t-133 -365z" />
    <glyph glyph-name="oe" unicode="&#x153;" horiz-adv-x="1907" 
d="M81 480q0 139 65.5 253.5t181.5 180.5t258 66q123 0 227 -52.5t167 -142.5q59 90 162 142.5t227 52.5q202 0 328 -134t126 -331q0 -51 -8 -92h-741q7 -109 91.5 -183.5t206.5 -74.5q83 0 158 41t124 120l155 -99q-66 -119 -185.5 -183t-251.5 -64q-124 0 -229 53.5
t-165 143.5q-70 -92 -170.5 -144.5t-221.5 -52.5q-142 0 -258 66t-181.5 180.5t-65.5 253.5zM277 480q0 -134 88 -224t221 -90q134 0 225 90.5t91 223.5t-91 223.5t-225 90.5q-133 0 -221 -90t-88 -224zM1079 571h548q-15 102 -87 166t-173 64q-110 0 -189.5 -64t-98.5 -166
z" />
    <glyph glyph-name="Racute" unicode="&#x154;" horiz-adv-x="1333" 
d="M176 1357h584q211 0 336.5 -111t125.5 -301q0 -138 -73.5 -238t-201.5 -145l329 -562h-244l-307 533h-339v-533h-210v1357zM750 1168h-364v-448h364q122 0 187.5 61.5t65.5 163.5q0 104 -65 163.5t-188 59.5zM711 1473h-171l152 334h222z" />
    <glyph glyph-name="racute" unicode="&#x155;" horiz-adv-x="769" 
d="M351 0h-199v960h199v-131q78 151 250 151q33 0 66 -6t49 -12l17 -6l-21 -182q-60 22 -117 22q-44 0 -83.5 -13t-77.5 -41.5t-60.5 -85t-22.5 -133.5v-523zM366 1113l152 334h222l-203 -334h-171z" />
    <glyph glyph-name="uni0156" unicode="&#x156;" horiz-adv-x="1333" 
d="M176 1357h584q211 0 336.5 -111t125.5 -301q0 -138 -73.5 -238t-201.5 -145l329 -562h-244l-307 533h-339v-533h-210v1357zM386 1168v-448h364q122 0 187.5 61.5t65.5 163.5q0 104 -65 163.5t-188 59.5h-364zM725 -518h-166l14 402h207z" />
    <glyph glyph-name="uni0157" unicode="&#x157;" horiz-adv-x="769" 
d="M351 0h-199v960h199v-131q78 151 250 151q33 0 66 -6t49 -12l17 -6l-21 -182q-60 22 -117 22q-44 0 -83.5 -13t-77.5 -41.5t-60.5 -85t-22.5 -133.5v-523zM135 -518l14 402h207l-55 -402h-166z" />
    <glyph glyph-name="Rcaron" unicode="&#x158;" horiz-adv-x="1333" 
d="M176 1357h584q211 0 336.5 -111t125.5 -301q0 -138 -73.5 -238t-201.5 -145l329 -562h-244l-307 533h-339v-533h-210v1357zM386 1168v-448h364q122 0 187.5 61.5t65.5 163.5q0 104 -65 163.5t-188 59.5h-364zM280 1851h189l135 -187l135 187h189l-287 -370h-74z" />
    <glyph glyph-name="rcaron" unicode="&#x159;" horiz-adv-x="769" 
d="M152 0v960h199v-131q78 151 250 151q33 0 66 -6t49 -12l17 -6l-21 -182q-60 22 -117 22q-44 0 -83.5 -13t-77.5 -41.5t-60.5 -85t-22.5 -133.5v-523h-199zM125 1466h189l135 -187l135 187h189l-287 -370h-74z" />
    <glyph glyph-name="Sacute" unicode="&#x15a;" horiz-adv-x="1202" 
d="M92 288l157 109q51 -105 146 -166.5t228 -61.5q120 0 199.5 53t79.5 141q0 80 -71 127.5t-237 100.5q-89 29 -148.5 52t-124 58.5t-101.5 75t-61.5 96.5t-23.5 127q1 72 27.5 134t71 106.5t103.5 76t125 46.5t135 15q176 0 300 -79.5t187 -200.5l-163 -114
q-48 88 -131.5 145.5t-192.5 57.5q-103 0 -177 -50t-74 -136q0 -34 12 -60t35 -46t57 -36.5t77.5 -32.5t96.5 -34q17 -5 25 -8q194 -66 269 -107q146 -80 181 -206q14 -48 14 -106q0 -93 -43 -168.5t-113 -121.5t-155 -70.5t-175 -24.5q-192 0 -332.5 86t-202.5 222z
M522 1473l152 334h222l-203 -334h-171z" />
    <glyph glyph-name="sacute" unicode="&#x15b;" horiz-adv-x="962" 
d="M78 202l147 119q42 -74 111 -116.5t157 -42.5q79 0 129.5 29t50.5 77q0 50 -43 74.5t-157 50.5q-85 19 -143.5 40.5t-109 55.5t-75.5 85t-25 120q0 128 102 207t253 79q127 0 227.5 -56.5t152.5 -141.5l-133 -114q-92 131 -247 131q-72 0 -115.5 -28t-43.5 -74
q0 -22 9.5 -38.5t23.5 -28t44.5 -22.5t57.5 -18.5t77 -19.5q85 -21 143 -43.5t106.5 -57.5t72 -84.5t23.5 -116.5q0 -128 -111 -208t-269 -80q-139 0 -249 59.5t-166 162.5zM392 1113l152 334h222l-203 -334h-171z" />
    <glyph glyph-name="Scircumflex" unicode="&#x15c;" horiz-adv-x="1202" 
d="M627 -20q-192 0 -332.5 86t-202.5 222l157 109q51 -105 146 -166.5t228 -61.5q120 0 199.5 53t79.5 141q0 80 -71 127.5t-237 100.5q-89 29 -148.5 52t-124 58.5t-101.5 75t-61.5 96.5t-23.5 127q1 72 27.5 134t71 106.5t103.5 76t125 46.5t135 15q176 0 300 -79.5
t187 -200.5l-163 -114q-48 88 -131.5 145.5t-192.5 57.5q-103 0 -177 -50t-74 -136q0 -34 12 -60t35 -46t57 -36.5t77.5 -32.5t96.5 -34q17 -5 25 -8q194 -66 269 -107q146 -80 181 -206q14 -48 14 -106q0 -93 -43 -168.5t-113 -121.5t-155 -70.5t-175 -24.5zM454 1471h-189
l287 370h74l287 -370h-189l-135 187z" />
    <glyph glyph-name="scircumflex" unicode="&#x15d;" horiz-adv-x="962" 
d="M493 -20q-139 0 -249 59.5t-166 162.5l147 119q42 -74 111 -116.5t157 -42.5q79 0 129.5 29t50.5 77q0 50 -43 74.5t-157 50.5q-85 19 -143.5 40.5t-109 55.5t-75.5 85t-25 120q0 128 102 207t253 79q127 0 227.5 -56.5t152.5 -141.5l-133 -114q-92 131 -247 131
q-72 0 -115.5 -28t-43.5 -74q0 -22 9.5 -38.5t23.5 -28t44.5 -22.5t57.5 -18.5t77 -19.5q85 -21 143 -43.5t106.5 -57.5t72 -84.5t23.5 -116.5q0 -128 -111 -208t-269 -80zM179 1084l287 370h74l287 -370h-189l-135 187l-135 -187h-189z" />
    <glyph glyph-name="Scedilla" unicode="&#x15e;" horiz-adv-x="1202" 
d="M92 288l157 109q51 -105 146 -166.5t228 -61.5q120 0 199.5 53t79.5 141q0 80 -71 127.5t-237 100.5q-89 29 -148.5 52t-124 58.5t-101.5 75t-61.5 96.5t-23.5 127q1 72 27.5 134t71 106.5t103.5 76t125 46.5t135 15q176 0 300 -79.5t187 -200.5l-163 -114
q-48 88 -131.5 145.5t-192.5 57.5q-103 0 -177 -50t-74 -136q0 -34 12 -60t35 -46t57 -36.5t77.5 -32.5t96.5 -34q17 -5 25 -8q194 -66 269 -107q146 -80 181 -206q14 -48 14 -106q0 -88 -38.5 -160.5t-102.5 -118.5t-142.5 -73t-163.5 -32l-22 -72q96 -8 150.5 -53
t54.5 -118q0 -91 -73.5 -143t-203.5 -52q-101 0 -169 35l35 123q55 -26 123 -26q116 0 116 66q0 69 -130 69h-69l68 174q-162 18 -280.5 101t-173.5 203z" />
    <glyph glyph-name="scedilla" unicode="&#x15f;" horiz-adv-x="962" 
d="M78 202l147 119q42 -74 111 -116.5t157 -42.5q79 0 129.5 29t50.5 77q0 50 -43 74.5t-157 50.5q-85 19 -143.5 40.5t-109 55.5t-75.5 85t-25 120q0 128 102 207t253 79q127 0 227.5 -56.5t152.5 -141.5l-133 -114q-92 131 -247 131q-72 0 -115.5 -28t-43.5 -74
q0 -22 9.5 -38.5t23.5 -28t44.5 -22.5t57.5 -18.5t77 -19.5q85 -21 143 -43.5t106.5 -57.5t72 -84.5t23.5 -116.5q0 -118 -95.5 -196t-238.5 -90l-22 -73q96 -8 150.5 -53t54.5 -118q0 -91 -73.5 -143t-203.5 -52q-101 0 -169 35l35 123q55 -26 123 -26q116 0 116 66
q0 69 -130 69h-69l68 175q-114 14 -203.5 71.5t-137.5 145.5z" />
    <glyph glyph-name="Scaron" unicode="&#x160;" horiz-adv-x="1202" 
d="M627 -20q-192 0 -332.5 86t-202.5 222l157 109q51 -105 146 -166.5t228 -61.5q120 0 199.5 53t79.5 141q0 80 -71 127.5t-237 100.5q-89 29 -148.5 52t-124 58.5t-101.5 75t-61.5 96.5t-23.5 127q1 72 27.5 134t71 106.5t103.5 76t125 46.5t135 15q176 0 300 -79.5
t187 -200.5l-163 -114q-48 88 -131.5 145.5t-192.5 57.5q-103 0 -177 -50t-74 -136q0 -34 12 -60t35 -46t57 -36.5t77.5 -32.5t96.5 -34q17 -5 25 -8q194 -66 269 -107q146 -80 181 -206q14 -48 14 -106q0 -93 -43 -168.5t-113 -121.5t-155 -70.5t-175 -24.5zM278 1851h189
l135 -187l135 187h189l-287 -370h-74z" />
    <glyph glyph-name="scaron" unicode="&#x161;" horiz-adv-x="962" 
d="M493 -20q-139 0 -249 59.5t-166 162.5l147 119q42 -74 111 -116.5t157 -42.5q79 0 129.5 29t50.5 77q0 50 -43 74.5t-157 50.5q-85 19 -143.5 40.5t-109 55.5t-75.5 85t-25 120q0 128 102 207t253 79q127 0 227.5 -56.5t152.5 -141.5l-133 -114q-92 131 -247 131
q-72 0 -115.5 -28t-43.5 -74q0 -22 9.5 -38.5t23.5 -28t44.5 -22.5t57.5 -18.5t77 -19.5q85 -21 143 -43.5t106.5 -57.5t72 -84.5t23.5 -116.5q0 -128 -111 -208t-269 -80zM174 1466h189l135 -187l135 187h189l-287 -370h-74z" />
    <glyph glyph-name="uni0162" unicode="&#x162;" horiz-adv-x="1160" 
d="M476 1161h-448v197h1104v-197h-447v-1161h-42l-28 -91q96 -8 150.5 -53t54.5 -118q0 -91 -73.5 -143t-203.5 -52q-101 0 -169 35l35 123q55 -26 123 -26q116 0 116 66q0 69 -130 69h-69l74 190h-47v1161z" />
    <glyph glyph-name="uni0163" unicode="&#x163;" horiz-adv-x="782" 
d="M210 792h-171v168h174v308h193v-308h305v-168h-303v-480q0 -75 41 -114t116 -39q78 0 156 33l26 -170q-81 -42 -210 -42q-17 0 -47 2l-22 -73q96 -8 150.5 -53t54.5 -118q0 -91 -73.5 -143t-203.5 -52q-101 0 -169 35l35 123q55 -26 123 -26q116 0 116 66q0 69 -130 69
h-69l77 199q-81 34 -125 105.5t-44 173.5v504z" />
    <glyph glyph-name="Tcaron" unicode="&#x164;" horiz-adv-x="1160" 
d="M28 1161v197h1104v-197h-447v-1161h-209v1161h-448zM256 1851h189l135 -187l135 187h189l-287 -370h-74z" />
    <glyph glyph-name="tcaron" unicode="&#x165;" horiz-adv-x="782" 
d="M39 792v168h174v308h193v-308h305v-168h-303v-480q0 -75 41 -114t116 -39q78 0 156 33l26 -170q-81 -42 -210 -42q-152 0 -239.5 81.5t-87.5 226.5v504h-171zM536 1510h207l-41 -402h-166v402z" />
    <glyph glyph-name="Tbar" unicode="&#x166;" horiz-adv-x="1226" 
d="M509 1161h-448v197h1104v-197h-447v-366h346v-174h-346v-621h-209v621h-348v174h348v366z" />
    <glyph glyph-name="tbar" unicode="&#x167;" horiz-adv-x="801" 
d="M224 792h-171v168h174v308h193v-308h305v-168h-303v-203h293v-162h-293v-115q0 -75 41 -114t116 -39q78 0 156 33l26 -170q-81 -42 -210 -42q-152 0 -239.5 81.5t-87.5 226.5v139h-161v162h161v203z" />
    <glyph glyph-name="Utilde" unicode="&#x168;" horiz-adv-x="1463" 
d="M732 -20q-261 0 -416 139t-155 372v867h208v-858q0 -149 98.5 -237t264.5 -88t264 88t98 237v858h208v-867q0 -233 -154.5 -372t-415.5 -139zM494 1520l-103 87q96 160 217 160q47 0 87.5 -20.5t76.5 -41t72 -20.5q43 0 71.5 18t61.5 64l95 -95q-49 -80 -101.5 -114.5
t-128.5 -34.5q-43 0 -83.5 19.5t-75.5 38.5t-64 19q-38 0 -62.5 -17t-62.5 -63z" />
    <glyph glyph-name="utilde" unicode="&#x169;" horiz-adv-x="1191" 
d="M139 960h198v-541q0 -119 62 -185t172 -66q117 0 193.5 67.5t76.5 183.5v541h198v-960h-199v121q-14 -22 -36.5 -43.5t-58 -45t-89.5 -38t-116 -14.5q-192 0 -296.5 108.5t-104.5 288.5v583zM241 1247q96 160 217 160q47 0 87.5 -20.5t76.5 -41t72 -20.5q43 0 71.5 18
t61.5 64l95 -95q-49 -80 -101.5 -114.5t-128.5 -34.5q-43 0 -83.5 19.5t-75.5 38.5t-64 19q-38 0 -62.5 -17t-62.5 -63z" />
    <glyph glyph-name="Umacron" unicode="&#x16a;" horiz-adv-x="1463" 
d="M732 -20q-261 0 -416 139t-155 372v867h208v-858q0 -149 98.5 -237t264.5 -88t264 88t98 237v858h208v-867q0 -233 -154.5 -372t-415.5 -139zM436 1531v144h591v-144h-591z" />
    <glyph glyph-name="umacron" unicode="&#x16b;" horiz-adv-x="1191" 
d="M139 960h198v-541q0 -119 62 -185t172 -66q117 0 193.5 67.5t76.5 183.5v541h198v-960h-199v121q-14 -22 -36.5 -43.5t-58 -45t-89.5 -38t-116 -14.5q-192 0 -296.5 108.5t-104.5 288.5v583zM282 1339h591v-144h-591v144z" />
    <glyph glyph-name="Ubreve" unicode="&#x16c;" horiz-adv-x="1463" 
d="M161 491v867h208v-858q0 -149 98.5 -237t264.5 -88t264 88t98 237v858h208v-867q0 -233 -154.5 -372t-415.5 -139t-416 139t-155 372zM455 1770h161q7 -60 37.5 -96.5t78.5 -36.5q51 0 81.5 36.5t34.5 96.5h161q-6 -129 -82 -203.5t-195 -74.5t-194.5 74.5t-82.5 203.5z
" />
    <glyph glyph-name="ubreve" unicode="&#x16d;" horiz-adv-x="1191" 
d="M139 960h198v-541q0 -119 62 -185t172 -66q117 0 193.5 67.5t76.5 183.5v541h198v-960h-199v121q-14 -22 -36.5 -43.5t-58 -45t-89.5 -38t-116 -14.5q-192 0 -296.5 108.5t-104.5 288.5v583zM570 1135q-119 0 -194.5 74.5t-82.5 203.5h161q7 -60 37.5 -96.5t78.5 -36.5
q51 0 81.5 36.5t34.5 96.5h161q-6 -129 -82 -203.5t-195 -74.5z" />
    <glyph glyph-name="Uring" unicode="&#x16e;" horiz-adv-x="1463" 
d="M161 1358h208v-858q0 -149 98.5 -237t264.5 -88t264 88t98 237v858h208v-867q0 -233 -154.5 -372t-415.5 -139t-416 139t-155 372v867zM732 1497q-92 0 -149 54t-57 141q0 88 57 143t149 55t149 -55t57 -143q0 -87 -57 -141t-149 -54zM646 1691q0 -36 23.5 -58.5
t62.5 -22.5q38 0 61.5 22.5t23.5 58.5q0 39 -23.5 63t-61.5 24q-39 0 -62.5 -24t-23.5 -63z" />
    <glyph glyph-name="uring" unicode="&#x16f;" horiz-adv-x="1191" 
d="M139 960h198v-541q0 -119 62 -185t172 -66q117 0 193.5 67.5t76.5 183.5v541h198v-960h-199v121q-14 -22 -36.5 -43.5t-58 -45t-89.5 -38t-116 -14.5q-192 0 -296.5 108.5t-104.5 288.5v583zM356 1290q0 88 57 143t149 55t149 -55t57 -143q0 -87 -57 -141t-149 -54
t-149 54t-57 141zM562 1376q-39 0 -62.5 -24t-23.5 -63q0 -36 23.5 -58.5t62.5 -22.5q38 0 61.5 22.5t23.5 58.5q0 39 -23.5 63t-61.5 24z" />
    <glyph glyph-name="Uhungarumlaut" unicode="&#x170;" horiz-adv-x="1463" 
d="M732 -20q-261 0 -416 139t-155 372v867h208v-858q0 -149 98.5 -237t264.5 -88t264 88t98 237v858h208v-867q0 -233 -154.5 -372t-415.5 -139zM983 1473h-171l152 334h222zM654 1473h-171l152 334h222z" />
    <glyph glyph-name="uhungarumlaut" unicode="&#x171;" horiz-adv-x="1191" 
d="M139 960h198v-541q0 -119 62 -185t172 -66q117 0 193.5 67.5t76.5 183.5v541h198v-960h-199v121q-14 -22 -36.5 -43.5t-58 -45t-89.5 -38t-116 -14.5q-192 0 -296.5 108.5t-104.5 288.5v583zM665 1113l152 334h222l-203 -334h-171zM335 1113l152 334h222l-203 -334h-171z
" />
    <glyph glyph-name="Uogonek" unicode="&#x172;" horiz-adv-x="1463" 
d="M161 491v867h208v-858q0 -149 98.5 -237t264.5 -88t264 88t98 237v858h208v-867q0 -190 -104.5 -319.5t-289.5 -172.5q-190 -129 -190 -218q0 -36 26 -56.5t72 -20.5q58 0 114 27l45 -140q-78 -48 -186 -48q-112 0 -176 51t-64 140q0 129 158 246q-251 8 -398.5 146
t-147.5 365z" />
    <glyph glyph-name="uogonek" unicode="&#x173;" horiz-adv-x="1191" 
d="M139 960h198v-541q0 -119 62 -185t172 -66q117 0 193.5 67.5t76.5 183.5v541h198v-960h-24q-191 -129 -191 -219q0 -36 26 -56.5t72 -20.5q58 0 114 27l45 -140q-78 -48 -186 -48q-112 0 -176 51t-64 140q0 140 185 266v121q-14 -22 -36.5 -43.5t-58 -45t-89.5 -38
t-116 -14.5q-192 0 -296.5 108.5t-104.5 288.5v583z" />
    <glyph glyph-name="Wcircumflex" unicode="&#x174;" horiz-adv-x="2039" 
d="M30 1358h210l338 -1169l329 1147h225l329 -1147l337 1169h211l-378 -1358h-339l-273 1006l-272 -1006h-339zM885 1471h-189l287 370h74l287 -370h-189l-135 187z" />
    <glyph glyph-name="wcircumflex" unicode="&#x175;" horiz-adv-x="1576" 
d="M39 960h209l211 -766l224 756h210l224 -756l211 766h209l-283 -960h-270l-196 683l-196 -683h-270zM653 1084h-189l287 370h74l287 -370h-189l-135 187z" />
    <glyph glyph-name="Ycircumflex" unicode="&#x176;" horiz-adv-x="1269" 
d="M530 522l-515 836h250l369 -614l370 614h250l-515 -836v-522h-209v522zM500 1471h-189l287 370h74l287 -370h-189l-135 187z" />
    <glyph glyph-name="ycircumflex" unicode="&#x177;" horiz-adv-x="1080" 
d="M24 960h218l299 -756l297 756h218l-460 -1082q-26 -59 -48.5 -100t-56 -81t-72 -64t-93.5 -38.5t-124 -14.5q-93 0 -159 35l21 164q56 -25 129 -25q91 0 140 43t84 134l21 55zM209 1084l287 370h74l287 -370h-189l-135 187l-135 -187h-189z" />
    <glyph glyph-name="Ydieresis" unicode="&#x178;" horiz-adv-x="1269" 
d="M15 1358h250l369 -614l370 614h250l-515 -836v-522h-209v522zM689 1618q0 54 34 88t88 34t88.5 -34t34.5 -88t-34.5 -88t-88.5 -34t-88 34t-34 88zM458 1496q-54 0 -88 34t-34 88t34 88t88 34t88.5 -34t34.5 -88t-34.5 -88t-88.5 -34z" />
    <glyph glyph-name="Zacute" unicode="&#x179;" horiz-adv-x="1206" 
d="M80 0v166l765 1001h-755v191h1029v-169l-767 -998h777v-191h-1049zM879 1807l-203 -334h-171l152 334h222z" />
    <glyph glyph-name="zacute" unicode="&#x17a;" horiz-adv-x="903" 
d="M83 0v165l495 627h-485v168h710v-165l-495 -627h526v-168h-751zM734 1447l-203 -334h-171l152 334h222z" />
    <glyph glyph-name="Zdotaccent" unicode="&#x17b;" horiz-adv-x="1206" 
d="M80 0v166l765 1001h-755v191h1029v-169l-767 -998h777v-191h-1049zM463 1616q0 54 34 88t88 34t88.5 -34t34.5 -88t-34.5 -88t-88.5 -34t-88 34t-34 88z" />
    <glyph glyph-name="zdotaccent" unicode="&#x17c;" horiz-adv-x="903" 
d="M83 0v165l495 627h-485v168h710v-165l-495 -627h526v-168h-751zM325 1282q0 54 34 88t88 34t88.5 -34t34.5 -88t-34.5 -88t-88.5 -34t-88 34t-34 88z" />
    <glyph glyph-name="Zcaron" unicode="&#x17d;" horiz-adv-x="1206" 
d="M80 0v166l765 1001h-755v191h1029v-169l-767 -998h777v-191h-1049zM562 1481l-287 370h189l135 -187l135 187h189l-287 -370h-74z" />
    <glyph glyph-name="zcaron" unicode="&#x17e;" horiz-adv-x="903" 
d="M83 0v165l495 627h-485v168h710v-165l-495 -627h526v-168h-751zM415 1096l-287 370h189l135 -187l135 187h189l-287 -370h-74z" />
    <glyph glyph-name="uni018F" unicode="&#x18f;" horiz-adv-x="1522" 
d="M82 644q0 48 6 96h1125q-17 191 -149.5 315t-326.5 124q-271 0 -434 -246l-163 114q98 158 255 244.5t342 86.5q194 0 354 -91.5t252 -252t92 -355.5q0 -146 -55 -276t-148.5 -222.5t-223.5 -146.5t-276 -54q-148 0 -272.5 54t-206 145.5t-126.5 211.5t-45 253zM1204 562
h-898q3 -69 32.5 -136t81 -122.5t133 -90t179.5 -34.5q180 0 308 104.5t164 278.5z" />
    <glyph glyph-name="florin" unicode="&#x192;" horiz-adv-x="1163" 
d="M254 -20q-114 0 -208 66l86 165q58 -42 126 -42q66 0 115.5 42.5t58.5 118.5l48 396h-182l22 176h184l17 135q19 153 121 246.5t254 93.5q120 0 213 -65l-86 -165q-58 42 -126 42q-67 0 -117 -42.5t-59 -118.5l-16 -126h282l-22 -176h-279l-52 -405q-20 -153 -124 -247
t-256 -94z" />
    <glyph glyph-name="uni019D" unicode="&#x19d;" horiz-adv-x="1599" 
d="M-80 -390l21 164q44 -20 106 -20q68 0 98.5 41t30.5 130v1433h210l827 -1035v1035h210v-1358h-212l-825 1025v-1111q0 -159 -81.5 -246.5t-243.5 -87.5q-85 0 -141 30z" />
    <glyph glyph-name="Gcaron" unicode="&#x1e6;" horiz-adv-x="1525" 
d="M790 -20q-146 0 -276 54t-223.5 146.5t-148.5 222.5t-55 276q0 195 92 355.5t252 252t354 91.5q183 0 333 -81.5t247 -226.5l-163 -114q-85 114 -185 168.5t-232 54.5q-209 0 -344 -141t-135 -359t137 -359t347 -141q187 0 300.5 97t135.5 244h-468v190h686q4 -36 4 -79
q0 -133 -45 -251t-127.5 -207t-208 -141t-277.5 -52zM739 1481l-287 370h189l135 -187l135 187h189l-287 -370h-74z" />
    <glyph glyph-name="gcaron" unicode="&#x1e7;" horiz-adv-x="1257" 
d="M569 -20q-206 0 -344 142.5t-138 362.5q0 219 137.5 357t344.5 138q224 0 342 -151v131h198v-885q0 -227 -143 -361t-385 -134q-132 0 -249.5 53.5t-199.5 152.5l130 129q142 -155 323 -155q148 0 237 79.5t89 210.5v81q-116 -151 -342 -151zM593 802q-136 0 -222 -91
t-86 -226q0 -136 86 -231.5t222 -95.5t226.5 96t90.5 231q0 134 -90 225.5t-227 91.5zM291 1466h189l135 -187l135 187h189l-287 -370h-74z" />
    <glyph glyph-name="uni01EA" unicode="&#x1ea;" horiz-adv-x="1579" 
d="M764 -20q-192 6 -346 95.5t-242 247t-88 354.5q0 200 91.5 361t251.5 250.5t358 89.5q149 0 279.5 -52.5t223 -145t146 -223t53.5 -280.5q0 -258 -145 -441t-381 -237q-190 -128 -190 -218q0 -36 26 -56.5t72 -20.5q58 0 114 27l45 -140q-78 -48 -186 -48q-112 0 -176 51
t-64 140q0 129 158 246zM308 679q0 -224 133 -362t348 -138q218 0 350 137.5t132 362.5q0 221 -132.5 360.5t-349.5 139.5q-214 0 -347.5 -140t-133.5 -360z" />
    <glyph glyph-name="uni01EB" unicode="&#x1eb;" horiz-adv-x="1182" 
d="M538 -18q-199 19 -328 159.5t-129 338.5q0 212 146 356t364 144t364 -144t146 -356q0 -173 -101 -304.5t-265 -176.5q-189 -129 -189 -218q0 -36 26 -56.5t72 -20.5q58 0 114 27l45 -140q-78 -48 -186 -48q-112 0 -176 51t-64 140q0 132 161 248zM279 480
q0 -134 88.5 -224t223.5 -90t223.5 90t88.5 224t-88.5 224t-223.5 90t-223.5 -90t-88.5 -224z" />
    <glyph glyph-name="Aringacute" unicode="&#x1fa;" horiz-adv-x="1370" 
d="M234 0h-224l561 1358h228l561 -1358h-224l-108 283h-686zM685 1123l-280 -665h560zM684 1497q-92 0 -149 54t-57 141q0 88 57 143t149 55t149 -55t57 -143q0 -87 -57 -141t-149 -54zM833 1962h-171l152 334h222zM684 1778q-39 0 -62.5 -24t-23.5 -63q0 -36 23.5 -58.5
t62.5 -22.5q38 0 61.5 22.5t23.5 58.5q0 39 -23.5 63t-61.5 24z" />
    <glyph glyph-name="aringacute" unicode="&#x1fb;" horiz-adv-x="1091" 
d="M459 -20q-162 0 -266.5 78t-104.5 215q0 135 117.5 219.5t306.5 84.5q148 0 242 -45v52q0 91 -68 150.5t-178 59.5q-82 0 -154 -38.5t-121 -94.5l-125 124q62 79 171.5 137t231.5 58q203 0 322 -102t119 -277v-601h-194v124q-44 -68 -123 -106t-176 -38zM289 1290
q0 88 57 143t149 55t149 -55t57 -143q0 -87 -57 -141t-149 -54t-149 54t-57 141zM288 280q0 -64 56.5 -101t143.5 -37q115 0 190.5 69t75.5 169q-35 18 -100 32t-137 14q-101 0 -165 -36t-64 -110zM421 1567l152 334h222l-203 -334h-171zM495 1376q-39 0 -62.5 -24
t-23.5 -63q0 -36 23.5 -58.5t62.5 -22.5q38 0 61.5 22.5t23.5 58.5q0 39 -23.5 63t-61.5 24z" />
    <glyph glyph-name="AEacute" unicode="&#x1fc;" horiz-adv-x="1979" 
d="M-44 0l836 1358h1079v-191h-742v-374h637v-191h-637v-411h763v-191h-973v283h-555l-178 -283h-230zM474 458h445v709zM1435 1473h-171l152 334h222z" />
    <glyph glyph-name="aeacute" unicode="&#x1fd;" horiz-adv-x="1787" 
d="M89 279q0 97 58.5 166.5t147.5 101.5t196 32q143 0 263 -56v61q0 90 -67.5 150t-171.5 60q-91 0 -161.5 -40t-108.5 -92l-136 125q153 193 409 193q117 0 213.5 -47t147.5 -128q57 84 155.5 129.5t210.5 45.5q204 0 331 -134t127 -331q0 -51 -8 -92h-745
q7 -109 91 -183.5t207 -74.5q84 0 159.5 41t125.5 120l156 -99q-67 -119 -187.5 -183t-253.5 -64q-127 0 -235.5 52.5t-174.5 155.5q-113 -208 -379 -208q-94 0 -177 34t-138 104t-55 161zM520 426q-95 0 -159 -36.5t-64 -108.5q0 -61 53.5 -95t131.5 -34q66 0 126 23
t102 74t42 120q-38 27 -101.5 42t-130.5 15zM955 571h551q-16 102 -88.5 166t-174.5 64q-111 0 -190 -64t-98 -166zM969 1113h-171l152 334h222z" />
    <glyph glyph-name="Oslashacute" unicode="&#x1fe;" horiz-adv-x="1579" 
d="M311 154q-106 95 -164.5 229t-58.5 294q0 200 91.5 361t251.5 250.5t358 89.5q175 0 325 -72l119 170l153 -103l-119 -170q107 -95 165.5 -230.5t58.5 -295.5q0 -202 -91 -361.5t-251 -247.5t-360 -88q-178 0 -325 72l-117 -170l-153 103zM582 220q93 -41 207 -41
q218 0 350 137.5t132 362.5q0 213 -124 351zM432 327l565 811q-96 41 -208 41q-214 0 -347.5 -140t-133.5 -360q0 -215 124 -352zM868 1473h-171l152 334h222z" />
    <glyph glyph-name="oslashacute" unicode="&#x1ff;" horiz-adv-x="1191" 
d="M162 -141l-103 83l160 197q-132 140 -132 341q0 212 146 356t364 144q138 0 255 -63l151 186l104 -85l-147 -181q147 -144 147 -357q0 -212 -146 -356t-364 -144q-153 0 -275 75zM836 686l-393 -482q71 -38 154 -38q135 0 223.5 90t88.5 224q0 120 -73 206zM343 292
l387 475q-64 27 -133 27q-135 0 -223.5 -90t-88.5 -224q0 -106 58 -188zM678 1113h-171l152 334h222z" />
    <glyph glyph-name="uni0218" unicode="&#x218;" horiz-adv-x="1202" 
d="M92 288l157 109q51 -105 146 -166.5t228 -61.5q120 0 199.5 53t79.5 141q0 80 -71 127.5t-237 100.5q-89 29 -148.5 52t-124 58.5t-101.5 75t-61.5 96.5t-23.5 127q1 72 27.5 134t71 106.5t103.5 76t125 46.5t135 15q176 0 300 -79.5t187 -200.5l-163 -114
q-48 88 -131.5 145.5t-192.5 57.5q-103 0 -177 -50t-74 -136q0 -34 12 -60t35 -46t57 -36.5t77.5 -32.5t96.5 -34q17 -5 25 -8q194 -66 269 -107q146 -80 181 -206q14 -48 14 -106q0 -93 -43 -168.5t-113 -121.5t-155 -70.5t-175 -24.5q-192 0 -332.5 86t-202.5 222z
M671 -518h-166l14 402h207z" />
    <glyph glyph-name="uni0219" unicode="&#x219;" horiz-adv-x="962" 
d="M78 202l147 119q42 -74 111 -116.5t157 -42.5q79 0 129.5 29t50.5 77q0 50 -43 74.5t-157 50.5q-85 19 -143.5 40.5t-109 55.5t-75.5 85t-25 120q0 128 102 207t253 79q127 0 227.5 -56.5t152.5 -141.5l-133 -114q-92 131 -247 131q-72 0 -115.5 -28t-43.5 -74
q0 -22 9.5 -38.5t23.5 -28t44.5 -22.5t57.5 -18.5t77 -19.5q85 -21 143 -43.5t106.5 -57.5t72 -84.5t23.5 -116.5q0 -128 -111 -208t-269 -80q-139 0 -249 59.5t-166 162.5zM557 -518h-166l14 402h207z" />
    <glyph glyph-name="uni021A" unicode="&#x21a;" horiz-adv-x="1160" 
d="M28 1358h1104v-197h-447v-1161h-209v1161h-448v197zM624 -518h-166l14 402h207z" />
    <glyph glyph-name="uni021B" unicode="&#x21b;" horiz-adv-x="782" 
d="M39 960h174v308h193v-308h305v-168h-303v-480q0 -75 41 -114t116 -39q78 0 156 33l26 -170q-81 -42 -210 -42q-152 0 -239.5 81.5t-87.5 226.5v504h-171v168zM501 -518h-166l14 402h207z" />
    <glyph glyph-name="uni0232" unicode="&#x232;" horiz-adv-x="1269" 
d="M530 522l-515 836h250l369 -614l370 614h250l-515 -836v-522h-209v522zM339 1531v144h591v-144h-591z" />
    <glyph glyph-name="uni0233" unicode="&#x233;" horiz-adv-x="1080" 
d="M438 -14l-414 974h218l299 -756l297 756h218l-460 -1082q-26 -59 -48.5 -100t-56 -81t-72 -64t-93.5 -38.5t-124 -14.5q-93 0 -159 35l21 164q56 -25 129 -25q91 0 140 43t84 134zM834 1195h-591v144h591v-144z" />
    <glyph glyph-name="uni0237" unicode="&#x237;" horiz-adv-x="512" 
d="M-134 -390l21 164q52 -20 124 -20q79 0 115 46t36 145v1015h198v-1026q0 -168 -84 -261t-251 -93q-95 0 -159 30z" />
    <glyph glyph-name="uni0259" unicode="&#x259;" horiz-adv-x="1123" 
d="M545 -20q-137 0 -243 62.5t-162.5 168t-56.5 234.5q0 51 8 92h745q-7 109 -91 183t-207 74q-184 0 -288 -164l-146 106q65 116 183.5 180t250.5 64q217 0 360 -142.5t143 -356.5q0 -216 -139.5 -358.5t-356.5 -142.5zM831 389h-547q9 -101 84 -165.5t179 -64.5
q109 0 187 64t97 166z" />
    <glyph glyph-name="uni0272" unicode="&#x272;" horiz-adv-x="1188" 
d="M-94 -390l21 164q44 -20 104 -20q63 0 92 39t29 122v1045h199v-121q14 22 36.5 43.5t57.5 45t87.5 38t113.5 14.5q193 0 298 -108.5t105 -288.5v-583h-198v541q0 119 -62 185t-174 66q-114 0 -189.5 -67.5t-75.5 -183.5v-381h1l-1 -256q0 -154 -77 -239t-228 -85
q-83 0 -139 30z" />
    <glyph glyph-name="circumflex" unicode="&#x2c6;" horiz-adv-x="948" 
d="M150 1471l287 370h74l287 -370h-189l-135 187l-135 -187h-189z" />
    <glyph glyph-name="caron" unicode="&#x2c7;" horiz-adv-x="948" 
d="M437 1481l-287 370h189l135 -187l135 187h189l-287 -370h-74z" />
    <glyph glyph-name="breve" unicode="&#x2d8;" horiz-adv-x="834" 
d="M140 1770h161q7 -60 37.5 -96.5t78.5 -36.5q51 0 81.5 36.5t34.5 96.5h161q-6 -129 -82 -203.5t-195 -74.5t-194.5 74.5t-82.5 203.5z" />
    <glyph glyph-name="dotaccent" unicode="&#x2d9;" horiz-adv-x="545" 
d="M150 1616q0 54 34 88t88 34t88.5 -34t34.5 -88t-34.5 -88t-88.5 -34t-88 34t-34 88z" />
    <glyph glyph-name="ring" unicode="&#x2da;" horiz-adv-x="712" 
d="M356 1497q-92 0 -149 54t-57 141q0 88 57 143t149 55t149 -55t57 -143q0 -87 -57 -141t-149 -54zM270 1691q0 -36 23.5 -58.5t62.5 -22.5q38 0 61.5 22.5t23.5 58.5q0 39 -23.5 63t-61.5 24q-39 0 -62.5 -24t-23.5 -63z" />
    <glyph glyph-name="ogonek" unicode="&#x2db;" horiz-adv-x="674" 
d="M131 -266q0 91 74 170.5t176 134.5l110 -39q-191 -129 -191 -219q0 -36 26 -56.5t72 -20.5q58 0 114 27l45 -140q-78 -48 -186 -48q-112 0 -176 51t-64 140z" />
    <glyph glyph-name="tilde" unicode="&#x2dc;" horiz-adv-x="981" 
d="M253 1520l-103 87q96 160 217 160q47 0 87.5 -20.5t76.5 -41t72 -20.5q43 0 71.5 18t61.5 64l95 -95q-49 -80 -101.5 -114.5t-128.5 -34.5q-43 0 -83.5 19.5t-75.5 38.5t-64 19q-38 0 -62.5 -17t-62.5 -63z" />
    <glyph glyph-name="hungarumlaut" unicode="&#x2dd;" horiz-adv-x="996" 
d="M472 1473l152 334h222l-203 -334h-171zM321 1473h-171l152 334h222z" />
    <glyph glyph-name="acutecomb" unicode="&#x301;" horiz-adv-x="674" 
d="M524 2277l-203 -334h-171l152 334h222z" />
    <glyph glyph-name="uni030A" unicode="&#x30a;" horiz-adv-x="712" 
d="M356 1497q-92 0 -149 54t-57 141q0 88 57 143t149 55t149 -55t57 -143q0 -87 -57 -141t-149 -54zM270 1691q0 -36 23.5 -58.5t62.5 -22.5q38 0 61.5 22.5t23.5 58.5q0 39 -23.5 63t-61.5 24q-39 0 -62.5 -24t-23.5 -63z" />
    <glyph glyph-name="dotbelowcomb" unicode="&#x323;" horiz-adv-x="545" 
d="M150 -282q0 54 34 88t88 34t88.5 -34t34.5 -88t-34.5 -88t-88.5 -34t-88 34t-34 88z" />
    <glyph glyph-name="uni0326" unicode="&#x326;" horiz-adv-x="521" 
d="M150 -518l14 402h207l-55 -402h-166z" />
    <glyph glyph-name="uni03BC" unicode="&#x3bc;" horiz-adv-x="1196" 
d="M152 961h199v-571q7 -106 68 -164t162 -58q114 0 189.5 67.5t75.5 183.5v541h198v-960h-199v121q-14 -22 -36.5 -43.5t-57.5 -45t-87.5 -38t-113.5 -14.5q-130 0 -199 61v-441h-199v1361z" />
    <glyph glyph-name="pi" unicode="&#x3c0;" horiz-adv-x="1320" 
d="M37 1087h1204v-198h-190v-585q0 -83 30 -111.5t111 -28.5q26 0 44 3v-181q-27 -6 -78 -6q-302 0 -302 299v610h-427v-889h-195v889h-197v198z" />
    <glyph glyph-name="Wgrave" unicode="&#x1e80;" horiz-adv-x="2039" 
d="M30 1358h210l338 -1169l329 1147h225l329 -1147l337 1169h211l-378 -1358h-339l-273 1006l-272 -1006h-339zM722 1807h222l152 -334h-171z" />
    <glyph glyph-name="wgrave" unicode="&#x1e81;" horiz-adv-x="1576" 
d="M39 960h209l211 -766l224 756h210l224 -756l211 766h209l-283 -960h-270l-196 683l-196 -683h-270zM484 1455h222l152 -334h-171z" />
    <glyph glyph-name="Wacute" unicode="&#x1e82;" horiz-adv-x="2039" 
d="M408 0l-378 1358h210l338 -1169l329 1147h225l329 -1147l337 1169h211l-378 -1358h-339l-273 1006l-272 -1006h-339zM1126 1473h-171l152 334h222z" />
    <glyph glyph-name="wacute" unicode="&#x1e83;" horiz-adv-x="1576" 
d="M322 0l-283 960h209l211 -766l224 756h210l224 -756l211 766h209l-283 -960h-270l-196 683l-196 -683h-270zM902 1113h-171l152 334h222z" />
    <glyph glyph-name="Wdieresis" unicode="&#x1e84;" horiz-adv-x="2039" 
d="M408 0l-378 1358h210l338 -1169l329 1147h225l329 -1147l337 1169h211l-378 -1358h-339l-273 1006l-272 -1006h-339zM1196 1496q-54 0 -88 34t-34 88t34 88t88 34t88.5 -34t34.5 -88t-34.5 -88t-88.5 -34zM721 1618q0 54 34 88t88 34t88.5 -34t34.5 -88t-34.5 -88
t-88.5 -34t-88 34t-34 88z" />
    <glyph glyph-name="wdieresis" unicode="&#x1e85;" horiz-adv-x="1576" 
d="M322 0l-283 960h209l211 -766l224 756h210l224 -756l211 766h209l-283 -960h-270l-196 683l-196 -683h-270zM964 1159q-54 0 -88 34t-34 88t34 88t88 34t88.5 -34t34.5 -88t-34.5 -88t-88.5 -34zM611 1159q-54 0 -88 34t-34 88t34 88t88 34t88.5 -34t34.5 -88t-34.5 -88
t-88.5 -34z" />
    <glyph glyph-name="Germandbls" unicode="&#x1e9e;" horiz-adv-x="1391" 
d="M160 825q0 246 162 399.5t421 153.5q157 0 285 -69t194 -181v-71l-361 -316h27q182 0 300.5 -101t118.5 -266q0 -175 -121.5 -284.5t-316.5 -109.5q-139 0 -249 59.5t-166 162.5l147 119q43 -68 114 -110.5t154 -42.5q99 0 162.5 56.5t63.5 143.5q0 89 -68 146.5
t-173 57.5h-274v132l420 381q-34 46 -106 72.5t-156 26.5q-163 0 -266 -101.5t-103 -262.5v-820h-209v825z" />
    <glyph glyph-name="uni1EA0" unicode="&#x1ea0;" horiz-adv-x="1370" 
d="M234 0h-224l561 1358h228l561 -1358h-224l-108 283h-686zM685 1123l-280 -665h560zM562 -282q0 54 34 88t88 34t88.5 -34t34.5 -88t-34.5 -88t-88.5 -34t-88 34t-34 88z" />
    <glyph glyph-name="uni1EA1" unicode="&#x1ea1;" horiz-adv-x="1091" 
d="M459 -20q-162 0 -266.5 78t-104.5 215q0 135 117.5 219.5t306.5 84.5q148 0 242 -45v52q0 91 -68 150.5t-178 59.5q-82 0 -154 -38.5t-121 -94.5l-125 124q62 79 171.5 137t231.5 58q203 0 322 -102t119 -277v-601h-194v124q-44 -68 -123 -106t-176 -38zM288 280
q0 -64 56.5 -101t143.5 -37q115 0 190.5 69t75.5 169q-35 18 -100 32t-137 14q-101 0 -165 -36t-64 -110zM379 -282q0 54 34 88t88 34t88.5 -34t34.5 -88t-34.5 -88t-88.5 -34t-88 34t-34 88z" />
    <glyph glyph-name="uni1EB8" unicode="&#x1eb8;" horiz-adv-x="1236" 
d="M176 1358h952v-191h-742v-374h637v-191h-637v-411h763v-191h-973v1358zM589 -282q0 54 34 88t88 34t88.5 -34t34.5 -88t-34.5 -88t-88.5 -34t-88 34t-34 88z" />
    <glyph glyph-name="uni1EB9" unicode="&#x1eb9;" horiz-adv-x="1123" 
d="M82 479q0 216 139.5 358.5t356.5 142.5q137 0 243 -62.5t162.5 -168t56.5 -234.5q0 -51 -8 -92h-745q7 -109 91 -183t207 -74q184 0 288 164l146 -106q-65 -116 -183.5 -180t-250.5 -64q-217 0 -360 142.5t-143 356.5zM292 571h547q-9 101 -84 165.5t-179 64.5
q-109 0 -187 -64t-97 -166zM480 -282q0 54 34 88t88 34t88.5 -34t34.5 -88t-34.5 -88t-88.5 -34t-88 34t-34 88z" />
    <glyph glyph-name="uni1EBC" unicode="&#x1ebc;" horiz-adv-x="1236" 
d="M176 1358h952v-191h-742v-374h637v-191h-637v-411h763v-191h-973v1358zM330 1607q96 160 217 160q47 0 87.5 -20.5t76.5 -41t72 -20.5q43 0 71.5 18t61.5 64l95 -95q-49 -80 -101.5 -114.5t-128.5 -34.5q-43 0 -83.5 19.5t-75.5 38.5t-64 19q-38 0 -62.5 -17t-62.5 -63z
" />
    <glyph glyph-name="uni1EBD" unicode="&#x1ebd;" horiz-adv-x="1123" 
d="M585 -20q-217 0 -360 142.5t-143 356.5q0 216 139.5 358.5t356.5 142.5q137 0 243 -62.5t162.5 -168t56.5 -234.5q0 -51 -8 -92h-745q7 -109 91 -183t207 -74q184 0 288 164l146 -106q-65 -116 -183.5 -180t-250.5 -64zM217 1247q96 160 217 160q47 0 87.5 -20.5
t76.5 -41t72 -20.5q43 0 71.5 18t61.5 64l95 -95q-49 -80 -101.5 -114.5t-128.5 -34.5q-43 0 -83.5 19.5t-75.5 38.5t-64 19q-38 0 -62.5 -17t-62.5 -63zM576 801q-109 0 -187 -64t-97 -166h547q-9 101 -84 165.5t-179 64.5z" />
    <glyph glyph-name="uni1ECA" unicode="&#x1eca;" horiz-adv-x="562" 
d="M176 1358h210v-1358h-210v1358zM161 -282q0 54 34 88t88 34t88.5 -34t34.5 -88t-34.5 -88t-88.5 -34t-88 34t-34 88z" />
    <glyph glyph-name="uni1ECB" unicode="&#x1ecb;" horiz-adv-x="502" 
d="M152 960h198v-960h-198v960zM258 1160q-54 0 -88 34t-34 88t34 88t88 34t88.5 -34t34.5 -88t-34.5 -88t-88.5 -34zM256 -404q-54 0 -88 34t-34 88t34 88t88 34t88.5 -34t34.5 -88t-34.5 -88t-88.5 -34z" />
    <glyph glyph-name="uni1ECC" unicode="&#x1ecc;" horiz-adv-x="1579" 
d="M789 -20q-198 0 -358 88t-251.5 247.5t-91.5 361.5q0 200 91.5 361t251.5 250.5t358 89.5q149 0 279.5 -52.5t223 -145t146 -223t53.5 -280.5q0 -202 -91 -361.5t-251 -247.5t-360 -88zM308 679q0 -224 133 -362t348 -138q218 0 350 137.5t132 362.5q0 221 -132.5 360.5
t-349.5 139.5q-214 0 -347.5 -140t-133.5 -360zM667 -282q0 54 34 88t88 34t88.5 -34t34.5 -88t-34.5 -88t-88.5 -34t-88 34t-34 88z" />
    <glyph glyph-name="uni1ECD" unicode="&#x1ecd;" horiz-adv-x="1182" 
d="M591 -20q-218 0 -364 144t-146 356t146 356t364 144t364 -144t146 -356t-146 -356t-364 -144zM279 480q0 -134 88.5 -224t223.5 -90t223.5 90t88.5 224t-88.5 224t-223.5 90t-223.5 -90t-88.5 -224zM469 -282q0 54 34 88t88 34t88.5 -34t34.5 -88t-34.5 -88t-88.5 -34
t-88 34t-34 88z" />
    <glyph glyph-name="uni1EE4" unicode="&#x1ee4;" horiz-adv-x="1463" 
d="M732 -20q-261 0 -416 139t-155 372v867h208v-858q0 -149 98.5 -237t264.5 -88t264 88t98 237v858h208v-867q0 -233 -154.5 -372t-415.5 -139zM609 -282q0 54 34 88t88 34t88.5 -34t34.5 -88t-34.5 -88t-88.5 -34t-88 34t-34 88z" />
    <glyph glyph-name="uni1EE5" unicode="&#x1ee5;" horiz-adv-x="1191" 
d="M139 960h198v-541q0 -119 62 -185t172 -66q117 0 193.5 67.5t76.5 183.5v541h198v-960h-199v121q-14 -22 -36.5 -43.5t-58 -45t-89.5 -38t-116 -14.5q-192 0 -296.5 108.5t-104.5 288.5v583zM606 -404q-54 0 -88 34t-34 88t34 88t88 34t88.5 -34t34.5 -88t-34.5 -88
t-88.5 -34z" />
    <glyph glyph-name="Ygrave" unicode="&#x1ef2;" horiz-adv-x="1269" 
d="M15 1358h250l369 -614l370 614h250l-515 -836v-522h-209v522zM341 1807h222l152 -334h-171z" />
    <glyph glyph-name="ygrave" unicode="&#x1ef3;" horiz-adv-x="1080" 
d="M24 960h218l299 -756l297 756h218l-460 -1082q-26 -59 -48.5 -100t-56 -81t-72 -64t-93.5 -38.5t-124 -14.5q-93 0 -159 35l21 164q56 -25 129 -25q91 0 140 43t84 134l21 55zM254 1455h222l152 -334h-171z" />
    <glyph glyph-name="uni1EF8" unicode="&#x1ef8;" horiz-adv-x="1269" 
d="M15 1358h250l369 -614l370 614h250l-515 -836v-522h-209v522zM280 1607q96 160 217 160q47 0 87.5 -20.5t76.5 -41t72 -20.5q43 0 71.5 18t61.5 64l95 -95q-49 -80 -101.5 -114.5t-128.5 -34.5q-43 0 -83.5 19.5t-75.5 38.5t-64 19q-38 0 -62.5 -17t-62.5 -63z" />
    <glyph glyph-name="uni1EF9" unicode="&#x1ef9;" horiz-adv-x="1080" 
d="M438 -14l-414 974h218l299 -756l297 756h218l-460 -1082q-26 -59 -48.5 -100t-56 -81t-72 -64t-93.5 -38.5t-124 -14.5q-93 0 -159 35l21 164q56 -25 129 -25q91 0 140 43t84 134zM272 1160l-103 87q96 160 217 160q47 0 87.5 -20.5t76.5 -41t72 -20.5q43 0 71.5 18
t61.5 64l95 -95q-49 -80 -101.5 -114.5t-128.5 -34.5q-43 0 -83.5 19.5t-75.5 38.5t-64 19q-38 0 -62.5 -17t-62.5 -63z" />
    <glyph glyph-name="endash" unicode="&#x2013;" horiz-adv-x="1238" 
d="M1112 667v-184h-986v184h986z" />
    <glyph glyph-name="emdash" unicode="&#x2014;" horiz-adv-x="2280" 
d="M2154 667v-184h-2028v184h2028z" />
    <glyph glyph-name="quoteleft" unicode="&#x2018;" horiz-adv-x="503" 
d="M308 912h-232l183 516h186z" />
    <glyph glyph-name="quoteright" unicode="&#x2019;" horiz-adv-x="495" 
d="M221 1428h232l-183 -516h-186z" />
    <glyph glyph-name="quotesinglbase" unicode="&#x201a;" horiz-adv-x="489" 
d="M152 234h232l-183 -516h-186z" />
    <glyph glyph-name="quotedblleft" unicode="&#x201c;" horiz-adv-x="903" 
d="M476 912l183 516h186l-137 -516h-232zM308 912h-232l183 516h186z" />
    <glyph glyph-name="quotedblright" unicode="&#x201d;" horiz-adv-x="895" 
d="M484 912l137 516h232l-183 -516h-186zM84 912l137 516h232l-183 -516h-186z" />
    <glyph glyph-name="quotedblbase" unicode="&#x201e;" horiz-adv-x="894" 
d="M415 -288l137 516h232l-183 -516h-186zM15 -288l137 516h232l-183 -516h-186z" />
    <glyph glyph-name="dagger" unicode="&#x2020;" horiz-adv-x="760" 
d="M68 1321h232v286h159v-286h234v-144h-234v-670h-159v670h-232v144z" />
    <glyph glyph-name="daggerdbl" unicode="&#x2021;" horiz-adv-x="831" 
d="M103 1250v144h232v244h159v-244h234v-144h-234v-385h234v-144h-234v-244h-159v244h-232v144h232v385h-232z" />
    <glyph glyph-name="bullet" unicode="&#x2022;" horiz-adv-x="649" 
d="M125 671q0 84 57 142.5t142 58.5t143 -58.5t58 -142.5t-58 -142t-143 -58t-142 58t-57 142z" />
    <glyph glyph-name="ellipsis" unicode="&#x2026;" horiz-adv-x="1276" 
d="M935 102q0 51 35 87t87 36t87.5 -36t35.5 -87t-35.5 -86.5t-87.5 -35.5t-87 35.5t-35 86.5zM637 -20q-52 0 -87 35.5t-35 86.5t35 87t87 36t87.5 -36t35.5 -87t-35.5 -86.5t-87.5 -35.5zM96 102q0 51 35 87t87 36t87.5 -36t35.5 -87t-35.5 -86.5t-87.5 -35.5t-87 35.5
t-35 86.5z" />
    <glyph glyph-name="perthousand" unicode="&#x2030;" horiz-adv-x="2681" 
d="M444 622q-164 0 -274.5 109t-110.5 269t110.5 269t274.5 109q166 0 276 -108.5t110 -269.5q0 -160 -110 -269t-276 -109zM1392 -20q-164 0 -274.5 109t-110.5 269t110.5 269t274.5 109q166 0 276 -108.5t110 -269.5q0 -160 -110 -269t-276 -109zM2233 -20
q-164 0 -274.5 109t-110.5 269t110.5 269t274.5 109q166 0 276 -108.5t110 -269.5q0 -160 -110 -269t-276 -109zM479 26l734 1332h145v-24l-732 -1334h-147v26zM2233 575q-92 0 -153.5 -62.5t-61.5 -154.5t61.5 -154.5t153.5 -62.5q94 0 155.5 62.5t61.5 154.5t-61.5 154.5
t-155.5 62.5zM1177 358q0 -92 61.5 -154.5t153.5 -62.5q94 0 155.5 62.5t61.5 154.5t-61.5 154.5t-155.5 62.5q-92 0 -153.5 -62.5t-61.5 -154.5zM444 1217q-92 0 -153.5 -62.5t-61.5 -154.5t61.5 -154.5t153.5 -62.5q94 0 155.5 62.5t61.5 154.5t-61.5 154.5t-155.5 62.5z
" />
    <glyph glyph-name="guilsinglleft" unicode="&#x2039;" horiz-adv-x="666" 
d="M575 86h-210l-272 394l272 395h210l-254 -395z" />
    <glyph glyph-name="guilsinglright" unicode="&#x203a;" horiz-adv-x="666" 
d="M301 86h-210l254 394l-254 395h210l272 -395z" />
    <glyph glyph-name="fraction" unicode="&#x2044;" horiz-adv-x="360" 
d="M-257 0v26l734 1332h145v-24l-732 -1334h-147z" />
    <glyph glyph-name="uni2070" unicode="&#x2070;" horiz-adv-x="849" 
d="M424 514q-158 0 -252.5 118t-94.5 314q0 198 94 315t253 117t253.5 -117t94.5 -315q0 -196 -94.5 -314t-253.5 -118zM424 1225q-77 0 -124 -75t-47 -204q0 -126 47 -202.5t124 -76.5t124.5 76.5t47.5 202.5q0 129 -47 204t-125 75z" />
    <glyph glyph-name="uni2074" unicode="&#x2074;" horiz-adv-x="770" 
d="M45 731v125l387 502h166v-482h118v-144h-118v-198h-153v197h-400zM445 1136l-200 -260h200v260z" />
    <glyph glyph-name="uni2075" unicode="&#x2075;" horiz-adv-x="746" 
d="M362 514q-106 0 -187.5 54.5t-120.5 154.5l131 80q24 -65 73.5 -101t103.5 -36q60 0 99.5 37.5t39.5 93.5q0 58 -42 96t-105 38q-84 0 -137 -58l-119 51l41 434h499v-153h-348l-15 -156q44 25 109 25q130 0 211.5 -77t81.5 -200t-89 -203t-226 -80z" />
    <glyph glyph-name="uni2076" unicode="&#x2076;" horiz-adv-x="801" 
d="M415 514q-92 0 -160 32.5t-105.5 89t-55 122t-17.5 142.5q0 81 13 151t42 131t73 104t110 67.5t149 24.5q147 0 248 -72l-59 -139q-78 56 -184 56q-85 0 -141.5 -51.5t-62.5 -149.5q29 33 76 52t99 19q127 0 208.5 -77.5t81.5 -198.5q0 -72 -26.5 -131t-71.5 -95.5
t-100.5 -56.5t-116.5 -20zM266 808q0 -62 41.5 -103t104.5 -41q61 0 102 41t41 106q0 62 -41 103.5t-102 41.5q-63 0 -104.5 -42t-41.5 -106z" />
    <glyph glyph-name="uni2077" unicode="&#x2077;" horiz-adv-x="675" 
d="M53 1358h583v-124q-225 -348 -349 -700h-182q120 346 329 671h-381v153z" />
    <glyph glyph-name="uni2078" unicode="&#x2078;" horiz-adv-x="778" 
d="M76 765q0 66 35.5 119t97.5 83q-50 27 -79 75t-29 104q0 109 85 170.5t203 61.5q116 0 202 -62t86 -170q0 -55 -29 -103t-77 -76q61 -30 95.5 -83t34.5 -119q0 -119 -90 -185t-222 -66q-85 0 -154.5 27.5t-114 85.5t-44.5 138zM251 776q0 -63 40 -95t100 -32t100 32.5
t40 94.5q0 64 -40 96t-100 32t-100 -32t-40 -96zM391 1244q-55 0 -89.5 -31.5t-34.5 -81.5t34.5 -80.5t89.5 -30.5q54 0 87.5 30.5t33.5 80.5t-33.5 81.5t-87.5 31.5z" />
    <glyph glyph-name="uni2079" unicode="&#x2079;" horiz-adv-x="800" 
d="M360 799q-127 0 -208.5 77.5t-81.5 198.5q0 72 26.5 131t71.5 95.5t100.5 56.5t116.5 20q92 0 160 -32.5t105.5 -89t55 -122t17.5 -142.5q0 -81 -13 -151t-42 -131t-73 -104t-110 -67.5t-149 -24.5q-147 0 -248 72l59 139q78 -56 184 -56q85 0 141.5 51.5t62.5 149.5
q-29 -33 -76 -52t-99 -19zM388 1228q-61 0 -102 -41t-41 -106q0 -62 41 -103.5t102 -41.5q63 0 104.5 42t41.5 106q0 62 -41.5 103t-104.5 41z" />
    <glyph glyph-name="uni2080" unicode="&#x2080;" horiz-adv-x="849" 
d="M424 -20q-158 0 -252.5 118t-94.5 314q0 198 94 315t253 117t253.5 -117t94.5 -315q0 -196 -94.5 -314t-253.5 -118zM424 691q-77 0 -124 -75t-47 -204q0 -126 47 -202.5t124 -76.5t124.5 76.5t47.5 202.5q0 129 -47 204t-125 75z" />
    <glyph glyph-name="uni2081" unicode="&#x2081;" horiz-adv-x="482" 
d="M35 824h324v-824h-153v671h-170z" />
    <glyph glyph-name="uni2082" unicode="&#x2082;" horiz-adv-x="745" 
d="M65 622q33 99 115 160.5t178 61.5q127 0 212 -77t85 -205q0 -33 -7.5 -62.5t-25.5 -56t-33.5 -46t-45 -43.5t-46 -36.5t-51 -36t-45.5 -31.5q-8 -6 -34 -24t-37.5 -26.5t-27.5 -22t-24 -24.5h391v-153h-592v72q1 29 9 56.5t18 48.5t29.5 44.5t33.5 38t40.5 36t40.5 32
t44 31.5t42 29q80 57 113.5 93.5t33.5 84.5q0 58 -33.5 91.5t-87.5 33.5q-49 0 -91 -38t-64 -104z" />
    <glyph glyph-name="uni2083" unicode="&#x2083;" horiz-adv-x="753" 
d="M64 189l139 80q22 -61 70.5 -99t101.5 -38q55 0 88 29.5t33 74.5q0 54 -39.5 86.5t-99.5 32.5h-129v131h129q54 0 87.5 29.5t33.5 77.5q0 43 -32.5 70.5t-83.5 27.5q-57 0 -98.5 -35.5t-62.5 -93.5l-137 80q34 86 110.5 144t185.5 58q125 0 210.5 -66t85.5 -183
q0 -54 -31 -101.5t-78 -70.5q54 -23 91 -75.5t37 -113.5q0 -118 -88 -186t-209 -68q-108 0 -191.5 55t-122.5 154z" />
    <glyph glyph-name="uni2084" unicode="&#x2084;" horiz-adv-x="772" 
d="M45 197v125l387 502h166v-482h118v-144h-118v-198h-153v197h-400zM445 602l-200 -260h200v260z" />
    <glyph glyph-name="uni2085" unicode="&#x2085;" horiz-adv-x="746" 
d="M362 -20q-106 0 -187.5 54.5t-120.5 154.5l131 80q24 -65 73.5 -101t103.5 -36q60 0 99.5 37.5t39.5 93.5q0 58 -42 96t-105 38q-84 0 -137 -58l-119 51l41 434h499v-153h-348l-15 -156q44 25 109 25q130 0 211.5 -77t81.5 -200t-89 -203t-226 -80z" />
    <glyph glyph-name="uni2086" unicode="&#x2086;" horiz-adv-x="802" 
d="M416 -20q-92 0 -160 32.5t-105.5 89t-55 122t-17.5 142.5q0 81 13 151t42 131t73 104t110 67.5t149 24.5q147 0 248 -72l-59 -139q-78 56 -184 56q-85 0 -141.5 -51.5t-62.5 -149.5q29 33 76 52t99 19q127 0 208.5 -77.5t81.5 -198.5q0 -72 -26.5 -131t-71.5 -95.5
t-100.5 -56.5t-116.5 -20zM267 274q0 -62 41.5 -103t104.5 -41q61 0 102 41t41 106q0 62 -41 103.5t-102 41.5q-63 0 -104.5 -42t-41.5 -106z" />
    <glyph glyph-name="uni2087" unicode="&#x2087;" horiz-adv-x="676" 
d="M53 824h583v-124q-225 -348 -349 -700h-182q120 346 329 671h-381v153z" />
    <glyph glyph-name="uni2088" unicode="&#x2088;" horiz-adv-x="779" 
d="M77 231q0 66 35.5 119t97.5 83q-50 27 -79 75t-29 104q0 109 85 170.5t203 61.5q116 0 202 -62t86 -170q0 -55 -29 -103t-77 -76q61 -30 95.5 -83t34.5 -119q0 -119 -90 -185t-222 -66q-85 0 -154.5 27.5t-114 85.5t-44.5 138zM252 242q0 -63 40 -95t100 -32t100 32.5
t40 94.5q0 64 -40 96t-100 32t-100 -32t-40 -96zM392 710q-55 0 -89.5 -31.5t-34.5 -81.5t34.5 -80.5t89.5 -30.5q54 0 87.5 30.5t33.5 80.5t-33.5 81.5t-87.5 31.5z" />
    <glyph glyph-name="uni2089" unicode="&#x2089;" horiz-adv-x="802" 
d="M361 265q-127 0 -208.5 77.5t-81.5 198.5q0 72 26.5 131t71.5 95.5t100.5 56.5t116.5 20q92 0 160 -32.5t105.5 -89t55 -122t17.5 -142.5q0 -81 -13 -151t-42 -131t-73 -104t-110 -67.5t-149 -24.5q-147 0 -248 72l59 139q78 -56 184 -56q85 0 141.5 51.5t62.5 149.5
q-29 -33 -76 -52t-99 -19zM389 694q-61 0 -102 -41t-41 -106q0 -62 41 -103.5t102 -41.5q63 0 104.5 42t41.5 106q0 62 -41.5 103t-104.5 41z" />
    <glyph glyph-name="Euro" unicode="&#x20ac;" horiz-adv-x="1444" 
d="M96 734v154h164q52 222 207 356t378 134q159 0 291 -86.5t216 -244.5l-173 -99q-126 231 -337 231q-126 0 -220 -76.5t-136 -214.5h482v-154h-509q-2 -36 -2 -55q0 -17 2 -51h509v-154h-481q42 -138 138 -216.5t222 -78.5q106 0 194 59t151 172l165 -100
q-81 -159 -211.5 -244.5t-295.5 -85.5q-224 0 -381 135t-209 359h-164v154h142q-1 17 -1 51q0 19 2 55h-143z" />
    <glyph glyph-name="uni20B9" unicode="&#x20b9;" horiz-adv-x="1264" 
d="M496 1187h-365v171h1018v-158h-271q63 -77 81 -176h190v-158h-190q-28 -149 -149.5 -239t-304.5 -90h-49l626 -537h-314l-637 537v185h365q92 0 153 39t84 105h-602v158h605q-22 73 -84 118t-156 45z" />
    <glyph glyph-name="trademark" unicode="&#x2122;" horiz-adv-x="1387" 
d="M622 818v590h99l210 -433l209 433h99v-590h-85v431l-193 -389h-61l-193 388v-430h-85zM257 1328h-197v80h479v-80h-197v-510h-85v510z" />
    <glyph glyph-name="estimated" unicode="&#x212e;" horiz-adv-x="1725" 
d="M885 -20q-216 0 -394.5 93t-280 253t-101.5 351t104 352.5t282.5 255t389.5 93.5q157 0 301 -57t247.5 -152.5t165 -226.5t61.5 -274v-23h-1257q-11 0 -11 -9v-359q0 -24 17 -47q185 -177 478 -177q150 0 279.5 51.5t219.5 147.5h113q-105 -125 -265 -198.5t-349 -73.5z
M392 1077v-351q0 -13 11 -13h966q6 0 6 13v358q0 23 -17 46q-87 85 -210.5 130t-260.5 45q-293 0 -475 -175q-20 -24 -20 -53z" />
    <glyph glyph-name="onethird" unicode="&#x2153;" horiz-adv-x="1662" 
d="M957 189l139 80q22 -61 70.5 -99t101.5 -38q55 0 88 29.5t33 74.5q0 54 -39.5 86.5t-99.5 32.5h-129v131h129q54 0 87.5 29.5t33.5 77.5q0 43 -32.5 70.5t-83.5 27.5q-57 0 -98.5 -35.5t-62.5 -93.5l-137 80q34 86 110.5 144t185.5 58q125 0 210.5 -66t85.5 -183
q0 -54 -31 -101.5t-78 -70.5q54 -23 91 -75.5t37 -113.5q0 -118 -88 -186t-209 -68q-108 0 -191.5 55t-122.5 154zM426 0h-147v26l734 1332h145v-24zM83 1354h324v-824h-153v671h-170z" />
    <glyph glyph-name="twothirds" unicode="&#x2154;" horiz-adv-x="1917" 
d="M1196 642q34 86 110.5 144t185.5 58q125 0 210.5 -66t85.5 -183q0 -54 -31 -101.5t-78 -70.5q54 -23 91 -75.5t37 -113.5q0 -118 -88 -186t-209 -68q-108 0 -191.5 55t-122.5 154l139 80q22 -61 70.5 -99t101.5 -38q55 0 88 29.5t33 74.5q0 54 -39.5 86.5t-99.5 32.5
h-129v131h129q54 0 87.5 29.5t33.5 77.5q0 43 -32.5 70.5t-83.5 27.5q-57 0 -98.5 -35.5t-62.5 -93.5zM77 1162q33 99 115 160.5t178 61.5q127 0 212 -77t85 -205q0 -33 -7.5 -62.5t-25.5 -56t-33.5 -46t-45 -43.5t-46 -36.5t-51 -36t-45.5 -31.5q-8 -6 -34 -24t-37.5 -26.5
t-27.5 -22t-24 -24.5h391v-153h-592v72q1 29 9 56.5t18 48.5t29.5 44.5t33.5 38t40.5 36t40.5 32t44 31.5t42 29q80 57 113.5 93.5t33.5 84.5q0 58 -33.5 91.5t-87.5 33.5q-49 0 -91 -38t-64 -104zM675 0h-147v26l734 1332h145v-24z" />
    <glyph glyph-name="minus" unicode="&#x2212;" horiz-adv-x="1159" 
d="M1046 585h-933v197h933v-197z" />
    <glyph glyph-name="uni2215" unicode="&#x2215;" horiz-adv-x="831" 
d="M-21 0v26l734 1332h145v-24l-732 -1334h-147z" />
    <glyph glyph-name="uni2219" unicode="&#x2219;" horiz-adv-x="507" 
d="M131 464q0 51 35 87t87 36t87.5 -36t35.5 -87t-35.5 -86.5t-87.5 -35.5t-87 35.5t-35 86.5z" />
    <glyph glyph-name="approxequal" unicode="&#x2248;" horiz-adv-x="1205" 
d="M111 904q169 148 310 148q61 0 111 -16t79 -35t74.5 -35t97.5 -16q54 0 94.5 18.5t100.5 62.5l116 -156q-169 -148 -310 -148q-59 0 -108 16t-77.5 35.5t-75 35.5t-100.5 16q-86 0 -196 -82zM111 466q169 148 310 148q61 0 111 -16t79 -35t74.5 -35t97.5 -16
q54 0 94.5 18.5t100.5 62.5l116 -156q-169 -148 -310 -148q-59 0 -108 16t-77.5 35.5t-75 35.5t-100.5 16q-86 0 -196 -82z" />
    <glyph glyph-name="notequal" unicode="&#x2260;" horiz-adv-x="1314" 
d="M405 330h-275v201h366l133 295h-499v200h590l145 320l160 -59l-119 -261h278v-200h-370l-134 -295h504v-201h-596l-146 -320l-153 64z" />
    <glyph glyph-name="lessequal" unicode="&#x2264;" horiz-adv-x="1335" 
d="M1182 684v-203h-1054v285l1045 490v-224l-810 -348h819zM1176 276v-201h-1054v201h1054z" />
    <glyph glyph-name="greaterequal" unicode="&#x2265;" horiz-adv-x="1333" 
d="M154 684h819l-810 348v224l1045 -490v-285h-1054v203zM155 276h1054v-201h-1054v201z" />
    <glyph glyph-name="uni000D.1" horiz-adv-x="683" 
 />
    <glyph glyph-name="numbersign.onum" horiz-adv-x="1237" 
d="M268 262h-201l27 144h200l50 279h-200l27 144h198l43 238h159l-43 -238h287l43 238h159l-43 -238h199l-27 -144h-197l-50 -279h196l-26 -144h-196l-46 -262h-159l46 262h-287l-46 -262h-159zM503 685l-50 -279h287l50 279h-287z" />
    <glyph glyph-name="numbersign.onum.tnum" 
d="M324 262h-201l27 144h200l50 279h-200l27 144h198l43 238h159l-43 -238h287l43 238h159l-43 -238h199l-27 -144h-197l-50 -279h196l-26 -144h-196l-46 -262h-159l46 262h-287l-46 -262h-159zM559 685l-50 -279h287l50 279h-287z" />
    <glyph glyph-name="numbersign.tnum" 
d="M38 352l28 154h245q11 65 33 189t33 189h-244l27 153h241l57 321h175l-54 -321h309l58 321h176l-56 -321h248l-27 -153h-247l-67 -378h246l-29 -154h-243l-66 -353h-178l66 353h-310l-67 -353h-178l67 353h-243zM552 884l-67 -378h315l67 378h-315z" />
    <glyph glyph-name="dollar.onum" horiz-adv-x="1067" 
d="M459 -14q-124 17 -220.5 79.5t-148.5 158.5l156 126q77 -134 213 -169v272q-77 20 -132 44t-100.5 60t-68 88t-22.5 121q0 125 90.5 209t232.5 102v156h160v-160q109 -18 194 -75.5t132 -134.5l-141 -121q-74 107 -185 137v-260q174 -45 260 -116t86 -206
q0 -125 -98.5 -209.5t-247.5 -103.5v-165h-160v167zM750 297q0 44 -30.5 70.5t-100.5 47.5v-238q60 12 95.5 44t35.5 76zM347 769q0 -40 27 -64t85 -44v224q-52 -12 -82 -42.5t-30 -73.5z" />
    <glyph glyph-name="dollar.onum.tnum" 
d="M600 -14q-124 17 -220.5 79.5t-148.5 158.5l156 126q77 -134 213 -169v272q-77 20 -132 44t-100.5 60t-68 88t-22.5 121q0 125 90.5 209t232.5 102v156h160v-160q109 -18 194 -75.5t132 -134.5l-141 -121q-74 107 -185 137v-260q174 -45 260 -116t86 -206
q0 -125 -98.5 -209.5t-247.5 -103.5v-165h-160v167zM891 297q0 44 -30.5 70.5t-100.5 47.5v-238q60 12 95.5 44t35.5 76zM488 769q0 -40 27 -64t85 -44v224q-52 -12 -82 -42.5t-30 -73.5z" />
    <glyph glyph-name="dollar.tnum" 
d="M157 288l157 109q84 -173 264 -216v437q-90 31 -152.5 62.5t-117.5 76t-82 105t-26 138.5q1 104 55.5 185.5t137.5 126.5t185 60v164h180v-165q138 -20 237.5 -95t153.5 -178l-163 -114q-36 66 -94.5 117.5t-133.5 72.5v-405q59 -20 97.5 -34.5t87 -37t79.5 -43.5
t63.5 -51t50.5 -63.5t30 -78t12 -96.5q0 -85 -35.5 -155t-95.5 -116t-133.5 -74.5t-155.5 -36.5v-159h-180v165q-150 23 -260 104t-161 195zM967 363q0 67 -50.5 110.5t-158.5 83.5v-383q94 15 151.5 65t57.5 124zM411 1001q0 -62 40 -99.5t127 -70.5v346
q-74 -17 -120.5 -63t-46.5 -113z" />
    <glyph glyph-name="percent.onum" horiz-adv-x="1827" 
d="M440 479q-164 0 -274.5 109t-110.5 269t110.5 269t274.5 109q166 0 276 -108.5t110 -269.5q0 -160 -110 -269t-276 -109zM1388 -163q-164 0 -274.5 109t-110.5 269t110.5 269t274.5 109q166 0 276 -108.5t110 -269.5q0 -160 -110 -269t-276 -109zM475 -117l734 1332h145
v-24l-732 -1334h-147v26zM1173 215q0 -92 61.5 -154.5t153.5 -62.5q94 0 155.5 62.5t61.5 154.5t-61.5 154.5t-155.5 62.5q-92 0 -153.5 -62.5t-61.5 -154.5zM440 1074q-92 0 -153.5 -62.5t-61.5 -154.5t61.5 -154.5t153.5 -62.5q94 0 155.5 62.5t61.5 154.5t-61.5 154.5
t-155.5 62.5z" />
    <glyph glyph-name="ampersand.smcp" horiz-adv-x="1064" 
d="M453 -20q-166 0 -272.5 82t-106.5 212q0 163 201 261q-110 107 -110 215q0 125 88 197.5t217 72.5q130 0 214 -71.5t84 -184.5q0 -154 -228 -266l201 -191q20 55 20 120.5t-15 119.5h168q32 -223 -52 -347q187 -181 213 -206h-237l-88 85q-136 -99 -297 -99zM375 426
q-127 -58 -127 -152q0 -60 58.5 -99t147.5 -39q104 0 180 51zM337 754q0 -43 22 -75t72 -78q89 40 127.5 76t38.5 86q0 49 -35 77.5t-90 28.5t-95 -30t-40 -85z" />
    <glyph glyph-name="plus.onum" horiz-adv-x="1224" 
d="M80 637h427v425h208v-425h429v-197h-429v-432h-208v432h-427v197z" />
    <glyph glyph-name="plus.onum.tnum" 
d="M143 637h427v425h208v-425h429v-197h-429v-432h-208v432h-427v197z" />
    <glyph glyph-name="plus.tnum" 
d="M143 780h427v425h208v-425h429v-197h-429v-432h-208v432h-427v197z" />
    <glyph glyph-name="zero.onum" horiz-adv-x="1306" 
d="M652 -20q-243 0 -401 156t-158 397t158 397.5t401 156.5q244 0 402.5 -156.5t158.5 -397.5q0 -158 -72 -284.5t-200.5 -197.5t-288.5 -71zM286 533q0 -162 102.5 -264.5t263.5 -102.5q163 0 265.5 102.5t102.5 264.5q0 163 -102.5 265.5t-265.5 102.5
q-161 0 -263.5 -102.5t-102.5 -265.5z" />
    <glyph glyph-name="zero.onum.tnum" 
d="M674 -20q-243 0 -401 156t-158 397t158 397.5t401 156.5q244 0 402.5 -156.5t158.5 -397.5q0 -158 -72 -284.5t-200.5 -197.5t-288.5 -71zM308 533q0 -162 102.5 -264.5t263.5 -102.5q163 0 265.5 102.5t102.5 264.5q0 163 -102.5 265.5t-265.5 102.5
q-161 0 -263.5 -102.5t-102.5 -265.5z" />
    <glyph glyph-name="zero.slash" horiz-adv-x="1319" 
d="M966 1280l152 224l142 -92l-177 -260q121 -185 121 -473q0 -320 -146.5 -509.5t-394.5 -189.5q-178 0 -308 102l-155 -227l-135 96l175 258q-119 184 -119 470q0 319 147 509t395 190q174 0 303 -98zM949 955l-477 -700q79 -76 191 -76q150 0 240.5 135.5t90.5 364.5
q0 158 -45 276zM375 408l474 700q-78 72 -186 72q-150 0 -241 -136t-91 -365q0 -157 44 -271z" />
    <glyph glyph-name="zero.slash.onum" horiz-adv-x="1326" 
d="M949 1017l181 221l130 -107l-178 -218q141 -154 141 -380q0 -158 -72 -284.5t-200.5 -197.5t-288.5 -71q-159 0 -286 71l-180 -220l-130 107l177 217q-140 153 -140 378q0 241 158 397.5t401 156.5q158 0 287 -70zM958 763l-460 -563q74 -34 164 -34q163 0 265.5 102.5
t102.5 264.5q0 133 -72 230zM367 305l460 562q-76 34 -165 34q-161 0 -263.5 -102.5t-102.5 -265.5q0 -132 71 -228z" />
    <glyph glyph-name="zero.slash.onum.tnum" 
d="M961 1017l181 221l130 -107l-178 -218q141 -154 141 -380q0 -158 -72 -284.5t-200.5 -197.5t-288.5 -71q-159 0 -286 71l-180 -220l-130 107l177 217q-140 153 -140 378q0 241 158 397.5t401 156.5q158 0 287 -70zM970 763l-460 -563q74 -34 164 -34q163 0 265.5 102.5
t102.5 264.5q0 133 -72 230zM379 305l460 562q-76 34 -165 34q-161 0 -263.5 -102.5t-102.5 -265.5q0 -132 71 -228z" />
    <glyph glyph-name="zero.slash.tnum" 
d="M979 1279l152 225l142 -92l-177 -261q120 -185 120 -472q0 -320 -146.5 -509.5t-394.5 -189.5q-178 0 -308 102l-154 -227l-135 96l175 257q-120 185 -120 471q0 319 147 509t395 190q174 0 304 -99zM961 954l-476 -700q80 -75 190 -75q150 0 240.5 135.5t90.5 364.5
q0 157 -45 275zM387 407l475 700q-81 73 -187 73q-150 0 -241 -136t-91 -365q0 -154 44 -272z" />
    <glyph glyph-name="zero.tnum" 
d="M676 -20q-248 0 -395 189.5t-147 509.5q0 319 147 509t395 190t394.5 -190t146.5 -509q0 -320 -146.5 -509.5t-394.5 -189.5zM676 1180q-150 0 -241 -136t-91 -365q0 -230 91 -365t241 -135t240.5 135.5t90.5 364.5t-91 365t-240 136z" />
    <glyph glyph-name="one.onum" horiz-adv-x="997" 
d="M75 0v190h356v697h-319v190h519v-887h333v-190h-889z" />
    <glyph glyph-name="one.onum.tnum" 
d="M252 0v190h356v697h-319v190h519v-887h333v-190h-889z" />
    <glyph glyph-name="one.tnum" 
d="M247 0v190h351v978h-309v190h519v-1168h338v-190h-899z" />
    <glyph glyph-name="two.onum" horiz-adv-x="1069" 
d="M242 712l-168 91q51 122 165.5 203.5t274.5 81.5q187 0 303.5 -92.5t116.5 -264.5q0 -45 -13.5 -87.5t-41.5 -82t-56.5 -71.5t-74.5 -69t-78 -60.5t-83 -58.5q-22 -15 -33 -23l-126 -89h567v-190h-889v176l309 219q42 30 55 39t52 37.5t54 42t44.5 39.5t42.5 43.5
t29.5 40.5t22.5 44.5t6 42.5q0 85 -58 129t-153 44q-96 0 -165.5 -54t-102.5 -131z" />
    <glyph glyph-name="two.onum.tnum" 
d="M382 712l-168 91q51 122 165.5 203.5t274.5 81.5q187 0 303.5 -92.5t116.5 -264.5q0 -45 -13.5 -87.5t-41.5 -82t-56.5 -71.5t-74.5 -69t-78 -60.5t-83 -58.5q-22 -15 -33 -23l-126 -89h567v-190h-889v176l309 219q42 30 55 39t52 37.5t54 42t44.5 39.5t42.5 43.5
t29.5 40.5t22.5 44.5t6 42.5q0 85 -58 129t-153 44q-96 0 -165.5 -54t-102.5 -131z" />
    <glyph glyph-name="two.tnum" 
d="M201 1062q49 140 174 228t275 88q202 0 330.5 -116.5t128.5 -300.5q0 -48 -10 -92t-23.5 -78t-40.5 -70.5t-48.5 -60.5t-59.5 -56.5t-62 -50.5t-69 -50.5t-67 -49.5q-57 -43 -91.5 -70t-80 -66t-69 -68.5t-24.5 -49.5h667v-199h-910v91q0 35 7.5 69.5t17 63.5t30 61
t36 54.5t45.5 53t47.5 48t53.5 47t53 42t55.5 42t51.5 39.5q60 46 93.5 73t73 64.5t58.5 67t32.5 66t13.5 75.5q0 98 -66.5 160t-172.5 62q-88 0 -162 -54.5t-110 -147.5z" />
    <glyph glyph-name="three.onum" horiz-adv-x="1095" 
d="M66 -5l176 97q39 -95 118 -150t180 -55q107 0 177 57.5t70 145.5q0 96 -77 156t-200 60h-169v183h169q104 0 174.5 54.5t70.5 158.5q0 85 -66 138.5t-170 53.5q-98 0 -171.5 -57.5t-106.5 -137.5l-175 94q56 137 176.5 216t272.5 79q201 0 328 -107t127 -276
q0 -102 -53 -183.5t-142 -116.5q103 -35 165 -121.5t62 -196.5q0 -172 -129.5 -284.5t-328.5 -112.5q-166 0 -292.5 81t-185.5 224z" />
    <glyph glyph-name="three.onum.tnum" 
d="M194 -5l176 97q39 -95 118 -150t180 -55q107 0 177 57.5t70 145.5q0 96 -77 156t-200 60h-169v183h169q104 0 174.5 54.5t70.5 158.5q0 85 -66 138.5t-170 53.5q-98 0 -171.5 -57.5t-106.5 -137.5l-175 94q56 137 176.5 216t272.5 79q201 0 328 -107t127 -276
q0 -102 -53 -183.5t-142 -116.5q103 -35 165 -121.5t62 -196.5q0 -172 -129.5 -284.5t-328.5 -112.5q-166 0 -292.5 81t-185.5 224z" />
    <glyph glyph-name="three.tnum" 
d="M197 285l176 97q39 -95 118 -150t180 -55q107 0 177 57.5t70 145.5q0 96 -77 156t-200 60h-169v183h169q104 0 174.5 54.5t70.5 158.5q0 85 -66 138.5t-170 53.5q-98 0 -171.5 -57.5t-106.5 -137.5l-175 94q56 137 176.5 216t272.5 79q201 0 328 -107t127 -276
q0 -102 -53 -183.5t-142 -116.5q103 -35 165 -121.5t62 -196.5q0 -172 -129.5 -284.5t-328.5 -112.5q-166 0 -292.5 81t-185.5 224z" />
    <glyph glyph-name="four.onum" horiz-adv-x="1153" 
d="M48 59v175l604 833h248v-823h200v-184h-200v-352h-207v351h-645zM693 808l-401 -564h401v564z" />
    <glyph glyph-name="four.onum.tnum" 
d="M147 59v175l604 833h248v-823h200v-184h-200v-352h-207v351h-645zM792 808l-401 -564h401v564z" />
    <glyph glyph-name="four.tnum" 
d="M139 350v175l604 833h248v-823h200v-184h-200v-352h-207v351h-645zM784 1099l-401 -564h401v564z" />
    <glyph glyph-name="five.onum" horiz-adv-x="1073" 
d="M518 -311q-162 0 -287 81.5t-184 228.5l175 97q38 -97 117.5 -153.5t182.5 -56.5q119 0 194 71t75 178q0 111 -71 186t-198 75q-137 0 -246 -99l-159 65l64 705h759v-199h-579l-33 -350q85 63 210 63q206 0 337 -122.5t131 -323.5q0 -198 -139.5 -322t-348.5 -124z" />
    <glyph glyph-name="five.onum.tnum" 
d="M657 -311q-162 0 -287 81.5t-184 228.5l175 97q38 -97 117.5 -153.5t182.5 -56.5q119 0 194 71t75 178q0 111 -71 186t-198 75q-137 0 -246 -99l-159 65l64 705h759v-199h-579l-33 -350q85 63 210 63q206 0 337 -122.5t131 -323.5q0 -198 -139.5 -322t-348.5 -124z" />
    <glyph glyph-name="five.tnum" 
d="M657 -20q-162 0 -287 81.5t-184 228.5l175 97q38 -97 117.5 -153.5t182.5 -56.5q119 0 194 71t75 178q0 111 -71 186t-198 75q-137 0 -246 -99l-159 65l64 705h759v-199h-579l-33 -350q85 63 210 63q206 0 337 -122.5t131 -323.5q0 -198 -139.5 -322t-348.5 -124z" />
    <glyph glyph-name="six.onum" horiz-adv-x="1179" 
d="M629 -20q-111 0 -201 33.5t-151.5 92t-103.5 141t-61 178t-19 205.5q0 167 36.5 302t110.5 235.5t193.5 155.5t276.5 55q193 0 323 -77l-61 -179q-120 66 -258 66q-388 0 -412 -463q50 83 143 121.5t194 38.5q88 0 169 -26t150 -77t110.5 -139t41.5 -202
q0 -206 -135.5 -333.5t-345.5 -127.5zM611 699q-120 0 -197.5 -71.5t-77.5 -190.5q0 -121 79 -197.5t200 -76.5q125 0 202.5 75t77.5 196q0 124 -75.5 194.5t-208.5 70.5z" />
    <glyph glyph-name="six.onum.tnum" 
d="M715 -20q-111 0 -201 33.5t-151.5 92t-103.5 141t-61 178t-19 205.5q0 167 36.5 302t110.5 235.5t193.5 155.5t276.5 55q193 0 323 -77l-61 -179q-120 66 -258 66q-388 0 -412 -463q50 83 143 121.5t194 38.5q88 0 169 -26t150 -77t110.5 -139t41.5 -202
q0 -206 -135.5 -333.5t-345.5 -127.5zM697 699q-120 0 -197.5 -71.5t-77.5 -190.5q0 -121 79 -197.5t200 -76.5q125 0 202.5 75t77.5 196q0 124 -75.5 194.5t-208.5 70.5z" />
    <glyph glyph-name="six.tnum" 
d="M714 -20q-111 0 -201 33.5t-151.5 92t-103.5 141t-61 178t-19 205.5q0 167 36.5 302t110.5 235.5t193.5 155.5t276.5 55q193 0 323 -77l-61 -179q-120 66 -258 66q-388 0 -412 -463q50 83 143 121.5t194 38.5q88 0 169 -26t150 -77t110.5 -139t41.5 -202
q0 -206 -135.5 -333.5t-345.5 -127.5zM696 699q-120 0 -197.5 -71.5t-77.5 -190.5q0 -121 79 -197.5t200 -76.5q125 0 202.5 75t77.5 196q0 124 -75.5 194.5t-208.5 70.5z" />
    <glyph glyph-name="seven.onum" horiz-adv-x="942" 
d="M39 1067h876v-172q-353 -578 -558 -1186h-228q210 631 546 1159h-636v199z" />
    <glyph glyph-name="seven.onum.tnum" 
d="M243 1067h876v-172q-353 -578 -558 -1186h-228q210 631 546 1159h-636v199z" />
    <glyph glyph-name="seven.tnum" 
d="M244 1358h876v-172q-353 -578 -558 -1186h-228q210 631 546 1159h-636v199z" />
    <glyph glyph-name="eight.onum" horiz-adv-x="1165" 
d="M581 -20q-221 0 -357 110.5t-136 290.5q0 235 232 333q-180 89 -180 293q0 169 120.5 271t320.5 102q202 0 323.5 -102t121.5 -271q0 -97 -46.5 -174t-141.5 -120q238 -97 238 -332q0 -181 -136 -291t-359 -110zM581 617q-129 0 -206 -60t-77 -162q0 -100 78 -165
t205 -65q130 0 208.5 64.5t78.5 165.5q0 102 -77.5 162t-209.5 60zM347 998q0 -91 63.5 -145.5t170.5 -54.5q109 0 173.5 54.5t64.5 145.5q0 85 -65.5 140.5t-172.5 55.5q-105 0 -169.5 -55.5t-64.5 -140.5z" />
    <glyph glyph-name="eight.onum.tnum" 
d="M674 -20q-221 0 -357 110.5t-136 290.5q0 235 232 333q-180 89 -180 293q0 169 120.5 271t320.5 102q202 0 323.5 -102t121.5 -271q0 -97 -46.5 -174t-141.5 -120q238 -97 238 -332q0 -181 -136 -291t-359 -110zM674 617q-129 0 -206 -60t-77 -162q0 -100 78 -165
t205 -65q130 0 208.5 64.5t78.5 165.5q0 102 -77.5 162t-209.5 60zM440 998q0 -91 63.5 -145.5t170.5 -54.5q109 0 173.5 54.5t64.5 145.5q0 85 -65.5 140.5t-172.5 55.5q-105 0 -169.5 -55.5t-64.5 -140.5z" />
    <glyph glyph-name="eight.tnum" 
d="M674 -20q-221 0 -357 110.5t-136 290.5q0 235 232 333q-180 89 -180 293q0 169 120.5 271t320.5 102q202 0 323.5 -102t121.5 -271q0 -97 -46.5 -174t-141.5 -120q238 -97 238 -332q0 -181 -136 -291t-359 -110zM674 617q-129 0 -206 -60t-77 -162q0 -100 78 -165
t205 -65q130 0 208.5 64.5t78.5 165.5q0 102 -77.5 162t-209.5 60zM440 998q0 -91 63.5 -145.5t170.5 -54.5q109 0 173.5 54.5t64.5 145.5q0 85 -65.5 140.5t-172.5 55.5q-105 0 -169.5 -55.5t-64.5 -140.5z" />
    <glyph glyph-name="nine.onum" horiz-adv-x="1177" 
d="M538 176q-88 0 -169 26t-150 77t-110.5 139t-41.5 202q0 206 135.5 333.5t345.5 127.5q111 0 201 -33.5t151.5 -92t103.5 -141t61 -178t19 -205.5q0 -167 -36.5 -302t-110.5 -235.5t-193.5 -155.5t-276.5 -55q-193 0 -323 77l61 179q120 -66 258 -66q388 0 412 463
q-50 -83 -143 -121.5t-194 -38.5zM562 898q-125 0 -202.5 -75t-77.5 -196q0 -124 75.5 -194.5t208.5 -70.5q120 0 197.5 71.5t77.5 190.5q0 121 -79 197.5t-200 76.5z" />
    <glyph glyph-name="nine.onum.tnum" 
d="M624 176q-88 0 -169 26t-150 77t-110.5 139t-41.5 202q0 206 135.5 333.5t345.5 127.5q111 0 201 -33.5t151.5 -92t103.5 -141t61 -178t19 -205.5q0 -167 -36.5 -302t-110.5 -235.5t-193.5 -155.5t-276.5 -55q-193 0 -323 77l61 179q120 -66 258 -66q388 0 412 463
q-50 -83 -143 -121.5t-194 -38.5zM648 898q-125 0 -202.5 -75t-77.5 -196q0 -124 75.5 -194.5t208.5 -70.5q120 0 197.5 71.5t77.5 190.5q0 121 -79 197.5t-200 76.5z" />
    <glyph glyph-name="nine.tnum" 
d="M626 471q-88 0 -169 26t-150 77t-110.5 139t-41.5 202q0 206 135.5 333.5t345.5 127.5q111 0 201 -33.5t151.5 -92t103.5 -141t61 -178t19 -205.5q0 -167 -36.5 -302t-110.5 -235.5t-193.5 -155.5t-276.5 -55q-193 0 -323 77l61 179q120 -66 258 -66q388 0 412 463
q-50 -83 -143 -121.5t-194 -38.5zM650 1193q-125 0 -202.5 -75t-77.5 -196q0 -124 75.5 -194.5t208.5 -70.5q120 0 197.5 71.5t77.5 190.5q0 121 -79 197.5t-200 76.5z" />
    <glyph glyph-name="less.onum" horiz-adv-x="1103" 
d="M990 24l-909 401v218l909 412v-217l-694 -303l694 -294v-217z" />
    <glyph glyph-name="less.onum.tnum" 
d="M1114 24l-909 401v218l909 412v-217l-694 -303l694 -294v-217z" />
    <glyph glyph-name="less.tnum" 
d="M1103 167l-909 401v218l909 412v-217l-694 -303l694 -294v-217z" />
    <glyph glyph-name="equal.onum" horiz-adv-x="1304" 
d="M1179 187h-1054v201h1054v-201zM125 883h1054v-200h-1054v200z" />
    <glyph glyph-name="equal.onum.tnum" 
d="M1202 187h-1054v201h1054v-201zM148 883h1054v-200h-1054v200z" />
    <glyph glyph-name="equal.tnum" 
d="M1202 330h-1054v201h1054v-201zM148 1026h1054v-200h-1054v200z" />
    <glyph glyph-name="greater.onum" horiz-adv-x="1103" 
d="M807 535l-694 303v217l909 -412v-218l-909 -401v217z" />
    <glyph glyph-name="greater.onum.tnum" 
d="M930 535l-694 303v217l909 -412v-218l-909 -401v217z" />
    <glyph glyph-name="greater.tnum" 
d="M941 678l-694 303v217l909 -412v-218l-909 -401v217z" />
    <glyph glyph-name="A.smcp" horiz-adv-x="1101" 
d="M236 0h-211l412 1000h227l412 -1000h-211l-76 193h-477zM377 357h347l-174 441z" />
    <glyph glyph-name="B.smcp" horiz-adv-x="1018" 
d="M614 0h-467v1000h440q142 0 227.5 -83.5t85.5 -206.5q0 -54 -31.5 -111t-78.5 -79q61 -24 104 -88.5t43 -132.5q0 -127 -91.5 -213t-231.5 -86zM342 423v-255h267q59 0 96 38.5t37 91.5q0 51 -37.5 88t-95.5 37h-267zM342 591h242q53 0 87 35.5t34 82.5q0 49 -32.5 86
t-88.5 37h-242v-241z" />
    <glyph glyph-name="C.smcp" horiz-adv-x="1108" 
d="M81 501q0 144 68 263t186.5 187.5t260.5 68.5q141 0 264 -70.5t192 -192.5l-152 -105q-115 185 -304 185q-138 0 -228 -95.5t-90 -240.5t91.5 -242t229.5 -97q193 0 302 182l150 -102q-76 -124 -195 -193t-257 -69q-142 0 -261 69t-188 188.5t-69 263.5z" />
    <glyph glyph-name="D.smcp" horiz-adv-x="1156" 
d="M147 1000h412q223 0 369 -142t146 -359t-146 -358t-369 -141h-412v1000zM342 171h215q142 0 231 94t89 234t-89 236.5t-231 96.5h-215v-661z" />
    <glyph glyph-name="E.smcp" horiz-adv-x="966" 
d="M147 0v1000h720v-167h-525v-240h451v-168h-451v-257h540v-168h-735z" />
    <glyph glyph-name="F.smcp" horiz-adv-x="929" 
d="M147 0v1000h720v-168h-525v-241h412v-168h-412v-423h-195z" />
    <glyph glyph-name="G.smcp" horiz-adv-x="1163" 
d="M600 -20q-143 0 -262 69t-188 188.5t-69 263.5t68 263t186.5 187.5t261.5 68.5q142 0 258.5 -64t188.5 -183l-147 -112q-115 176 -300 176q-139 0 -229 -95.5t-90 -240.5t91.5 -242t230.5 -97q113 0 188.5 64.5t94.5 152.5h-341v163h540q4 -62 4 -74q0 -98 -33 -186.5
t-94 -155.5t-154 -106.5t-205 -39.5z" />
    <glyph glyph-name="H.smcp" horiz-adv-x="1186" 
d="M147 1000h195v-406h502v406h195v-1000h-195v426h-502v-426h-195v1000z" />
    <glyph glyph-name="I.smcp" horiz-adv-x="489" 
d="M342 1000v-1000h-195v1000h195z" />
    <glyph glyph-name="J.smcp" horiz-adv-x="828" 
d="M339 -20q-96 0 -179 44t-140 124l125 127q92 -116 197 -116q75 0 115 53t40 148v640h195v-650q0 -173 -94 -271.5t-259 -98.5z" />
    <glyph glyph-name="K.smcp" horiz-adv-x="1036" 
d="M147 0v1000h195v-442l410 442h249l-392 -422l409 -578h-233l-311 444l-132 -138v-306h-195z" />
    <glyph glyph-name="L.smcp" horiz-adv-x="939" 
d="M893 168v-168h-746v1000h195v-832h551z" />
    <glyph glyph-name="M.smcp" horiz-adv-x="1348" 
d="M147 0v1000h210l318 -656l318 656h208v-1000h-190v614l-270 -546h-133l-271 546v-614h-190z" />
    <glyph glyph-name="N.smcp" horiz-adv-x="1217" 
d="M337 0h-190v1000h180l553 -695v695h190v-1000h-180l-553 683v-683z" />
    <glyph glyph-name="O.smcp" horiz-adv-x="1198" 
d="M597 -20q-225 0 -370 146t-145 373t145.5 374t369.5 147q225 0 372 -147t147 -374t-147 -373t-372 -146zM280 499q0 -149 86.5 -243t230.5 -94q145 0 234 94t89 243t-89.5 243.5t-233.5 94.5t-230.5 -94t-86.5 -244z" />
    <glyph glyph-name="P.smcp" horiz-adv-x="971" 
d="M342 0h-195v1000h419q157 0 252 -89t95 -232t-94.5 -228t-252.5 -85h-224v-366zM342 833v-299h219q75 0 116 41t41 104q0 64 -41.5 109t-115.5 45h-219z" />
    <glyph glyph-name="Q.alt" horiz-adv-x="1579" 
d="M789 -20q-198 0 -358 88t-251.5 247.5t-91.5 361.5q0 200 91.5 361t251.5 250.5t358 89.5q149 0 279.5 -52.5t223 -145t146 -223t53.5 -280.5q0 -206 -94.5 -367t-259.5 -248l321 -291l-139 -146l-405 364q-62 -9 -125 -9zM789 1179q-214 0 -347.5 -140t-133.5 -360
q0 -224 133 -362t348 -138q218 0 350 137.5t132 362.5q0 221 -132.5 360.5t-349.5 139.5z" />
    <glyph glyph-name="Q.alt.smcp" horiz-adv-x="1198" 
d="M597 -20q-225 0 -370 146t-145 373t145.5 374t369.5 147q225 0 372 -147t147 -374q0 -152 -69 -271t-189 -184l266 -241l-124 -130l-345 310q-29 -3 -58 -3zM597 837q-144 0 -230.5 -94t-86.5 -244q0 -149 86.5 -243t230.5 -94q145 0 234 94t89 243t-89.5 243.5
t-233.5 94.5z" />
    <glyph glyph-name="Q.smcp" horiz-adv-x="1198" 
d="M597 -20q-225 0 -370 146t-145 373t145.5 374t369.5 147q225 0 372 -147t147 -374q0 -124 -46 -226.5t-130 -172.5l103 -138l-142 -105l-115 155q-88 -32 -189 -32zM280 499q0 -149 86.5 -243t230.5 -94q40 0 72 7l-125 167l143 102l139 -186q94 92 94 247
q0 149 -89.5 243.5t-233.5 94.5t-230.5 -94t-86.5 -244z" />
    <glyph glyph-name="R.smcp" horiz-adv-x="1038" 
d="M147 1000h438q160 0 254 -84t94 -229q0 -97 -49 -170t-135 -111l238 -406h-221l-216 382h-208v-382h-195v1000zM579 833h-237v-283h237q75 0 116 39t41 101q0 66 -40.5 104.5t-116.5 38.5z" />
    <glyph glyph-name="S.smcp" horiz-adv-x="952" 
d="M76 231l155 97q94 -176 259 -176q79 0 130 32t51 83q0 44 -44 76.5t-158 76.5q-148 58 -194 84q-116 64 -140 165q-8 32 -8 70q0 87 53.5 153t133 97t168.5 31q131 0 231 -62t152 -153l-144 -107q-38 64 -102 107t-137 43q-71 0 -115 -29t-44 -79q0 -33 28.5 -59.5
t61.5 -42t112 -46.5l15 -6q185 -73 256 -138.5t71 -172.5q0 -93 -57.5 -162t-141.5 -101t-178 -32q-147 0 -255.5 72t-158.5 179z" />
    <glyph glyph-name="T.smcp" horiz-adv-x="921" 
d="M42 833v167h837v-167h-320v-833h-195v833h-322z" />
    <glyph glyph-name="U.smcp" horiz-adv-x="1132" 
d="M566 -20q-194 0 -312 104t-118 278v638h195v-631q0 -96 63.5 -153t171.5 -57q107 0 171 57t64 153v631h195v-638q0 -174 -118 -278t-312 -104z" />
    <glyph glyph-name="V.smcp" horiz-adv-x="1050" 
d="M417 0l-386 1000h206l288 -769l289 769h206l-387 -1000h-216z" />
    <glyph glyph-name="W.smcp" horiz-adv-x="1546" 
d="M40 1000h197l224 -789l215 774h195l215 -774l223 789h197l-281 -1000h-273l-179 647l-180 -647h-271z" />
    <glyph glyph-name="X.smcp" horiz-adv-x="1031" 
d="M23 0l363 509l-345 491h238l236 -340l237 340h238l-351 -489l370 -511h-239l-255 356l-253 -356h-239z" />
    <glyph glyph-name="Y.smcp" horiz-adv-x="1014" 
d="M30 1000h227l249 -415l251 415h227l-382 -622v-378h-190v379z" />
    <glyph glyph-name="Z.smcp" horiz-adv-x="966" 
d="M84 137l538 695h-538v168h798v-138l-538 -694h538v-168h-798v137z" />
    <glyph glyph-name="a.alt" horiz-adv-x="1257" 
d="M83 485q0 219 137.5 357t344.5 138q224 0 342 -151v131h198v-960h-198v131q-118 -151 -342 -151q-206 0 -344 142.5t-138 362.5zM589 802q-136 0 -222 -91t-86 -226q0 -136 86 -231.5t222 -95.5t226.5 96t90.5 231q0 134 -90 225.5t-227 91.5z" />
    <glyph glyph-name="g.alt" horiz-adv-x="1084" 
d="M526 -439q-207 0 -329 65t-122 193q0 64 34.5 118.5t95.5 90.5q-63 41 -63 121q0 88 109 172q-80 47 -124 124.5t-44 174.5q0 160 115 260t300 100q63 0 131 -20h386v-166l-161 -1q59 -87 59 -173q0 -160 -115 -260t-300 -100q-62 0 -117 12q-55 -49 -55 -81
q0 -26 22 -40t58 -14h283q67 0 125 -14.5t106 -45t76 -84.5t28 -126q0 -99 -69 -170t-179.5 -103.5t-249.5 -32.5zM273 620q0 -90 59.5 -144t165.5 -54t165.5 54t59.5 144t-59.5 144t-165.5 54t-165.5 -54t-59.5 -144zM270 -143q0 -61 66 -92t188 -31q142 0 221.5 34
t79.5 97q0 46 -39 73.5t-105 27.5h-348q-63 -44 -63 -109z" />
    <glyph glyph-name="i.TRK" horiz-adv-x="502" 
d="M350 0h-198v960h198v-960zM135 1282q0 54 34 88t88 34t88.5 -34t34.5 -88t-34.5 -88t-88.5 -34t-88 34t-34 88z" />
    <glyph glyph-name="l.alt" horiz-adv-x="576" 
d="M143 1408h198v-1166q0 -43 22 -65.5t60 -22.5q57 0 106 18l29 -160q-68 -32 -163 -32q-119 0 -185.5 62.5t-66.5 180.5v1185z" />
    <glyph glyph-name="u.alt" horiz-adv-x="1151" 
d="M138 384v576h199v-542q0 -111 66.5 -181.5t172.5 -70.5q107 0 173.5 70.5t66.5 181.5v542h197v-570q-1 -182 -122 -296t-315 -114q-195 0 -316.5 112t-121.5 292z" />
    <glyph glyph-name="y.alt" horiz-adv-x="1080" 
d="M25 960h218l285 -742l311 742h218l-598 -1360h-194l160 400z" />
    <glyph glyph-name="cent.onum" horiz-adv-x="1136" 
d="M100 560q0 181 114 316.5t291 171.5v173h171v-165q122 -14 220 -81.5t158 -178.5l-153 -104q-37 68 -96 114t-129 60v-614q144 29 228 173l149 -105q-59 -106 -157.5 -173.5t-219.5 -83.5v-183h-171v189q-178 34 -291.5 171t-113.5 320zM505 856q-94 -32 -149.5 -112
t-55.5 -184t56 -185t149 -113v594z" />
    <glyph glyph-name="cent.onum.tnum" 
d="M205 559q0 188 122.5 326t310.5 167v169h131v-165q125 -11 226.5 -79.5t163.5 -181.5l-153 -104q-38 71 -100.5 117.5t-136.5 59.5v-620q153 26 240 176l149 -105q-61 -109 -162.5 -177t-226.5 -81v-181h-131v183q-189 26 -311 165.5t-122 330.5zM638 863
q-105 -25 -169 -108.5t-64 -195.5q0 -113 64.5 -197t168.5 -109v610z" />
    <glyph glyph-name="cent.tnum" 
d="M205 680q0 181 114 316.5t291 171.5v173h171v-165q122 -14 220 -81.5t158 -178.5l-153 -104q-37 68 -96 114t-129 60v-614q144 29 228 173l149 -105q-59 -106 -157.5 -173.5t-219.5 -83.5v-183h-171v189q-178 34 -291.5 171t-113.5 320zM610 976q-94 -32 -149.5 -112
t-55.5 -184t56 -185t149 -113v594z" />
    <glyph glyph-name="sterling.onum" horiz-adv-x="1016" 
d="M101 164q73 42 108.5 86t35.5 114v106h-140v162h138v118q0 153 99 243.5t252 90.5q119 0 215.5 -67.5t138.5 -191.5l-170 -87q-65 155 -186 155q-68 0 -106.5 -41t-38.5 -113v-107h282v-162h-281v-83q0 -66 -12.5 -114.5t-52.5 -87.5h519v-185h-801v164z" />
    <glyph glyph-name="sterling.onum.tnum" 
d="M267 164q73 42 108.5 86t35.5 114v106h-140v162h138v118q0 153 99 243.5t252 90.5q119 0 215.5 -67.5t138.5 -191.5l-170 -87q-65 155 -186 155q-68 0 -106.5 -41t-38.5 -113v-107h282v-162h-281v-83q0 -126 -57 -202h511v-185h-801v164z" />
    <glyph glyph-name="sterling.tnum" 
d="M1160 0h-1000v174q63 38 102 73t64.5 87.5t25.5 119.5v149h-185v178h182v184q0 190 122 302.5t311 112.5q148 0 266.5 -78.5t166.5 -222.5l-174 -89q-88 192 -260 192q-109 0 -171.5 -62t-62.5 -169v-170h384v-178h-383v-118q0 -198 -120 -296h732v-189z" />
    <glyph glyph-name="currency.onum" horiz-adv-x="1189" 
d="M81 902l147 147l169 -170q93 53 196 53q105 0 200 -53l168 170l147 -147l-170 -169q52 -90 52 -193q0 -109 -57 -198l175 -173l-147 -147l-175 177q-93 -48 -193 -48q-98 0 -188 48l-177 -177l-147 147l174 173q-54 92 -54 198q0 105 51 193zM592 766q-92 0 -157.5 -66
t-65.5 -160q0 -91 65.5 -155.5t157.5 -64.5q95 0 162.5 64.5t67.5 155.5q0 94 -67.5 160t-162.5 66z" />
    <glyph glyph-name="currency.onum.tnum" 
d="M161 902l147 147l169 -170q93 53 196 53q105 0 200 -53l168 170l147 -147l-170 -169q52 -90 52 -193q0 -109 -57 -198l175 -173l-147 -147l-175 177q-93 -48 -193 -48q-98 0 -188 48l-177 -177l-147 147l174 173q-54 92 -54 198q0 105 51 193zM672 766q-92 0 -157.5 -66
t-65.5 -160q0 -91 65.5 -155.5t157.5 -64.5q95 0 162.5 64.5t67.5 155.5q0 94 -67.5 160t-162.5 66z" />
    <glyph glyph-name="currency.tnum" 
d="M161 1023l147 147l169 -170q93 53 196 53q105 0 200 -53l168 170l147 -147l-170 -169q52 -90 52 -193q0 -109 -57 -198l175 -173l-147 -147l-175 177q-93 -48 -193 -48q-98 0 -188 48l-177 -177l-147 147l174 173q-54 92 -54 198q0 105 51 193zM672 887q-92 0 -157.5 -66
t-65.5 -160q0 -91 65.5 -155.5t157.5 -64.5q95 0 162.5 64.5t67.5 155.5q0 94 -67.5 160t-162.5 66z" />
    <glyph glyph-name="yen.onum" horiz-adv-x="1142" 
d="M415 504l-376 563h236l296 -448l296 448h236l-376 -563h205v-115h-262v-96h262v-115h-262v-178h-197v178h-263v115h263v96h-263v115h205z" />
    <glyph glyph-name="yen.onum.tnum" 
d="M519 504l-376 563h240l292 -448l298 448h234l-376 -563h205v-115h-262v-106h250v-115h-250v-168h-197v168h-252v115h252v106h-263v115h205z" />
    <glyph glyph-name="yen.tnum" 
d="M244 478v154h257l-464 726h250l389 -623l390 623h250l-465 -726h255v-154h-325v-109h325v-154h-325v-215h-209v215h-328v154h328v109h-328z" />
    <glyph glyph-name="ordfeminine.onum" horiz-adv-x="825" 
d="M370 552q-103 0 -169.5 49t-66.5 135t74.5 139t195.5 53q83 0 147 -27v30q0 54 -41.5 89t-108.5 35q-97 0 -171 -80l-83 87q39 48 108.5 83t147.5 35q129 0 204.5 -64t75.5 -174v-378h-130v78q-27 -42 -75.5 -66t-107.5 -24zM688 317h-554v140h554v-140zM270 740
q0 -37 33.5 -58.5t85.5 -21.5q70 0 116 40.5t46 97.5q-56 29 -144 29q-60 0 -98.5 -22t-38.5 -65z" />
    <glyph glyph-name="ordfeminine.onum.tnum" 
d="M632 552q-103 0 -169.5 49t-66.5 135t74.5 139t195.5 53q83 0 147 -27v30q0 54 -41.5 89t-108.5 35q-97 0 -171 -80l-83 87q39 48 108.5 83t147.5 35q129 0 204.5 -64t75.5 -174v-378h-130v78q-27 -42 -75.5 -66t-107.5 -24zM950 317h-554v140h554v-140zM532 740
q0 -37 33.5 -58.5t85.5 -21.5q70 0 116 40.5t46 97.5q-56 29 -144 29q-60 0 -98.5 -22t-38.5 -65z" />
    <glyph glyph-name="ordfeminine.tnum" 
d="M632 752q-103 0 -169.5 49t-66.5 135t74.5 139t195.5 53q83 0 147 -27v30q0 54 -41.5 89t-108.5 35q-97 0 -171 -80l-83 87q39 48 108.5 83t147.5 35q129 0 204.5 -64t75.5 -174v-378h-130v78q-27 -42 -75.5 -66t-107.5 -24zM950 517h-554v140h554v-140zM532 940
q0 -37 33.5 -58.5t85.5 -21.5q70 0 116 40.5t46 97.5q-56 29 -144 29q-60 0 -98.5 -22t-38.5 -65z" />
    <glyph glyph-name="logicalnot.onum" horiz-adv-x="1312" 
d="M973 265v373h-888v197h1096v-570h-208z" />
    <glyph glyph-name="logicalnot.onum.tnum" 
d="M994 265v373h-888v197h1096v-570h-208z" />
    <glyph glyph-name="logicalnot.tnum" 
d="M984 408v373h-888v197h1096v-570h-208z" />
    <glyph glyph-name="degree.onum" horiz-adv-x="901" 
d="M449 478q-158 0 -257 96.5t-99 251.5q0 157 99 254.5t257 97.5q160 0 259.5 -97.5t99.5 -254.5q0 -155 -99.5 -251.5t-259.5 -96.5zM247 825q0 -92 56 -149t146 -57q89 0 144.5 57t55.5 149q0 95 -55.5 153.5t-144.5 58.5q-90 0 -146 -59t-56 -153z" />
    <glyph glyph-name="degree.onum.tnum" 
d="M674 478q-158 0 -257 96.5t-99 251.5q0 157 99 254.5t257 97.5q160 0 259.5 -97.5t99.5 -254.5q0 -155 -99.5 -251.5t-259.5 -96.5zM472 825q0 -92 56 -149t146 -57q89 0 144.5 57t55.5 149q0 95 -55.5 153.5t-144.5 58.5q-90 0 -146 -59t-56 -153z" />
    <glyph glyph-name="degree.tnum" 
d="M674 678q-158 0 -257 96.5t-99 251.5q0 157 99 254.5t257 97.5q160 0 259.5 -97.5t99.5 -254.5q0 -155 -99.5 -251.5t-259.5 -96.5zM472 1025q0 -92 56 -149t146 -57q89 0 144.5 57t55.5 149q0 95 -55.5 153.5t-144.5 58.5q-90 0 -146 -59t-56 -153z" />
    <glyph glyph-name="plusminus.onum" horiz-adv-x="1247" 
d="M112 852h407v361h208v-361h409v-197h-409v-368h-208v368h-407v197zM96 -99v199h1054v-199h-1054z" />
    <glyph glyph-name="plusminus.onum.tnum" 
d="M163 852h407v361h208v-361h409v-197h-409v-368h-208v368h-407v197zM147 -99v199h1054v-199h-1054z" />
    <glyph glyph-name="plusminus.tnum" 
d="M163 995h407v361h208v-361h409v-197h-409v-368h-208v368h-407v197zM147 44v199h1054v-199h-1054z" />
    <glyph glyph-name="ordmasculine.onum" horiz-adv-x="896" 
d="M126 866q0 138 90.5 225t230.5 87q141 0 232 -87t91 -225q0 -136 -91 -222t-232 -86q-140 0 -230.5 86t-90.5 222zM279 865q0 -74 46.5 -120t121.5 -46q74 0 119.5 46t45.5 120q0 77 -46 124.5t-119 47.5q-75 0 -121.5 -47.5t-46.5 -124.5zM136 455h624v-140h-624v140z
" />
    <glyph glyph-name="ordmasculine.onum.tnum" 
d="M353 866q0 138 90.5 225t230.5 87q141 0 232 -87t91 -225q0 -136 -91 -222t-232 -86q-140 0 -230.5 86t-90.5 222zM506 865q0 -74 46.5 -120t121.5 -46q74 0 119.5 46t45.5 120q0 77 -46 124.5t-119 47.5q-75 0 -121.5 -47.5t-46.5 -124.5zM363 455h624v-140h-624v140z
" />
    <glyph glyph-name="ordmasculine.tnum" 
d="M353 1066q0 138 90.5 225t230.5 87q141 0 232 -87t91 -225q0 -136 -91 -222t-232 -86q-140 0 -230.5 86t-90.5 222zM506 1065q0 -74 46.5 -120t121.5 -46q74 0 119.5 46t45.5 120q0 77 -46 124.5t-119 47.5q-75 0 -121.5 -47.5t-46.5 -124.5zM363 655h624v-140h-624v140z
" />
    <glyph glyph-name="onequarter.onum" horiz-adv-x="1607" 
d="M869 182l387 502h166v-482h118v-144h-118v-198h-153v197h-400v125zM314 -114l734 1332h145v-24l-732 -1334h-147v26zM129 1061l-1 153h324v-824h-153v671h-170zM1269 462l-200 -260h200v260z" />
    <glyph glyph-name="onehalf.onum" horiz-adv-x="1704" 
d="M1158 409l-140 73q33 99 115 160.5t178 61.5q127 0 212 -77t85 -205q0 -33 -7.5 -62.5t-25.5 -56t-33.5 -46t-45 -43.5t-46 -36.5t-51 -36t-45.5 -31.5q-8 -6 -34 -24t-37.5 -26.5t-27.5 -22t-24 -24.5h391v-153h-592v72q1 29 9 56.5t18 48.5t29.5 44.5t33.5 38t40.5 36
t40.5 32t44 31.5t42 29q80 57 113.5 93.5t33.5 84.5q0 58 -33.5 91.5t-87.5 33.5q-49 0 -91 -38t-64 -104zM491 -140h-147v26l734 1332h145v-24zM128 1214h324v-824h-153v671h-170z" />
    <glyph glyph-name="threequarters.onum" horiz-adv-x="1807" 
d="M408 380q-108 0 -191.5 55t-122.5 154l139 80q22 -61 70.5 -99t101.5 -38q55 0 88 29.5t33 74.5q0 54 -39.5 86.5t-99.5 32.5h-129v131h129q54 0 87.5 29.5t33.5 77.5q0 43 -32.5 70.5t-83.5 27.5q-57 0 -98.5 -35.5t-62.5 -93.5l-137 80q34 86 110.5 144t185.5 58
q125 0 210.5 -66t85.5 -183q0 -54 -31 -101.5t-78 -70.5q54 -23 91 -75.5t37 -113.5q0 -118 -88 -186t-209 -68zM1081 57v125l387 502h166v-482h118v-144h-118v-198h-153v197h-400zM516 -114l734 1332h145v-24l-732 -1334h-147v26zM1281 202h200v260z" />
    <glyph glyph-name="Agrave.smcp" horiz-adv-x="1101" 
d="M25 0l412 1000h227l412 -1000h-211l-76 193h-477l-76 -193h-211zM550 798l-173 -441h347zM259 1490h222l152 -334h-171z" />
    <glyph glyph-name="Aacute.smcp" horiz-adv-x="1101" 
d="M236 0h-211l412 1000h227l412 -1000h-211l-76 193h-477zM550 798l-173 -441h347zM478 1153l152 334h222l-203 -334h-171z" />
    <glyph glyph-name="Acircumflex.smcp" horiz-adv-x="1101" 
d="M25 0l412 1000h227l412 -1000h-211l-76 193h-477l-76 -193h-211zM416 1125h-189l287 370h74l287 -370h-189l-135 187zM550 798l-173 -441h347z" />
    <glyph glyph-name="Atilde.smcp" horiz-adv-x="1101" 
d="M25 0l412 1000h227l412 -1000h-211l-76 193h-477l-76 -193h-211zM210 1292q96 160 217 160q47 0 87.5 -20.5t76.5 -41t72 -20.5q43 0 71.5 18t61.5 64l95 -95q-49 -80 -101.5 -114.5t-128.5 -34.5q-43 0 -83.5 19t-75.5 38.5t-64 19.5q-38 0 -62.5 -17t-62.5 -63z
M377 357h347l-174 441z" />
    <glyph glyph-name="Adieresis.smcp" horiz-adv-x="1101" 
d="M236 0h-211l412 1000h227l412 -1000h-211l-76 193h-477zM377 357h347l-174 441zM605 1318q0 54 34 88t88 34t88.5 -34t34.5 -88t-34.5 -88t-88.5 -34t-88 34t-34 88zM374 1196q-54 0 -88 34t-34 88t34 88t88 34t88.5 -34t34.5 -88t-34.5 -88t-88.5 -34z" />
    <glyph glyph-name="Aring.smcp" horiz-adv-x="1101" 
d="M236 0h-211l412 1000h227l412 -1000h-211l-76 193h-477zM345 1330q0 88 57 143t149 55t149 -55t57 -143q0 -87 -57 -141t-149 -54t-149 54t-57 141zM377 357h347l-174 441zM551 1416q-39 0 -62.5 -24t-23.5 -63q0 -36 23.5 -58.5t62.5 -22.5q38 0 61.5 22.5t23.5 58.5
q0 39 -23.5 63t-61.5 24z" />
    <glyph glyph-name="AE.smcp" horiz-adv-x="1522" 
d="M194 0h-210l630 1000h809v-167h-525v-240h451v-168h-451v-257h540v-168h-735v193h-391zM703 831l-290 -474h290v474z" />
    <glyph glyph-name="Ccedilla.smcp" horiz-adv-x="1108" 
d="M511 -13q-186 32 -308 175.5t-122 338.5q0 144 68 263t186.5 187.5t260.5 68.5q141 0 264 -70.5t192 -192.5l-152 -105q-115 185 -304 185q-138 0 -228 -95.5t-90 -240.5t91.5 -242t229.5 -97q193 0 302 182l150 -102q-71 -117 -181.5 -185t-239.5 -76l-22 -72
q96 -8 150.5 -53t54.5 -118q0 -91 -73.5 -143t-203.5 -52q-101 0 -169 35l35 123q55 -26 123 -26q116 0 116 66q0 69 -130 69h-69z" />
    <glyph glyph-name="Egrave.smcp" horiz-adv-x="966" 
d="M147 0v1000h720v-167h-525v-240h451v-168h-451v-257h540v-168h-735zM242 1490h222l152 -334h-171z" />
    <glyph glyph-name="Eacute.smcp" horiz-adv-x="966" 
d="M882 0h-735v1000h720v-167h-525v-240h451v-168h-451v-257h540v-168zM431 1153l152 334h222l-203 -334h-171z" />
    <glyph glyph-name="Ecircumflex.smcp" horiz-adv-x="966" 
d="M147 1000h720v-167h-525v-240h451v-168h-451v-257h540v-168h-735v1000zM368 1125h-189l287 370h74l287 -370h-189l-135 187z" />
    <glyph glyph-name="Edieresis.smcp" horiz-adv-x="966" 
d="M147 1000h720v-167h-525v-240h451v-168h-451v-257h540v-168h-735v1000zM562 1318q0 54 34 88t88 34t88.5 -34t34.5 -88t-34.5 -88t-88.5 -34t-88 34t-34 88zM331 1196q-54 0 -88 34t-34 88t34 88t88 34t88.5 -34t34.5 -88t-34.5 -88t-88.5 -34z" />
    <glyph glyph-name="Igrave.smcp" horiz-adv-x="489" 
d="M342 1000v-1000h-195v1000h195zM168 1156l-203 334h222l152 -334h-171z" />
    <glyph glyph-name="Iacute.smcp" horiz-adv-x="489" 
d="M342 1000v-1000h-195v1000h195zM539 1487l-203 -334h-171l152 334h222z" />
    <glyph glyph-name="Icircumflex.smcp" horiz-adv-x="489" 
d="M147 1000h195v-1000h-195v1000zM-79 1125l287 370h74l287 -370h-189l-135 187l-135 -187h-189z" />
    <glyph glyph-name="Idieresis.smcp" horiz-adv-x="489" 
d="M147 1000h195v-1000h-195v1000zM298 1318q0 54 34 88t88 34t88.5 -34t34.5 -88t-34.5 -88t-88.5 -34t-88 34t-34 88zM67 1196q-54 0 -88 34t-34 88t34 88t88 34t88.5 -34t34.5 -88t-34.5 -88t-88.5 -34z" />
    <glyph glyph-name="Eth.smcp" horiz-adv-x="1173" 
d="M52 593h112v407h412q223 0 369 -142t146 -359t-146 -358t-369 -141h-412v429h-112v164zM359 593h308v-164h-308v-258h215q142 0 231 94t89 234t-89 236.5t-231 96.5h-215v-239z" />
    <glyph glyph-name="Ntilde.smcp" horiz-adv-x="1217" 
d="M337 0h-190v1000h180l553 -695v695h190v-1000h-180l-553 683v-683zM253 1292q96 160 217 160q47 0 87.5 -20.5t76.5 -41t72 -20.5q43 0 71.5 18t61.5 64l95 -95q-49 -80 -101.5 -114.5t-128.5 -34.5q-43 0 -83.5 19t-75.5 38.5t-64 19.5q-38 0 -62.5 -17t-62.5 -63z" />
    <glyph glyph-name="Ograve.smcp" horiz-adv-x="1198" 
d="M597 -20q-225 0 -370 146t-145 373t145.5 374t369.5 147q225 0 372 -147t147 -374t-147 -373t-372 -146zM280 499q0 -149 86.5 -243t230.5 -94q145 0 234 94t89 243t-89.5 243.5t-233.5 94.5t-230.5 -94t-86.5 -244zM340 1490h222l152 -334h-171z" />
    <glyph glyph-name="Oacute.smcp" horiz-adv-x="1198" 
d="M82 499q0 227 145.5 374t369.5 147q225 0 372 -147t147 -374t-147 -373t-372 -146t-370 146t-145 373zM597 837q-144 0 -230.5 -94t-86.5 -244q0 -149 86.5 -243t230.5 -94q145 0 234 94t89 243t-89.5 243.5t-233.5 94.5zM527 1153l152 334h222l-203 -334h-171z" />
    <glyph glyph-name="Ocircumflex.smcp" horiz-adv-x="1198" 
d="M82 499q0 227 145.5 374t369.5 147q225 0 372 -147t147 -374t-147 -373t-372 -146t-370 146t-145 373zM280 499q0 -149 86.5 -243t230.5 -94q145 0 234 94t89 243t-89.5 243.5t-233.5 94.5t-230.5 -94t-86.5 -244zM275 1125l287 370h74l287 -370h-189l-135 187l-135 -187
h-189z" />
    <glyph glyph-name="Otilde.smcp" horiz-adv-x="1198" 
d="M597 -20q-225 0 -370 146t-145 373t145.5 374t369.5 147q225 0 372 -147t147 -374t-147 -373t-372 -146zM280 499q0 -149 86.5 -243t230.5 -94q145 0 234 94t89 243t-89.5 243.5t-233.5 94.5t-230.5 -94t-86.5 -244zM259 1292q96 160 217 160q47 0 87.5 -20.5t76.5 -41
t72 -20.5q43 0 71.5 18t61.5 64l95 -95q-49 -80 -101.5 -114.5t-128.5 -34.5q-43 0 -83.5 19t-75.5 38.5t-64 19.5q-38 0 -62.5 -17t-62.5 -63z" />
    <glyph glyph-name="Odieresis.smcp" horiz-adv-x="1198" 
d="M82 499q0 227 145.5 374t369.5 147q225 0 372 -147t147 -374t-147 -373t-372 -146t-370 146t-145 373zM280 499q0 -149 86.5 -243t230.5 -94q145 0 234 94t89 243t-89.5 243.5t-233.5 94.5t-230.5 -94t-86.5 -244zM653 1318q0 54 34 88t88 34t88.5 -34t34.5 -88
t-34.5 -88t-88.5 -34t-88 34t-34 88zM422 1196q-54 0 -88 34t-34 88t34 88t88 34t88.5 -34t34.5 -88t-34.5 -88t-88.5 -34z" />
    <glyph glyph-name="multiply.onum" horiz-adv-x="1140" 
d="M69 179l357 357l-357 357l145 144l356 -357l357 357l144 -144l-357 -357l357 -357l-144 -144l-357 357l-357 -357z" />
    <glyph glyph-name="multiply.onum.tnum" 
d="M174 179l357 357l-357 357l145 144l356 -357l357 357l144 -144l-357 -357l357 -357l-144 -144l-357 357l-357 -357z" />
    <glyph glyph-name="multiply.tnum" 
d="M174 322l357 357l-357 357l145 144l356 -357l357 357l144 -144l-357 -357l357 -357l-144 -144l-357 357l-357 -357z" />
    <glyph glyph-name="Oslash.smcp" horiz-adv-x="1212" 
d="M879 947l163 199l130 -107l-166 -202q115 -140 115 -338q0 -227 -147 -373t-372 -146q-136 0 -250 58l-150 -184l-130 107l146 179q-131 145 -131 359q0 227 145.5 374t369.5 147q154 0 277 -73zM343 292l416 509q-70 36 -157 36q-144 0 -230.5 -94t-86.5 -244
q0 -122 58 -207zM880 683l-407 -497q57 -24 129 -24q145 0 234 94t89 243q0 103 -45 184z" />
    <glyph glyph-name="Ugrave.smcp" horiz-adv-x="1132" 
d="M566 -20q-194 0 -312 104t-118 278v638h195v-631q0 -96 63.5 -153t171.5 -57q107 0 171 57t64 153v631h195v-638q0 -174 -118 -278t-312 -104zM291 1490h222l152 -334h-171z" />
    <glyph glyph-name="Uacute.smcp" horiz-adv-x="1132" 
d="M566 -20q-194 0 -312 104t-118 278v638h195v-631q0 -96 63.5 -153t171.5 -57q107 0 171 57t64 153v631h195v-638q0 -174 -118 -278t-312 -104zM641 1153h-171l152 334h222z" />
    <glyph glyph-name="Ucircumflex.smcp" horiz-adv-x="1132" 
d="M566 -20q-194 0 -312 104t-118 278v638h195v-631q0 -96 63.5 -153t171.5 -57q107 0 171 57t64 153v631h195v-638q0 -174 -118 -278t-312 -104zM431 1125h-189l287 370h74l287 -370h-189l-135 187z" />
    <glyph glyph-name="Udieresis.smcp" horiz-adv-x="1132" 
d="M566 -20q-194 0 -312 104t-118 278v638h195v-631q0 -96 63.5 -153t171.5 -57q107 0 171 57t64 153v631h195v-638q0 -174 -118 -278t-312 -104zM742 1196q-54 0 -88 34t-34 88t34 88t88 34t88.5 -34t34.5 -88t-34.5 -88t-88.5 -34zM389 1196q-54 0 -88 34t-34 88t34 88
t88 34t88.5 -34t34.5 -88t-34.5 -88t-88.5 -34z" />
    <glyph glyph-name="Yacute.smcp" horiz-adv-x="1014" 
d="M30 1000h227l249 -415l251 415h227l-382 -622v-378h-190v379zM596 1153h-171l152 334h222z" />
    <glyph glyph-name="Thorn.smcp" horiz-adv-x="1072" 
d="M147 0v1000h198v-147h272q159 0 264.5 -94.5t105.5 -259.5q0 -157 -106.5 -254t-263.5 -97h-272v-148h-198zM345 316h248q82 0 136 51.5t54 131.5q0 86 -53.5 135.5t-136.5 49.5h-248v-368z" />
    <glyph glyph-name="agrave.alt" horiz-adv-x="1257" 
d="M565 -20q-206 0 -344 142.5t-138 362.5q0 219 137.5 357t344.5 138q224 0 342 -151v131h198v-960h-198v131q-118 -151 -342 -151zM589 802q-136 0 -222 -91t-86 -226q0 -136 86 -231.5t222 -95.5t226.5 96t90.5 231q0 134 -90 225.5t-227 91.5zM307 1455h222l152 -334
h-171z" />
    <glyph glyph-name="aacute.alt" horiz-adv-x="1257" 
d="M565 -20q-206 0 -344 142.5t-138 362.5q0 219 137.5 357t344.5 138q224 0 342 -151v131h198v-960h-198v131q-118 -151 -342 -151zM589 802q-136 0 -222 -91t-86 -226q0 -136 86 -231.5t222 -95.5t226.5 96t90.5 231q0 134 -90 225.5t-227 91.5zM702 1113h-171l152 334
h222z" />
    <glyph glyph-name="acircumflex.alt" horiz-adv-x="1257" 
d="M83 485q0 219 137.5 357t344.5 138q224 0 342 -151v131h198v-960h-198v131q-118 -151 -342 -151q-206 0 -344 142.5t-138 362.5zM281 485q0 -136 86 -231.5t222 -95.5t226.5 96t90.5 231q0 134 -90 225.5t-227 91.5q-136 0 -222 -91t-86 -226zM446 1084h-189l287 370h74
l287 -370h-189l-135 187z" />
    <glyph glyph-name="atilde.alt" horiz-adv-x="1257" 
d="M565 -20q-206 0 -344 142.5t-138 362.5q0 219 137.5 357t344.5 138q224 0 342 -151v131h198v-960h-198v131q-118 -151 -342 -151zM589 802q-136 0 -222 -91t-86 -226q0 -136 86 -231.5t222 -95.5t226.5 96t90.5 231q0 134 -90 225.5t-227 91.5zM323 1160l-103 87
q96 160 217 160q47 0 87.5 -20.5t76.5 -41t72 -20.5q43 0 71.5 18t61.5 64l95 -95q-49 -80 -101.5 -114.5t-128.5 -34.5q-43 0 -83.5 19.5t-75.5 38.5t-64 19q-38 0 -62.5 -17t-62.5 -63z" />
    <glyph glyph-name="adieresis.alt" horiz-adv-x="1257" 
d="M565 -20q-206 0 -344 142.5t-138 362.5q0 219 137.5 357t344.5 138q224 0 342 -151v131h198v-960h-198v131q-118 -151 -342 -151zM589 802q-136 0 -222 -91t-86 -226q0 -136 86 -231.5t222 -95.5t226.5 96t90.5 231q0 134 -90 225.5t-227 91.5zM742 1159q-54 0 -88 34
t-34 88t34 88t88 34t88.5 -34t34.5 -88t-34.5 -88t-88.5 -34zM267 1281q0 54 34 88t88 34t88.5 -34t34.5 -88t-34.5 -88t-88.5 -34t-88 34t-34 88z" />
    <glyph glyph-name="aring.alt" horiz-adv-x="1257" 
d="M83 485q0 219 137.5 357t344.5 138q224 0 342 -151v131h198v-960h-198v131q-118 -151 -342 -151q-206 0 -344 142.5t-138 362.5zM589 802q-136 0 -222 -91t-86 -226q0 -136 86 -231.5t222 -95.5t226.5 96t90.5 231q0 134 -90 225.5t-227 91.5zM554 1093q-92 0 -149 54
t-57 141q0 88 57 143t149 55t149 -55t57 -143q0 -87 -57 -141t-149 -54zM554 1374q-39 0 -62.5 -24t-23.5 -63q0 -36 23.5 -58.5t62.5 -22.5q38 0 61.5 22.5t23.5 58.5q0 39 -23.5 63t-61.5 24z" />
    <glyph glyph-name="divide.onum" horiz-adv-x="1272" 
d="M97 635h1078v-197h-1078v197zM518 127q0 54 34 88t88 34t88.5 -34t34.5 -88t-34.5 -88t-88.5 -34t-88 34t-34 88zM640 834q-54 0 -88 34t-34 88t34 88t88 34t88.5 -34t34.5 -88t-34.5 -88t-88.5 -34z" />
    <glyph glyph-name="divide.onum.tnum" 
d="M136 635h1078v-197h-1078v197zM555 125q0 54 34 88t88 34t88.5 -34t34.5 -88t-34.5 -88t-88.5 -34t-88 34t-34 88zM677 832q-54 0 -88 34t-34 88t34 88t88 34t88.5 -34t34.5 -88t-34.5 -88t-88.5 -34z" />
    <glyph glyph-name="divide.tnum" 
d="M136 778h1078v-197h-1078v197zM554 267q0 54 34 88t88 34t88.5 -34t34.5 -88t-34.5 -88t-88.5 -34t-88 34t-34 88zM676 974q-54 0 -88 34t-34 88t34 88t88 34t88.5 -34t34.5 -88t-34.5 -88t-88.5 -34z" />
    <glyph glyph-name="ugrave.alt" horiz-adv-x="1151" 
d="M138 960h199v-542q0 -111 66.5 -181.5t172.5 -70.5q107 0 173.5 70.5t66.5 181.5v542h197v-570q-1 -182 -122 -296t-315 -114q-195 0 -316.5 112t-121.5 292v576zM318 1455h222l152 -334h-171z" />
    <glyph glyph-name="uacute.alt" horiz-adv-x="1151" 
d="M576 -20q-195 0 -316.5 112t-121.5 292v576h199v-542q0 -111 66.5 -181.5t172.5 -70.5q107 0 173.5 70.5t66.5 181.5v542h197v-570q-1 -182 -122 -296t-315 -114zM494 1113l152 334h222l-203 -334h-171z" />
    <glyph glyph-name="ucircumflex.alt" horiz-adv-x="1151" 
d="M138 960h199v-542q0 -111 66.5 -181.5t172.5 -70.5q107 0 173.5 70.5t66.5 181.5v542h197v-570q-1 -182 -122 -296t-315 -114q-195 0 -316.5 112t-121.5 292v576zM255 1087l287 370h74l287 -370h-189l-135 187l-135 -187h-189z" />
    <glyph glyph-name="udieresis.alt" horiz-adv-x="1151" 
d="M576 -20q-195 0 -316.5 112t-121.5 292v576h199v-542q0 -111 66.5 -181.5t172.5 -70.5q107 0 173.5 70.5t66.5 181.5v542h197v-570q-1 -182 -122 -296t-315 -114zM770 1159q-54 0 -88 34t-34 88t34 88t88 34t88.5 -34t34.5 -88t-34.5 -88t-88.5 -34zM295 1281q0 54 34 88
t88 34t88.5 -34t34.5 -88t-34.5 -88t-88.5 -34t-88 34t-34 88z" />
    <glyph glyph-name="yacute.alt" horiz-adv-x="1080" 
d="M425 0l-400 960h218l285 -742l311 742h218l-598 -1360h-194zM438 1113l152 334h222l-203 -334h-171z" />
    <glyph glyph-name="ydieresis.alt" horiz-adv-x="1080" 
d="M25 960h218l285 -742l311 742h218l-598 -1360h-194l160 400zM711 1163q-54 0 -88 34t-34 88t34 88t88 34t88.5 -34t34.5 -88t-34.5 -88t-88.5 -34zM358 1163q-54 0 -88 34t-34 88t34 88t88 34t88.5 -34t34.5 -88t-34.5 -88t-88.5 -34z" />
    <glyph glyph-name="Amacron.smcp" horiz-adv-x="1101" 
d="M25 0l412 1000h227l412 -1000h-211l-76 193h-477l-76 -193h-211zM255 1234v144h591v-144h-591zM550 798l-173 -441h347z" />
    <glyph glyph-name="amacron.alt" horiz-adv-x="1257" 
d="M565 -20q-206 0 -344 142.5t-138 362.5q0 219 137.5 357t344.5 138q224 0 342 -151v131h198v-960h-198v131q-118 -151 -342 -151zM589 802q-136 0 -222 -91t-86 -226q0 -136 86 -231.5t222 -95.5t226.5 96t90.5 231q0 134 -90 225.5t-227 91.5zM870 1192h-591v144h591
v-144z" />
    <glyph glyph-name="Abreve.smcp" horiz-adv-x="1101" 
d="M236 0h-211l412 1000h227l412 -1000h-211l-76 193h-477zM274 1458h161q7 -60 37.5 -96.5t78.5 -36.5q51 0 81.5 36.5t34.5 96.5h161q-6 -129 -82 -203.5t-195 -74.5t-194.5 74.5t-82.5 203.5zM377 357h347l-174 441z" />
    <glyph glyph-name="abreve.alt" horiz-adv-x="1257" 
d="M565 -20q-206 0 -344 142.5t-138 362.5q0 219 137.5 357t344.5 138q224 0 342 -151v131h198v-960h-198v131q-118 -151 -342 -151zM281 485q0 -136 86 -231.5t222 -95.5t226.5 96t90.5 231q0 134 -90 225.5t-227 91.5q-136 0 -222 -91t-86 -226zM567 1139
q-119 0 -194.5 74.5t-82.5 203.5h161q7 -60 37.5 -96.5t78.5 -36.5q51 0 81.5 36.5t34.5 96.5h161q-6 -129 -82 -203.5t-195 -74.5z" />
    <glyph glyph-name="Aogonek.smcp" horiz-adv-x="1101" 
d="M25 0l412 1000h227l412 -1000h-37q-191 -129 -191 -219q0 -36 26 -56.5t72 -20.5q58 0 114 27l45 -140q-78 -48 -186 -48q-112 0 -176 51t-64 140q0 76 52.5 144t133.5 122l-76 193h-477l-76 -193h-211zM550 798l-173 -441h347z" />
    <glyph glyph-name="aogonek.alt" horiz-adv-x="1257" 
d="M565 -20q-206 0 -344 142.5t-138 362.5q0 219 137.5 357t344.5 138q224 0 342 -151v131h198v-960h-24q-191 -129 -191 -219q0 -36 26 -56.5t72 -20.5q58 0 114 27l45 -140q-78 -48 -186 -48q-112 0 -176 51t-64 140q0 76 52.5 144t133.5 122v131q-118 -151 -342 -151z
M281 485q0 -136 86 -231.5t222 -95.5t226.5 96t90.5 231q0 134 -90 225.5t-227 91.5q-136 0 -222 -91t-86 -226z" />
    <glyph glyph-name="Cacute.smcp" horiz-adv-x="1108" 
d="M599 -20q-142 0 -261 69t-188 188.5t-69 263.5t68 263t186.5 187.5t260.5 68.5q141 0 264 -70.5t192 -192.5l-152 -105q-115 185 -304 185q-138 0 -228 -95.5t-90 -240.5t91.5 -242t229.5 -97q193 0 302 182l150 -102q-76 -124 -195 -193t-257 -69zM518 1153l152 334h222
l-203 -334h-171z" />
    <glyph glyph-name="Ccircumflex.smcp" horiz-adv-x="1108" 
d="M599 -20q-142 0 -261 69t-188 188.5t-69 263.5t68 263t186.5 187.5t260.5 68.5q141 0 264 -70.5t192 -192.5l-152 -105q-115 185 -304 185q-138 0 -228 -95.5t-90 -240.5t91.5 -242t229.5 -97q193 0 302 182l150 -102q-76 -124 -195 -193t-257 -69zM275 1125l287 370h74
l287 -370h-189l-135 187l-135 -187h-189z" />
    <glyph glyph-name="Cdotaccent.smcp" horiz-adv-x="1108" 
d="M81 501q0 144 68 263t186.5 187.5t260.5 68.5q141 0 264 -70.5t192 -192.5l-152 -105q-115 185 -304 185q-138 0 -228 -95.5t-90 -240.5t91.5 -242t229.5 -97q193 0 302 182l150 -102q-76 -124 -195 -193t-257 -69q-142 0 -261 69t-188 188.5t-69 263.5zM476 1319
q0 54 34 88t88 34t88.5 -34t34.5 -88t-34.5 -88t-88.5 -34t-88 34t-34 88z" />
    <glyph glyph-name="Ccaron.smcp" horiz-adv-x="1108" 
d="M81 501q0 144 68 263t186.5 187.5t260.5 68.5q141 0 264 -70.5t192 -192.5l-152 -105q-115 185 -304 185q-138 0 -228 -95.5t-90 -240.5t91.5 -242t229.5 -97q193 0 302 182l150 -102q-76 -124 -195 -193t-257 -69q-142 0 -261 69t-188 188.5t-69 263.5zM272 1503h189
l135 -187l135 187h189l-287 -370h-74z" />
    <glyph glyph-name="Dcaron.smcp" horiz-adv-x="1156" 
d="M147 1000h412q223 0 369 -142t146 -359t-146 -358t-369 -141h-412v1000zM342 832v-661h215q142 0 231 94t89 234t-89 236.5t-231 96.5h-215zM205 1503h189l135 -187l135 187h189l-287 -370h-74z" />
    <glyph glyph-name="Dcroat.smcp" horiz-adv-x="1173" 
d="M52 593h112v407h412q223 0 369 -142t146 -359t-146 -358t-369 -141h-412v429h-112v164zM359 593h308v-164h-308v-258h215q142 0 231 94t89 234t-89 236.5t-231 96.5h-215v-239z" />
    <glyph glyph-name="Emacron.smcp" horiz-adv-x="966" 
d="M882 0h-735v1000h720v-167h-525v-240h451v-168h-451v-257h540v-168zM801 1234h-591v144h591v-144z" />
    <glyph glyph-name="Ebreve.smcp" horiz-adv-x="966" 
d="M882 0h-735v1000h720v-167h-525v-240h451v-168h-451v-257h540v-168zM236 1458h161q7 -60 37.5 -96.5t78.5 -36.5q51 0 81.5 36.5t34.5 96.5h161q-6 -129 -82 -203.5t-195 -74.5t-194.5 74.5t-82.5 203.5z" />
    <glyph glyph-name="Edotaccent.smcp" horiz-adv-x="966" 
d="M147 1000h720v-167h-525v-240h451v-168h-451v-257h540v-168h-735v1000zM398 1319q0 54 34 88t88 34t88.5 -34t34.5 -88t-34.5 -88t-88.5 -34t-88 34t-34 88z" />
    <glyph glyph-name="Eogonek.smcp" horiz-adv-x="966" 
d="M147 0v1000h720v-167h-525v-240h451v-168h-451v-257h540v-168q-191 -129 -191 -219q0 -36 26 -56.5t72 -20.5q58 0 114 27l45 -140q-78 -48 -186 -48q-112 0 -176 51t-64 140q0 140 185 266h-560z" />
    <glyph glyph-name="Ecaron.smcp" horiz-adv-x="966" 
d="M147 1000h720v-167h-525v-240h451v-168h-451v-257h540v-168h-735v1000zM472 1133l-287 370h189l135 -187l135 187h189l-287 -370h-74z" />
    <glyph glyph-name="Gcircumflex.smcp" horiz-adv-x="1163" 
d="M600 -20q-143 0 -262 69t-188 188.5t-69 263.5t68 263t186.5 187.5t261.5 68.5q142 0 258.5 -64t188.5 -183l-147 -112q-115 176 -300 176q-139 0 -229 -95.5t-90 -240.5t91.5 -242t230.5 -97q113 0 188.5 64.5t94.5 152.5h-341v163h540q4 -62 4 -74q0 -98 -33 -186.5
t-94 -155.5t-154 -106.5t-205 -39.5zM465 1125h-189l287 370h74l287 -370h-189l-135 187z" />
    <glyph glyph-name="gcircumflex.alt" horiz-adv-x="1084" 
d="M526 -439q-207 0 -329 65t-122 193q0 64 34.5 118.5t95.5 90.5q-63 41 -63 121q0 88 109 172q-80 47 -124 124.5t-44 174.5q0 160 115 260t300 100q63 0 131 -20h386v-166l-161 -1q59 -87 59 -173q0 -160 -115 -260t-300 -100q-62 0 -117 12q-55 -49 -55 -81
q0 -26 22 -40t58 -14h283q67 0 125 -14.5t106 -45t76 -84.5t28 -126q0 -99 -69 -170t-179.5 -103.5t-249.5 -32.5zM498 818q-106 0 -165.5 -54t-59.5 -144t59.5 -144t165.5 -54t165.5 54t59.5 144t-59.5 144t-165.5 54zM333 -34q-63 -44 -63 -109q0 -61 66 -92t188 -31
q142 0 221.5 34t79.5 97q0 46 -39 73.5t-105 27.5h-348zM390 1084h-189l287 370h74l287 -370h-189l-135 187z" />
    <glyph glyph-name="Gbreve.smcp" horiz-adv-x="1163" 
d="M600 -20q-143 0 -262 69t-188 188.5t-69 263.5t68 263t186.5 187.5t261.5 68.5q142 0 258.5 -64t188.5 -183l-147 -112q-115 176 -300 176q-139 0 -229 -95.5t-90 -240.5t91.5 -242t230.5 -97q113 0 188.5 64.5t94.5 152.5h-341v163h540q4 -62 4 -74q0 -98 -33 -186.5
t-94 -155.5t-154 -106.5t-205 -39.5zM597 1180q-119 0 -194.5 74.5t-82.5 203.5h161q7 -60 37.5 -96.5t78.5 -36.5q51 0 81.5 36.5t34.5 96.5h161q-6 -129 -82 -203.5t-195 -74.5z" />
    <glyph glyph-name="gbreve.alt" horiz-adv-x="1084" 
d="M75 -181q0 64 34.5 118.5t95.5 90.5q-63 41 -63 121q0 88 109 172q-80 47 -124 124.5t-44 174.5q0 160 115 260t300 100q63 0 131 -20h386v-166l-161 -1q59 -87 59 -173q0 -160 -115 -260t-300 -100q-62 0 -117 12q-55 -49 -55 -81q0 -26 22 -40t58 -14h283
q67 0 125 -14.5t106 -45t76 -84.5t28 -126q0 -99 -69 -170t-179.5 -103.5t-249.5 -32.5q-207 0 -329 65t-122 193zM273 620q0 -90 59.5 -144t165.5 -54t165.5 54t59.5 144t-59.5 144t-165.5 54t-165.5 -54t-59.5 -144zM270 -143q0 -61 66 -92t188 -31q142 0 221.5 34
t79.5 97q0 46 -39 73.5t-105 27.5h-348q-63 -44 -63 -109zM500 1139q-119 0 -194.5 74.5t-82.5 203.5h161q7 -60 37.5 -96.5t78.5 -36.5q51 0 81.5 36.5t34.5 96.5h161q-6 -129 -82 -203.5t-195 -74.5z" />
    <glyph glyph-name="Gdotaccent.smcp" horiz-adv-x="1163" 
d="M600 -20q-143 0 -262 69t-188 188.5t-69 263.5t68 263t186.5 187.5t261.5 68.5q142 0 258.5 -64t188.5 -183l-147 -112q-115 176 -300 176q-139 0 -229 -95.5t-90 -240.5t91.5 -242t230.5 -97q113 0 188.5 64.5t94.5 152.5h-341v163h540q4 -62 4 -74q0 -98 -33 -186.5
t-94 -155.5t-154 -106.5t-205 -39.5zM485 1319q0 54 34 88t88 34t88.5 -34t34.5 -88t-34.5 -88t-88.5 -34t-88 34t-34 88z" />
    <glyph glyph-name="gdotaccent.alt" horiz-adv-x="1084" 
d="M526 -439q-207 0 -329 65t-122 193q0 64 34.5 118.5t95.5 90.5q-63 41 -63 121q0 88 109 172q-80 47 -124 124.5t-44 174.5q0 160 115 260t300 100q63 0 131 -20h386v-166l-161 -1q59 -87 59 -173q0 -160 -115 -260t-300 -100q-62 0 -117 12q-55 -49 -55 -81
q0 -26 22 -40t58 -14h283q67 0 125 -14.5t106 -45t76 -84.5t28 -126q0 -99 -69 -170t-179.5 -103.5t-249.5 -32.5zM498 818q-106 0 -165.5 -54t-59.5 -144t59.5 -144t165.5 -54t165.5 54t59.5 144t-59.5 144t-165.5 54zM333 -34q-63 -44 -63 -109q0 -61 66 -92t188 -31
q142 0 221.5 34t79.5 97q0 46 -39 73.5t-105 27.5h-348zM513 1160q-54 0 -88 34t-34 88t34 88t88 34t88.5 -34t34.5 -88t-34.5 -88t-88.5 -34z" />
    <glyph glyph-name="Gcommaaccent.smcp" horiz-adv-x="1163" 
d="M600 -20q-143 0 -262 69t-188 188.5t-69 263.5t68 263t186.5 187.5t261.5 68.5q142 0 258.5 -64t188.5 -183l-147 -112q-115 176 -300 176q-139 0 -229 -95.5t-90 -240.5t91.5 -242t230.5 -97q113 0 188.5 64.5t94.5 152.5h-341v163h540q4 -62 4 -74q0 -98 -33 -186.5
t-94 -155.5t-154 -106.5t-205 -39.5zM651 -518h-166l14 402h207z" />
    <glyph glyph-name="gcommaaccent.alt" horiz-adv-x="1084" 
d="M526 -439q-207 0 -329 65t-122 193q0 64 34.5 118.5t95.5 90.5q-63 41 -63 121q0 88 109 172q-80 47 -124 124.5t-44 174.5q0 160 115 260t300 100q63 0 131 -20h386v-166l-161 -1q59 -87 59 -173q0 -160 -115 -260t-300 -100q-62 0 -117 12q-55 -49 -55 -81
q0 -26 22 -40t58 -14h283q67 0 125 -14.5t106 -45t76 -84.5t28 -126q0 -99 -69 -170t-179.5 -103.5t-249.5 -32.5zM498 818q-106 0 -165.5 -54t-59.5 -144t59.5 -144t165.5 -54t165.5 54t59.5 144t-59.5 144t-165.5 54zM270 -143q0 -61 66 -92t188 -31q142 0 221.5 34
t79.5 97q0 46 -39 73.5t-105 27.5h-348q-63 -44 -63 -109zM622 1104h-207l55 402h166z" />
    <glyph glyph-name="Hcircumflex.smcp" horiz-adv-x="1186" 
d="M147 0v1000h195v-406h502v406h195v-1000h-195v426h-502v-426h-195zM458 1125h-189l287 370h74l287 -370h-189l-135 187z" />
    <glyph glyph-name="Hbar.smcp" horiz-adv-x="1238" 
d="M1065 881h118v-145h-118v-736h-195v426h-502v-426h-195v736h-118v145h118v119h195v-119h502v119h195v-119zM870 736h-502v-142h502v142z" />
    <glyph glyph-name="Itilde.smcp" horiz-adv-x="489" 
d="M342 0h-195v1000h195v-1000zM7 1205l-103 87q96 160 217 160q47 0 87.5 -20.5t76.5 -41t72 -20.5q43 0 71.5 18t61.5 64l95 -95q-49 -80 -101.5 -114.5t-128.5 -34.5q-43 0 -83.5 19t-75.5 38.5t-64 19.5q-38 0 -62.5 -17t-62.5 -63z" />
    <glyph glyph-name="Imacron.smcp" horiz-adv-x="489" 
d="M342 1000v-1000h-195v1000h195zM540 1378v-144h-591v144h591z" />
    <glyph glyph-name="Ibreve.smcp" horiz-adv-x="489" 
d="M342 0h-195v1000h195v-1000zM-32 1458h161q7 -60 37.5 -96.5t78.5 -36.5q51 0 81.5 36.5t34.5 96.5h161q-6 -129 -82 -203.5t-195 -74.5t-194.5 74.5t-82.5 203.5z" />
    <glyph glyph-name="Iogonek.smcp" horiz-adv-x="489" 
d="M-29 -266q0 140 185 266h-9v1000h195v-1000h-11q-191 -129 -191 -219q0 -36 26 -56.5t72 -20.5q58 0 114 27l45 -140q-78 -48 -186 -48q-112 0 -176 51t-64 140z" />
    <glyph glyph-name="Idotaccent.smcp" horiz-adv-x="489" 
d="M147 1000h195v-1000h-195v1000zM128 1319q0 54 34 88t88 34t88.5 -34t34.5 -88t-34.5 -88t-88.5 -34t-88 34t-34 88z" />
    <glyph glyph-name="dotlessi.smcp" horiz-adv-x="489" 
d="M342 1000v-1000h-195v1000h195z" />
    <glyph glyph-name="IJ.smcp" horiz-adv-x="1331" 
d="M842 -20q-96 0 -179 44t-140 124l125 127q92 -116 197 -116q75 0 115 53t40 148v640h195v-650q0 -173 -94 -271.5t-259 -98.5zM147 1000h195v-1000h-195v1000z" />
    <glyph glyph-name="Jcircumflex.smcp" horiz-adv-x="828" 
d="M339 -20q-96 0 -179 44t-140 124l125 127q92 -116 197 -116q75 0 115 53t40 148v640h195v-650q0 -173 -94 -271.5t-259 -98.5zM457 1125h-189l287 370h74l287 -370h-189l-135 187z" />
    <glyph glyph-name="Kcommaaccent.smcp" horiz-adv-x="1036" 
d="M147 0v1000h195v-442l410 442h249l-392 -422l409 -578h-233l-311 444l-132 -138v-306h-195zM594 -518h-166l14 402h207z" />
    <glyph glyph-name="kgreenlandic.smcp" horiz-adv-x="1036" 
d="M147 0v1000h195v-442l410 442h249l-392 -422l409 -578h-233l-311 444l-132 -138v-306h-195z" />
    <glyph glyph-name="Lacute.smcp" horiz-adv-x="939" 
d="M893 168v-168h-746v1000h195v-832h551zM535 1487l-203 -334h-171l152 334h222z" />
    <glyph glyph-name="lacute.alt" horiz-adv-x="576" 
d="M143 223v1185h198v-1166q0 -43 22 -65.5t60 -22.5q57 0 106 18l29 -160q-68 -32 -163 -32q-119 0 -185.5 62.5t-66.5 180.5zM325 1473h-171l152 334h222z" />
    <glyph glyph-name="Lcommaaccent.smcp" horiz-adv-x="939" 
d="M893 168v-168h-746v1000h195v-832h551zM418 -518l14 402h207l-55 -402h-166z" />
    <glyph glyph-name="lcommaaccent.alt" horiz-adv-x="576" 
d="M143 223v1185h198v-1166q0 -43 22 -65.5t60 -22.5q57 0 106 18l29 -160q-68 -32 -163 -32q-119 0 -185.5 62.5t-66.5 180.5zM350 -518h-166l14 402h207z" />
    <glyph glyph-name="Lcaron.smcp" horiz-adv-x="943" 
d="M575 682l6 312h190l-47 -312h-149zM893 168v-168h-746v1000h195v-832h551z" />
    <glyph glyph-name="lcaron.alt" horiz-adv-x="576" 
d="M143 223v1185h198v-1166q0 -43 22 -65.5t60 -22.5q57 0 106 18l29 -160q-68 -32 -163 -32q-119 0 -185.5 62.5t-66.5 180.5zM509 1410h207l-41 -402h-166v402z" />
    <glyph glyph-name="Ldot.smcp" horiz-adv-x="941" 
d="M893 0h-746v1000h195v-832h551v-168zM552 497q0 54 34 88t88 34t88.5 -34t34.5 -88t-34.5 -88t-88.5 -34t-88 34t-34 88z" />
    <glyph glyph-name="ldot.alt" horiz-adv-x="792" 
d="M143 223v1185h198v-1166q0 -43 22 -65.5t60 -22.5q57 0 106 18l29 -160q-68 -32 -163 -32q-119 0 -185.5 62.5t-66.5 180.5zM519 677q0 54 34 88t88 34t88.5 -34t34.5 -88t-34.5 -88t-88.5 -34t-88 34t-34 88z" />
    <glyph glyph-name="Lslash.smcp" horiz-adv-x="1019" 
d="M422 656l263 19v-155l-263 -19v-333h551v-168h-746v487l-157 -11v155l157 11v358h195v-344z" />
    <glyph glyph-name="lslash.alt" horiz-adv-x="768" 
d="M478 706l201 84v-178l-201 -84v-286q0 -43 22 -65.5t60 -22.5q56 0 106 18l29 -160q-68 -32 -163 -32q-119 0 -185.5 62.5t-66.5 180.5v223l-205 -85v178l205 85v784h198v-702z" />
    <glyph glyph-name="Nacute.smcp" horiz-adv-x="1217" 
d="M337 0h-190v1000h180l553 -695v695h190v-1000h-180l-553 683v-683zM702 1153h-171l152 334h222z" />
    <glyph glyph-name="Ncommaaccent.smcp" horiz-adv-x="1217" 
d="M337 0h-190v1000h180l553 -695v695h190v-1000h-180l-553 683v-683zM674 -518h-166l14 402h207z" />
    <glyph glyph-name="Ncaron.smcp" horiz-adv-x="1217" 
d="M337 0h-190v1000h180l553 -695v695h190v-1000h-180l-553 683v-683zM285 1503h189l135 -187l135 187h189l-287 -370h-74z" />
    <glyph glyph-name="napostrophe.smcp" horiz-adv-x="1444" 
d="M564 0h-190v1000h180l553 -695v695h190v-1000h-180l-553 683v-683zM44 911l121 475h179l-154 -475h-146z" />
    <glyph glyph-name="Eng.smcp" horiz-adv-x="1217" 
d="M337 0h-190v1000h180l553 -695v695h190v-1134q0 -142 -71 -214t-190 -72q-83 0 -146 23l16 163q45 -15 97 -15q49 0 72.5 29t23.5 95v147l-535 661v-683z" />
    <glyph glyph-name="Omacron.smcp" horiz-adv-x="1198" 
d="M82 499q0 227 145.5 374t369.5 147q225 0 372 -147t147 -374t-147 -373t-372 -146t-370 146t-145 373zM280 499q0 -149 86.5 -243t230.5 -94q145 0 234 94t89 243t-89.5 243.5t-233.5 94.5t-230.5 -94t-86.5 -244zM895 1234h-591v144h591v-144z" />
    <glyph glyph-name="Obreve.smcp" horiz-adv-x="1198" 
d="M597 -20q-225 0 -370 146t-145 373t145.5 374t369.5 147q225 0 372 -147t147 -374t-147 -373t-372 -146zM597 837q-144 0 -230.5 -94t-86.5 -244q0 -149 86.5 -243t230.5 -94q145 0 234 94t89 243t-89.5 243.5t-233.5 94.5zM322 1458h161q7 -60 37.5 -96.5t78.5 -36.5
q51 0 81.5 36.5t34.5 96.5h161q-6 -129 -82 -203.5t-195 -74.5t-194.5 74.5t-82.5 203.5z" />
    <glyph glyph-name="Ohungarumlaut.smcp" horiz-adv-x="1198" 
d="M597 -20q-225 0 -370 146t-145 373t145.5 374t369.5 147q225 0 372 -147t147 -374t-147 -373t-372 -146zM597 837q-144 0 -230.5 -94t-86.5 -244q0 -149 86.5 -243t230.5 -94q145 0 234 94t89 243t-89.5 243.5t-233.5 94.5zM850 1153h-171l152 334h222zM350 1153l152 334
h222l-203 -334h-171z" />
    <glyph glyph-name="OE.smcp" horiz-adv-x="1739" 
d="M597 -14q-222 0 -368.5 143.5t-146.5 366.5q0 226 147 373.5t368 147.5q190 0 323 -122v105h720v-167h-525v-240h451v-168h-451v-257h540v-168h-735v105q-132 -119 -323 -119zM597 834q-141 0 -229 -94t-88 -242t87.5 -239t229.5 -91q145 0 234 91t89 239t-89 242
t-234 94z" />
    <glyph glyph-name="Racute.smcp" horiz-adv-x="1038" 
d="M147 1000h438q160 0 254 -84t94 -229q0 -97 -49 -170t-135 -111l238 -406h-221l-216 382h-208v-382h-195v1000zM579 833h-237v-283h237q75 0 116 39t41 101q0 66 -40.5 104.5t-116.5 38.5zM592 1153h-171l152 334h222z" />
    <glyph glyph-name="Rcommaaccent.smcp" horiz-adv-x="1038" 
d="M147 0v1000h438q160 0 254 -84t94 -229q0 -97 -49 -170t-135 -111l238 -406h-221l-216 382h-208v-382h-195zM342 833v-283h237q75 0 116 39t41 101q0 66 -40.5 104.5t-116.5 38.5h-237zM594 -518h-166l14 402h207z" />
    <glyph glyph-name="Rcaron.smcp" horiz-adv-x="1038" 
d="M342 0h-195v1000h438q160 0 254 -84t94 -229q0 -97 -49 -170t-135 -111l238 -406h-221l-216 382h-208v-382zM342 833v-283h237q75 0 116 39t41 101q0 66 -40.5 104.5t-116.5 38.5h-237zM470 1133l-287 370h189l135 -187l135 187h189l-287 -370h-74z" />
    <glyph glyph-name="Sacute.smcp" horiz-adv-x="952" 
d="M76 231l155 97q94 -176 259 -176q79 0 130 32t51 83q0 44 -44 76.5t-158 76.5q-148 58 -194 84q-116 64 -140 165q-8 32 -8 70q0 87 53.5 153t133 97t168.5 31q131 0 231 -62t152 -153l-144 -107q-38 64 -102 107t-137 43q-71 0 -115 -29t-44 -79q0 -33 28.5 -59.5
t61.5 -42t112 -46.5l15 -6q185 -73 256 -138.5t71 -172.5q0 -93 -57.5 -162t-141.5 -101t-178 -32q-147 0 -255.5 72t-158.5 179zM405 1153l152 334h222l-203 -334h-171z" />
    <glyph glyph-name="Scircumflex.smcp" horiz-adv-x="952" 
d="M490 -20q-147 0 -255.5 72t-158.5 179l155 97q94 -176 259 -176q79 0 130 32t51 83q0 44 -44 76.5t-158 76.5q-148 58 -194 84q-116 64 -140 165q-8 32 -8 70q0 87 53.5 153t133 97t168.5 31q131 0 231 -62t152 -153l-144 -107q-38 64 -102 107t-137 43q-71 0 -115 -29
t-44 -79q0 -33 28.5 -59.5t61.5 -42t112 -46.5l15 -6q185 -73 256 -138.5t71 -172.5q0 -93 -57.5 -162t-141.5 -101t-178 -32zM355 1125h-189l287 370h74l287 -370h-189l-135 187z" />
    <glyph glyph-name="Scedilla.smcp" horiz-adv-x="952" 
d="M76 231l155 97q94 -176 259 -176q79 0 130 32t51 83q0 44 -44 76.5t-158 76.5q-148 58 -194 84q-116 64 -140 165q-8 32 -8 70q0 87 53.5 153t133 97t168.5 31q131 0 231 -62t152 -153l-144 -107q-38 64 -102 107t-137 43q-71 0 -115 -29t-44 -79q0 -33 28.5 -59.5
t61.5 -42t112 -46.5l15 -6q185 -73 256 -138.5t71 -172.5q0 -126 -98 -203.5t-234 -89.5l-22 -73q96 -8 150.5 -53t54.5 -118q0 -91 -73.5 -143t-203.5 -52q-101 0 -169 35l35 123q55 -26 123 -26q116 0 116 66q0 69 -130 69h-69l68 175q-120 18 -208.5 86t-130.5 160z" />
    <glyph glyph-name="Scaron.smcp" horiz-adv-x="952" 
d="M490 -20q-147 0 -255.5 72t-158.5 179l155 97q94 -176 259 -176q79 0 130 32t51 83q0 44 -44 76.5t-158 76.5q-148 58 -194 84q-116 64 -140 165q-8 32 -8 70q0 87 53.5 153t133 97t168.5 31q131 0 231 -62t152 -153l-144 -107q-38 64 -102 107t-137 43q-71 0 -115 -29
t-44 -79q0 -33 28.5 -59.5t61.5 -42t112 -46.5l15 -6q185 -73 256 -138.5t71 -172.5q0 -93 -57.5 -162t-141.5 -101t-178 -32zM165 1503h189l135 -187l135 187h189l-287 -370h-74z" />
    <glyph glyph-name="Tcedilla.smcp" horiz-adv-x="921" 
d="M364 833h-322v167h837v-167h-320v-833h-35l-28 -91q96 -8 150.5 -53t54.5 -118q0 -91 -73.5 -143t-203.5 -52q-101 0 -169 35l35 123q55 -26 123 -26q116 0 116 66q0 69 -130 69h-69l74 190h-40v833z" />
    <glyph glyph-name="Tcaron.smcp" horiz-adv-x="921" 
d="M42 833v167h837v-167h-320v-833h-195v833h-322zM136 1503h189l135 -187l135 187h189l-287 -370h-74z" />
    <glyph glyph-name="Tbar.smcp" horiz-adv-x="963" 
d="M63 833v167h837v-167h-320v-237h244v-158h-244v-438h-195v438h-244v158h244v237h-322z" />
    <glyph glyph-name="Utilde.smcp" horiz-adv-x="1132" 
d="M136 362v638h195v-631q0 -96 63.5 -153t171.5 -57q107 0 171 57t64 153v631h195v-638q0 -174 -118 -278t-312 -104t-312 104t-118 278zM226 1292q96 160 217 160q47 0 87.5 -20.5t76.5 -41t72 -20.5q43 0 71.5 18t61.5 64l95 -95q-49 -80 -101.5 -114.5t-128.5 -34.5
q-43 0 -83.5 19t-75.5 38.5t-64 19.5q-38 0 -62.5 -17t-62.5 -63z" />
    <glyph glyph-name="utilde.alt" horiz-adv-x="1151" 
d="M138 384v576h199v-542q0 -111 66.5 -181.5t172.5 -70.5q107 0 173.5 70.5t66.5 181.5v542h197v-570q-1 -182 -122 -296t-315 -114q-195 0 -316.5 112t-121.5 292zM242 1247q96 160 217 160q47 0 87.5 -20.5t76.5 -41t72 -20.5q43 0 71.5 18t61.5 64l95 -95
q-49 -80 -101.5 -114.5t-128.5 -34.5q-43 0 -83.5 19.5t-75.5 38.5t-64 19q-38 0 -62.5 -17t-62.5 -63z" />
    <glyph glyph-name="Umacron.smcp" horiz-adv-x="1132" 
d="M566 -20q-194 0 -312 104t-118 278v638h195v-631q0 -96 63.5 -153t171.5 -57q107 0 171 57t64 153v631h195v-638q0 -174 -118 -278t-312 -104zM862 1234h-591v144h591v-144z" />
    <glyph glyph-name="umacron.alt" horiz-adv-x="1151" 
d="M138 960h199v-542q0 -111 66.5 -181.5t172.5 -70.5q107 0 173.5 70.5t66.5 181.5v542h197v-570q-1 -182 -122 -296t-315 -114q-195 0 -316.5 112t-121.5 292v576zM275 1193v144h591v-144h-591z" />
    <glyph glyph-name="Ubreve.smcp" horiz-adv-x="1132" 
d="M566 -20q-194 0 -312 104t-118 278v638h195v-631q0 -96 63.5 -153t171.5 -57q107 0 171 57t64 153v631h195v-638q0 -174 -118 -278t-312 -104zM566 1180q-119 0 -194.5 74.5t-82.5 203.5h161q7 -60 37.5 -96.5t78.5 -36.5q51 0 81.5 36.5t34.5 96.5h161
q-6 -129 -82 -203.5t-195 -74.5z" />
    <glyph glyph-name="ubreve.alt" horiz-adv-x="1151" 
d="M576 -20q-195 0 -316.5 112t-121.5 292v576h199v-542q0 -111 66.5 -181.5t172.5 -70.5q107 0 173.5 70.5t66.5 181.5v542h197v-570q-1 -182 -122 -296t-315 -114zM297 1415h161q7 -60 37.5 -96.5t78.5 -36.5q51 0 81.5 36.5t34.5 96.5h161q-6 -129 -82 -203.5t-195 -74.5
t-194.5 74.5t-82.5 203.5z" />
    <glyph glyph-name="Uring.smcp" horiz-adv-x="1132" 
d="M136 1000h195v-631q0 -96 63.5 -153t171.5 -57q107 0 171 57t64 153v631h195v-638q0 -174 -118 -278t-312 -104t-312 104t-118 278v638zM566 1135q-92 0 -149 54t-57 141q0 88 57 143t149 55t149 -55t57 -143q0 -87 -57 -141t-149 -54zM480 1329q0 -36 23.5 -58.5
t62.5 -22.5q38 0 61.5 22.5t23.5 58.5q0 39 -23.5 63t-61.5 24q-39 0 -62.5 -24t-23.5 -63z" />
    <glyph glyph-name="uring.alt" horiz-adv-x="1151" 
d="M138 960h199v-542q0 -111 66.5 -181.5t172.5 -70.5q107 0 173.5 70.5t66.5 181.5v542h197v-570q-1 -182 -122 -296t-315 -114q-195 0 -316.5 112t-121.5 292v576zM559 1092q-92 0 -149 54t-57 141q0 88 57 143t149 55t149 -55t57 -143q0 -87 -57 -141t-149 -54zM473 1286
q0 -36 23.5 -58.5t62.5 -22.5q38 0 61.5 22.5t23.5 58.5q0 39 -23.5 63t-61.5 24q-39 0 -62.5 -24t-23.5 -63z" />
    <glyph glyph-name="Uhungarumlaut.smcp" horiz-adv-x="1132" 
d="M566 -20q-194 0 -312 104t-118 278v638h195v-631q0 -96 63.5 -153t171.5 -57q107 0 171 57t64 153v631h195v-638q0 -174 -118 -278t-312 -104zM801 1153h-171l152 334h222zM310 1153l152 334h222l-203 -334h-171z" />
    <glyph glyph-name="uhungarumlaut.alt" horiz-adv-x="1151" 
d="M138 384v576h199v-542q0 -111 66.5 -181.5t172.5 -70.5q107 0 173.5 70.5t66.5 181.5v542h197v-570q-1 -182 -122 -296t-315 -114q-195 0 -316.5 112t-121.5 292zM835 1113h-171l152 334h222zM505 1113h-171l152 334h222z" />
    <glyph glyph-name="Uogonek.smcp" horiz-adv-x="1132" 
d="M136 362v638h195v-631q0 -96 63.5 -153t171.5 -57q107 0 171 57t64 153v631h195v-638q0 -146 -84.5 -244t-230.5 -127q-178 -123 -178 -210q0 -36 26 -56.5t72 -20.5q58 0 114 27l45 -140q-78 -48 -186 -48q-112 0 -176 51t-64 140q0 130 162 250q-165 19 -262.5 120.5
t-97.5 257.5z" />
    <glyph glyph-name="uogonek.alt" horiz-adv-x="1151" 
d="M542 -19q-181 10 -292.5 120.5t-111.5 282.5v576h199v-542q0 -111 66.5 -181.5t172.5 -70.5q107 0 173.5 70.5t66.5 181.5v542h197v-570q-1 -141 -76 -243.5t-203 -143.5l10 -3q-191 -129 -191 -219q0 -36 26 -56.5t72 -20.5q58 0 114 27l45 -140q-78 -48 -186 -48
q-112 0 -176 51t-64 140q0 128 158 247z" />
    <glyph glyph-name="Wcircumflex.smcp" horiz-adv-x="1546" 
d="M322 0l-282 1000h197l224 -789l215 774h195l215 -774l223 789h197l-281 -1000h-273l-179 647l-180 -647h-271zM449 1125l287 370h74l287 -370h-189l-135 187l-135 -187h-189z" />
    <glyph glyph-name="Ycircumflex.smcp" horiz-adv-x="1014" 
d="M412 379l-382 621h227l249 -415l251 415h227l-382 -622v-378h-190v379zM183 1125l287 370h74l287 -370h-189l-135 187l-135 -187h-189z" />
    <glyph glyph-name="ycircumflex.alt" horiz-adv-x="1080" 
d="M25 960h218l285 -742l311 742h218l-598 -1360h-194l160 400zM386 1085h-189l287 370h74l287 -370h-189l-135 187z" />
    <glyph glyph-name="Ydieresis.smcp" horiz-adv-x="1014" 
d="M30 1000h227l249 -415l251 415h227l-382 -622v-378h-190v379zM561 1318q0 54 34 88t88 34t88.5 -34t34.5 -88t-34.5 -88t-88.5 -34t-88 34t-34 88zM330 1196q-54 0 -88 34t-34 88t34 88t88 34t88.5 -34t34.5 -88t-34.5 -88t-88.5 -34z" />
    <glyph glyph-name="Zacute.smcp" horiz-adv-x="966" 
d="M84 1000h798v-138l-538 -694h538v-168h-798v137l538 695h-538v168zM407 1153l152 334h222l-203 -334h-171z" />
    <glyph glyph-name="Zdotaccent.smcp" horiz-adv-x="966" 
d="M84 1000h798v-138l-538 -694h538v-168h-798v137l538 695h-538v168zM358 1319q0 54 34 88t88 34t88.5 -34t34.5 -88t-34.5 -88t-88.5 -34t-88 34t-34 88z" />
    <glyph glyph-name="Zcaron.smcp" horiz-adv-x="966" 
d="M84 1000h798v-138l-538 -694h538v-168h-798v137l538 695h-538v168zM165 1503h189l135 -187l135 187h189l-287 -370h-74z" />
    <glyph glyph-name="Schwa.smcp" horiz-adv-x="1162" 
d="M563 -20q-111 0 -204 40.5t-154 109t-94.5 158t-33.5 187.5q0 46 5 82h804q-16 129 -105 206.5t-218 77.5q-178 0 -297 -160l-139 106q77 110 191.5 171.5t244.5 61.5q147 0 266 -68.5t185 -187t66 -263.5q0 -144 -68.5 -264t-187 -188.5t-261.5 -68.5zM876 403h-599
q8 -98 84.5 -171t201.5 -73q117 0 203.5 66.5t109.5 177.5z" />
    <glyph glyph-name="florin.onum" horiz-adv-x="1155" 
d="M247 -159q-113 0 -208 66l86 165q58 -42 126 -42q66 0 115.5 42.5t58.5 118.5l48 396h-182l22 176h184l17 135q19 153 121 246.5t254 93.5q120 0 213 -65l-86 -165q-58 42 -126 42q-67 0 -117 -42.5t-59 -118.5l-16 -126h282l-22 -176h-279l-52 -405q-20 -153 -124 -247
t-256 -94z" />
    <glyph glyph-name="florin.onum.tnum" 
d="M148 -127l38 172q58 -27 133 -27q184 0 208 203l43 364h-182l22 176h184l13 108q20 180 124.5 274t275.5 94q107 0 179 -34l-38 -172q-58 27 -133 27q-183 0 -209 -209l-11 -88h282l-22 -176h-279l-48 -376q-23 -181 -127 -275.5t-274 -94.5q-107 0 -179 34z" />
    <glyph glyph-name="florin.tnum" 
d="M348 -20q-114 0 -208 66l86 165q58 -42 126 -42q66 0 115.5 42.5t58.5 118.5l48 396h-182l22 176h184l17 135q19 153 121 246.5t254 93.5q120 0 213 -65l-86 -165q-58 42 -126 42q-67 0 -117 -42.5t-59 -118.5l-16 -126h282l-22 -176h-279l-52 -405q-20 -153 -124 -247
t-256 -94z" />
    <glyph glyph-name="Nhookleft.smcp" horiz-adv-x="1217" 
d="M-66 -397l16 163q45 -15 97 -15q51 0 75.5 29t24.5 95v1125h180l553 -695v695h190v-1000h-180l-553 683v-817q0 -142 -70 -214t-187 -72q-83 0 -146 23z" />
    <glyph glyph-name="Gcaron.smcp" horiz-adv-x="1163" 
d="M600 -20q-143 0 -262 69t-188 188.5t-69 263.5t68 263t186.5 187.5t261.5 68.5q142 0 258.5 -64t188.5 -183l-147 -112q-115 176 -300 176q-139 0 -229 -95.5t-90 -240.5t91.5 -242t230.5 -97q113 0 188.5 64.5t94.5 152.5h-341v163h540q4 -62 4 -74q0 -98 -33 -186.5
t-94 -155.5t-154 -106.5t-205 -39.5zM559 1133l-287 370h189l135 -187l135 187h189l-287 -370h-74z" />
    <glyph glyph-name="gcaron.alt" horiz-adv-x="1084" 
d="M526 -439q-207 0 -329 65t-122 193q0 64 34.5 118.5t95.5 90.5q-63 41 -63 121q0 88 109 172q-80 47 -124 124.5t-44 174.5q0 160 115 260t300 100q63 0 131 -20h386v-166l-161 -1q59 -87 59 -173q0 -160 -115 -260t-300 -100q-62 0 -117 12q-55 -49 -55 -81
q0 -26 22 -40t58 -14h283q67 0 125 -14.5t106 -45t76 -84.5t28 -126q0 -99 -69 -170t-179.5 -103.5t-249.5 -32.5zM498 818q-106 0 -165.5 -54t-59.5 -144t59.5 -144t165.5 -54t165.5 54t59.5 144t-59.5 144t-165.5 54zM333 -34q-63 -44 -63 -109q0 -61 66 -92t188 -31
q142 0 221.5 34t79.5 97q0 46 -39 73.5t-105 27.5h-348zM460 1095l-287 370h189l135 -187l135 187h189l-287 -370h-74z" />
    <glyph glyph-name="Oogonek.smcp" horiz-adv-x="1198" 
d="M527 -16q-198 23 -321.5 165t-123.5 350q0 227 145.5 374t369.5 147q225 0 372 -147t147 -374q0 -195 -112 -333.5t-293 -174.5q-178 -125 -178 -210q0 -36 26 -56.5t72 -20.5q58 0 114 27l45 -140q-78 -48 -186 -48q-112 0 -176 51t-64 140q0 131 163 250zM280 499
q0 -149 86.5 -243t230.5 -94q145 0 234 94t89 243t-89.5 243.5t-233.5 94.5t-230.5 -94t-86.5 -244z" />
    </font>
</defs>
</svg>
