<?xml version="1.0" standalone="no"?>
<!DOCTYPE svg PUBLIC "-//W3C//DTD SVG 1.1//EN" "http://www.w3.org/Graphics/SVG/1.1/DTD/svg11.dtd" >
<svg xmlns="http://www.w3.org/2000/svg" xmlns:xlink="http://www.w3.org/1999/xlink" version="1.1">
<metadata>
Created by FontForge 20201107 at Thu Aug 11 13:55:25 2022
 By 
Copyright (c) 2022 by TipoType Team. All rights reserved.
</metadata>
<defs>
<font id="AirtelSans-Bold" horiz-adv-x="1427" >
  <font-face 
    font-family="Airtel Sans Bold"
    font-weight="700"
    font-stretch="normal"
    units-per-em="2048"
    panose-1="2 0 0 0 0 0 0 0 0 0"
    ascent="1638"
    descent="-410"
    x-height="960"
    cap-height="1358"
    bbox="-270 -538 2618 2296"
    underline-thickness="150"
    underline-position="-350"
    unicode-range="U+0008-FB04"
  />
<missing-glyph horiz-adv-x="1441" 
d="M479 1018l-97 -97l242 -240l-244 -245l97 -97l245 242l243 -242l97 97l-244 245l242 240l-97 97l-241 -242zM212 0v1358h1018v-1358h-1018z" />
    <glyph glyph-name="f_f" unicode="ff" horiz-adv-x="1429" 
d="M30 960h158v84q0 77 25 144.5t74 122t132 86t189 31.5q98 0 205 -32l-33 -256q-55 24 -126 24q-70 0 -116 -32.5t-46 -105.5v-66h352v84q0 77 25 144.5t74 122t132 86t189 31.5q98 0 205 -32l-33 -256q-55 24 -126 24q-70 0 -116 -32.5t-46 -105.5v-66h266v-257h-255
v-703h-315v703h-341v-703h-315v703h-158v257z" />
    <glyph glyph-name="fi" unicode="fi" horiz-adv-x="1288" 
d="M30 960h158v84q0 77 23 144.5t69 122t122.5 86t175.5 31.5q93 0 195 -32l-33 -256q-46 24 -109 24q-59 0 -99 -32.5t-40 -105.5v-66h246v-257h-235v-703h-315v703h-158v257zM835 960h315v-960h-315v960zM987 1083q-76 0 -124 48t-48 124q0 77 48 125t124 48
q77 0 125.5 -48t48.5 -125q0 -76 -48.5 -124t-125.5 -48z" />
    <glyph glyph-name="fl" unicode="fl" horiz-adv-x="1288" 
d="M30 703v257h158v84q0 77 23 144.5t69 122t122.5 86t175.5 31.5q93 0 195 -32l-33 -256q-46 24 -109 24q-59 0 -99 -32.5t-40 -105.5v-66h246v-257h-235v-703h-315v703h-158zM835 0v1408h315v-1408h-315z" />
    <glyph glyph-name="f_f_i" unicode="ffi" horiz-adv-x="1944" 
d="M30 960h158v84q0 77 25 144.5t74 122t132 86t189 31.5q98 0 205 -32l-33 -256q-55 24 -126 24q-70 0 -116 -32.5t-46 -105.5v-66h352v84q0 77 23 144.5t69 122t122.5 86t175.5 31.5q93 0 195 -32l-33 -256q-46 24 -109 24q-59 0 -99 -32.5t-40 -105.5v-66h246v-257h-235
v-703h-315v703h-341v-703h-315v703h-158v257zM1491 960h315v-960h-315v960zM1643 1083q-76 0 -124 48t-48 124q0 77 48 125t124 48q77 0 125.5 -48t48.5 -125q0 -76 -48.5 -124t-125.5 -48z" />
    <glyph glyph-name="f_f_l" unicode="ffl" horiz-adv-x="1944" 
d="M30 960h158v84q0 77 25 144.5t74 122t132 86t189 31.5q98 0 205 -32l-33 -256q-55 24 -126 24q-70 0 -116 -32.5t-46 -105.5v-66h352v84q0 77 23 144.5t69 122t122.5 86t175.5 31.5q93 0 195 -32l-33 -256q-46 24 -109 24q-59 0 -99 -32.5t-40 -105.5v-66h246v-257h-235
v-703h-315v703h-341v-703h-315v703h-158v257zM1491 1408h315v-1408h-315v1408z" />
    <glyph glyph-name=".notdef" horiz-adv-x="1441" 
d="M479 1018l-97 -97l242 -240l-244 -245l97 -97l245 242l243 -242l97 97l-244 245l242 240l-97 97l-241 -242zM212 0v1358h1018v-1358h-1018z" />
    <glyph glyph-name="uni0000" horiz-adv-x="23" 
 />
    <glyph glyph-name="uni0000" horiz-adv-x="23" 
 />
    <glyph glyph-name="uni000D" unicode="&#xd;" horiz-adv-x="507" 
 />
    <glyph glyph-name="uni0008" horiz-adv-x="0" 
 />
    <glyph glyph-name="space" unicode=" " horiz-adv-x="469" 
 />
    <glyph glyph-name="exclam" unicode="!" horiz-adv-x="621" 
d="M139 1358h344l-57 -950h-228zM310 -20q-74 0 -124 49.5t-50 122.5t50 122.5t124 49.5t124.5 -49.5t50.5 -122.5t-50.5 -122.5t-124.5 -49.5z" />
    <glyph glyph-name="quotedbl" unicode="&#x22;" horiz-adv-x="894" 
d="M92 1428h299l-53 -510h-193zM504 1428h299l-54 -510h-192z" />
    <glyph glyph-name="numbersign" unicode="#" horiz-adv-x="1449" 
d="M59 312l40 227h223l54 301h-223l42 226h222l52 292h255l-49 -292h240l52 292h256l-51 -292h221l-40 -226h-223l-55 -301h223l-42 -227h-221l-56 -312h-257l56 312h-241l-56 -312h-257l56 312h-221zM632 840l-55 -301h243l55 301h-243z" />
    <glyph glyph-name="dollar" unicode="$" horiz-adv-x="1259" 
d="M68 292l247 180q84 -130 224 -177v258q-67 21 -113.5 38t-101 43t-90.5 56t-68 70.5t-47 94t-15 118.5q0 111 62 201t159.5 140t213.5 61v161h159v-165q268 -40 433 -283l-243 -179q-83 119 -190 161v-250q72 -24 122 -42.5t104 -43t89.5 -47.5t69.5 -54t53 -65.5
t30.5 -78.5t11.5 -96q0 -95 -40.5 -172t-109 -126t-152.5 -77.5t-178 -35.5v-158h-159v162q-157 21 -282.5 99.5t-188.5 206.5zM436 979q0 -39 25.5 -63.5t77.5 -43.5v211q-48 -11 -75.5 -38.5t-27.5 -65.5zM846 382q0 43 -36.5 70.5t-111.5 52.5v-225q66 9 107 35.5
t41 66.5z" />
    <glyph glyph-name="percent" unicode="%" horiz-adv-x="1800" 
d="M425 629q-164 0 -271.5 106t-107.5 266q0 162 107.5 269.5t271.5 107.5t272.5 -107.5t108.5 -269.5q0 -160 -108.5 -266t-272.5 -106zM1374 -20q-164 0 -271.5 106t-107.5 266q0 162 107.5 269.5t271.5 107.5t272.5 -107.5t108.5 -269.5q0 -160 -108.5 -266t-272.5 -106z
M451 26l734 1332h165v-24l-732 -1334h-167v26zM1374 508q-65 0 -107.5 -45t-42.5 -111q0 -64 42.5 -108t107.5 -44q64 0 105.5 44t41.5 108q0 66 -41.5 111t-105.5 45zM425 1157q-65 0 -107.5 -45t-42.5 -111q0 -64 42.5 -108t107.5 -44q64 0 105.5 44t41.5 108
q0 66 -41.5 111t-105.5 45z" />
    <glyph glyph-name="ampersand" unicode="&#x26;" horiz-adv-x="1476" 
d="M64 378q0 222 300 357q-145 157 -145 287q0 166 123.5 261t338.5 95q192 0 313 -98t121 -253q0 -59 -27 -114.5t-74 -99.5t-96 -77t-107 -62l191 -180q29 35 40 78.5t9 122.5h300q5 -231 -136 -400l299 -295h-378l-124 114q-158 -134 -402 -134q-143 0 -266 46.5
t-201.5 139t-78.5 212.5zM537 557q-139 -57 -139 -163q0 -59 64 -102t162 -43q108 0 185 52zM680 1110q-59 0 -97 -30.5t-38 -83.5q0 -62 92 -156q171 74 171 163q0 43 -32 75t-96 32z" />
    <glyph glyph-name="quotesingle" unicode="'" horiz-adv-x="482" 
d="M338 918h-193l-53 510h299z" />
    <glyph glyph-name="parenleft" unicode="(" horiz-adv-x="685" 
d="M396 -400q-144 188 -233 438.5t-89 541.5q0 523 322 980h293q-300 -476 -300 -980t300 -980h-293z" />
    <glyph glyph-name="parenright" unicode=")" horiz-adv-x="685" 
d="M290 -400h-293q300 476 300 980t-300 980h293q144 -188 233 -438.5t89 -541.5q0 -523 -322 -980z" />
    <glyph glyph-name="asterisk" unicode="*" horiz-adv-x="947" 
d="M166 804l152 186l-232 74l69 190l222 -82l-12 236h218l-12 -236l221 82l70 -190l-233 -74l153 -184l-174 -121l-135 199l-133 -199z" />
    <glyph glyph-name="plus" unicode="+" horiz-adv-x="1195" 
d="M34 825h398v383h327v-383h402v-283h-402v-391h-327v391h-398v283z" />
    <glyph glyph-name="comma" unicode="," horiz-adv-x="562" 
d="M154 253h312l-193 -516h-256z" />
    <glyph glyph-name="hyphen" unicode="-" horiz-adv-x="954" 
d="M842 668v-244h-729v244h729z" />
    <glyph glyph-name="period" unicode="." horiz-adv-x="514" 
d="M83 152q0 73 50 122.5t124 49.5t124.5 -49.5t50.5 -122.5t-50.5 -122.5t-124.5 -49.5t-124 49.5t-50 122.5z" />
    <glyph glyph-name="slash" unicode="/" horiz-adv-x="1131" 
d="M1107 1529l-770 -1929h-310l769 1929h311z" />
    <glyph glyph-name="zero" unicode="0" horiz-adv-x="1310" 
d="M656 -20q-146 0 -257 53t-178.5 147.5t-101.5 217.5t-34 271q0 149 33.5 274.5t100.5 224t178.5 154.5t258.5 56q121 0 218.5 -39.5t162 -106.5t108 -159t62.5 -192.5t19 -211.5q0 -118 -20.5 -220t-65.5 -189t-111 -148.5t-161 -96.5t-212 -35zM410 680q0 -117 22 -206
t79 -149t145 -60q68 0 117.5 35.5t76.5 97t39 131.5t12 151q0 86 -13 157.5t-40.5 130.5t-76 92t-115.5 33q-68 0 -117.5 -35t-76.5 -96t-39.5 -131t-12.5 -151z" />
    <glyph glyph-name="one" unicode="1" horiz-adv-x="794" 
d="M302 0v1075h-279v283h608v-1358h-329z" />
    <glyph glyph-name="two" unicode="2" horiz-adv-x="1163" 
d="M319 899l-257 122q24 64 64 123t100.5 113.5t148 87.5t189.5 33q234 0 373.5 -121t139.5 -324q0 -62 -23 -121.5t-56.5 -105.5t-88.5 -97t-100 -85.5t-111 -82.5q-21 -15 -32 -23q-144 -106 -158 -136h577v-282h-985v120q0 97 68.5 200.5t127.5 156t176 144.5
q17 14 26 21q126 98 165 138q74 77 74 149q0 74 -49 120.5t-128 46.5q-74 0 -138.5 -54t-102.5 -143z" />
    <glyph glyph-name="three" unicode="3" horiz-adv-x="1165" 
d="M575 -20q-185 0 -318 93.5t-193 250.5l242 132q91 -195 272 -195q76 0 127 42.5t51 105.5q0 73 -53 115t-145 42h-203v241h203q77 0 130 44t53 109q0 60 -49 98.5t-126 38.5q-170 0 -249 -177l-244 122q25 63 66.5 120t102 107t146.5 79.5t186 29.5q220 0 356 -112.5
t136 -294.5q0 -95 -49.5 -166.5t-134.5 -109.5q89 -37 144 -116t55 -184q0 -185 -140 -300t-366 -115z" />
    <glyph glyph-name="four" unicode="4" horiz-adv-x="1213" 
d="M654 340h-621v227l554 791h377v-750h197v-268h-197v-340h-310v340zM389 608h265v380z" />
    <glyph glyph-name="five" unicode="5" horiz-adv-x="1159" 
d="M559 -20q-184 0 -312.5 89.5t-196.5 243.5l260 138q45 -92 108 -140t138 -48q88 0 148.5 55t60.5 136q0 86 -57.5 139.5t-147.5 53.5q-134 0 -213 -111l-233 102l77 720h818v-283h-554l-25 -239q20 18 74.5 34.5t119.5 16.5q213 0 340 -118.5t127 -316.5
q0 -212 -147 -342t-385 -130z" />
    <glyph glyph-name="six" unicode="6" horiz-adv-x="1239" 
d="M640 -20q-113 0 -206 33t-157 90.5t-108 138t-64 173t-20 197.5q0 364 173 565t489 201q111 0 194 -19.5t165 -61.5l-65 -258q-135 66 -271 66q-54 0 -101 -9t-91 -31.5t-76 -56.5t-54 -87t-28 -121q37 50 114.5 82.5t170.5 32.5q96 0 179.5 -27.5t150.5 -80.5
t105.5 -140t38.5 -198q0 -225 -149.5 -357t-389.5 -132zM436 454q0 -87 60 -144t148 -57t148 57t60 144t-60 144t-148 57t-148 -57t-60 -144z" />
    <glyph glyph-name="seven" unicode="7" horiz-adv-x="1054" 
d="M41 1358h988v-242q-368 -568 -543 -1116h-339q241 655 540 1071h-646v287z" />
    <glyph glyph-name="eight" unicode="8" horiz-adv-x="1202" 
d="M81 381q0 115 59.5 200t158.5 128q-84 37 -137 112.5t-53 177.5q0 97 40 171.5t110 119t156.5 66.5t185.5 22q79 0 150 -13.5t134.5 -43t109.5 -73t72.5 -107.5t26.5 -142q0 -102 -53 -177.5t-137 -112.5q99 -43 158.5 -128t59.5 -200q0 -83 -29 -151t-78 -114t-116 -77
t-141.5 -45t-156.5 -14q-81 0 -155.5 14t-141.5 45.5t-116 77t-78 113.5t-29 151zM601 573q-80 0 -136 -46t-56 -125q0 -76 56.5 -121.5t135.5 -45.5t135.5 45.5t56.5 121.5q0 79 -56 125t-136 46zM434 970q0 -67 44 -116t123 -49q75 0 121 49t46 116q0 65 -46.5 109.5
t-120.5 44.5t-120.5 -44.5t-46.5 -109.5z" />
    <glyph glyph-name="nine" unicode="9" horiz-adv-x="1242" 
d="M538 443q-96 0 -179.5 27.5t-150.5 81t-105.5 141t-38.5 198.5q0 224 149.5 355.5t389.5 131.5q116 0 209.5 -33t157 -90.5t106.5 -138t62.5 -173t19.5 -197.5q0 -366 -163 -566t-469 -200q-234 0 -401 102l99 257q153 -82 293 -82q267 0 306 301q-41 -51 -116.5 -83
t-168.5 -32zM599 1107q-88 0 -148 -57t-60 -144t60 -144t148 -57t148 57t60 144t-60 144t-148 57z" />
    <glyph glyph-name="colon" unicode=":" horiz-adv-x="572" 
d="M112 152q0 73 50 122.5t124 49.5t124.5 -49.5t50.5 -122.5t-50.5 -122.5t-124.5 -49.5t-124 49.5t-50 122.5zM112 808q0 73 50 122.5t124 49.5t124.5 -49.5t50.5 -122.5t-50.5 -122.5t-124.5 -49.5t-124 49.5t-50 122.5z" />
    <glyph glyph-name="semicolon" unicode=";" horiz-adv-x="603" 
d="M36 -263l137 516h312l-193 -516h-256zM146 808q0 73 50 122.5t124 49.5t124.5 -49.5t50.5 -122.5t-50.5 -122.5t-124.5 -49.5t-124 49.5t-50 122.5z" />
    <glyph glyph-name="less" unicode="&#x3c;" horiz-adv-x="1243" 
d="M1109 89l-1027 462v257l1027 463v-320l-629 -271l629 -272v-319z" />
    <glyph glyph-name="equal" unicode="=" horiz-adv-x="1318" 
d="M1202 307h-1085v287h1085v-287zM117 1052h1085v-286h-1085v286z" />
    <glyph glyph-name="greater" unicode="&#x3e;" horiz-adv-x="1243" 
d="M1162 552l-1027 -463v320l629 271l-629 272v319l1027 -462v-257z" />
    <glyph glyph-name="question" unicode="?" horiz-adv-x="1075" 
d="M295 903l-257 122q62 163 194 258t314 95q95 0 177 -23.5t147 -69.5t102 -121.5t37 -172.5q0 -56 -20 -109t-56 -97.5t-69.5 -78t-77.5 -72t-62 -58.5q-6 -7 -27 -28.5t-27.5 -29t-21 -27t-19.5 -33.5t-10 -36.5t-5 -46.5h-254q-11 51 -11 83q0 41 10.5 79t22.5 63
t40 58.5t44 49t53 50.5q11 11 17 16q86 80 114.5 117t28.5 84q0 50 -37 85.5t-106 35.5q-79 0 -141 -51.5t-100 -141.5zM490 -20q-76 0 -124 48t-48 124q0 77 48 125t124 48q77 0 125.5 -48t48.5 -125q0 -76 -48.5 -124t-125.5 -48z" />
    <glyph glyph-name="at" unicode="@" horiz-adv-x="1883" 
d="M65 535q0 193 71.5 358t193.5 277t286 175t347 63q169 0 324.5 -63t270 -171.5t183 -262.5t68.5 -326q0 -238 -92.5 -371t-241.5 -131q-188 0 -270 178q-36 -71 -117.5 -124.5t-178.5 -53.5q-175 0 -304 129t-129 318q0 194 113 322t285 128q166 0 254 -109l10 89h253
v-597q0 -64 27 -101t74 -37q82 0 125.5 100t43.5 260q0 141 -53.5 267t-146 217t-224.5 144t-283 53q-334 0 -539.5 -202.5t-205.5 -530.5q0 -204 97 -370t265 -259.5t372 -93.5q210 0 417 108l58 -120q-239 -132 -475 -132q-177 0 -337.5 64.5t-280 177t-190 276
t-70.5 351.5zM736 535q0 -87 57 -147.5t139 -60.5t138.5 60.5t56.5 147.5q0 88 -56.5 148t-138.5 61q-82 0 -139 -60.5t-57 -148.5z" />
    <glyph glyph-name="A" unicode="A" horiz-adv-x="1456" 
d="M-3 0l536 1358h390l537 -1358h-352l-92 249h-575l-92 -249h-352zM729 1029l-194 -524h387z" />
    <glyph glyph-name="B" unicode="B" horiz-adv-x="1343" 
d="M843 0h-680v1358h635q192 0 311.5 -97.5t119.5 -264.5q0 -201 -189 -309q227 -85 227 -316q0 -159 -115 -265t-309 -106zM492 274h268q68 0 109 42t41 96q0 58 -40.5 99.5t-109.5 41.5h-268v-279zM492 805h255q65 0 102.5 41t37.5 98q0 55 -41 97t-109 42h-245v-278z" />
    <glyph glyph-name="C" unicode="C" horiz-adv-x="1439" 
d="M790 -20q-199 0 -363 91t-258.5 251.5t-94.5 357.5t94.5 357t258.5 250.5t363 90.5q182 0 347.5 -92.5t258.5 -246.5l-253 -187q-45 68 -91.5 113.5t-114 75t-147.5 29.5q-170 0 -274.5 -109.5t-104.5 -280.5t104.5 -281.5t274.5 -110.5q216 0 359 216l252 -184
q-97 -161 -258 -250.5t-353 -89.5z" />
    <glyph glyph-name="D" unicode="D" horiz-adv-x="1523" 
d="M757 0h-594v1358h594q141 0 269.5 -53.5t221 -144t147 -216t54.5 -264.5q0 -138 -54.5 -264t-147 -217t-221 -145t-269.5 -54zM492 276h233q168 0 276 117.5t108 286.5t-108 285t-276 116h-233v-805z" />
    <glyph glyph-name="E" unicode="E" horiz-adv-x="1209" 
d="M163 0v1358h963v-277h-634v-252h555v-276h-555v-277h644v-276h-973z" />
    <glyph glyph-name="F" unicode="F" horiz-adv-x="1193" 
d="M163 0v1358h988v-277h-659v-259h517v-277h-517v-545h-329z" />
    <glyph glyph-name="G" unicode="G" horiz-adv-x="1534" 
d="M74 680q0 147 55.5 277t151 222t228 145.5t281.5 53.5q180 0 336.5 -85.5t246.5 -219.5l-253 -187q-127 184 -330 184q-169 0 -274 -109.5t-105 -280.5t105 -281.5t274 -110.5q119 0 207 49.5t119 142.5h-358v276h707q6 -59 6 -142q0 -180 -90.5 -326t-246 -227
t-344.5 -81q-199 0 -363 91.5t-258.5 252t-94.5 356.5z" />
    <glyph glyph-name="H" unicode="H" horiz-adv-x="1571" 
d="M163 1358h329v-527h588v527h329v-1358h-329v555h-588v-555h-329v1358z" />
    <glyph glyph-name="I" unicode="I" horiz-adv-x="654" 
d="M492 1358v-1358h-329v1358h329z" />
    <glyph glyph-name="J" unicode="J" horiz-adv-x="1122" 
d="M-7 225l218 211q108 -158 246 -158q86 0 136.5 55.5t50.5 158.5v866h329v-892q0 -221 -141 -353.5t-382 -132.5q-152 0 -271 67.5t-186 177.5z" />
    <glyph glyph-name="K" unicode="K" horiz-adv-x="1442" 
d="M492 0h-329v1358h329v-572l529 572h415l-529 -564l552 -794h-400l-393 585l-174 -179v-406z" />
    <glyph glyph-name="L" unicode="L" horiz-adv-x="1200" 
d="M1181 276v-276h-1018v1358h329v-1082h689z" />
    <glyph glyph-name="M" unicode="M" horiz-adv-x="1819" 
d="M163 0v1358h337l410 -886l410 886h337v-1358h-329v734l-308 -654h-220l-308 654v-734h-329z" />
    <glyph glyph-name="N" unicode="N" horiz-adv-x="1618" 
d="M492 0h-329v1358h280l684 -828v828h329v-1358h-285l-679 820v-820z" />
    <glyph glyph-name="O" unicode="O" horiz-adv-x="1568" 
d="M784 -20q-191 0 -353 90t-259 251.5t-97 358.5q0 144 56 274t151 222.5t226 147t276 54.5t276.5 -54.5t226.5 -147.5t151 -222.5t56 -273.5q0 -141 -55 -270t-148.5 -223.5t-226 -150.5t-280.5 -56zM784 1059q-160 0 -265.5 -107.5t-105.5 -271.5t104 -273t267 -109
q159 0 266 106.5t107 275.5q0 164 -106.5 271.5t-266.5 107.5z" />
    <glyph glyph-name="P" unicode="P" horiz-adv-x="1344" 
d="M491 0h-328v1358h676q127 0 233 -57.5t168.5 -162t62.5 -234.5q0 -129 -62.5 -235t-168.5 -165.5t-233 -59.5h-348v-444zM491 1078v-354h277q89 0 143.5 54t54.5 126q0 75 -53.5 124.5t-144.5 49.5h-277z" />
    <glyph glyph-name="Q" unicode="Q" horiz-adv-x="1569" 
d="M813 -20q-191 0 -353 90t-259 251.5t-97 358.5q0 144 56 274t151 222.5t226 147t276 54.5t276.5 -54.5t226.5 -147.5t151 -222.5t56 -273.5q0 -148 -58.5 -280.5t-163.5 -230.5l126 -179l-231 -155l-133 189q-117 -44 -250 -44zM442 680q0 -164 104 -273t267 -109
q27 0 54 3l-124 176l231 155l136 -192q76 100 76 240q0 164 -106.5 271.5t-266.5 107.5t-265.5 -107.5t-105.5 -271.5z" />
    <glyph glyph-name="R" unicode="R" horiz-adv-x="1373" 
d="M491 0h-328v1358h686q195 0 329.5 -124.5t134.5 -316.5q0 -142 -72.5 -250t-194.5 -160l284 -508h-355l-257 469h-227v-468zM491 1078v-330h287q91 0 144.5 47.5t53.5 121.5q0 70 -53.5 115.5t-144.5 45.5h-287z" />
    <glyph glyph-name="S" unicode="S" horiz-adv-x="1264" 
d="M79 292l247 180q58 -90 147.5 -142.5t188.5 -52.5q82 0 138.5 29.5t56.5 75.5q0 38 -35 66.5t-73.5 42.5t-129.5 41q-26 8 -40 12q-63 19 -103.5 32.5t-94 35.5t-88 44t-71.5 54.5t-58 69t-35 86t-14 107.5q0 120 72 214.5t183.5 142.5t237.5 48q335 0 534 -290
l-243 -179q-126 180 -291 180q-71 0 -116 -30.5t-45 -79.5q0 -19 5.5 -34t19.5 -27.5t27 -21.5t39.5 -19t45 -16t55 -17.5t59.5 -19.5q87 -29 144 -50.5t119 -51t99 -59.5t69 -70t46 -89.5t14 -110.5q0 -102 -46.5 -183t-124 -130t-171 -74.5t-193.5 -25.5
q-189 0 -344.5 81.5t-230.5 230.5z" />
    <glyph glyph-name="T" unicode="T" horiz-adv-x="1160" 
d="M15 1075v283h1131v-283h-401v-1075h-328v1075h-402z" />
    <glyph glyph-name="U" unicode="U" horiz-adv-x="1446" 
d="M148 1358h329v-851q0 -111 66.5 -176.5t179.5 -65.5q114 0 180.5 65t66.5 177v851h329v-869q0 -237 -154 -373t-422 -136q-272 0 -423.5 134t-151.5 375v869z" />
    <glyph glyph-name="V" unicode="V" horiz-adv-x="1400" 
d="M484 0l-481 1358h359l340 -1027l337 1027h359l-481 -1358h-433z" />
    <glyph glyph-name="W" unicode="W" horiz-adv-x="2049" 
d="M17 1358h332l265 -1009l280 989h262l280 -989l265 1009h332l-366 -1358h-418l-224 744l-224 -744h-418z" />
    <glyph glyph-name="X" unicode="X" horiz-adv-x="1401" 
d="M-8 0l515 695l-489 663h385l298 -423l298 423h385l-489 -663l515 -695h-385l-324 464l-324 -464h-385z" />
    <glyph glyph-name="Y" unicode="Y" horiz-adv-x="1424" 
d="M2 1358h403l314 -518l319 518h385l-544 -853v-505h-329v505z" />
    <glyph glyph-name="Z" unicode="Z" horiz-adv-x="1211" 
d="M67 0v220l638 857h-628v281h1061v-222l-636 -856h646v-280h-1081z" />
    <glyph glyph-name="bracketleft" unicode="[" horiz-adv-x="792" 
d="M766 -400h-606v1953h606v-223h-301v-1507h301v-223z" />
    <glyph glyph-name="backslash" unicode="\" horiz-adv-x="1131" 
d="M795 -400l-770 1929h311l769 -1929h-310z" />
    <glyph glyph-name="bracketright" unicode="]" horiz-adv-x="792" 
d="M633 -400h-606v223h301v1507h-301v223h606v-1953z" />
    <glyph glyph-name="asciicircum" unicode="^" horiz-adv-x="1286" 
d="M42 510l478 848h246l479 -848h-368l-234 468l-233 -468h-368z" />
    <glyph glyph-name="underscore" unicode="_" horiz-adv-x="1153" 
d="M1079 -290h-1004v230h1004v-230z" />
    <glyph glyph-name="grave" unicode="`" horiz-adv-x="797" 
d="M400 1473l-263 334h362l162 -334h-261z" />
    <glyph glyph-name="a" unicode="a" horiz-adv-x="1113" 
d="M433 -20q-156 0 -257 79t-101 213q0 93 56.5 163.5t148 106.5t201.5 36q101 0 192 -25v19q0 58 -48 94t-132 36q-69 0 -129 -30t-102 -77l-174 187q71 78 181.5 138t250.5 60q219 0 343.5 -109t124.5 -301v-570h-299v98q-39 -52 -106.5 -85t-149.5 -33zM377 291
q0 -43 35 -69.5t90 -26.5q74 0 122.5 46t48.5 121q-57 25 -136 25q-74 0 -117 -25t-43 -71z" />
    <glyph glyph-name="b" unicode="b" horiz-adv-x="1253" 
d="M139 0v1408h306v-549q97 121 291 121q201 0 324.5 -141.5t123.5 -360.5q0 -217 -123.5 -357.5t-324.5 -140.5q-88 0 -165 26t-117 68l-10 -74h-305zM655 698q-89 0 -147 -61t-58 -157t58 -157t147 -61q91 0 151.5 61.5t60.5 156.5q0 98 -60 158t-152 60z" />
    <glyph glyph-name="c" unicode="c" horiz-adv-x="1080" 
d="M574 -20q-221 0 -363.5 142t-142.5 358q0 215 147 357.5t369 142.5q150 0 268 -72.5t178 -184.5l-243 -173q-27 66 -81 103t-122 37q-89 0 -146.5 -60t-57.5 -150q0 -92 57.5 -152.5t146.5 -60.5q132 0 210 137l238 -174q-158 -250 -458 -250z" />
    <glyph glyph-name="d" unicode="d" horiz-adv-x="1253" 
d="M518 -20q-201 0 -324.5 140.5t-123.5 357.5q0 219 123.5 360.5t324.5 141.5q194 0 291 -121v549h306v-1408h-305l-10 74q-43 -44 -118 -69t-164 -25zM387 480q0 -95 60.5 -156.5t151.5 -61.5q89 0 147 61t58 157t-58 157t-147 61q-92 0 -152 -60t-60 -158z" />
    <glyph glyph-name="e" unicode="e" horiz-adv-x="1103" 
d="M69 480q0 220 134.5 360t350.5 140q91 0 175 -29t153 -84.5t110.5 -147.5t41.5 -208q0 -53 -9 -112h-648q9 -74 70.5 -113.5t141.5 -39.5q61 0 117 33t98 86l200 -176q-58 -92 -168.5 -150.5t-250.5 -58.5q-228 0 -372 140t-144 360zM563 732q-79 0 -128 -42.5
t-58 -105.5h366q-2 58 -54 103t-126 45z" />
    <glyph glyph-name="f" unicode="f" horiz-adv-x="773" 
d="M188 703h-158v257h158v84q0 77 25 144.5t74 122t132 86t189 31.5q98 0 205 -32l-33 -256q-55 24 -126 24q-70 0 -116 -32.5t-46 -105.5v-66h266v-257h-255v-703h-315v703z" />
    <glyph glyph-name="g" unicode="g" horiz-adv-x="1253" 
d="M74 -212l187 187q68 -65 137.5 -95t157.5 -30q43 0 84.5 11t79 33.5t61 62t23.5 90.5v54q-98 -121 -283 -121q-192 0 -318 142t-126 357q0 216 126 358.5t318 142.5q184 0 283 -121l10 101h305v-926q0 -92 -32.5 -168.5t-87 -128.5t-127 -88t-151.5 -52.5t-161 -16.5
q-153 0 -278 55t-208 153zM596 700q-91 0 -149 -61.5t-58 -159.5t58 -159.5t149 -61.5t149 61.5t58 159.5q0 97 -57.5 158.5t-149.5 62.5z" />
    <glyph glyph-name="h" unicode="h" horiz-adv-x="1216" 
d="M455 0h-316v1408h315v-531q97 103 282 103q69 0 132 -24t113 -68t80 -112.5t30 -151.5v-624h-315v534q0 75 -49 116.5t-112 41.5q-65 0 -112.5 -41.5t-47.5 -116.5v-534z" />
    <glyph glyph-name="i" unicode="i" horiz-adv-x="592" 
d="M139 960h315v-960h-315v960zM119 1255q0 77 48 125t124 48q77 0 125.5 -48t48.5 -125q0 -76 -48.5 -124t-125.5 -48q-76 0 -124 48t-48 124z" />
    <glyph glyph-name="j" unicode="j" horiz-adv-x="578" 
d="M-147 -377l26 248q73 -21 119 -21q127 0 127 139v971h315v-994q0 -95 -31 -170.5t-84 -121.5t-119 -70t-139 -24q-139 0 -214 43zM291 1083q-76 0 -124 48t-48 124q0 77 48 125t124 48q77 0 125.5 -48t48.5 -125q0 -76 -48.5 -124t-125.5 -48z" />
    <glyph glyph-name="k" unicode="k" horiz-adv-x="1174" 
d="M139 1408h315v-751l301 303h411l-415 -406l431 -554h-384l-257 359l-87 -86v-273h-315v1408z" />
    <glyph glyph-name="l" unicode="l" horiz-adv-x="592" 
d="M454 1408v-1408h-315v1408h315z" />
    <glyph glyph-name="m" unicode="m" horiz-adv-x="1845" 
d="M139 0v960h289l10 -101q49 61 127.5 91t169.5 30q100 0 182.5 -41.5t119.5 -118.5q56 79 142 119.5t181 40.5q70 0 134.5 -23t115 -66.5t80.5 -112.5t30 -154v-624h-315v534q0 76 -46.5 117t-110.5 41q-65 0 -113.5 -41.5t-48.5 -116.5v-534h-315v534q0 75 -47 116.5
t-110 41.5q-65 0 -112.5 -41.5t-47.5 -116.5v-534h-315z" />
    <glyph glyph-name="n" unicode="n" horiz-adv-x="1162" 
d="M427 0h-315v960h289l10 -101q49 61 127.5 91t169.5 30q69 0 132 -24t113 -68t80 -112.5t30 -151.5v-624h-315v534q0 75 -49 116.5t-112 41.5q-65 0 -112.5 -41.5t-47.5 -116.5v-534z" />
    <glyph glyph-name="o" unicode="o" horiz-adv-x="1167" 
d="M68 480q0 215 147 357.5t369 142.5t369 -142.5t147 -357.5t-147 -357.5t-369 -142.5t-369 142.5t-147 357.5zM380 480q0 -92 57.5 -152.5t146.5 -60.5t146.5 60.5t57.5 152.5q0 90 -57.5 150t-146.5 60t-146.5 -60t-57.5 -150z" />
    <glyph glyph-name="p" unicode="p" horiz-adv-x="1253" 
d="M139 -400v1360h296l10 -101q97 121 291 121q201 0 324.5 -141.5t123.5 -360.5q0 -217 -123.5 -357.5t-324.5 -140.5q-88 0 -163.5 24.5t-118.5 66.5v-471h-315zM655 698q-89 0 -147 -61t-58 -157t58 -157t147 -61q91 0 151.5 61.5t60.5 156.5q0 98 -60 158t-152 60z" />
    <glyph glyph-name="q" unicode="q" horiz-adv-x="1249" 
d="M518 -20q-201 0 -324.5 140.5t-123.5 357.5q0 219 123.5 360.5t324.5 141.5q194 0 291 -121l10 101h296v-1360h-315v471q-43 -42 -118.5 -66.5t-163.5 -24.5zM387 480q0 -95 60.5 -156.5t151.5 -61.5q89 0 147 61t58 157t-58 157t-147 61q-92 0 -152 -60t-60 -158z" />
    <glyph glyph-name="r" unicode="r" horiz-adv-x="836" 
d="M454 0h-315v960h297l10 -131q34 71 100.5 111t150.5 40q55 0 117 -20l-19 -275q-60 21 -121 21q-98 0 -159 -59t-61 -185v-462z" />
    <glyph glyph-name="s" unicode="s" horiz-adv-x="978" 
d="M65 182l192 173q109 -130 251 -130q104 0 104 59q0 7 -2 13t-7.5 11t-11.5 8.5t-17 8t-21.5 7.5t-28.5 7.5t-33 8t-40 9.5t-46 11q-70 18 -123 41.5t-97.5 59t-68 86t-23.5 114.5q0 136 109.5 223.5t286.5 87.5q133 0 233.5 -55.5t157.5 -132.5l-185 -157q-33 41 -87 71
t-122 30q-55 0 -84.5 -17t-29.5 -46q0 -26 42 -42.5t146 -41.5q75 -18 133 -41.5t107.5 -59t76 -87.5t26.5 -118q0 -131 -113.5 -217t-283.5 -86q-295 0 -441 202z" />
    <glyph glyph-name="t" unicode="t" horiz-adv-x="834" 
d="M26 703v257h153v308h305v-308h291v-257h-281v-310q0 -136 142 -136q72 0 155 33l22 -256q-47 -24 -117.5 -39t-137.5 -15q-174 0 -276.5 89t-102.5 273v361h-153z" />
    <glyph glyph-name="u" unicode="u" horiz-adv-x="1215" 
d="M481 -30q-69 0 -132 24t-113 68t-80 112.5t-30 151.5v634h315v-544q0 -75 49 -116.5t112 -41.5q65 0 112.5 41.5t47.5 116.5v544h315v-960h-289l-10 91q-49 -61 -127.5 -91t-169.5 -30z" />
    <glyph glyph-name="v" unicode="v" horiz-adv-x="1089" 
d="M351 0l-333 960h331l196 -652l196 652h331l-333 -960h-388z" />
    <glyph glyph-name="w" unicode="w" horiz-adv-x="1648" 
d="M26 960h321l167 -632l187 613h247l186 -613l168 632h321l-283 -960h-368l-148 481l-147 -481h-368z" />
    <glyph glyph-name="x" unicode="x" horiz-adv-x="1088" 
d="M358 490l-346 470h362l169 -253l166 253h360l-341 -470l349 -490h-350l-184 280l-182 -280h-347z" />
    <glyph glyph-name="y" unicode="y" horiz-adv-x="1125" 
d="M397 -1l-386 961h351l203 -642l198 642h352l-445 -1101q-56 -139 -163 -209t-245 -70q-105 0 -207 50l43 248q58 -26 112 -26q66 0 116.5 37.5t70.5 109.5z" />
    <glyph glyph-name="z" unicode="z" horiz-adv-x="929" 
d="M70 206l414 494h-414v260h774v-207l-412 -493h442v-260h-804v206z" />
    <glyph glyph-name="braceleft" unicode="{" horiz-adv-x="777" 
d="M23 455v242h87q60 0 83 27t23 85v366q0 96 19.5 166t64.5 124t124.5 81t193.5 27q66 0 132 -6v-234q-14 1 -36 1q-120 0 -159 -40t-39 -157v-332q0 -87 -30.5 -138t-98.5 -91q68 -40 98.5 -91t30.5 -138v-319q0 -119 39.5 -164t158.5 -45q22 0 36 1v-234q-66 -6 -132 -6
q-114 0 -193.5 29t-124.5 85t-64.5 128t-19.5 168v353q0 58 -23 85t-83 27h-87z" />
    <glyph glyph-name="bar" unicode="|" horiz-adv-x="604" 
d="M445 1758v-2158h-285v2158h285z" />
    <glyph glyph-name="braceright" unicode="}" horiz-adv-x="777" 
d="M28 1566q66 6 132 6q114 0 193.5 -29t124.5 -85t64.5 -128t19.5 -168v-353q0 -58 23 -85t83 -27h87v-242h-87q-60 0 -83 -27t-23 -85v-366q0 -96 -19.5 -166t-64.5 -124t-124.5 -81t-193.5 -27q-66 0 -132 6v234q14 -1 36 -1q120 0 159 40t39 157v332q0 87 30.5 138
t98.5 91q-68 40 -98.5 91t-30.5 138v319q0 119 -39.5 164t-158.5 45q-22 0 -36 -1v234z" />
    <glyph glyph-name="asciitilde" unicode="~" horiz-adv-x="1382" 
d="M229 381l-152 223q88 102 192 156.5t196 54.5q63 0 127.5 -21t110 -46.5t104 -46.5t110.5 -21q36 0 65 7t61 26.5t51 33.5t61 49l151 -223q-88 -102 -191.5 -156.5t-195.5 -54.5q-50 0 -99.5 14t-91 34t-82.5 40t-87.5 34t-91.5 14q-53 0 -108 -26t-130 -91z" />
    <glyph glyph-name="uni00A0" unicode="&#xa0;" horiz-adv-x="507" 
 />
    <glyph glyph-name="exclamdown" unicode="&#xa1;" horiz-adv-x="593" 
d="M123 -396l57 948h228l59 -948h-344zM121 808q0 73 50 122.5t124 49.5t124.5 -49.5t50.5 -122.5t-50.5 -122.5t-124.5 -49.5t-124 49.5t-50 122.5z" />
    <glyph glyph-name="cent" unicode="&#xa2;" horiz-adv-x="1139" 
d="M95 678q0 193 121.5 330.5t312.5 163.5v169h143v-167q130 -14 231 -83.5t154 -169.5l-243 -173q-43 104 -142 132v-407q93 28 149 129l238 -174q-138 -218 -387 -246v-182h-143v183q-193 23 -313.5 160.5t-120.5 334.5zM529 481v391q-56 -23 -89 -75.5t-33 -118.5
q0 -68 33 -121t89 -76z" />
    <glyph glyph-name="sterling" unicode="&#xa3;" horiz-adv-x="1276" 
d="M1151 0h-1076v215q87 61 124.5 119t36.5 132l-1 126h-153v202h152l-1 108q-1 217 140 347t380 130q319 0 474 -304l-258 -149q-76 170 -220 170q-84 0 -135.5 -53t-51.5 -139v-110h321v-202h-321v-96q0 -144 -91 -232h680v-264z" />
    <glyph glyph-name="currency" unicode="&#xa4;" horiz-adv-x="1264" 
d="M84 1042l163 163l166 -167q102 59 218 59q118 0 222 -59l165 167l163 -163l-167 -166q58 -99 58 -214q0 -122 -63 -220l172 -171l-163 -163l-173 175q-102 -54 -214 -54q-111 0 -209 54l-175 -175l-163 163l171 171q-60 101 -60 220q0 117 57 214zM450 662
q0 -74 53 -126.5t128 -52.5q77 0 131.5 52.5t54.5 126.5q0 76 -54.5 129.5t-131.5 53.5q-75 0 -128 -53.5t-53 -129.5z" />
    <glyph glyph-name="yen" unicode="&#xa5;" horiz-adv-x="1479" 
d="M30 1358h403l314 -518l319 518h385l-446 -699h186v-154h-284v-85h284v-154h-284v-266h-329v266h-289v154h289v85h-289v154h190z" />
    <glyph glyph-name="brokenbar" unicode="&#xa6;" horiz-adv-x="604" 
d="M445 910h-285v848h285v-848zM160 448h285v-848h-285v848z" />
    <glyph glyph-name="section" unicode="&#xa7;" horiz-adv-x="1170" 
d="M587 -341q-179 0 -311 76.5t-205 202.5l208 154q60 -91 142 -140t178 -49q86 0 142 35.5t56 87.5q0 48 -38 69.5t-161 59.5q-46 14 -72 22q-167 52 -257 104.5t-126.5 114.5t-36.5 155q0 135 127 227q-107 89 -107 231q0 166 133.5 267.5t329.5 101.5q169 0 289 -70
t188 -188l-208 -154q-53 86 -119 127t-162 41q-75 0 -123.5 -33t-48.5 -81q0 -50 39 -73t168 -63q49 -15 77 -24q162 -51 249.5 -102t122.5 -111.5t35 -151.5q0 -139 -130 -233q110 -87 110 -225q0 -114 -67 -201t-177.5 -132t-244.5 -45zM556 633q-79 23 -133 43
q-53 -43 -53 -94q0 -61 65 -99t205 -79q93 -28 129 -41q63 46 63 101q0 25 -14 45.5t-34 35.5t-60 31.5t-74 28t-94 28.5z" />
    <glyph glyph-name="dieresis" unicode="&#xa8;" horiz-adv-x="951" 
d="M664 1488q-67 0 -109 42t-42 109t42 109.5t109 42.5q68 0 110.5 -42.5t42.5 -109.5t-42.5 -109t-110.5 -42zM286 1488q-67 0 -109 42t-42 109t42 109.5t109 42.5q68 0 110.5 -42.5t42.5 -109.5t-42.5 -109t-110.5 -42z" />
    <glyph glyph-name="copyright" unicode="&#xa9;" horiz-adv-x="1649" 
d="M96 680q0 146 60.5 276.5t160 222.5t232.5 145.5t275 53.5q192 0 359 -90.5t269 -252.5t102 -355q0 -147 -60 -278.5t-159.5 -223t-233 -145t-277.5 -53.5t-277.5 54t-232.5 146.5t-158.5 223.5t-59.5 276zM192 680q0 -128 51.5 -242.5t137 -196t202 -129t241.5 -47.5
t241.5 48t202.5 130t138 196.5t52 240.5q0 168 -87.5 310t-233.5 223.5t-313 81.5t-312 -81.5t-232.5 -223.5t-87.5 -310zM422 678q0 168 115 281.5t291 113.5q105 0 191.5 -50t137.5 -137l-70 -49q-94 148 -260 148q-133 0 -222 -88.5t-89 -218.5q0 -127 88 -215t220 -88
q82 0 152.5 40.5t114.5 107.5l69 -49q-51 -86 -141.5 -136.5t-195.5 -50.5q-171 0 -286 113t-115 278z" />
    <glyph glyph-name="ordfeminine" unicode="&#xaa;" horiz-adv-x="801" 
d="M334 750q-97 0 -156.5 51t-59.5 133q0 85 70.5 137.5t184.5 52.5q72 0 121 -21v6q0 43 -32.5 71.5t-85.5 28.5q-91 0 -154 -65l-96 126q41 44 113.5 76t153.5 32q129 0 204.5 -64t75.5 -174v-378h-169v66q-26 -37 -70.5 -57.5t-99.5 -20.5zM124 505v150h554v-150h-554z
M304 945q0 -26 21 -40.5t53 -14.5q46 0 81 28t35 63q-31 23 -93 23q-46 0 -71.5 -15.5t-25.5 -43.5z" />
    <glyph glyph-name="guillemotleft" unicode="&#xab;" horiz-adv-x="1105" 
d="M496 480l272 395h260l-254 -395l254 -394h-260zM352 86l-272 394l272 395h260l-254 -395l254 -394h-260z" />
    <glyph glyph-name="logicalnot" unicode="&#xac;" horiz-adv-x="1304" 
d="M856 364v346h-796v283h1123v-629h-327z" />
    <glyph glyph-name="uni00AD" unicode="&#xad;" horiz-adv-x="874" 
d="M762 668v-244h-649v244h649z" />
    <glyph glyph-name="registered" unicode="&#xae;" horiz-adv-x="1249" 
d="M622 541q-148 0 -270.5 68t-192.5 186t-70 260t70 260t192.5 185.5t270.5 67.5q149 0 273 -67.5t195.5 -185.5t71.5 -260t-71.5 -260.5t-195.5 -186t-273 -67.5zM622 1488q-186 0 -314.5 -125.5t-128.5 -307.5q0 -181 128.5 -305.5t314.5 -124.5q188 0 319 124.5
t131 305.5q0 182 -130.5 307.5t-319.5 125.5zM432 805v506h216q80 0 127.5 -42t47.5 -113q0 -52 -26.5 -89t-71.5 -51l123 -211h-99l-110 197h-122v-197h-85zM517 1078h129q43 0 66 21t23 57t-23 57.5t-66 21.5h-129v-157z" />
    <glyph glyph-name="macron" unicode="&#xaf;" horiz-adv-x="864" 
d="M728 1705v-204h-591v204h591z" />
    <glyph glyph-name="degree" unicode="&#xb0;" horiz-adv-x="848" 
d="M423 678q-154 0 -255 99t-101 249q0 152 101 252t255 100q155 0 257 -100t102 -252q0 -150 -102 -249t-257 -99zM283 1026q0 -60 40 -101t100 -41q61 0 99.5 41t38.5 101q0 62 -38.5 104t-99.5 42q-60 0 -100 -42.5t-40 -103.5z" />
    <glyph glyph-name="plusminus" unicode="&#xb1;" horiz-adv-x="1281" 
d="M98 1041h380v317h323v-317h380v-283h-380v-327h-323v327h-380v283zM1183 0h-1085v275h1085v-275z" />
    <glyph glyph-name="twosuperior" unicode="&#xb2;" horiz-adv-x="755" 
d="M228 1071l-159 101q33 85 118.5 145.5t201.5 60.5q133 0 224.5 -68.5t91.5 -201.5q0 -42 -13.5 -80.5t-31 -65.5t-49.5 -58t-53.5 -47.5t-59.5 -43.5q-14 -10 -35.5 -25.5t-32 -23t-23 -17t-19.5 -16.5t-10 -13h332v-184h-610v78q0 82 56.5 155.5t157.5 149.5
q6 5 27.5 20.5t28.5 21.5t25.5 20t25.5 21t21 20t19.5 21.5t13 19.5t10 21.5t2.5 20.5q0 41 -28 61.5t-65 20.5q-94 0 -166 -114z" />
    <glyph glyph-name="threesuperior" unicode="&#xb3;" horiz-adv-x="752" 
d="M348 513q-108 0 -191 54.5t-115 128.5l151 106q2 -4 6.5 -11t19.5 -25t33 -32t48.5 -25t63.5 -11q38 0 67.5 22.5t29.5 63.5q0 47 -31 67.5t-70 20.5h-131v154h131q37 0 66 23.5t29 57.5q0 39 -30 60.5t-71 21.5q-89 0 -154 -104l-153 105q33 75 115 131.5t192 56.5
q134 0 226.5 -66t92.5 -185q0 -123 -109 -180q51 -25 83 -74t32 -110q0 -81 -47.5 -139t-121 -84.5t-162.5 -26.5z" />
    <glyph glyph-name="acute" unicode="&#xb4;" horiz-adv-x="797" 
d="M661 1807l-263 -334h-261l162 334h362z" />
    <glyph glyph-name="paragraph" unicode="&#xb6;" horiz-adv-x="1373" 
d="M552 406q-143 0 -258.5 59t-182.5 168.5t-67 248.5t67 248.5t182.5 168.5t258.5 59h729v-214h-440v-1544h-219v806h-70zM961 -400v1429h214v-1429h-214z" />
    <glyph glyph-name="periodcentered" unicode="&#xb7;" horiz-adv-x="556" 
d="M104 514q0 73 50 122.5t124 49.5t124.5 -49.5t50.5 -122.5t-50.5 -122.5t-124.5 -49.5t-124 49.5t-50 122.5z" />
    <glyph glyph-name="cedilla" unicode="&#xb8;" horiz-adv-x="690" 
d="M251 -477q-102 0 -164 30v155q62 -19 131 -19q56 0 88 17.5t32 48.5t-32.5 48.5t-89.5 17.5h-74l82 206h164l-33 -108q108 -15 162.5 -67t54.5 -125q0 -91 -89 -147.5t-232 -56.5z" />
    <glyph glyph-name="onesuperior" unicode="&#xb9;" horiz-adv-x="519" 
d="M162 534v637h-180v187h388v-824h-208z" />
    <glyph glyph-name="ordmasculine" unicode="&#xba;" horiz-adv-x="889" 
d="M113 1051q0 141 94 234t237 93t238 -93.5t95 -233.5q0 -139 -95 -231t-238 -92t-237 92t-94 231zM133 635h624v-155h-624v155zM313 1051q0 -55 37.5 -93.5t93.5 -38.5t92 38t36 94q0 57 -36 96t-92 39t-93.5 -39t-37.5 -96z" />
    <glyph glyph-name="guillemotright" unicode="&#xbb;" horiz-adv-x="1105" 
d="M748 480l-254 395h260l272 -395l-272 -394h-260zM78 86l254 394l-254 395h260l272 -395l-272 -394h-260z" />
    <glyph glyph-name="onequarter" unicode="&#xbc;" horiz-adv-x="1573" 
d="M820 326l339 498h240v-469h108v-169h-108v-186h-204v186h-375v140zM334 26l734 1332h165v-24l-732 -1334h-167v26zM310 1167h-180v187h388v-824h-208v637zM1195 587l-146 -232h146v232z" />
    <glyph glyph-name="onehalf" unicode="&#xbd;" horiz-adv-x="1674" 
d="M1129 537l-159 101q33 85 118.5 145.5t201.5 60.5q133 0 224.5 -68.5t91.5 -201.5q0 -42 -13.5 -80.5t-31 -65.5t-49.5 -58t-53.5 -47.5t-59.5 -43.5q-14 -10 -35.5 -25.5t-32 -23t-23 -17t-19.5 -16.5t-10 -13h332v-184h-610v78q0 82 56.5 155.5t157.5 149.5
q6 5 27.5 20.5t28.5 21.5t25.5 20t25.5 21t21 20t19.5 21.5t13 19.5t10 21.5t2.5 20.5q0 41 -28 61.5t-65 20.5q-94 0 -166 -114zM378 26l734 1332h165v-24l-732 -1334h-167v26zM360 1167h-180v187h388v-824h-208v637z" />
    <glyph glyph-name="threequarters" unicode="&#xbe;" horiz-adv-x="1702" 
d="M354 519q-108 0 -191 54.5t-115 128.5l151 106q2 -4 6.5 -11t19.5 -25t33 -32t48.5 -25t63.5 -11q38 0 67.5 22.5t29.5 63.5q0 47 -31 67.5t-70 20.5h-131v154h131q37 0 66 23.5t29 57.5q0 39 -30 60.5t-71 21.5q-89 0 -154 -104l-153 105q33 75 115 131.5t192 56.5
q134 0 226.5 -66t92.5 -185q0 -123 -109 -180q51 -25 83 -74t32 -110q0 -81 -47.5 -139t-121 -84.5t-162.5 -26.5zM964 326l339 498h240v-469h108v-169h-108v-186h-204v186h-375v140zM636 0h-167v26l734 1332h165v-24zM1339 587l-146 -232h146v232z" />
    <glyph glyph-name="questiondown" unicode="&#xbf;" horiz-adv-x="1063" 
d="M512 -420q-95 0 -177 23.5t-147 69.5t-102 121.5t-37 172.5q0 56 20 109t56 97.5t69.5 78t77.5 72t62 58.5q6 7 27 28.5t27.5 29t21 27t19.5 33.5t10 36.5t5 46.5h254q11 -51 11 -83q0 -41 -10.5 -79t-22.5 -63t-40 -58.5t-44 -49t-53 -50.5q-11 -11 -17 -16
q-86 -80 -114.5 -117t-28.5 -84q0 -50 37 -85.5t106 -35.5q79 0 141 51.5t100 141.5l257 -122q-62 -163 -194 -258t-314 -95zM568 633q-77 0 -125.5 48t-48.5 125q0 76 48.5 124t125.5 48q76 0 124 -48t48 -124q0 -77 -48 -125t-124 -48z" />
    <glyph glyph-name="Agrave" unicode="&#xc0;" horiz-adv-x="1456" 
d="M-3 0l536 1358h390l537 -1358h-352l-92 249h-575l-92 -249h-352zM578 1473l-263 334h362l162 -334h-261zM729 1029l-194 -524h387z" />
    <glyph glyph-name="Aacute" unicode="&#xc1;" horiz-adv-x="1456" 
d="M349 0h-352l536 1358h390l537 -1358h-352l-92 249h-575zM597 1473l162 334h362l-263 -334h-261zM729 1029l-194 -524h387z" />
    <glyph glyph-name="Acircumflex" unicode="&#xc2;" horiz-adv-x="1456" 
d="M349 0h-352l536 1358h390l537 -1358h-352l-92 249h-575zM344 1471l287 370h196l287 -370h-264l-121 169l-121 -169h-264zM729 1029l-194 -524h387z" />
    <glyph glyph-name="Atilde" unicode="&#xc3;" horiz-adv-x="1456" 
d="M-3 0l536 1358h390l537 -1358h-352l-92 249h-575l-92 -249h-352zM471 1493l-115 104q110 207 258 207q43 0 138 -48t122 -48q57 0 113 86l115 -104q-110 -207 -259 -207q-48 0 -134 48t-126 48q-49 0 -112 -86zM729 1029l-194 -524h387z" />
    <glyph glyph-name="Adieresis" unicode="&#xc4;" horiz-adv-x="1456" 
d="M-3 0l536 1358h390l537 -1358h-352l-92 249h-575l-92 -249h-352zM729 1029l-194 -524h387zM917 1488q-67 0 -109 42t-42 109t42 109.5t109 42.5q68 0 110.5 -42.5t42.5 -109.5t-42.5 -109t-110.5 -42zM388 1639q0 67 42 109.5t109 42.5q68 0 110.5 -42.5t42.5 -109.5
t-42.5 -109t-110.5 -42q-67 0 -109 42t-42 109z" />
    <glyph glyph-name="Aring" unicode="&#xc5;" horiz-adv-x="1456" 
d="M-3 0l536 1358h390l537 -1358h-352l-92 249h-575l-92 -249h-352zM729 1474q-97 0 -160 61.5t-63 155.5q0 95 63 157.5t160 62.5t160 -62.5t63 -157.5q0 -94 -63 -155.5t-160 -61.5zM535 505h387l-193 524zM729 1757q-27 0 -44.5 -19t-17.5 -47q0 -26 17.5 -44.5
t44.5 -18.5q26 0 43.5 18.5t17.5 44.5q0 28 -17 47t-44 19z" />
    <glyph glyph-name="AE" unicode="&#xc6;" horiz-adv-x="1996" 
d="M328 0h-385l822 1358h1148v-277h-634v-252h555v-276h-555v-277h644v-276h-973v249h-479zM950 1081l-332 -576h332v576z" />
    <glyph glyph-name="Ccedilla" unicode="&#xc7;" horiz-adv-x="1439" 
d="M676 -12q-263 39 -432.5 231.5t-169.5 460.5q0 197 94.5 357t258.5 250.5t363 90.5q182 0 347.5 -92.5t258.5 -246.5l-253 -187q-45 68 -91.5 113.5t-114 75t-147.5 29.5q-170 0 -274.5 -109.5t-104.5 -280.5t104.5 -281.5t274.5 -110.5q216 0 359 216l252 -184
q-90 -150 -236.5 -238.5t-323.5 -99.5l-19 -63q108 -15 162.5 -67t54.5 -125q0 -91 -89 -147.5t-232 -56.5q-102 0 -164 30v155q62 -19 131 -19q56 0 88 17.5t32 48.5t-32.5 48.5t-89.5 17.5h-74z" />
    <glyph glyph-name="Egrave" unicode="&#xc8;" horiz-adv-x="1209" 
d="M163 0v1358h963v-277h-634v-252h555v-276h-555v-277h644v-276h-973zM312 1807h362l162 -334h-261z" />
    <glyph glyph-name="Eacute" unicode="&#xc9;" horiz-adv-x="1209" 
d="M1136 0h-973v1358h963v-277h-634v-252h555v-276h-555v-277h644v-276zM527 1473l162 334h362l-263 -334h-261z" />
    <glyph glyph-name="Ecircumflex" unicode="&#xca;" horiz-adv-x="1209" 
d="M163 1358h963v-277h-634v-252h555v-276h-555v-277h644v-276h-973v1358zM524 1471h-264l287 370h196l287 -370h-264l-121 169z" />
    <glyph glyph-name="Edieresis" unicode="&#xcb;" horiz-adv-x="1209" 
d="M1136 0h-973v1358h963v-277h-634v-252h555v-276h-555v-277h644v-276zM682 1639q0 67 42 109.5t109 42.5q68 0 110.5 -42.5t42.5 -109.5t-42.5 -109t-110.5 -42q-67 0 -109 42t-42 109zM304 1639q0 67 42 109.5t109 42.5q68 0 110.5 -42.5t42.5 -109.5t-42.5 -109
t-110.5 -42q-67 0 -109 42t-42 109z" />
    <glyph glyph-name="Igrave" unicode="&#xcc;" horiz-adv-x="654" 
d="M492 1358v-1358h-329v1358h329zM188 1473l-263 334h362l162 -334h-261z" />
    <glyph glyph-name="Iacute" unicode="&#xcd;" horiz-adv-x="654" 
d="M492 1358v-1358h-329v1358h329zM721 1807l-263 -334h-261l162 334h362z" />
    <glyph glyph-name="Icircumflex" unicode="&#xce;" horiz-adv-x="654" 
d="M163 1358h329v-1358h-329v1358zM-58 1471l287 370h196l287 -370h-264l-121 169l-121 -169h-264z" />
    <glyph glyph-name="Idieresis" unicode="&#xcf;" horiz-adv-x="654" 
d="M492 0h-329v1358h329v-1358zM515 1488q-67 0 -109 42t-42 109t42 109.5t109 42.5q68 0 110.5 -42.5t42.5 -109.5t-42.5 -109t-110.5 -42zM-14 1639q0 67 42 109.5t109 42.5q68 0 110.5 -42.5t42.5 -109.5t-42.5 -109t-110.5 -42q-67 0 -109 42t-42 109z" />
    <glyph glyph-name="Eth" unicode="&#xd0;" horiz-adv-x="1596" 
d="M103 789h133v569h594q141 0 269.5 -53.5t221 -144t147 -216t54.5 -264.5q0 -138 -54.5 -264t-147 -217t-221 -145t-269.5 -54h-594v604h-133v185zM565 789h345v-185h-345v-328h233q168 0 276 117.5t108 286.5t-108 285t-276 116h-233v-292z" />
    <glyph glyph-name="Ntilde" unicode="&#xd1;" horiz-adv-x="1618" 
d="M163 0v1358h280l684 -828v828h329v-1358h-285l-679 820v-820h-329zM552 1493l-115 104q110 207 258 207q43 0 138 -48t122 -48q57 0 113 86l115 -104q-110 -207 -259 -207q-48 0 -134 48t-126 48q-49 0 -112 -86z" />
    <glyph glyph-name="Ograve" unicode="&#xd2;" horiz-adv-x="1568" 
d="M784 -20q-191 0 -353 90t-259 251.5t-97 358.5q0 144 56 274t151 222.5t226 147t276 54.5t276.5 -54.5t226.5 -147.5t151 -222.5t56 -273.5q0 -141 -55 -270t-148.5 -223.5t-226 -150.5t-280.5 -56zM784 1059q-160 0 -265.5 -107.5t-105.5 -271.5t104 -273t267 -109
q159 0 266 106.5t107 275.5q0 164 -106.5 271.5t-266.5 107.5zM672 1473l-263 334h362l162 -334h-261z" />
    <glyph glyph-name="Oacute" unicode="&#xd3;" horiz-adv-x="1568" 
d="M784 -20q-191 0 -353 90t-259 251.5t-97 358.5q0 144 56 274t151 222.5t226 147t276 54.5t276.5 -54.5t226.5 -147.5t151 -222.5t56 -273.5q0 -141 -55 -270t-148.5 -223.5t-226 -150.5t-280.5 -56zM413 680q0 -164 104 -273t267 -109q159 0 266 106.5t107 275.5
q0 164 -106.5 271.5t-266.5 107.5t-265.5 -107.5t-105.5 -271.5zM668 1473l162 334h362l-263 -334h-261z" />
    <glyph glyph-name="Ocircumflex" unicode="&#xd4;" horiz-adv-x="1568" 
d="M784 -20q-191 0 -353 90t-259 251.5t-97 358.5q0 144 56 274t151 222.5t226 147t276 54.5t276.5 -54.5t226.5 -147.5t151 -222.5t56 -273.5q0 -141 -55 -270t-148.5 -223.5t-226 -150.5t-280.5 -56zM784 1059q-160 0 -265.5 -107.5t-105.5 -271.5t104 -273t267 -109
q159 0 266 106.5t107 275.5q0 164 -106.5 271.5t-266.5 107.5zM400 1471l287 370h196l287 -370h-264l-121 169l-121 -169h-264z" />
    <glyph glyph-name="Otilde" unicode="&#xd5;" horiz-adv-x="1568" 
d="M784 -20q-191 0 -353 90t-259 251.5t-97 358.5q0 144 56 274t151 222.5t226 147t276 54.5t276.5 -54.5t226.5 -147.5t151 -222.5t56 -273.5q0 -141 -55 -270t-148.5 -223.5t-226 -150.5t-280.5 -56zM784 1059q-160 0 -265.5 -107.5t-105.5 -271.5t104 -273t267 -109
q159 0 266 106.5t107 275.5q0 164 -106.5 271.5t-266.5 107.5zM412 1597q110 207 258 207q43 0 138 -48t122 -48q57 0 113 86l115 -104q-110 -207 -259 -207q-48 0 -134 48t-126 48q-49 0 -112 -86z" />
    <glyph glyph-name="Odieresis" unicode="&#xd6;" horiz-adv-x="1568" 
d="M784 -20q-191 0 -353 90t-259 251.5t-97 358.5q0 144 56 274t151 222.5t226 147t276 54.5t276.5 -54.5t226.5 -147.5t151 -222.5t56 -273.5q0 -141 -55 -270t-148.5 -223.5t-226 -150.5t-280.5 -56zM784 1059q-160 0 -265.5 -107.5t-105.5 -271.5t104 -273t267 -109
q159 0 266 106.5t107 275.5q0 164 -106.5 271.5t-266.5 107.5zM973 1488q-67 0 -109 42t-42 109t42 109.5t109 42.5q68 0 110.5 -42.5t42.5 -109.5t-42.5 -109t-110.5 -42zM444 1639q0 67 42 109.5t109 42.5q68 0 110.5 -42.5t42.5 -109.5t-42.5 -109t-110.5 -42
q-67 0 -109 42t-42 109z" />
    <glyph glyph-name="multiply" unicode="&#xd7;" horiz-adv-x="1243" 
d="M407 679l-328 329l214 214l329 -329l329 329l214 -214l-329 -329l329 -329l-214 -214l-329 329l-329 -329l-214 214z" />
    <glyph glyph-name="Oslash" unicode="&#xd8;" horiz-adv-x="1568" 
d="M321 147q-115 96 -180.5 234t-65.5 299q0 144 56 274t151 222.5t226 147t276 54.5q181 0 338 -83l118 169l128 -88l-117 -168q114 -97 178.5 -234t64.5 -294q0 -141 -55 -270t-148.5 -223.5t-226 -150.5t-280.5 -56q-177 0 -333 81l-122 -175l-128 88zM509 415l428 614
q-74 30 -153 30q-160 0 -265.5 -107.5t-105.5 -271.5q0 -158 96 -265zM1063 939l-427 -613q68 -28 148 -28q159 0 266 106.5t107 275.5q0 152 -94 259z" />
    <glyph glyph-name="Ugrave" unicode="&#xd9;" horiz-adv-x="1446" 
d="M148 1358h329v-851q0 -111 66.5 -176.5t179.5 -65.5q114 0 180.5 65t66.5 177v851h329v-869q0 -237 -154 -373t-422 -136q-272 0 -423.5 134t-151.5 375v869zM342 1807h362l162 -334h-261z" />
    <glyph glyph-name="Uacute" unicode="&#xda;" horiz-adv-x="1446" 
d="M148 1358h329v-851q0 -111 66.5 -176.5t179.5 -65.5q114 0 180.5 65t66.5 177v851h329v-869q0 -237 -154 -373t-422 -136q-272 0 -423.5 134t-151.5 375v869zM599 1473l162 334h362l-263 -334h-261z" />
    <glyph glyph-name="Ucircumflex" unicode="&#xdb;" horiz-adv-x="1446" 
d="M148 489v869h329v-851q0 -111 66.5 -176.5t179.5 -65.5q114 0 180.5 65t66.5 177v851h329v-869q0 -237 -154 -373t-422 -136q-272 0 -423.5 134t-151.5 375zM339 1471l287 370h196l287 -370h-264l-121 169l-121 -169h-264z" />
    <glyph glyph-name="Udieresis" unicode="&#xdc;" horiz-adv-x="1446" 
d="M148 1358h329v-851q0 -111 66.5 -176.5t179.5 -65.5q114 0 180.5 65t66.5 177v851h329v-869q0 -237 -154 -373t-422 -136q-272 0 -423.5 134t-151.5 375v869zM912 1488q-67 0 -109 42t-42 109t42 109.5t109 42.5q68 0 110.5 -42.5t42.5 -109.5t-42.5 -109t-110.5 -42z
M534 1488q-67 0 -109 42t-42 109t42 109.5t109 42.5q68 0 110.5 -42.5t42.5 -109.5t-42.5 -109t-110.5 -42z" />
    <glyph glyph-name="Yacute" unicode="&#xdd;" horiz-adv-x="1424" 
d="M550 505l-548 853h403l314 -518l319 518h385l-544 -853v-505h-329v505zM567 1473l162 334h362l-263 -334h-261z" />
    <glyph glyph-name="Thorn" unicode="&#xde;" horiz-adv-x="1454" 
d="M491 0h-328v1358h328v-178h349q242 0 388 -130.5t146 -365.5q0 -232 -147 -365t-387 -133h-349v-186zM491 463h295q123 0 186.5 56.5t63.5 164.5q0 219 -250 219h-295v-440z" />
    <glyph glyph-name="germandbls" unicode="&#xdf;" horiz-adv-x="1385" 
d="M139 0v948q0 219 151.5 349.5t406.5 130.5q240 0 381 -108.5t141 -293.5q0 -110 -59 -185t-141 -107q133 -21 216.5 -121t83.5 -244q0 -173 -120 -281t-305 -108q-121 0 -221 50t-162 143l202 188q65 -94 155 -94q53 0 88.5 34t35.5 99q0 80 -62 121t-182 41
q-46 0 -122 -8v239q123 3 193.5 51t70.5 130q0 76 -59 120.5t-142 44.5q-108 0 -171.5 -58.5t-63.5 -163.5v-917h-315z" />
    <glyph glyph-name="agrave" unicode="&#xe0;" horiz-adv-x="1113" 
d="M75 272q0 93 56.5 163.5t148 106.5t201.5 36q101 0 192 -25v19q0 58 -48 94t-132 36q-69 0 -129 -30t-102 -77l-174 187q71 78 181.5 138t250.5 60q219 0 343.5 -109t124.5 -301v-570h-299v98q-39 -52 -106.5 -85t-149.5 -33q-156 0 -257 79t-101 213zM147 1455h362
l162 -334h-261zM537 387q-74 0 -117 -25t-43 -71q0 -43 35 -69.5t90 -26.5q74 0 122.5 46t48.5 121q-57 25 -136 25z" />
    <glyph glyph-name="aacute" unicode="&#xe1;" horiz-adv-x="1113" 
d="M75 272q0 93 56.5 163.5t148 106.5t201.5 36q101 0 192 -25v19q0 58 -48 94t-132 36q-69 0 -129 -30t-102 -77l-174 187q71 78 181.5 138t250.5 60q219 0 343.5 -109t124.5 -301v-570h-299v98q-39 -52 -106.5 -85t-149.5 -33q-156 0 -257 79t-101 213zM401 1113l162 334
h362l-263 -334h-261zM377 291q0 -43 35 -69.5t90 -26.5q74 0 122.5 46t48.5 121q-57 25 -136 25q-74 0 -117 -25t-43 -71z" />
    <glyph glyph-name="acircumflex" unicode="&#xe2;" horiz-adv-x="1113" 
d="M75 272q0 93 56.5 163.5t148 106.5t201.5 36q101 0 192 -25v19q0 58 -48 94t-132 36q-69 0 -129 -30t-102 -77l-174 187q71 78 181.5 138t250.5 60q219 0 343.5 -109t124.5 -301v-570h-299v98q-39 -52 -106.5 -85t-149.5 -33q-156 0 -257 79t-101 213zM163 1084l287 370
h196l287 -370h-264l-121 169l-121 -169h-264zM537 387q-74 0 -117 -25t-43 -71q0 -43 35 -69.5t90 -26.5q74 0 122.5 46t48.5 121q-57 25 -136 25z" />
    <glyph glyph-name="atilde" unicode="&#xe3;" horiz-adv-x="1113" 
d="M75 272q0 93 56.5 163.5t148 106.5t201.5 36q101 0 192 -25v19q0 58 -48 94t-132 36q-69 0 -129 -30t-102 -77l-174 187q71 78 181.5 138t250.5 60q219 0 343.5 -109t124.5 -301v-570h-299v98q-39 -52 -106.5 -85t-149.5 -33q-156 0 -257 79t-101 213zM273 1133l-115 104
q110 207 258 207q43 0 138 -48t122 -48q57 0 113 86l115 -104q-110 -207 -259 -207q-48 0 -134 48t-126 48q-49 0 -112 -86zM537 387q-74 0 -117 -25t-43 -71q0 -43 35 -69.5t90 -26.5q74 0 122.5 46t48.5 121q-57 25 -136 25z" />
    <glyph glyph-name="adieresis" unicode="&#xe4;" horiz-adv-x="1113" 
d="M75 272q0 93 56.5 163.5t148 106.5t201.5 36q101 0 192 -25v19q0 58 -48 94t-132 36q-69 0 -129 -30t-102 -77l-174 187q71 78 181.5 138t250.5 60q219 0 343.5 -109t124.5 -301v-570h-299v98q-39 -52 -106.5 -85t-149.5 -33q-156 0 -257 79t-101 213zM348 1151
q-67 0 -109 42t-42 109t42 109.5t109 42.5q68 0 110.5 -42.5t42.5 -109.5t-42.5 -109t-110.5 -42zM726 1151q-67 0 -109 42t-42 109t42 109.5t109 42.5q68 0 110.5 -42.5t42.5 -109.5t-42.5 -109t-110.5 -42zM537 387q-74 0 -117 -25t-43 -71q0 -43 35 -69.5t90 -26.5
q74 0 122.5 46t48.5 121q-57 25 -136 25z" />
    <glyph glyph-name="aring" unicode="&#xe5;" horiz-adv-x="1113" 
d="M433 -20q-156 0 -257 79t-101 213q0 93 56.5 163.5t148 106.5t201.5 36q101 0 192 -25v19q0 58 -48 94t-132 36q-69 0 -129 -30t-102 -77l-174 187q71 78 181.5 138t250.5 60q219 0 343.5 -109t124.5 -301v-570h-299v98q-39 -52 -106.5 -85t-149.5 -33zM332 1289
q0 95 63 157.5t160 62.5t160 -62.5t63 -157.5q0 -94 -63 -155.5t-160 -61.5t-160 61.5t-63 155.5zM377 291q0 -43 35 -69.5t90 -26.5q74 0 122.5 46t48.5 121q-57 25 -136 25q-74 0 -117 -25t-43 -71zM555 1355q-27 0 -44.5 -19t-17.5 -47q0 -26 17.5 -44.5t44.5 -18.5
q26 0 43.5 18.5t17.5 44.5q0 28 -17 47t-44 19z" />
    <glyph glyph-name="ae" unicode="&#xe6;" horiz-adv-x="1700" 
d="M76 272q0 93 56.5 163.5t148 106.5t201.5 36q101 0 192 -25v19q0 58 -48 94t-132 36q-68 0 -128.5 -30t-102.5 -77l-174 187q71 78 181.5 138t250.5 60q202 0 307 -125q128 125 322 125q91 0 175 -29t153 -84.5t110.5 -147.5t41.5 -208q0 -53 -9 -112h-648
q9 -74 70.5 -113.5t141.5 -39.5q61 0 117 33t98 86l200 -176q-58 -92 -168.5 -150.5t-250.5 -58.5q-228 0 -368 151q-120 -151 -347 -151q-170 0 -280 79t-110 213zM538 387q-74 0 -117 -25t-43 -71q0 -43 35 -69.5t90 -26.5q74 0 122.5 46t48.5 121q-57 25 -136 25z
M973 584h366q-2 58 -54 103t-126 45q-79 0 -128 -42.5t-58 -105.5z" />
    <glyph glyph-name="ccedilla" unicode="&#xe7;" horiz-adv-x="1080" 
d="M460 -9q-177 36 -284.5 170t-107.5 319q0 215 147 357.5t369 142.5q150 0 268 -72.5t178 -184.5l-243 -173q-27 66 -81 103t-122 37q-89 0 -146.5 -60t-57.5 -150q0 -92 57.5 -152.5t146.5 -60.5q132 0 210 137l238 -174q-144 -227 -408 -248l-19 -63q108 -15 162.5 -67
t54.5 -125q0 -91 -89 -147.5t-232 -56.5q-102 0 -164 30v155q62 -19 131 -19q56 0 88 17.5t32 48.5t-32.5 48.5t-89.5 17.5h-74z" />
    <glyph glyph-name="egrave" unicode="&#xe8;" horiz-adv-x="1103" 
d="M585 -20q-228 0 -372 140t-144 360t134.5 360t350.5 140q91 0 175 -29t153 -84.5t110.5 -147.5t41.5 -208q0 -53 -9 -112h-648q9 -74 70.5 -113.5t141.5 -39.5q61 0 117 33t98 86l200 -176q-58 -92 -168.5 -150.5t-250.5 -58.5zM184 1455h362l162 -334h-261zM377 584h366
q-2 58 -54 103t-126 45q-79 0 -128 -42.5t-58 -105.5z" />
    <glyph glyph-name="eacute" unicode="&#xe9;" horiz-adv-x="1103" 
d="M69 480q0 220 134.5 360t350.5 140q91 0 175 -29t153 -84.5t110.5 -147.5t41.5 -208q0 -53 -9 -112h-648q9 -74 70.5 -113.5t141.5 -39.5q61 0 117 33t98 86l200 -176q-58 -92 -168.5 -150.5t-250.5 -58.5q-228 0 -372 140t-144 360zM709 1113h-261l162 334h362zM563 732
q-79 0 -128 -42.5t-58 -105.5h366q-2 58 -54 103t-126 45z" />
    <glyph glyph-name="ecircumflex" unicode="&#xea;" horiz-adv-x="1103" 
d="M69 480q0 220 134.5 360t350.5 140q91 0 175 -29t153 -84.5t110.5 -147.5t41.5 -208q0 -53 -9 -112h-648q9 -74 70.5 -113.5t141.5 -39.5q61 0 117 33t98 86l200 -176q-58 -92 -168.5 -150.5t-250.5 -58.5q-228 0 -372 140t-144 360zM426 1084h-264l287 370h196l287 -370
h-264l-121 169zM563 732q-79 0 -128 -42.5t-58 -105.5h366q-2 58 -54 103t-126 45z" />
    <glyph glyph-name="edieresis" unicode="&#xeb;" horiz-adv-x="1103" 
d="M69 480q0 220 134.5 360t350.5 140q91 0 175 -29t153 -84.5t110.5 -147.5t41.5 -208q0 -53 -9 -112h-648q9 -74 70.5 -113.5t141.5 -39.5q61 0 117 33t98 86l200 -176q-58 -92 -168.5 -150.5t-250.5 -58.5q-228 0 -372 140t-144 360zM221 1302q0 67 42 109.5t109 42.5
q68 0 110.5 -42.5t42.5 -109.5t-42.5 -109t-110.5 -42q-67 0 -109 42t-42 109zM599 1302q0 67 42 109.5t109 42.5q68 0 110.5 -42.5t42.5 -109.5t-42.5 -109t-110.5 -42q-67 0 -109 42t-42 109zM377 584h366q-2 58 -54 103t-126 45q-79 0 -128 -42.5t-58 -105.5z" />
    <glyph glyph-name="igrave" unicode="&#xec;" horiz-adv-x="592" 
d="M454 960v-960h-315v960h315zM148 1121l-263 334h362l162 -334h-261z" />
    <glyph glyph-name="iacute" unicode="&#xed;" horiz-adv-x="592" 
d="M454 960v-960h-315v960h315zM700 1447l-263 -334h-261l162 334h362z" />
    <glyph glyph-name="icircumflex" unicode="&#xee;" horiz-adv-x="592" 
d="M139 960h315v-960h-315v960zM-89 1084l287 370h196l287 -370h-264l-121 169l-121 -169h-264z" />
    <glyph glyph-name="idieresis" unicode="&#xef;" horiz-adv-x="592" 
d="M454 0h-315v960h315v-960zM484 1151q-67 0 -109 42t-42 109t42 109.5t109 42.5q68 0 110.5 -42.5t42.5 -109.5t-42.5 -109t-110.5 -42zM-45 1302q0 67 42 109.5t109 42.5q68 0 110.5 -42.5t42.5 -109.5t-42.5 -109t-110.5 -42q-67 0 -109 42t-42 109z" />
    <glyph glyph-name="eth" unicode="&#xf0;" horiz-adv-x="1176" 
d="M575 -20q-224 0 -364 131.5t-140 342.5q0 201 124 326.5t323 125.5q89 0 157 -31.5t104 -82.5q-53 184 -237 312l-198 -147l-97 136l137 102q-53 26 -151 65l146 220q130 -51 235 -115l206 153l93 -137l-156 -117q334 -275 334 -728q0 -247 -143 -401.5t-373 -154.5z
M393 454q0 -86 51.5 -139.5t134.5 -53.5q84 0 136 53.5t52 139.5q0 84 -52 136.5t-136 52.5q-83 0 -134.5 -52.5t-51.5 -136.5z" />
    <glyph glyph-name="ntilde" unicode="&#xf1;" horiz-adv-x="1215" 
d="M108 0v960h289l10 -101q49 61 127.5 91t169.5 30q69 0 132 -24t113 -68t80 -112.5t30 -151.5v-624h-315v534q0 75 -49 116.5t-112 41.5q-65 0 -112.5 -41.5t-47.5 -116.5v-534h-315zM237 1237q110 207 258 207q43 0 138 -48t122 -48q57 0 113 86l115 -104
q-110 -207 -259 -207q-48 0 -134 48t-126 48q-49 0 -112 -86z" />
    <glyph glyph-name="ograve" unicode="&#xf2;" horiz-adv-x="1167" 
d="M68 480q0 215 147 357.5t369 142.5t369 -142.5t147 -357.5t-147 -357.5t-369 -142.5t-369 142.5t-147 357.5zM380 480q0 -92 57.5 -152.5t146.5 -60.5t146.5 60.5t57.5 152.5q0 90 -57.5 150t-146.5 60t-146.5 -60t-57.5 -150zM208 1455h362l162 -334h-261z" />
    <glyph glyph-name="oacute" unicode="&#xf3;" horiz-adv-x="1167" 
d="M68 480q0 215 147 357.5t369 142.5t369 -142.5t147 -357.5t-147 -357.5t-369 -142.5t-369 142.5t-147 357.5zM584 690q-89 0 -146.5 -60t-57.5 -150q0 -92 57.5 -152.5t146.5 -60.5t146.5 60.5t57.5 152.5q0 90 -57.5 150t-146.5 60zM739 1113h-261l162 334h362z" />
    <glyph glyph-name="ocircumflex" unicode="&#xf4;" horiz-adv-x="1167" 
d="M68 480q0 215 147 357.5t369 142.5t369 -142.5t147 -357.5t-147 -357.5t-369 -142.5t-369 142.5t-147 357.5zM199 1084l287 370h196l287 -370h-264l-121 169l-121 -169h-264zM380 480q0 -92 57.5 -152.5t146.5 -60.5t146.5 60.5t57.5 152.5q0 90 -57.5 150t-146.5 60
t-146.5 -60t-57.5 -150z" />
    <glyph glyph-name="otilde" unicode="&#xf5;" horiz-adv-x="1167" 
d="M68 480q0 215 147 357.5t369 142.5t369 -142.5t147 -357.5t-147 -357.5t-369 -142.5t-369 142.5t-147 357.5zM211 1237q110 207 258 207q43 0 138 -48t122 -48q57 0 113 86l115 -104q-110 -207 -259 -207q-48 0 -134 48t-126 48q-49 0 -112 -86zM584 690
q-89 0 -146.5 -60t-57.5 -150q0 -92 57.5 -152.5t146.5 -60.5t146.5 60.5t57.5 152.5q0 90 -57.5 150t-146.5 60z" />
    <glyph glyph-name="odieresis" unicode="&#xf6;" horiz-adv-x="1167" 
d="M68 480q0 215 147 357.5t369 142.5t369 -142.5t147 -357.5t-147 -357.5t-369 -142.5t-369 142.5t-147 357.5zM380 480q0 -92 57.5 -152.5t146.5 -60.5t146.5 60.5t57.5 152.5q0 90 -57.5 150t-146.5 60t-146.5 -60t-57.5 -150zM621 1302q0 67 42 109.5t109 42.5
q68 0 110.5 -42.5t42.5 -109.5t-42.5 -109t-110.5 -42q-67 0 -109 42t-42 109zM243 1302q0 67 42 109.5t109 42.5q68 0 110.5 -42.5t42.5 -109.5t-42.5 -109t-110.5 -42q-67 0 -109 42t-42 109z" />
    <glyph glyph-name="divide" unicode="&#xf7;" horiz-adv-x="1308" 
d="M1208 538h-1107v283h1107v-283zM480 266q0 73 50 122.5t124 49.5t124.5 -49.5t50.5 -122.5t-50.5 -122.5t-124.5 -49.5t-124 49.5t-50 122.5zM654 923q-74 0 -124 49.5t-50 122.5t50 122.5t124 49.5t124.5 -49.5t50.5 -122.5t-50.5 -122.5t-124.5 -49.5z" />
    <glyph glyph-name="oslash" unicode="&#xf8;" horiz-adv-x="1201" 
d="M196 -128l-116 106l135 162q-130 140 -130 340q0 215 147 357.5t369 142.5q143 0 259 -62l141 170l121 -96l-139 -168q134 -140 134 -344q0 -215 -147 -357.5t-369 -142.5q-144 0 -263 64zM782 581l-250 -303q33 -11 69 -11q89 0 146.5 60.5t57.5 152.5q0 55 -23 101z
M417 384l246 297q-29 9 -62 9q-89 0 -146.5 -60t-57.5 -150q0 -53 20 -96z" />
    <glyph glyph-name="ugrave" unicode="&#xf9;" horiz-adv-x="1215" 
d="M126 326v634h315v-544q0 -75 49 -116.5t112 -41.5q65 0 112.5 41.5t47.5 116.5v544h315v-960h-289l-10 91q-49 -61 -127.5 -91t-169.5 -30q-69 0 -132 24t-113 68t-80 112.5t-30 151.5zM224 1455h362l162 -334h-261z" />
    <glyph glyph-name="uacute" unicode="&#xfa;" horiz-adv-x="1215" 
d="M126 326v634h315v-544q0 -75 49 -116.5t112 -41.5q65 0 112.5 41.5t47.5 116.5v544h315v-960h-289l-10 91q-49 -61 -127.5 -91t-169.5 -30q-69 0 -132 24t-113 68t-80 112.5t-30 151.5zM729 1113h-261l162 334h362z" />
    <glyph glyph-name="ucircumflex" unicode="&#xfb;" horiz-adv-x="1215" 
d="M126 326v634h315v-544q0 -75 49 -116.5t112 -41.5q65 0 112.5 41.5t47.5 116.5v544h315v-960h-289l-10 91q-49 -61 -127.5 -91t-169.5 -30q-69 0 -132 24t-113 68t-80 112.5t-30 151.5zM240 1084l287 370h196l287 -370h-264l-121 169l-121 -169h-264z" />
    <glyph glyph-name="udieresis" unicode="&#xfc;" horiz-adv-x="1215" 
d="M126 960h315v-544q0 -75 49 -116.5t112 -41.5q65 0 112.5 41.5t47.5 116.5v544h315v-960h-289l-10 91q-49 -61 -127.5 -91t-169.5 -30q-69 0 -132 24t-113 68t-80 112.5t-30 151.5v634zM796 1151q-67 0 -109 42t-42 109t42 109.5t109 42.5q68 0 110.5 -42.5t42.5 -109.5
t-42.5 -109t-110.5 -42zM418 1151q-67 0 -109 42t-42 109t42 109.5t109 42.5q68 0 110.5 -42.5t42.5 -109.5t-42.5 -109t-110.5 -42z" />
    <glyph glyph-name="yacute" unicode="&#xfd;" horiz-adv-x="1125" 
d="M11 960h351l203 -642l198 642h352l-445 -1101q-56 -139 -163 -209t-245 -70q-105 0 -207 50l43 248q58 -26 112 -26q66 0 116.5 37.5t70.5 109.5zM432 1113l162 334h362l-263 -334h-261z" />
    <glyph glyph-name="thorn" unicode="&#xfe;" horiz-adv-x="1254" 
d="M139 -400v1808h307v-547q95 119 291 119q201 0 324.5 -141.5t123.5 -360.5q0 -217 -123.5 -357.5t-324.5 -140.5q-88 0 -163.5 24.5t-118.5 66.5v-471h-316zM656 698q-89 0 -147 -61t-58 -157t58 -157t147 -61q91 0 151.5 61.5t60.5 156.5q0 98 -60 158t-152 60z" />
    <glyph glyph-name="ydieresis" unicode="&#xff;" horiz-adv-x="1125" 
d="M397 -1l-386 961h351l203 -642l198 642h352l-445 -1101q-56 -139 -163 -209t-245 -70q-105 0 -207 50l43 248q58 -26 112 -26q66 0 116.5 37.5t70.5 109.5zM600 1302q0 67 42 109.5t109 42.5q68 0 110.5 -42.5t42.5 -109.5t-42.5 -109t-110.5 -42q-67 0 -109 42t-42 109z
M373 1151q-67 0 -109 42t-42 109t42 109.5t109 42.5q68 0 110.5 -42.5t42.5 -109.5t-42.5 -109t-110.5 -42z" />
    <glyph glyph-name="Amacron" unicode="&#x100;" horiz-adv-x="1456" 
d="M349 0h-352l536 1358h390l537 -1358h-352l-92 249h-575zM1024 1501h-591v204h591v-204zM729 1029l-194 -524h387z" />
    <glyph glyph-name="amacron" unicode="&#x101;" horiz-adv-x="1113" 
d="M433 -20q-156 0 -257 79t-101 213q0 93 56.5 163.5t148 106.5t201.5 36q101 0 192 -25v19q0 58 -48 94t-132 36q-69 0 -129 -30t-102 -77l-174 187q71 78 181.5 138t250.5 60q219 0 343.5 -109t124.5 -301v-570h-299v98q-39 -52 -106.5 -85t-149.5 -33zM238 1369h591
v-204h-591v204zM537 387q-74 0 -117 -25t-43 -71q0 -43 35 -69.5t90 -26.5q74 0 122.5 46t48.5 121q-57 25 -136 25z" />
    <glyph glyph-name="Abreve" unicode="&#x102;" horiz-adv-x="1456" 
d="M-3 0l536 1358h390l537 -1358h-352l-92 249h-575l-92 -249h-352zM405 1793h210q2 -57 33.5 -92.5t80.5 -35.5q51 0 81.5 35t32.5 93h210q-7 -148 -95.5 -236.5t-228.5 -88.5q-139 0 -228 89t-96 236zM729 1029l-194 -524h387z" />
    <glyph glyph-name="abreve" unicode="&#x103;" horiz-adv-x="1113" 
d="M75 272q0 93 56.5 163.5t148 106.5t201.5 36q101 0 192 -25v19q0 58 -48 94t-132 36q-69 0 -129 -30t-102 -77l-174 187q71 78 181.5 138t250.5 60q219 0 343.5 -109t124.5 -301v-570h-299v98q-39 -52 -106.5 -85t-149.5 -33q-156 0 -257 79t-101 213zM533 1111
q-139 0 -228 89t-96 236h210q2 -57 33.5 -92.5t80.5 -35.5q51 0 81.5 35t32.5 93h210q-7 -148 -95.5 -236.5t-228.5 -88.5zM377 291q0 -43 35 -69.5t90 -26.5q74 0 122.5 46t48.5 121q-57 25 -136 25q-74 0 -117 -25t-43 -71z" />
    <glyph glyph-name="Aogonek" unicode="&#x104;" horiz-adv-x="1456" 
d="M349 0h-352l536 1358h390l537 -1358h-134q-196 -113 -196 -194q0 -35 25 -56t68 -21q57 0 109 27l64 -176q-88 -57 -220 -57q-120 0 -190 58t-70 153q0 153 192 266l-92 249h-575zM535 505h387l-193 524z" />
    <glyph glyph-name="aogonek" unicode="&#x105;" horiz-adv-x="1113" 
d="M433 -20q-156 0 -257 79t-101 213q0 93 56.5 163.5t148 106.5t201.5 36q101 0 192 -25v19q0 58 -48 94t-132 36q-69 0 -129 -30t-102 -77l-174 187q71 78 181.5 138t250.5 60q219 0 343.5 -109t124.5 -301v-570h-81q-196 -113 -196 -194q0 -35 25 -56t68 -21q57 0 109 27
l64 -176q-88 -57 -220 -57q-120 0 -190 58t-70 153q0 151 192 267v97q-39 -52 -106.5 -85t-149.5 -33zM537 387q-74 0 -117 -25t-43 -71q0 -43 35 -69.5t90 -26.5q74 0 122.5 46t48.5 121q-57 25 -136 25z" />
    <glyph glyph-name="Cacute" unicode="&#x106;" horiz-adv-x="1439" 
d="M74 680q0 197 94.5 357t258.5 250.5t363 90.5q182 0 347.5 -92.5t258.5 -246.5l-253 -187q-45 68 -91.5 113.5t-114 75t-147.5 29.5q-170 0 -274.5 -109.5t-104.5 -280.5t104.5 -281.5t274.5 -110.5q216 0 359 216l252 -184q-97 -161 -258 -250.5t-353 -89.5
q-199 0 -363 91t-258.5 251.5t-94.5 357.5zM679 1473l162 334h362l-263 -334h-261z" />
    <glyph glyph-name="cacute" unicode="&#x107;" horiz-adv-x="1080" 
d="M68 480q0 215 147 357.5t369 142.5q150 0 268 -72.5t178 -184.5l-243 -173q-27 66 -81 103t-122 37q-89 0 -146.5 -60t-57.5 -150q0 -92 57.5 -152.5t146.5 -60.5q132 0 210 137l238 -174q-158 -250 -458 -250q-221 0 -363.5 142t-142.5 358zM719 1113h-261l162 334h362z
" />
    <glyph glyph-name="Ccircumflex" unicode="&#x108;" horiz-adv-x="1439" 
d="M790 -20q-199 0 -363 91t-258.5 251.5t-94.5 357.5t94.5 357t258.5 250.5t363 90.5q182 0 347.5 -92.5t258.5 -246.5l-253 -187q-45 68 -91.5 113.5t-114 75t-147.5 29.5q-170 0 -274.5 -109.5t-104.5 -280.5t104.5 -281.5t274.5 -110.5q216 0 359 216l252 -184
q-97 -161 -258 -250.5t-353 -89.5zM409 1471l287 370h196l287 -370h-264l-121 169l-121 -169h-264z" />
    <glyph glyph-name="ccircumflex" unicode="&#x109;" horiz-adv-x="1080" 
d="M574 -20q-221 0 -363.5 142t-142.5 358q0 215 147 357.5t369 142.5q150 0 268 -72.5t178 -184.5l-243 -173q-27 66 -81 103t-122 37q-89 0 -146.5 -60t-57.5 -150q0 -92 57.5 -152.5t146.5 -60.5q132 0 210 137l238 -174q-158 -250 -458 -250zM464 1084h-264l287 370h196
l287 -370h-264l-121 169z" />
    <glyph glyph-name="Cdotaccent" unicode="&#x10a;" horiz-adv-x="1439" 
d="M74 680q0 197 94.5 357t258.5 250.5t363 90.5q182 0 347.5 -92.5t258.5 -246.5l-253 -187q-45 68 -91.5 113.5t-114 75t-147.5 29.5q-170 0 -274.5 -109.5t-104.5 -280.5t104.5 -281.5t274.5 -110.5q216 0 359 216l252 -184q-97 -161 -258 -250.5t-353 -89.5
q-199 0 -363 91t-258.5 251.5t-94.5 357.5zM625 1639q0 77 48 125t124 48q77 0 125.5 -48t48.5 -125q0 -76 -48.5 -124t-125.5 -48q-76 0 -124 48t-48 124z" />
    <glyph glyph-name="cdotaccent" unicode="&#x10b;" horiz-adv-x="1080" 
d="M68 480q0 215 147 357.5t369 142.5q150 0 268 -72.5t178 -184.5l-243 -173q-27 66 -81 103t-122 37q-89 0 -146.5 -60t-57.5 -150q0 -92 57.5 -152.5t146.5 -60.5q132 0 210 137l238 -174q-158 -250 -458 -250q-221 0 -363.5 142t-142.5 358zM612 1133q-76 0 -124 48
t-48 124q0 77 48 125t124 48q77 0 125.5 -48t48.5 -125q0 -76 -48.5 -124t-125.5 -48z" />
    <glyph glyph-name="Ccaron" unicode="&#x10c;" horiz-adv-x="1439" 
d="M74 680q0 197 94.5 357t258.5 250.5t363 90.5q182 0 347.5 -92.5t258.5 -246.5l-253 -187q-45 68 -91.5 113.5t-114 75t-147.5 29.5q-170 0 -274.5 -109.5t-104.5 -280.5t104.5 -281.5t274.5 -110.5q216 0 359 216l252 -184q-97 -161 -258 -250.5t-353 -89.5
q-199 0 -363 91t-258.5 251.5t-94.5 357.5zM688 1481l-287 370h264l121 -169l121 169h264l-287 -370h-196z" />
    <glyph glyph-name="ccaron" unicode="&#x10d;" horiz-adv-x="1080" 
d="M68 480q0 215 147 357.5t369 142.5q150 0 268 -72.5t178 -184.5l-243 -173q-27 66 -81 103t-122 37q-89 0 -146.5 -60t-57.5 -150q0 -92 57.5 -152.5t146.5 -60.5q132 0 210 137l238 -174q-158 -250 -458 -250q-221 0 -363.5 142t-142.5 358zM484 1096l-287 370h264
l121 -169l121 169h264l-287 -370h-196z" />
    <glyph glyph-name="Dcaron" unicode="&#x10e;" horiz-adv-x="1523" 
d="M163 0v1358h594q141 0 269.5 -53.5t221 -144t147 -216t54.5 -264.5q0 -138 -54.5 -264t-147 -217t-221 -145t-269.5 -54h-594zM492 276h233q168 0 276 117.5t108 286.5t-108 285t-276 116h-233v-805zM594 1481l-287 370h264l121 -169l121 169h264l-287 -370h-196z" />
    <glyph glyph-name="dcaron" unicode="&#x10f;" horiz-adv-x="1379" 
d="M518 -20q-201 0 -324.5 140.5t-123.5 357.5q0 219 123.5 360.5t324.5 141.5q194 0 291 -121v549h306v-1408h-305l-10 74q-43 -44 -118 -69t-164 -25zM387 480q0 -95 60.5 -156.5t151.5 -61.5q89 0 147 61t58 157t-58 157t-147 61q-92 0 -152 -60t-60 -158zM1476 966h-226
v442h297z" />
    <glyph glyph-name="Dcroat" unicode="&#x110;" horiz-adv-x="1596" 
d="M103 789h133v569h594q141 0 269.5 -53.5t221 -144t147 -216t54.5 -264.5q0 -138 -54.5 -264t-147 -217t-221 -145t-269.5 -54h-594v604h-133v185zM565 789h345v-185h-345v-328h233q168 0 276 117.5t108 286.5t-108 285t-276 116h-233v-292z" />
    <glyph glyph-name="dcroat" unicode="&#x111;" horiz-adv-x="1207" 
d="M518 -20q-201 0 -324.5 140.5t-123.5 357.5q0 219 123.5 360.5t324.5 141.5q194 0 291 -121v233h-287v184h287v132h306v-132h111v-184h-111v-1092h-305l-10 74q-43 -44 -118 -69t-164 -25zM599 698q-92 0 -152 -60t-60 -158q0 -95 60.5 -156.5t151.5 -61.5q89 0 147 61
t58 157t-58 157t-147 61z" />
    <glyph glyph-name="Emacron" unicode="&#x112;" horiz-adv-x="1209" 
d="M1136 0h-973v1358h963v-277h-634v-252h555v-276h-555v-277h644v-276zM931 1501h-591v204h591v-204z" />
    <glyph glyph-name="emacron" unicode="&#x113;" horiz-adv-x="1103" 
d="M69 480q0 220 134.5 360t350.5 140q91 0 175 -29t153 -84.5t110.5 -147.5t41.5 -208q0 -53 -9 -112h-648q9 -74 70.5 -113.5t141.5 -39.5q61 0 117 33t98 86l200 -176q-58 -92 -168.5 -150.5t-250.5 -58.5q-228 0 -372 140t-144 360zM848 1165h-591v204h591v-204z
M563 732q-79 0 -128 -42.5t-58 -105.5h366q-2 58 -54 103t-126 45z" />
    <glyph glyph-name="Ebreve" unicode="&#x114;" horiz-adv-x="1209" 
d="M1136 0h-973v1358h963v-277h-634v-252h555v-276h-555v-277h644v-276zM331 1793h210q2 -57 33.5 -92.5t80.5 -35.5q51 0 81.5 35t32.5 93h210q-7 -148 -95.5 -236.5t-228.5 -88.5q-139 0 -228 89t-96 236z" />
    <glyph glyph-name="ebreve" unicode="&#x115;" horiz-adv-x="1103" 
d="M585 -20q-228 0 -372 140t-144 360t134.5 360t350.5 140q91 0 175 -29t153 -84.5t110.5 -147.5t41.5 -208q0 -53 -9 -112h-648q9 -74 70.5 -113.5t141.5 -39.5q61 0 117 33t98 86l200 -176q-58 -92 -168.5 -150.5t-250.5 -58.5zM248 1436h210q2 -57 33.5 -92.5
t80.5 -35.5q51 0 81.5 35t32.5 93h210q-7 -148 -95.5 -236.5t-228.5 -88.5q-139 0 -228 89t-96 236zM377 584h366q-2 58 -54 103t-126 45q-79 0 -128 -42.5t-58 -105.5z" />
    <glyph glyph-name="Edotaccent" unicode="&#x116;" horiz-adv-x="1209" 
d="M163 1358h963v-277h-634v-252h555v-276h-555v-277h644v-276h-973v1358zM664 1467q-76 0 -124 48t-48 124q0 77 48 125t124 48q77 0 125.5 -48t48.5 -125q0 -76 -48.5 -124t-125.5 -48z" />
    <glyph glyph-name="edotaccent" unicode="&#x117;" horiz-adv-x="1103" 
d="M69 480q0 220 134.5 360t350.5 140q91 0 175 -29t153 -84.5t110.5 -147.5t41.5 -208q0 -53 -9 -112h-648q9 -74 70.5 -113.5t141.5 -39.5q61 0 117 33t98 86l200 -176q-58 -92 -168.5 -150.5t-250.5 -58.5q-228 0 -372 140t-144 360zM571 1133q-76 0 -124 48t-48 124
q0 77 48 125t124 48q77 0 125.5 -48t48.5 -125q0 -76 -48.5 -124t-125.5 -48zM563 732q-79 0 -128 -42.5t-58 -105.5h366q-2 58 -54 103t-126 45z" />
    <glyph glyph-name="Eogonek" unicode="&#x118;" horiz-adv-x="1209" 
d="M163 0v1358h963v-277h-634v-252h555v-276h-555v-277h644v-276q-196 -113 -196 -194q0 -35 25 -56t68 -21q57 0 109 27l64 -176q-88 -57 -220 -57q-120 0 -190 58t-70 153q0 151 191 266h-754z" />
    <glyph glyph-name="eogonek" unicode="&#x119;" horiz-adv-x="1103" 
d="M493 -13q-192 28 -308 163t-116 330q0 220 134.5 360t350.5 140q91 0 175 -29t153 -84.5t110.5 -147.5t41.5 -208q0 -53 -9 -112h-648q9 -74 70.5 -113.5t141.5 -39.5q61 0 117 33t98 86l200 -176q-42 -66 -113 -116.5t-161 -74.5q-193 -112 -193 -192q0 -35 25 -56
t68 -21q57 0 109 27l64 -176q-88 -57 -220 -57q-120 0 -190 58t-70 153q0 143 170 253zM377 584h366q-2 58 -54 103t-126 45q-79 0 -128 -42.5t-58 -105.5z" />
    <glyph glyph-name="Ecaron" unicode="&#x11a;" horiz-adv-x="1209" 
d="M163 1358h963v-277h-634v-252h555v-276h-555v-277h644v-276h-973v1358zM567 1481l-287 370h264l121 -169l121 169h264l-287 -370h-196z" />
    <glyph glyph-name="ecaron" unicode="&#x11b;" horiz-adv-x="1103" 
d="M585 -20q-228 0 -372 140t-144 360t134.5 360t350.5 140q91 0 175 -29t153 -84.5t110.5 -147.5t41.5 -208q0 -53 -9 -112h-648q9 -74 70.5 -113.5t141.5 -39.5q61 0 117 33t98 86l200 -176q-58 -92 -168.5 -150.5t-250.5 -58.5zM187 1466h264l121 -169l121 169h264
l-287 -370h-196zM377 584h366q-2 58 -54 103t-126 45q-79 0 -128 -42.5t-58 -105.5z" />
    <glyph glyph-name="Gcircumflex" unicode="&#x11c;" horiz-adv-x="1534" 
d="M74 680q0 147 55.5 277t151 222t228 145.5t281.5 53.5q180 0 336.5 -85.5t246.5 -219.5l-253 -187q-127 184 -330 184q-169 0 -274 -109.5t-105 -280.5t105 -281.5t274 -110.5q119 0 207 49.5t119 142.5h-358v276h707q6 -59 6 -142q0 -180 -90.5 -326t-246 -227
t-344.5 -81q-199 0 -363 91.5t-258.5 252t-94.5 356.5zM380 1471l287 370h196l287 -370h-264l-121 169l-121 -169h-264z" />
    <glyph glyph-name="gcircumflex" unicode="&#x11d;" horiz-adv-x="1253" 
d="M74 -212l187 187q68 -65 137.5 -95t157.5 -30q43 0 84.5 11t79 33.5t61 62t23.5 90.5v54q-98 -121 -283 -121q-192 0 -318 142t-126 357q0 216 126 358.5t318 142.5q184 0 283 -121l10 101h305v-926q0 -92 -32.5 -168.5t-87 -128.5t-127 -88t-151.5 -52.5t-161 -16.5
q-153 0 -278 55t-208 153zM389 479q0 -98 58 -159.5t149 -61.5t149 61.5t58 159.5q0 97 -57.5 158.5t-149.5 62.5q-91 0 -149 -61.5t-58 -159.5zM243 1084l287 370h196l287 -370h-264l-121 169l-121 -169h-264z" />
    <glyph glyph-name="Gbreve" unicode="&#x11e;" horiz-adv-x="1534" 
d="M74 680q0 147 55.5 277t151 222t228 145.5t281.5 53.5q180 0 336.5 -85.5t246.5 -219.5l-253 -187q-127 184 -330 184q-169 0 -274 -109.5t-105 -280.5t105 -281.5t274 -110.5q119 0 207 49.5t119 142.5h-358v276h707q6 -59 6 -142q0 -180 -90.5 -326t-246 -227
t-344.5 -81q-199 0 -363 91.5t-258.5 252t-94.5 356.5zM764 1468q-139 0 -228 89t-96 236h210q2 -57 33.5 -92.5t80.5 -35.5q51 0 81.5 35t32.5 93h210q-7 -148 -95.5 -236.5t-228.5 -88.5z" />
    <glyph glyph-name="gbreve" unicode="&#x11f;" horiz-adv-x="1253" 
d="M560 -420q-153 0 -278 55t-208 153l187 187q68 -65 137.5 -95t157.5 -30q43 0 84.5 11t79 33.5t61 62t23.5 90.5v54q-98 -121 -283 -121q-192 0 -318 142t-126 357q0 216 126 358.5t318 142.5q184 0 283 -121l10 101h305v-926q0 -92 -32.5 -168.5t-87 -128.5t-127 -88
t-151.5 -52.5t-161 -16.5zM596 700q-91 0 -149 -61.5t-58 -159.5t58 -159.5t149 -61.5t149 61.5t58 159.5q0 97 -57.5 158.5t-149.5 62.5zM615 1111q-139 0 -228 89t-96 236h210q2 -57 33.5 -92.5t80.5 -35.5q51 0 81.5 35t32.5 93h210q-7 -148 -95.5 -236.5t-228.5 -88.5z
" />
    <glyph glyph-name="Gdotaccent" unicode="&#x120;" horiz-adv-x="1534" 
d="M790 -20q-199 0 -363 91.5t-258.5 252t-94.5 356.5q0 147 55.5 277t151 222t228 145.5t281.5 53.5q180 0 336.5 -85.5t246.5 -219.5l-253 -187q-127 184 -330 184q-169 0 -274 -109.5t-105 -280.5t105 -281.5t274 -110.5q119 0 207 49.5t119 142.5h-358v276h707
q6 -59 6 -142q0 -180 -90.5 -326t-246 -227t-344.5 -81zM599 1639q0 77 48 125t124 48q77 0 125.5 -48t48.5 -125q0 -76 -48.5 -124t-125.5 -48q-76 0 -124 48t-48 124z" />
    <glyph glyph-name="gdotaccent" unicode="&#x121;" horiz-adv-x="1253" 
d="M560 -420q-153 0 -278 55t-208 153l187 187q68 -65 137.5 -95t157.5 -30q43 0 84.5 11t79 33.5t61 62t23.5 90.5v54q-98 -121 -283 -121q-192 0 -318 142t-126 357q0 216 126 358.5t318 142.5q184 0 283 -121l10 101h305v-926q0 -92 -32.5 -168.5t-87 -128.5t-127 -88
t-151.5 -52.5t-161 -16.5zM596 700q-91 0 -149 -61.5t-58 -159.5t58 -159.5t149 -61.5t149 61.5t58 159.5q0 97 -57.5 158.5t-149.5 62.5zM411 1305q0 77 48 125t124 48q77 0 125.5 -48t48.5 -125q0 -76 -48.5 -124t-125.5 -48q-76 0 -124 48t-48 124z" />
    <glyph glyph-name="uni0122" unicode="&#x122;" horiz-adv-x="1534" 
d="M790 -20q-199 0 -363 91.5t-258.5 252t-94.5 356.5q0 147 55.5 277t151 222t228 145.5t281.5 53.5q180 0 336.5 -85.5t246.5 -219.5l-253 -187q-127 184 -330 184q-169 0 -274 -109.5t-105 -280.5t105 -281.5t274 -110.5q119 0 207 49.5t119 142.5h-358v276h707
q6 -59 6 -142q0 -180 -90.5 -326t-246 -227t-344.5 -81zM631 -538v442h297l-71 -442h-226z" />
    <glyph glyph-name="uni0123" unicode="&#x123;" horiz-adv-x="1253" 
d="M74 -212l187 187q68 -65 137.5 -95t157.5 -30q43 0 84.5 11t79 33.5t61 62t23.5 90.5v54q-98 -121 -283 -121q-192 0 -318 142t-126 357q0 216 126 358.5t318 142.5q184 0 283 -121l10 101h305v-926q0 -92 -32.5 -168.5t-87 -128.5t-127 -88t-151.5 -52.5t-161 -16.5
q-153 0 -278 55t-208 153zM389 479q0 -98 58 -159.5t149 -61.5t149 61.5t58 159.5q0 97 -57.5 158.5t-149.5 62.5q-91 0 -149 -61.5t-58 -159.5zM409 1113l71 442h226v-442h-297z" />
    <glyph glyph-name="Hcircumflex" unicode="&#x124;" horiz-adv-x="1571" 
d="M163 0v1358h329v-527h588v527h329v-1358h-329v555h-588v-555h-329zM401 1471l287 370h196l287 -370h-264l-121 169l-121 -169h-264z" />
    <glyph glyph-name="hcircumflex" unicode="&#x125;" horiz-adv-x="1216" 
d="M139 0v1408h315v-531q97 103 282 103q69 0 132 -24t113 -68t80 -112.5t30 -151.5v-624h-315v534q0 75 -49 116.5t-112 41.5q-65 0 -112.5 -41.5t-47.5 -116.5v-534h-316zM-97 1489l287 370h196l287 -370h-264l-121 169l-121 -169h-264z" />
    <glyph glyph-name="Hbar" unicode="&#x126;" horiz-adv-x="1563" 
d="M1405 1188h130v-184h-130v-1004h-329v555h-588v-555h-329v1004h-130v184h130v170h329v-170h588v170h329v-170zM1076 1004h-588v-173h588v173z" />
    <glyph glyph-name="hbar" unicode="&#x127;" horiz-adv-x="1238" 
d="M28 1092v184h111v132h315v-132h298v-184h-298v-215q97 103 282 103q69 0 132 -24t113 -68t80 -112.5t30 -151.5v-624h-315v534q0 75 -49 116.5t-112 41.5q-65 0 -112.5 -41.5t-47.5 -116.5v-534h-316v1092h-111z" />
    <glyph glyph-name="Itilde" unicode="&#x128;" horiz-adv-x="654" 
d="M163 1358h329v-1358h-329v1358zM69 1493l-115 104q110 207 258 207q43 0 138 -48t122 -48q57 0 113 86l115 -104q-110 -207 -259 -207q-48 0 -134 48t-126 48q-49 0 -112 -86z" />
    <glyph glyph-name="itilde" unicode="&#x129;" horiz-adv-x="592" 
d="M139 960h315v-960h-315v960zM38 1133l-115 104q110 207 258 207q43 0 138 -48t122 -48q57 0 113 86l115 -104q-110 -207 -259 -207q-48 0 -134 48t-126 48q-49 0 -112 -86z" />
    <glyph glyph-name="Imacron" unicode="&#x12a;" horiz-adv-x="654" 
d="M492 1358v-1358h-329v1358h329zM623 1705v-204h-591v204h591z" />
    <glyph glyph-name="imacron" unicode="&#x12b;" horiz-adv-x="592" 
d="M454 960v-960h-315v960h315zM592 1369v-204h-591v204h591z" />
    <glyph glyph-name="Ibreve" unicode="&#x12c;" horiz-adv-x="654" 
d="M492 0h-329v1358h329v-1358zM3 1793h210q2 -57 33.5 -92.5t80.5 -35.5q51 0 81.5 35t32.5 93h210q-7 -148 -95.5 -236.5t-228.5 -88.5q-139 0 -228 89t-96 236z" />
    <glyph glyph-name="ibreve" unicode="&#x12d;" horiz-adv-x="592" 
d="M454 0h-315v960h315v-960zM-28 1436h210q2 -57 33.5 -92.5t80.5 -35.5q51 0 81.5 35t32.5 93h210q-7 -148 -95.5 -236.5t-228.5 -88.5q-139 0 -228 89t-96 236z" />
    <glyph glyph-name="Iogonek" unicode="&#x12e;" horiz-adv-x="654" 
d="M31 -266q0 151 191 266h-59v1358h329v-1358h-51q-196 -113 -196 -194q0 -35 25 -56t68 -21q57 0 109 27l64 -176q-88 -57 -220 -57q-120 0 -190 58t-70 153z" />
    <glyph glyph-name="iogonek" unicode="&#x12f;" horiz-adv-x="592" 
d="M-5 -266q0 151 191 266h-47v960h315v-960h-49q-196 -113 -196 -194q0 -35 25 -56t68 -21q57 0 109 27l64 -176q-88 -57 -220 -57q-120 0 -190 58t-70 153zM295 1133q-76 0 -124 48t-48 124q0 77 48 125t124 48q77 0 125.5 -48t48.5 -125q0 -76 -48.5 -124t-125.5 -48z
" />
    <glyph glyph-name="Idotaccent" unicode="&#x130;" horiz-adv-x="654" 
d="M163 1358h329v-1358h-329v1358zM155 1639q0 77 48 125t124 48q77 0 125.5 -48t48.5 -125q0 -76 -48.5 -124t-125.5 -48q-76 0 -124 48t-48 124z" />
    <glyph glyph-name="dotlessi" unicode="&#x131;" horiz-adv-x="592" 
d="M454 960v-960h-315v960h315z" />
    <glyph glyph-name="IJ" unicode="&#x132;" horiz-adv-x="1697" 
d="M568 225l218 211q108 -158 246 -158q86 0 136.5 55.5t50.5 158.5v866h329v-892q0 -221 -141 -353.5t-382 -132.5q-152 0 -271 67.5t-186 177.5zM163 1358h329v-1358h-329v1358z" />
    <glyph glyph-name="ij" unicode="&#x133;" horiz-adv-x="1093" 
d="M368 -377l26 248q73 -21 119 -21q127 0 127 139v971h315v-994q0 -95 -31 -170.5t-84 -121.5t-119 -70t-139 -24q-139 0 -214 43zM454 0h-315v960h315v-960zM796 1133q-76 0 -124 48t-48 124q0 77 48 125t124 48q77 0 125.5 -48t48.5 -125q0 -76 -48.5 -124t-125.5 -48z
M296 1133q-76 0 -124 48t-48 124q0 77 48 125t124 48q77 0 125.5 -48t48.5 -125q0 -76 -48.5 -124t-125.5 -48z" />
    <glyph glyph-name="Jcircumflex" unicode="&#x134;" horiz-adv-x="1122" 
d="M-7 225l218 211q108 -158 246 -158q86 0 136.5 55.5t50.5 158.5v866h329v-892q0 -221 -141 -353.5t-382 -132.5q-152 0 -271 67.5t-186 177.5zM419 1471l287 370h196l287 -370h-264l-121 169l-121 -169h-264z" />
    <glyph glyph-name="jcircumflex" unicode="&#x135;" horiz-adv-x="578" 
d="M-147 -377l26 248q73 -21 119 -21q127 0 127 139v971h315v-994q0 -95 -31 -170.5t-84 -121.5t-119 -70t-139 -24q-139 0 -214 43zM-96 1084l287 370h196l287 -370h-264l-121 169l-121 -169h-264z" />
    <glyph glyph-name="uni0136" unicode="&#x136;" horiz-adv-x="1442" 
d="M492 0h-329v1358h329v-572l529 572h415l-529 -564l552 -794h-400l-393 585l-174 -179v-406zM821 -538h-226v442h297z" />
    <glyph glyph-name="uni0137" unicode="&#x137;" horiz-adv-x="1174" 
d="M139 0v1408h315v-751l301 303h411l-415 -406l431 -554h-384l-257 359l-87 -86v-273h-315zM673 -538h-226v442h297z" />
    <glyph glyph-name="kgreenlandic" unicode="&#x138;" horiz-adv-x="1174" 
d="M139 0v960h315v-303l301 303h411l-415 -406l431 -554h-384l-257 359l-87 -86v-273h-315z" />
    <glyph glyph-name="Lacute" unicode="&#x139;" horiz-adv-x="1200" 
d="M1181 276v-276h-1018v1358h329v-1082h689zM717 1807l-263 -334h-261l162 334h362z" />
    <glyph glyph-name="lacute" unicode="&#x13a;" horiz-adv-x="592" 
d="M454 1408v-1408h-315v1408h315zM689 1826l-263 -334h-261l162 334h362z" />
    <glyph glyph-name="uni013B" unicode="&#x13b;" horiz-adv-x="1200" 
d="M1181 276v-276h-1018v1358h329v-1082h689zM536 -538v442h297l-71 -442h-226z" />
    <glyph glyph-name="uni013C" unicode="&#x13c;" horiz-adv-x="592" 
d="M454 1408v-1408h-315v1408h315zM145 -538v442h297l-71 -442h-226z" />
    <glyph glyph-name="Lcaron" unicode="&#x13d;" horiz-adv-x="1200" 
d="M163 0v1358h329v-1082h689v-276h-1018zM970 916h-226v442h297z" />
    <glyph glyph-name="lcaron" unicode="&#x13e;" horiz-adv-x="670" 
d="M139 0v1408h315v-1408h-315zM795 966h-226v442h297z" />
    <glyph glyph-name="Ldot" unicode="&#x13f;" horiz-adv-x="1203" 
d="M1181 0h-1018v1358h329v-1082h689v-276zM711 698q0 77 48 125t124 48q77 0 125.5 -48t48.5 -125q0 -76 -48.5 -124t-125.5 -48q-76 0 -124 48t-48 124z" />
    <glyph glyph-name="ldot" unicode="&#x140;" horiz-adv-x="803" 
d="M139 1408h315v-1408h-315v1408zM687 507q-76 0 -124 48t-48 124q0 77 48 125t124 48q77 0 125.5 -48t48.5 -125q0 -76 -48.5 -124t-125.5 -48z" />
    <glyph glyph-name="Lslash" unicode="&#x141;" horiz-adv-x="1286" 
d="M578 880l297 18v-184l-297 -18v-420h689v-276h-1018v677l-210 -13v184l210 13v497h329v-478z" />
    <glyph glyph-name="lslash" unicode="&#x142;" horiz-adv-x="729" 
d="M523 737l159 63v-184l-159 -59v-557h-315v440l-160 -60v170l160 63v795h315v-671z" />
    <glyph glyph-name="Nacute" unicode="&#x143;" horiz-adv-x="1618" 
d="M163 1358h280l684 -828v828h329v-1358h-285l-679 820v-820h-329v1358zM952 1473h-261l162 334h362z" />
    <glyph glyph-name="nacute" unicode="&#x144;" horiz-adv-x="1215" 
d="M423 0h-315v960h289l10 -101q49 61 127.5 91t169.5 30q69 0 132 -24t113 -68t80 -112.5t30 -151.5v-624h-315v534q0 75 -49 116.5t-112 41.5q-65 0 -112.5 -41.5t-47.5 -116.5v-534zM538 1113l162 334h362l-263 -334h-261z" />
    <glyph glyph-name="uni0145" unicode="&#x145;" horiz-adv-x="1618" 
d="M163 1358h280l684 -828v828h329v-1358h-285l-679 820v-820h-329v1358zM700 -538v442h297l-71 -442h-226z" />
    <glyph glyph-name="uni0146" unicode="&#x146;" horiz-adv-x="1215" 
d="M108 960h289l10 -101q49 61 127.5 91t169.5 30q69 0 132 -24t113 -68t80 -112.5t30 -151.5v-624h-315v534q0 75 -49 116.5t-112 41.5q-65 0 -112.5 -41.5t-47.5 -116.5v-534h-315v960zM473 -96h297l-71 -442h-226v442z" />
    <glyph glyph-name="Ncaron" unicode="&#x147;" horiz-adv-x="1618" 
d="M163 0v1358h280l684 -828v828h329v-1358h-285l-679 820v-820h-329zM435 1851h264l121 -169l121 169h264l-287 -370h-196z" />
    <glyph glyph-name="ncaron" unicode="&#x148;" horiz-adv-x="1215" 
d="M108 0v960h289l10 -101q49 61 127.5 91t169.5 30q69 0 132 -24t113 -68t80 -112.5t30 -151.5v-624h-315v534q0 75 -49 116.5t-112 41.5q-65 0 -112.5 -41.5t-47.5 -116.5v-534h-315zM544 1096l-287 370h264l121 -169l121 169h264l-287 -370h-196z" />
    <glyph glyph-name="napostrophe" unicode="&#x149;" horiz-adv-x="1465" 
d="M358 0v960h289l10 -101q49 61 127.5 91t169.5 30q69 0 132 -24t113 -68t80 -112.5t30 -151.5v-624h-315v534q0 75 -49 116.5t-112 41.5q-65 0 -112.5 -41.5t-47.5 -116.5v-534h-315zM11 912l137 516h312l-223 -516h-226z" />
    <glyph glyph-name="Eng" unicode="&#x14a;" horiz-adv-x="1618" 
d="M163 0v1358h280l684 -828v828h329v-1392q0 -95 -31 -170.5t-83.5 -121.5t-118 -70t-138.5 -24q-128 0 -194 43l26 248q67 -21 109 -21q101 0 101 139v64l-635 767v-820h-329z" />
    <glyph glyph-name="eng" unicode="&#x14b;" horiz-adv-x="1215" 
d="M108 960h289l10 -101q49 61 127.5 91t169.5 30q69 0 132 -24t113 -68t80 -112.5t30 -151.5v-624h31v-34q0 -95 -29.5 -170.5t-79.5 -121.5t-112 -70t-132 -24q-122 0 -186 41l26 248q40 -17 84 -17q114 0 114 137v11h-31v534q0 75 -49 116.5t-112 41.5
q-65 0 -112.5 -41.5t-47.5 -116.5v-534h-315v960z" />
    <glyph glyph-name="Omacron" unicode="&#x14c;" horiz-adv-x="1568" 
d="M784 -20q-191 0 -353 90t-259 251.5t-97 358.5q0 144 56 274t151 222.5t226 147t276 54.5t276.5 -54.5t226.5 -147.5t151 -222.5t56 -273.5q0 -141 -55 -270t-148.5 -223.5t-226 -150.5t-280.5 -56zM413 680q0 -164 104 -273t267 -109q159 0 266 106.5t107 275.5
q0 164 -106.5 271.5t-266.5 107.5t-265.5 -107.5t-105.5 -271.5zM489 1705h591v-204h-591v204z" />
    <glyph glyph-name="omacron" unicode="&#x14d;" horiz-adv-x="1167" 
d="M68 480q0 215 147 357.5t369 142.5t369 -142.5t147 -357.5t-147 -357.5t-369 -142.5t-369 142.5t-147 357.5zM584 690q-89 0 -146.5 -60t-57.5 -150q0 -92 57.5 -152.5t146.5 -60.5t146.5 60.5t57.5 152.5q0 90 -57.5 150t-146.5 60zM289 1369h591v-204h-591v204z" />
    <glyph glyph-name="Obreve" unicode="&#x14e;" horiz-adv-x="1568" 
d="M784 -20q-191 0 -353 90t-259 251.5t-97 358.5q0 144 56 274t151 222.5t226 147t276 54.5t276.5 -54.5t226.5 -147.5t151 -222.5t56 -273.5q0 -141 -55 -270t-148.5 -223.5t-226 -150.5t-280.5 -56zM413 680q0 -164 104 -273t267 -109q159 0 266 106.5t107 275.5
q0 164 -106.5 271.5t-266.5 107.5t-265.5 -107.5t-105.5 -271.5zM785 1468q-139 0 -228 89t-96 236h210q2 -57 33.5 -92.5t80.5 -35.5q51 0 81.5 35t32.5 93h210q-7 -148 -95.5 -236.5t-228.5 -88.5z" />
    <glyph glyph-name="obreve" unicode="&#x14f;" horiz-adv-x="1167" 
d="M68 480q0 215 147 357.5t369 142.5t369 -142.5t147 -357.5t-147 -357.5t-369 -142.5t-369 142.5t-147 357.5zM584 1111q-139 0 -228 89t-96 236h210q2 -57 33.5 -92.5t80.5 -35.5q51 0 81.5 35t32.5 93h210q-7 -148 -95.5 -236.5t-228.5 -88.5zM380 480
q0 -92 57.5 -152.5t146.5 -60.5t146.5 60.5t57.5 152.5q0 90 -57.5 150t-146.5 60t-146.5 -60t-57.5 -150z" />
    <glyph glyph-name="Ohungarumlaut" unicode="&#x150;" horiz-adv-x="1568" 
d="M784 -20q-191 0 -353 90t-259 251.5t-97 358.5q0 144 56 274t151 222.5t226 147t276 54.5t276.5 -54.5t226.5 -147.5t151 -222.5t56 -273.5q0 -141 -55 -270t-148.5 -223.5t-226 -150.5t-280.5 -56zM784 1059q-160 0 -265.5 -107.5t-105.5 -271.5t104 -273t267 -109
q159 0 266 106.5t107 275.5q0 164 -106.5 271.5t-266.5 107.5zM858 1473l182 334h342l-273 -334h-251zM488 1473l162 334h322l-233 -334h-251z" />
    <glyph glyph-name="ohungarumlaut" unicode="&#x151;" horiz-adv-x="1167" 
d="M68 480q0 215 147 357.5t369 142.5t369 -142.5t147 -357.5t-147 -357.5t-369 -142.5t-369 142.5t-147 357.5zM380 480q0 -92 57.5 -152.5t146.5 -60.5t146.5 60.5t57.5 152.5q0 90 -57.5 150t-146.5 60t-146.5 -60t-57.5 -150zM668 1113l182 334h342l-273 -334h-251z
M549 1113h-251l162 334h322z" />
    <glyph glyph-name="OE" unicode="&#x152;" horiz-adv-x="2194" 
d="M774 -20q-188 0 -348 90t-255.5 251.5t-95.5 358.5q0 144 55 274t149 222.5t223 147t272 54.5q215 0 384 -133v113h953v-277h-634v-252h555v-276h-555v-277h644v-276h-963v113q-170 -133 -384 -133zM413 680q0 -164 104 -273t267 -109q159 0 266 106.5t107 275.5
q0 164 -106.5 271.5t-266.5 107.5t-265.5 -107.5t-105.5 -271.5z" />
    <glyph glyph-name="oe" unicode="&#x153;" horiz-adv-x="1823" 
d="M68 480q0 215 145.5 357.5t365.5 142.5q106 0 196.5 -45.5t152.5 -127.5q60 82 150.5 127.5t201.5 45.5q90 0 172.5 -29t151 -84.5t109 -147.5t40.5 -208q0 -53 -9 -112h-648q9 -74 70.5 -113.5t141.5 -39.5q61 0 117 33t98 86l200 -176q-58 -92 -168.5 -150.5
t-250.5 -58.5q-117 0 -213 46.5t-160 130.5q-62 -84 -153 -130.5t-199 -46.5q-220 0 -365.5 142.5t-145.5 357.5zM584 690q-89 0 -146.5 -60t-57.5 -150q0 -92 57.5 -152.5t146.5 -60.5t146.5 60.5t57.5 152.5q0 90 -57.5 150t-146.5 60zM1096 584h366q-2 58 -54 103
t-126 45q-79 0 -128 -42.5t-58 -105.5z" />
    <glyph glyph-name="Racute" unicode="&#x154;" horiz-adv-x="1373" 
d="M491 0h-328v1358h686q195 0 329.5 -124.5t134.5 -316.5q0 -142 -72.5 -250t-194.5 -160l284 -508h-355l-257 469h-227v-468zM491 748h287q91 0 144.5 47.5t53.5 121.5q0 70 -53.5 115.5t-144.5 45.5h-287v-330zM546 1473l162 334h362l-263 -334h-261z" />
    <glyph glyph-name="racute" unicode="&#x155;" horiz-adv-x="836" 
d="M139 0v960h297l10 -131q34 71 100.5 111t150.5 40q55 0 117 -20l-19 -275q-60 21 -121 21q-98 0 -159 -59t-61 -185v-462h-315zM348 1113l162 334h362l-263 -334h-261z" />
    <glyph glyph-name="uni0156" unicode="&#x156;" horiz-adv-x="1373" 
d="M163 0v1358h686q195 0 329.5 -124.5t134.5 -316.5q0 -142 -72.5 -250t-194.5 -160l284 -508h-355l-257 469h-227v-468h-328zM491 1078v-330h287q91 0 144.5 47.5t53.5 121.5q0 70 -53.5 115.5t-144.5 45.5h-287zM801 -538h-226v442h297z" />
    <glyph glyph-name="uni0157" unicode="&#x157;" horiz-adv-x="836" 
d="M139 0v960h297l10 -131q34 71 100.5 111t150.5 40q55 0 117 -20l-19 -275q-60 21 -121 21q-98 0 -159 -59t-61 -185v-462h-315zM374 -538h-226v442h297z" />
    <glyph glyph-name="Rcaron" unicode="&#x158;" horiz-adv-x="1373" 
d="M163 0v1358h686q195 0 329.5 -124.5t134.5 -316.5q0 -142 -72.5 -250t-194.5 -160l284 -508h-355l-257 469h-227v-468h-328zM583 1481l-287 370h264l121 -169l121 169h264l-287 -370h-196zM778 1078h-287v-330h287q91 0 144.5 47.5t53.5 121.5q0 70 -53.5 115.5
t-144.5 45.5z" />
    <glyph glyph-name="rcaron" unicode="&#x159;" horiz-adv-x="836" 
d="M454 0h-315v960h297l10 -131q34 71 100.5 111t150.5 40q55 0 117 -20l-19 -275q-60 21 -121 21q-98 0 -159 -59t-61 -185v-462zM394 1096l-287 370h264l121 -169l121 169h264l-287 -370h-196z" />
    <glyph glyph-name="Sacute" unicode="&#x15a;" horiz-adv-x="1264" 
d="M79 292l247 180q58 -90 147.5 -142.5t188.5 -52.5q82 0 138.5 29.5t56.5 75.5q0 38 -35 66.5t-73.5 42.5t-129.5 41q-26 8 -40 12q-63 19 -103.5 32.5t-94 35.5t-88 44t-71.5 54.5t-58 69t-35 86t-14 107.5q0 120 72 214.5t183.5 142.5t237.5 48q335 0 534 -290
l-243 -179q-126 180 -291 180q-71 0 -116 -30.5t-45 -79.5q0 -19 5.5 -34t19.5 -27.5t27 -21.5t39.5 -19t45 -16t55 -17.5t59.5 -19.5q87 -29 144 -50.5t119 -51t99 -59.5t69 -70t46 -89.5t14 -110.5q0 -102 -46.5 -183t-124 -130t-171 -74.5t-193.5 -25.5
q-189 0 -344.5 81.5t-230.5 230.5zM764 1473h-261l162 334h362z" />
    <glyph glyph-name="sacute" unicode="&#x15b;" horiz-adv-x="978" 
d="M506 -20q-295 0 -441 202l192 173q109 -130 251 -130q104 0 104 59q0 7 -2 13t-7.5 11t-11.5 8.5t-17 8t-21.5 7.5t-28.5 7.5t-33 8t-40 9.5t-46 11q-70 18 -123 41.5t-97.5 59t-68 86t-23.5 114.5q0 136 109.5 223.5t286.5 87.5q133 0 233.5 -55.5t157.5 -132.5
l-185 -157q-33 41 -87 71t-122 30q-55 0 -84.5 -17t-29.5 -46q0 -26 42 -42.5t146 -41.5q75 -18 133 -41.5t107.5 -59t76 -87.5t26.5 -118q0 -131 -113.5 -217t-283.5 -86zM344 1113l162 334h362l-263 -334h-261z" />
    <glyph glyph-name="Scircumflex" unicode="&#x15c;" horiz-adv-x="1264" 
d="M79 292l247 180q58 -90 147.5 -142.5t188.5 -52.5q82 0 138.5 29.5t56.5 75.5q0 38 -35 66.5t-73.5 42.5t-129.5 41q-26 8 -40 12q-63 19 -103.5 32.5t-94 35.5t-88 44t-71.5 54.5t-58 69t-35 86t-14 107.5q0 120 72 214.5t183.5 142.5t237.5 48q335 0 534 -290
l-243 -179q-126 180 -291 180q-71 0 -116 -30.5t-45 -79.5q0 -19 5.5 -34t19.5 -27.5t27 -21.5t39.5 -19t45 -16t55 -17.5t59.5 -19.5q87 -29 144 -50.5t119 -51t99 -59.5t69 -70t46 -89.5t14 -110.5q0 -102 -46.5 -183t-124 -130t-171 -74.5t-193.5 -25.5
q-189 0 -344.5 81.5t-230.5 230.5zM510 1471h-264l287 370h196l287 -370h-264l-121 169z" />
    <glyph glyph-name="scircumflex" unicode="&#x15d;" horiz-adv-x="978" 
d="M506 -20q-295 0 -441 202l192 173q109 -130 251 -130q104 0 104 59q0 7 -2 13t-7.5 11t-11.5 8.5t-17 8t-21.5 7.5t-28.5 7.5t-33 8t-40 9.5t-46 11q-70 18 -123 41.5t-97.5 59t-68 86t-23.5 114.5q0 136 109.5 223.5t286.5 87.5q133 0 233.5 -55.5t157.5 -132.5
l-185 -157q-33 41 -87 71t-122 30q-55 0 -84.5 -17t-29.5 -46q0 -26 42 -42.5t146 -41.5q75 -18 133 -41.5t107.5 -59t76 -87.5t26.5 -118q0 -131 -113.5 -217t-283.5 -86zM126 1084l287 370h196l287 -370h-264l-121 169l-121 -169h-264z" />
    <glyph glyph-name="Scedilla" unicode="&#x15e;" horiz-adv-x="1264" 
d="M538 -12q-153 22 -274.5 100.5t-184.5 203.5l247 180q58 -90 147.5 -142.5t188.5 -52.5q82 0 138.5 29.5t56.5 75.5q0 38 -35 66.5t-73.5 42.5t-129.5 41q-26 8 -40 12q-63 19 -103.5 32.5t-94 35.5t-88 44t-71.5 54.5t-58 69t-35 86t-14 107.5q0 120 72 214.5
t183.5 142.5t237.5 48q335 0 534 -290l-243 -179q-126 180 -291 180q-71 0 -116 -30.5t-45 -79.5q0 -19 5.5 -34t19.5 -27.5t27 -21.5t39.5 -19t45 -16t55 -17.5t59.5 -19.5q87 -29 144 -50.5t119 -51t99 -59.5t69 -70t46 -89.5t14 -110.5q0 -77 -27 -142.5t-73.5 -112.5
t-109 -81t-132 -52t-144.5 -23l-19 -63q108 -15 162.5 -67t54.5 -125q0 -91 -89 -147.5t-232 -56.5q-102 0 -164 30v155q62 -19 131 -19q56 0 88 17.5t32 48.5t-32.5 48.5t-89.5 17.5h-74z" />
    <glyph glyph-name="scedilla" unicode="&#x15f;" horiz-adv-x="978" 
d="M394 -12q-212 33 -329 194l192 173q109 -130 251 -130q104 0 104 59q0 7 -2 13t-7.5 11t-11.5 8.5t-17 8t-21.5 7.5t-28.5 7.5t-33 8t-40 9.5t-46 11q-70 18 -123 41.5t-97.5 59t-68 86t-23.5 114.5q0 136 109.5 223.5t286.5 87.5q133 0 233.5 -55.5t157.5 -132.5
l-185 -157q-33 41 -87 71t-122 30q-55 0 -84.5 -17t-29.5 -46q0 -26 42 -42.5t146 -41.5q75 -18 133 -41.5t107.5 -59t76 -87.5t26.5 -118q0 -120 -96.5 -203t-246.5 -97l-19 -64q108 -15 162.5 -67t54.5 -125q0 -91 -89 -147.5t-232 -56.5q-102 0 -164 30v155
q62 -19 131 -19q56 0 88 17.5t32 48.5t-32.5 48.5t-89.5 17.5h-74z" />
    <glyph glyph-name="Scaron" unicode="&#x160;" horiz-adv-x="1264" 
d="M79 292l247 180q58 -90 147.5 -142.5t188.5 -52.5q82 0 138.5 29.5t56.5 75.5q0 38 -35 66.5t-73.5 42.5t-129.5 41q-26 8 -40 12q-63 19 -103.5 32.5t-94 35.5t-88 44t-71.5 54.5t-58 69t-35 86t-14 107.5q0 120 72 214.5t183.5 142.5t237.5 48q335 0 534 -290
l-243 -179q-126 180 -291 180q-71 0 -116 -30.5t-45 -79.5q0 -19 5.5 -34t19.5 -27.5t27 -21.5t39.5 -19t45 -16t55 -17.5t59.5 -19.5q87 -29 144 -50.5t119 -51t99 -59.5t69 -70t46 -89.5t14 -110.5q0 -102 -46.5 -183t-124 -130t-171 -74.5t-193.5 -25.5
q-189 0 -344.5 81.5t-230.5 230.5zM249 1851h264l121 -169l121 169h264l-287 -370h-196z" />
    <glyph glyph-name="scaron" unicode="&#x161;" horiz-adv-x="978" 
d="M506 -20q-295 0 -441 202l192 173q109 -130 251 -130q104 0 104 59q0 7 -2 13t-7.5 11t-11.5 8.5t-17 8t-21.5 7.5t-28.5 7.5t-33 8t-40 9.5t-46 11q-70 18 -123 41.5t-97.5 59t-68 86t-23.5 114.5q0 136 109.5 223.5t286.5 87.5q133 0 233.5 -55.5t157.5 -132.5
l-185 -157q-33 41 -87 71t-122 30q-55 0 -84.5 -17t-29.5 -46q0 -26 42 -42.5t146 -41.5q75 -18 133 -41.5t107.5 -59t76 -87.5t26.5 -118q0 -131 -113.5 -217t-283.5 -86zM410 1096l-287 370h264l121 -169l121 169h264l-287 -370h-196z" />
    <glyph glyph-name="uni0162" unicode="&#x162;" horiz-adv-x="1160" 
d="M417 1075h-402v283h1131v-283h-401v-1075h-106l-25 -81q108 -15 162.5 -67t54.5 -125q0 -91 -89 -147.5t-232 -56.5q-102 0 -164 30v155q62 -19 131 -19q56 0 88 17.5t32 48.5t-32.5 48.5t-89.5 17.5h-74l71 179h-55v1075z" />
    <glyph glyph-name="uni0163" unicode="&#x163;" horiz-adv-x="834" 
d="M179 703h-153v257h153v308h305v-308h291v-257h-281v-310q0 -136 142 -136q72 0 155 33l22 -256q-47 -24 -117.5 -39t-137.5 -15q-16 0 -46 2l-19 -63q108 -15 162.5 -67t54.5 -125q0 -91 -89 -147.5t-232 -56.5q-102 0 -164 30v155q62 -19 131 -19q56 0 88 17.5t32 48.5
t-32.5 48.5t-89.5 17.5h-74l79 197q-180 83 -180 324v361z" />
    <glyph glyph-name="Tcaron" unicode="&#x164;" horiz-adv-x="1160" 
d="M15 1075v283h1131v-283h-401v-1075h-328v1075h-402zM483 1481l-287 370h264l121 -169l121 169h264l-287 -370h-196z" />
    <glyph glyph-name="tcaron" unicode="&#x165;" horiz-adv-x="863" 
d="M179 703h-153v257h153v308h305v-308h291v-257h-281v-310q0 -136 142 -136q72 0 155 33l22 -256q-47 -24 -117.5 -39t-137.5 -15q-174 0 -276.5 89t-102.5 273v361zM545 1508h297l-71 -442h-226v442z" />
    <glyph glyph-name="Tbar" unicode="&#x166;" horiz-adv-x="1226" 
d="M450 1075h-402v283h1131v-283h-401v-285h293v-184h-293v-606h-328v606h-294v184h294v285z" />
    <glyph glyph-name="tbar" unicode="&#x167;" horiz-adv-x="853" 
d="M193 703h-153v257h153v308h305v-308h291v-257h-281v-113h258v-184h-258v-13q0 -136 142 -136q72 0 155 33l22 -256q-47 -24 -117.5 -39t-137.5 -15q-174 0 -276.5 89t-102.5 273v64h-138v184h138v113z" />
    <glyph glyph-name="Utilde" unicode="&#x168;" horiz-adv-x="1446" 
d="M148 489v869h329v-851q0 -111 66.5 -176.5t179.5 -65.5q114 0 180.5 65t66.5 177v851h329v-869q0 -237 -154 -373t-422 -136q-272 0 -423.5 134t-151.5 375zM466 1493l-115 104q110 207 258 207q43 0 138 -48t122 -48q57 0 113 86l115 -104q-110 -207 -259 -207
q-48 0 -134 48t-126 48q-49 0 -112 -86z" />
    <glyph glyph-name="utilde" unicode="&#x169;" horiz-adv-x="1215" 
d="M126 960h315v-544q0 -75 49 -116.5t112 -41.5q65 0 112.5 41.5t47.5 116.5v544h315v-960h-289l-10 91q-49 -61 -127.5 -91t-169.5 -30q-69 0 -132 24t-113 68t-80 112.5t-30 151.5v634zM339 1133l-115 104q110 207 258 207q43 0 138 -48t122 -48q57 0 113 86l115 -104
q-110 -207 -259 -207q-48 0 -134 48t-126 48q-49 0 -112 -86z" />
    <glyph glyph-name="Umacron" unicode="&#x16a;" horiz-adv-x="1446" 
d="M148 1358h329v-851q0 -111 66.5 -176.5t179.5 -65.5q114 0 180.5 65t66.5 177v851h329v-869q0 -237 -154 -373t-422 -136q-272 0 -423.5 134t-151.5 375v869zM428 1705h591v-204h-591v204z" />
    <glyph glyph-name="umacron" unicode="&#x16b;" horiz-adv-x="1215" 
d="M126 326v634h315v-544q0 -75 49 -116.5t112 -41.5q65 0 112.5 41.5t47.5 116.5v544h315v-960h-289l-10 91q-49 -61 -127.5 -91t-169.5 -30q-69 0 -132 24t-113 68t-80 112.5t-30 151.5zM313 1369h591v-204h-591v204z" />
    <glyph glyph-name="Ubreve" unicode="&#x16c;" horiz-adv-x="1446" 
d="M148 489v869h329v-851q0 -111 66.5 -176.5t179.5 -65.5q114 0 180.5 65t66.5 177v851h329v-869q0 -237 -154 -373t-422 -136q-272 0 -423.5 134t-151.5 375zM724 1468q-139 0 -228 89t-96 236h210q2 -57 33.5 -92.5t80.5 -35.5q51 0 81.5 35t32.5 93h210
q-7 -148 -95.5 -236.5t-228.5 -88.5z" />
    <glyph glyph-name="ubreve" unicode="&#x16d;" horiz-adv-x="1215" 
d="M126 960h315v-544q0 -75 49 -116.5t112 -41.5q65 0 112.5 41.5t47.5 116.5v544h315v-960h-289l-10 91q-49 -61 -127.5 -91t-169.5 -30q-69 0 -132 24t-113 68t-80 112.5t-30 151.5v634zM608 1111q-139 0 -228 89t-96 236h210q2 -57 33.5 -92.5t80.5 -35.5q51 0 81.5 35
t32.5 93h210q-7 -148 -95.5 -236.5t-228.5 -88.5z" />
    <glyph glyph-name="Uring" unicode="&#x16e;" horiz-adv-x="1446" 
d="M148 1358h329v-851q0 -111 66.5 -176.5t179.5 -65.5q114 0 180.5 65t66.5 177v851h329v-869q0 -237 -154 -373t-422 -136q-272 0 -423.5 134t-151.5 375v869zM501 1691q0 95 63 157.5t160 62.5t160 -62.5t63 -157.5q0 -94 -63 -155.5t-160 -61.5t-160 61.5t-63 155.5z
M724 1757q-27 0 -44.5 -19t-17.5 -47q0 -26 17.5 -44.5t44.5 -18.5q26 0 43.5 18.5t17.5 44.5q0 28 -17 47t-44 19z" />
    <glyph glyph-name="uring" unicode="&#x16f;" horiz-adv-x="1215" 
d="M126 960h315v-544q0 -75 49 -116.5t112 -41.5q65 0 112.5 41.5t47.5 116.5v544h315v-960h-289l-10 91q-49 -61 -127.5 -91t-169.5 -30q-69 0 -132 24t-113 68t-80 112.5t-30 151.5v634zM379 1289q0 95 63 157.5t160 62.5t160 -62.5t63 -157.5q0 -94 -63 -155.5
t-160 -61.5t-160 61.5t-63 155.5zM602 1355q-27 0 -44.5 -19t-17.5 -47q0 -26 17.5 -44.5t44.5 -18.5q26 0 43.5 18.5t17.5 44.5q0 28 -17 47t-44 19z" />
    <glyph glyph-name="Uhungarumlaut" unicode="&#x170;" horiz-adv-x="1446" 
d="M148 1358h329v-851q0 -111 66.5 -176.5t179.5 -65.5q114 0 180.5 65t66.5 177v851h329v-869q0 -237 -154 -373t-422 -136q-272 0 -423.5 134t-151.5 375v869zM789 1473l182 334h342l-273 -334h-251zM670 1473h-251l162 334h322z" />
    <glyph glyph-name="uhungarumlaut" unicode="&#x171;" horiz-adv-x="1215" 
d="M126 326v634h315v-544q0 -75 49 -116.5t112 -41.5q65 0 112.5 41.5t47.5 116.5v544h315v-960h-289l-10 91q-49 -61 -127.5 -91t-169.5 -30q-69 0 -132 24t-113 68t-80 112.5t-30 151.5zM918 1113h-251l182 334h342zM548 1113h-251l162 334h322z" />
    <glyph glyph-name="Uogonek" unicode="&#x172;" horiz-adv-x="1446" 
d="M148 489v869h329v-851q0 -111 66.5 -176.5t179.5 -65.5q114 0 180.5 65t66.5 177v851h329v-869q0 -193 -103.5 -321t-291.5 -169q-194 -113 -194 -193q0 -35 25 -56t68 -21q57 0 109 27l64 -176q-88 -57 -220 -57q-120 0 -190 58t-70 153q0 141 163 248
q-243 16 -377 148.5t-134 358.5z" />
    <glyph glyph-name="uogonek" unicode="&#x173;" horiz-adv-x="1215" 
d="M126 960h315v-544q0 -75 49 -116.5t112 -41.5q65 0 112.5 41.5t47.5 116.5v544h315v-960h-71q-196 -113 -196 -194q0 -35 25 -56t68 -21q57 0 109 27l64 -176q-88 -57 -220 -57q-120 0 -190 58t-70 153q0 153 192 267l-10 90q-49 -61 -127.5 -91t-169.5 -30
q-69 0 -132 24t-113 68t-80 112.5t-30 151.5v634z" />
    <glyph glyph-name="Wcircumflex" unicode="&#x174;" horiz-adv-x="2049" 
d="M17 1358h332l265 -1009l280 989h262l280 -989l265 1009h332l-366 -1358h-418l-224 744l-224 -744h-418zM904 1471h-264l287 370h196l287 -370h-264l-121 169z" />
    <glyph glyph-name="wcircumflex" unicode="&#x175;" horiz-adv-x="1648" 
d="M26 960h321l167 -632l187 613h247l186 -613l168 632h321l-283 -960h-368l-148 481l-147 -481h-368zM704 1084h-264l287 370h196l287 -370h-264l-121 169z" />
    <glyph glyph-name="Ycircumflex" unicode="&#x176;" horiz-adv-x="1424" 
d="M550 505l-548 853h403l314 -518l319 518h385l-544 -853v-505h-329v505zM328 1471l287 370h196l287 -370h-264l-121 169l-121 -169h-264z" />
    <glyph glyph-name="ycircumflex" unicode="&#x177;" horiz-adv-x="1125" 
d="M397 -1l-386 961h351l203 -642l198 642h352l-445 -1101q-56 -139 -163 -209t-245 -70q-105 0 -207 50l43 248q58 -26 112 -26q66 0 116.5 37.5t70.5 109.5zM180 1084l287 370h196l287 -370h-264l-121 169l-121 -169h-264z" />
    <glyph glyph-name="Ydieresis" unicode="&#x178;" horiz-adv-x="1424" 
d="M550 505l-548 853h403l314 -518l319 518h385l-544 -853v-505h-329v505zM750 1639q0 67 42 109.5t109 42.5q68 0 110.5 -42.5t42.5 -109.5t-42.5 -109t-110.5 -42q-67 0 -109 42t-42 109zM372 1639q0 67 42 109.5t109 42.5q68 0 110.5 -42.5t42.5 -109.5t-42.5 -109
t-110.5 -42q-67 0 -109 42t-42 109z" />
    <glyph glyph-name="Zacute" unicode="&#x179;" horiz-adv-x="1211" 
d="M67 0v220l638 857h-628v281h1061v-222l-636 -856h646v-280h-1081zM991 1807l-263 -334h-261l162 334h362z" />
    <glyph glyph-name="zacute" unicode="&#x17a;" horiz-adv-x="929" 
d="M70 960h774v-207l-412 -493h442v-260h-804v206l414 494h-414v260zM589 1113h-261l162 334h362z" />
    <glyph glyph-name="Zdotaccent" unicode="&#x17b;" horiz-adv-x="1211" 
d="M67 220l638 857h-628v281h1061v-222l-636 -856h646v-280h-1081v220zM605 1467q-76 0 -124 48t-48 124q0 77 48 125t124 48q77 0 125.5 -48t48.5 -125q0 -76 -48.5 -124t-125.5 -48z" />
    <glyph glyph-name="zdotaccent" unicode="&#x17c;" horiz-adv-x="929" 
d="M70 700v260h774v-207l-412 -493h442v-260h-804v206l414 494h-414zM320 1305q0 77 48 125t124 48q77 0 125.5 -48t48.5 -125q0 -76 -48.5 -124t-125.5 -48q-76 0 -124 48t-48 124z" />
    <glyph glyph-name="Zcaron" unicode="&#x17d;" horiz-adv-x="1211" 
d="M67 0v220l638 857h-628v281h1061v-222l-636 -856h646v-280h-1081zM221 1851h264l121 -169l121 169h264l-287 -370h-196z" />
    <glyph glyph-name="zcaron" unicode="&#x17e;" horiz-adv-x="929" 
d="M70 960h774v-207l-412 -493h442v-260h-804v206l414 494h-414v260zM96 1466h264l121 -169l121 169h264l-287 -370h-196z" />
    <glyph glyph-name="uni018F" unicode="&#x18f;" horiz-adv-x="1512" 
d="M69 633q0 75 13 152h1009q-21 122 -122 198.5t-244 76.5q-227 0 -368 -192l-252 187q97 154 266 238.5t360 84.5q159 0 292.5 -54.5t224 -149t141 -223.5t50.5 -275q0 -201 -90.5 -360.5t-250 -248t-359.5 -88.5q-142 0 -265 45.5t-212.5 128.5t-141 206.5t-51.5 273.5z
M1085 545h-682q15 -113 106.5 -187t225.5 -74q138 0 235.5 73.5t114.5 187.5z" />
    <glyph glyph-name="florin" unicode="&#x192;" horiz-adv-x="1267" 
d="M276 -20q-137 0 -243 53l91 235q47 -31 125 -31q71 0 121.5 35t61.5 110l35 258h-158l36 257h158l13 94q11 77 44.5 144.5t89 123t142 87.5t192.5 32q137 0 243 -53l-91 -235q-47 31 -125 31q-72 0 -127.5 -36.5t-65.5 -111.5l-11 -76h266l-36 -257h-255l-38 -276
q-10 -77 -43.5 -144.5t-89.5 -122t-142.5 -86t-192.5 -31.5z" />
    <glyph glyph-name="uni019D" unicode="&#x19d;" horiz-adv-x="1618" 
d="M-73 -377l26 248q67 -21 109 -21q101 0 101 139v1369h280l684 -828v828h329v-1358h-285l-679 820v-854q0 -95 -31 -170.5t-83.5 -121.5t-118 -70t-138.5 -24q-128 0 -194 43z" />
    <glyph glyph-name="Gcaron" unicode="&#x1e6;" horiz-adv-x="1534" 
d="M74 680q0 147 55.5 277t151 222t228 145.5t281.5 53.5q180 0 336.5 -85.5t246.5 -219.5l-253 -187q-127 184 -330 184q-169 0 -274 -109.5t-105 -280.5t105 -281.5t274 -110.5q119 0 207 49.5t119 142.5h-358v276h707q6 -59 6 -142q0 -180 -90.5 -326t-246 -227
t-344.5 -81q-199 0 -363 91.5t-258.5 252t-94.5 356.5zM667 1481l-287 370h264l121 -169l121 169h264l-287 -370h-196z" />
    <glyph glyph-name="gcaron" unicode="&#x1e7;" horiz-adv-x="1253" 
d="M560 -420q-153 0 -278 55t-208 153l187 187q68 -65 137.5 -95t157.5 -30q43 0 84.5 11t79 33.5t61 62t23.5 90.5v54q-98 -121 -283 -121q-192 0 -318 142t-126 357q0 216 126 358.5t318 142.5q184 0 283 -121l10 101h305v-926q0 -92 -32.5 -168.5t-87 -128.5t-127 -88
t-151.5 -52.5t-161 -16.5zM596 700q-91 0 -149 -61.5t-58 -159.5t58 -159.5t149 -61.5t149 61.5t58 159.5q0 97 -57.5 158.5t-149.5 62.5zM232 1466h264l121 -169l121 169h264l-287 -370h-196z" />
    <glyph glyph-name="uni01EA" unicode="&#x1ea;" horiz-adv-x="1568" 
d="M701 -15q-129 15 -243.5 73t-199 148t-134 213.5t-49.5 260.5q0 144 56 274t151 222.5t226 147t276 54.5t276.5 -54.5t226.5 -147.5t151 -222.5t56 -273.5q0 -248 -156 -440t-400 -244q-189 -110 -189 -190q0 -35 25 -56t68 -21q57 0 109 27l64 -176q-88 -57 -220 -57
q-120 0 -190 58t-70 153q0 141 166 251zM784 1059q-160 0 -265.5 -107.5t-105.5 -271.5t104 -273t267 -109q159 0 266 106.5t107 275.5q0 164 -106.5 271.5t-266.5 107.5z" />
    <glyph glyph-name="uni01EB" unicode="&#x1eb;" horiz-adv-x="1167" 
d="M68 480q0 215 147 357.5t369 142.5t369 -142.5t147 -357.5q0 -176 -102.5 -307.5t-268.5 -174.5q-193 -112 -193 -192q0 -35 25 -56t68 -21q57 0 109 27l64 -176q-88 -57 -220 -57q-120 0 -190 58t-70 153q0 143 170 253q-188 29 -306 165.5t-118 327.5zM380 480
q0 -92 57.5 -152.5t146.5 -60.5t146.5 60.5t57.5 152.5q0 90 -57.5 150t-146.5 60t-146.5 -60t-57.5 -150z" />
    <glyph glyph-name="Aringacute" unicode="&#x1fa;" horiz-adv-x="1456" 
d="M-3 0l536 1358h390l537 -1358h-352l-92 249h-575l-92 -249h-352zM729 1474q-97 0 -160 61.5t-63 155.5q0 95 63 157.5t160 62.5t160 -62.5t63 -157.5q0 -94 -63 -155.5t-160 -61.5zM870 1962h-261l162 334h362zM535 505h387l-193 524zM729 1757q-27 0 -44.5 -19
t-17.5 -47q0 -26 17.5 -44.5t44.5 -18.5q26 0 43.5 18.5t17.5 44.5q0 28 -17 47t-44 19z" />
    <glyph glyph-name="aringacute" unicode="&#x1fb;" horiz-adv-x="1113" 
d="M433 -20q-156 0 -257 79t-101 213q0 93 56.5 163.5t148 106.5t201.5 36q101 0 192 -25v19q0 58 -48 94t-132 36q-69 0 -129 -30t-102 -77l-174 187q71 78 181.5 138t250.5 60q219 0 343.5 -109t124.5 -301v-570h-299v98q-39 -52 -106.5 -85t-149.5 -33zM555 1072
q-97 0 -160 61.5t-63 155.5q0 95 63 157.5t160 62.5t160 -62.5t63 -157.5q0 -94 -63 -155.5t-160 -61.5zM695 1567h-261l162 334h362zM377 291q0 -43 35 -69.5t90 -26.5q74 0 122.5 46t48.5 121q-57 25 -136 25q-74 0 -117 -25t-43 -71zM555 1355q-27 0 -44.5 -19t-17.5 -47
q0 -26 17.5 -44.5t44.5 -18.5q26 0 43.5 18.5t17.5 44.5q0 28 -17 47t-44 19z" />
    <glyph glyph-name="AEacute" unicode="&#x1fc;" horiz-adv-x="2059" 
d="M-57 0l822 1358h1148v-277h-634v-252h555v-276h-555v-277h644v-276h-973v249h-479l-143 -249h-385zM1502 1473h-261l162 334h362zM618 505h332v576z" />
    <glyph glyph-name="aeacute" unicode="&#x1fd;" horiz-adv-x="1700" 
d="M76 272q0 93 56.5 163.5t148 106.5t201.5 36q101 0 192 -25v19q0 58 -48 94t-132 36q-68 0 -128.5 -30t-102.5 -77l-174 187q71 78 181.5 138t250.5 60q202 0 307 -125q128 125 322 125q91 0 175 -29t153 -84.5t110.5 -147.5t41.5 -208q0 -53 -9 -112h-648
q9 -74 70.5 -113.5t141.5 -39.5q61 0 117 33t98 86l200 -176q-58 -92 -168.5 -150.5t-250.5 -58.5q-228 0 -368 151q-120 -151 -347 -151q-170 0 -280 79t-110 213zM969 1113h-261l162 334h362zM538 387q-74 0 -117 -25t-43 -71q0 -43 35 -69.5t90 -26.5q74 0 122.5 46
t48.5 121q-57 25 -136 25zM973 584h366q-2 58 -54 103t-126 45q-79 0 -128 -42.5t-58 -105.5z" />
    <glyph glyph-name="Oslashacute" unicode="&#x1fe;" horiz-adv-x="1568" 
d="M322 146q-116 97 -181.5 235t-65.5 299q0 144 56 274t151 222.5t226 147t276 54.5q180 0 338 -83l117 169l128 -88l-117 -167q115 -98 179.5 -235t64.5 -294q0 -141 -55 -270t-148.5 -223.5t-226 -150.5t-280.5 -56q-178 0 -334 81l-122 -175l-125 89zM509 415l427 614
q-73 30 -152 30q-160 0 -265.5 -107.5t-105.5 -271.5q0 -158 96 -265zM1062 939l-427 -613q70 -28 149 -28q159 0 266 106.5t107 275.5q0 154 -95 259zM922 1473h-261l162 334h362z" />
    <glyph glyph-name="oslashacute" unicode="&#x1ff;" horiz-adv-x="1177" 
d="M184 -128l-116 106l135 162q-130 140 -130 340q0 215 147 357.5t369 142.5q143 0 259 -62l141 170l121 -96l-139 -168q134 -140 134 -344q0 -215 -147 -357.5t-369 -142.5q-144 0 -263 64zM465 1113l162 334h362l-263 -334h-261zM770 581l-250 -303q33 -11 69 -11
q89 0 146.5 60.5t57.5 152.5q0 55 -23 101zM405 384l246 297q-29 9 -62 9q-89 0 -146.5 -60t-57.5 -150q0 -53 20 -96z" />
    <glyph glyph-name="uni0218" unicode="&#x218;" horiz-adv-x="1264" 
d="M79 292l247 180q58 -90 147.5 -142.5t188.5 -52.5q82 0 138.5 29.5t56.5 75.5q0 38 -35 66.5t-73.5 42.5t-129.5 41q-26 8 -40 12q-63 19 -103.5 32.5t-94 35.5t-88 44t-71.5 54.5t-58 69t-35 86t-14 107.5q0 120 72 214.5t183.5 142.5t237.5 48q335 0 534 -290
l-243 -179q-126 180 -291 180q-71 0 -116 -30.5t-45 -79.5q0 -19 5.5 -34t19.5 -27.5t27 -21.5t39.5 -19t45 -16t55 -17.5t59.5 -19.5q87 -29 144 -50.5t119 -51t99 -59.5t69 -70t46 -89.5t14 -110.5q0 -102 -46.5 -183t-124 -130t-171 -74.5t-193.5 -25.5
q-189 0 -344.5 81.5t-230.5 230.5zM506 -96h297l-71 -442h-226v442z" />
    <glyph glyph-name="uni0219" unicode="&#x219;" horiz-adv-x="978" 
d="M65 182l192 173q109 -130 251 -130q104 0 104 59q0 7 -2 13t-7.5 11t-11.5 8.5t-17 8t-21.5 7.5t-28.5 7.5t-33 8t-40 9.5t-46 11q-70 18 -123 41.5t-97.5 59t-68 86t-23.5 114.5q0 136 109.5 223.5t286.5 87.5q133 0 233.5 -55.5t157.5 -132.5l-185 -157q-33 41 -87 71
t-122 30q-55 0 -84.5 -17t-29.5 -46q0 -26 42 -42.5t146 -41.5q75 -18 133 -41.5t107.5 -59t76 -87.5t26.5 -118q0 -131 -113.5 -217t-283.5 -86q-295 0 -441 202zM571 -538h-226v442h297z" />
    <glyph glyph-name="uni021A" unicode="&#x21a;" horiz-adv-x="1160" 
d="M15 1358h1131v-283h-401v-1075h-328v1075h-402v283zM440 -538v442h297l-71 -442h-226z" />
    <glyph glyph-name="uni021B" unicode="&#x21b;" horiz-adv-x="834" 
d="M26 703v257h153v308h305v-308h291v-257h-281v-310q0 -136 142 -136q72 0 155 33l22 -256q-47 -24 -117.5 -39t-137.5 -15q-174 0 -276.5 89t-102.5 273v361h-153zM323 -538v442h297l-71 -442h-226z" />
    <glyph glyph-name="uni0232" unicode="&#x232;" horiz-adv-x="1424" 
d="M550 505l-548 853h403l314 -518l319 518h385l-544 -853v-505h-329v505zM1008 1501h-591v204h591v-204z" />
    <glyph glyph-name="uni0233" unicode="&#x233;" horiz-adv-x="1125" 
d="M11 960h351l203 -642l198 642h352l-445 -1101q-56 -139 -163 -209t-245 -70q-105 0 -207 50l43 248q58 -26 112 -26q66 0 116.5 37.5t70.5 109.5zM268 1165v204h591v-204h-591z" />
    <glyph glyph-name="uni0237" unicode="&#x237;" horiz-adv-x="578" 
d="M-147 -377l26 248q73 -21 119 -21q127 0 127 139v971h315v-994q0 -95 -31 -170.5t-84 -121.5t-119 -70t-139 -24q-139 0 -214 43z" />
    <glyph glyph-name="uni0259" unicode="&#x259;" horiz-adv-x="1103" 
d="M472 -20q-91 0 -175 29t-153 84.5t-110.5 147.5t-41.5 208q0 53 9 112h648q-9 74 -70.5 113.5t-141.5 39.5q-61 0 -117 -33t-98 -86l-200 176q58 92 168.5 150.5t250.5 58.5q228 0 372 -140t144 -360t-134.5 -360t-350.5 -140zM649 376h-366q2 -58 54 -103t126 -45
q79 0 128 42.5t58 105.5z" />
    <glyph glyph-name="uni0272" unicode="&#x272;" horiz-adv-x="1215" 
d="M-85 -379l26 248q40 -17 84 -17q114 0 114 137v11h-31v960h289l10 -101q49 61 127.5 91t169.5 30q69 0 132 -24t113 -68t80 -112.5t30 -151.5v-624h-315v534q0 75 -49 116.5t-112 41.5q-65 0 -112.5 -41.5t-47.5 -116.5v-534h31v-34q0 -95 -29.5 -170.5t-79.5 -121.5
t-112 -70t-132 -24q-122 0 -186 41z" />
    <glyph glyph-name="circumflex" unicode="&#x2c6;" horiz-adv-x="1043" 
d="M137 1471l287 370h196l287 -370h-264l-121 169l-121 -169h-264z" />
    <glyph glyph-name="caron" unicode="&#x2c7;" horiz-adv-x="1043" 
d="M424 1481l-287 370h264l121 -169l121 169h264l-287 -370h-196z" />
    <glyph glyph-name="breve" unicode="&#x2d8;" horiz-adv-x="901" 
d="M127 1793h210q2 -57 33.5 -92.5t80.5 -35.5q51 0 81.5 35t32.5 93h210q-7 -148 -95.5 -236.5t-228.5 -88.5q-139 0 -228 89t-96 236z" />
    <glyph glyph-name="dotaccent" unicode="&#x2d9;" horiz-adv-x="619" 
d="M137 1639q0 77 48 125t124 48q77 0 125.5 -48t48.5 -125q0 -76 -48.5 -124t-125.5 -48q-76 0 -124 48t-48 124z" />
    <glyph glyph-name="ring" unicode="&#x2da;" horiz-adv-x="719" 
d="M360 1474q-97 0 -160 61.5t-63 155.5q0 95 63 157.5t160 62.5t160 -62.5t63 -157.5q0 -94 -63 -155.5t-160 -61.5zM298 1691q0 -26 17.5 -44.5t44.5 -18.5q26 0 43.5 18.5t17.5 44.5q0 28 -17 47t-44 19t-44.5 -19t-17.5 -47z" />
    <glyph glyph-name="ogonek" unicode="&#x2db;" horiz-adv-x="701" 
d="M118 -266q0 52 22.5 99.5t61.5 85t83.5 66.5t97.5 54l145 -39q-196 -113 -196 -194q0 -35 25 -56t68 -21q57 0 109 27l64 -176q-88 -57 -220 -57q-120 0 -190 58t-70 153z" />
    <glyph glyph-name="tilde" unicode="&#x2dc;" horiz-adv-x="1019" 
d="M252 1493l-115 104q110 207 258 207q43 0 138 -48t122 -48q57 0 113 86l115 -104q-110 -207 -259 -207q-48 0 -134 48t-126 48q-49 0 -112 -86z" />
    <glyph glyph-name="hungarumlaut" unicode="&#x2dd;" horiz-adv-x="1187" 
d="M517 1473l182 334h342l-273 -334h-251zM147 1473l162 334h322l-233 -334h-251z" />
    <glyph glyph-name="acutecomb" unicode="&#x301;" horiz-adv-x="797" 
d="M661 2277l-263 -334h-261l162 334h362z" />
    <glyph glyph-name="uni030A" unicode="&#x30a;" horiz-adv-x="719" 
d="M360 1474q-97 0 -160 61.5t-63 155.5q0 95 63 157.5t160 62.5t160 -62.5t63 -157.5q0 -94 -63 -155.5t-160 -61.5zM298 1691q0 -26 17.5 -44.5t44.5 -18.5q26 0 43.5 18.5t17.5 44.5q0 28 -17 47t-44 19t-44.5 -19t-17.5 -47z" />
    <glyph glyph-name="dotbelowcomb" unicode="&#x323;" horiz-adv-x="622" 
d="M137 -285q0 73 51 123.5t122 50.5q73 0 124.5 -51.5t51.5 -122.5q0 -73 -52.5 -121.5t-123.5 -48.5q-72 0 -122.5 50t-50.5 120z" />
    <glyph glyph-name="uni0326" unicode="&#x326;" horiz-adv-x="570" 
d="M137 -538v442h297l-71 -442h-226z" />
    <glyph glyph-name="uni03BC" unicode="&#x3bc;" horiz-adv-x="1232" 
d="M139 -400v1360h315v-534q0 -75 49 -116.5t112 -41.5q65 0 114.5 41.5t49.5 116.5v534h315v-960h-289l-10 101q-72 -110 -203 -110q-85 0 -138 40v-431h-315z" />
    <glyph glyph-name="pi" unicode="&#x3c0;" horiz-adv-x="1370" 
d="M24 838v284h1281l-1 -284h-160v-455q0 -68 41.5 -100t115.5 -25v-270q-34 -8 -93 -8q-174 0 -276.5 89t-102.5 273v496h-322v-838h-315v838h-168z" />
    <glyph glyph-name="Wgrave" unicode="&#x1e80;" horiz-adv-x="2049" 
d="M17 1358h332l265 -1009l280 989h262l280 -989l265 1009h332l-366 -1358h-418l-224 744l-224 -744h-418zM614 1807h362l162 -334h-261z" />
    <glyph glyph-name="wgrave" unicode="&#x1e81;" horiz-adv-x="1648" 
d="M26 960h321l167 -632l187 613h247l186 -613l168 632h321l-283 -960h-368l-148 481l-147 -481h-368zM677 1121l-263 334h362l162 -334h-261z" />
    <glyph glyph-name="Wacute" unicode="&#x1e82;" horiz-adv-x="2049" 
d="M383 0l-366 1358h332l265 -1009l280 989h262l280 -989l265 1009h332l-366 -1358h-418l-224 744l-224 -744h-418zM1178 1473h-261l162 334h362z" />
    <glyph glyph-name="wacute" unicode="&#x1e83;" horiz-adv-x="1648" 
d="M26 960h321l167 -632l187 613h247l186 -613l168 632h321l-283 -960h-368l-148 481l-147 -481h-368zM972 1113h-261l162 334h362z" />
    <glyph glyph-name="Wdieresis" unicode="&#x1e84;" horiz-adv-x="2049" 
d="M17 1358h332l265 -1009l280 989h262l280 -989l265 1009h332l-366 -1358h-418l-224 744l-224 -744h-418zM1213 1488q-67 0 -109 42t-42 109t42 109.5t109 42.5q68 0 110.5 -42.5t42.5 -109.5t-42.5 -109t-110.5 -42zM835 1488q-67 0 -109 42t-42 109t42 109.5t109 42.5
q68 0 110.5 -42.5t42.5 -109.5t-42.5 -109t-110.5 -42z" />
    <glyph glyph-name="wdieresis" unicode="&#x1e85;" horiz-adv-x="1648" 
d="M26 960h321l167 -632l187 613h247l186 -613l168 632h321l-283 -960h-368l-148 481l-147 -481h-368zM1013 1151q-67 0 -109 42t-42 109t42 109.5t109 42.5q68 0 110.5 -42.5t42.5 -109.5t-42.5 -109t-110.5 -42zM635 1151q-67 0 -109 42t-42 109t42 109.5t109 42.5
q68 0 110.5 -42.5t42.5 -109.5t-42.5 -109t-110.5 -42z" />
    <glyph glyph-name="Germandbls" unicode="&#x1e9e;" horiz-adv-x="1468" 
d="M476 0h-329v827q0 160 83.5 287t223.5 195.5t308 68.5q94 0 180.5 -21.5t147.5 -52.5t111.5 -69.5t78 -69t41.5 -55.5v-158l-310 -224h44q35 0 75.5 -9.5t89 -34.5t87.5 -62t65 -99.5t26 -139.5q0 -173 -130.5 -287t-328.5 -114q-114 0 -224 48t-173 148l203 180
q78 -91 177 -91q51 0 93.5 32.5t42.5 92.5q0 153 -208 153h-190v189l352 275q-36 37 -97.5 60t-137.5 23q-125 0 -213 -78t-88 -210v-804z" />
    <glyph glyph-name="uni1EA0" unicode="&#x1ea0;" horiz-adv-x="1456" 
d="M-3 0l536 1358h390l537 -1358h-352l-92 249h-575l-92 -249h-352zM727 -455q-72 0 -122.5 50t-50.5 120q0 73 51 123.5t122 50.5q73 0 124.5 -51.5t51.5 -122.5q0 -73 -52.5 -121.5t-123.5 -48.5zM535 505h387l-193 524z" />
    <glyph glyph-name="uni1EA1" unicode="&#x1ea1;" horiz-adv-x="1113" 
d="M75 272q0 93 56.5 163.5t148 106.5t201.5 36q101 0 192 -25v19q0 58 -48 94t-132 36q-69 0 -129 -30t-102 -77l-174 187q71 78 181.5 138t250.5 60q219 0 343.5 -109t124.5 -301v-570h-299v98q-39 -52 -106.5 -85t-149.5 -33q-156 0 -257 79t-101 213zM553 -455
q-72 0 -122.5 50t-50.5 120q0 73 51 123.5t122 50.5q73 0 124.5 -51.5t51.5 -122.5q0 -73 -52.5 -121.5t-123.5 -48.5zM537 387q-74 0 -117 -25t-43 -71q0 -43 35 -69.5t90 -26.5q74 0 122.5 46t48.5 121q-57 25 -136 25z" />
    <glyph glyph-name="uni1EB8" unicode="&#x1eb8;" horiz-adv-x="1209" 
d="M163 1358h963v-277h-634v-252h555v-276h-555v-277h644v-276h-973v1358zM664 -455q-72 0 -122.5 50t-50.5 120q0 73 51 123.5t122 50.5q73 0 124.5 -51.5t51.5 -122.5q0 -73 -52.5 -121.5t-123.5 -48.5z" />
    <glyph glyph-name="uni1EB9" unicode="&#x1eb9;" horiz-adv-x="1103" 
d="M69 480q0 220 134.5 360t350.5 140q91 0 175 -29t153 -84.5t110.5 -147.5t41.5 -208q0 -53 -9 -112h-648q9 -74 70.5 -113.5t141.5 -39.5q61 0 117 33t98 86l200 -176q-58 -92 -168.5 -150.5t-250.5 -58.5q-228 0 -372 140t-144 360zM398 -285q0 73 51 123.5t122 50.5
q73 0 124.5 -51.5t51.5 -122.5q0 -73 -52.5 -121.5t-123.5 -48.5q-72 0 -122.5 50t-50.5 120zM563 732q-79 0 -128 -42.5t-58 -105.5h366q-2 58 -54 103t-126 45z" />
    <glyph glyph-name="uni1EBC" unicode="&#x1ebc;" horiz-adv-x="1209" 
d="M163 0v1358h963v-277h-634v-252h555v-276h-555v-277h644v-276h-973zM387 1493l-115 104q110 207 258 207q43 0 138 -48t122 -48q57 0 113 86l115 -104q-110 -207 -259 -207q-48 0 -134 48t-126 48q-49 0 -112 -86z" />
    <glyph glyph-name="uni1EBD" unicode="&#x1ebd;" horiz-adv-x="1103" 
d="M585 -20q-228 0 -372 140t-144 360t134.5 360t350.5 140q91 0 175 -29t153 -84.5t110.5 -147.5t41.5 -208q0 -53 -9 -112h-648q9 -74 70.5 -113.5t141.5 -39.5q61 0 117 33t98 86l200 -176q-58 -92 -168.5 -150.5t-250.5 -58.5zM179 1237q110 207 258 207q43 0 138 -48
t122 -48q57 0 113 86l115 -104q-110 -207 -259 -207q-48 0 -134 48t-126 48q-49 0 -112 -86zM377 584h366q-2 58 -54 103t-126 45q-79 0 -128 -42.5t-58 -105.5z" />
    <glyph glyph-name="uni1ECA" unicode="&#x1eca;" horiz-adv-x="654" 
d="M163 0v1358h329v-1358h-329zM153 -285q0 73 51 123.5t122 50.5q73 0 124.5 -51.5t51.5 -122.5q0 -73 -52.5 -121.5t-123.5 -48.5q-72 0 -122.5 50t-50.5 120z" />
    <glyph glyph-name="uni1ECB" unicode="&#x1ecb;" horiz-adv-x="592" 
d="M454 0h-315v960h315v-960zM295 1133q-76 0 -124 48t-48 124q0 77 48 125t124 48q77 0 125.5 -48t48.5 -125q0 -76 -48.5 -124t-125.5 -48zM295 -455q-72 0 -122.5 50t-50.5 120q0 73 51 123.5t122 50.5q73 0 124.5 -51.5t51.5 -122.5q0 -73 -52.5 -121.5t-123.5 -48.5z
" />
    <glyph glyph-name="uni1ECC" unicode="&#x1ecc;" horiz-adv-x="1568" 
d="M784 -20q-191 0 -353 90t-259 251.5t-97 358.5q0 144 56 274t151 222.5t226 147t276 54.5t276.5 -54.5t226.5 -147.5t151 -222.5t56 -273.5q0 -141 -55 -270t-148.5 -223.5t-226 -150.5t-280.5 -56zM784 1059q-160 0 -265.5 -107.5t-105.5 -271.5t104 -273t267 -109
q159 0 266 106.5t107 275.5q0 164 -106.5 271.5t-266.5 107.5zM610 -285q0 73 51 123.5t122 50.5q73 0 124.5 -51.5t51.5 -122.5q0 -73 -52.5 -121.5t-123.5 -48.5q-72 0 -122.5 50t-50.5 120z" />
    <glyph glyph-name="uni1ECD" unicode="&#x1ecd;" horiz-adv-x="1167" 
d="M68 480q0 215 147 357.5t369 142.5t369 -142.5t147 -357.5t-147 -357.5t-369 -142.5t-369 142.5t-147 357.5zM584 690q-89 0 -146.5 -60t-57.5 -150q0 -92 57.5 -152.5t146.5 -60.5t146.5 60.5t57.5 152.5q0 90 -57.5 150t-146.5 60zM410 -285q0 73 51 123.5t122 50.5
q73 0 124.5 -51.5t51.5 -122.5q0 -73 -52.5 -121.5t-123.5 -48.5q-72 0 -122.5 50t-50.5 120z" />
    <glyph glyph-name="uni1EE4" unicode="&#x1ee4;" horiz-adv-x="1446" 
d="M148 1358h329v-851q0 -111 66.5 -176.5t179.5 -65.5q114 0 180.5 65t66.5 177v851h329v-869q0 -237 -154 -373t-422 -136q-272 0 -423.5 134t-151.5 375v869zM549 -285q0 73 51 123.5t122 50.5q73 0 124.5 -51.5t51.5 -122.5q0 -73 -52.5 -121.5t-123.5 -48.5
q-72 0 -122.5 50t-50.5 120z" />
    <glyph glyph-name="uni1EE5" unicode="&#x1ee5;" horiz-adv-x="1215" 
d="M126 960h315v-544q0 -75 49 -116.5t112 -41.5q65 0 112.5 41.5t47.5 116.5v544h315v-960h-289l-10 91q-49 -61 -127.5 -91t-169.5 -30q-69 0 -132 24t-113 68t-80 112.5t-30 151.5v634zM427 -285q0 73 51 123.5t122 50.5q73 0 124.5 -51.5t51.5 -122.5
q0 -73 -52.5 -121.5t-123.5 -48.5q-72 0 -122.5 50t-50.5 120z" />
    <glyph glyph-name="Ygrave" unicode="&#x1ef2;" horiz-adv-x="1424" 
d="M550 505l-548 853h403l314 -518l319 518h385l-544 -853v-505h-329v505zM591 1473l-263 334h362l162 -334h-261z" />
    <glyph glyph-name="ygrave" unicode="&#x1ef3;" horiz-adv-x="1125" 
d="M397 -1l-386 961h351l203 -642l198 642h352l-445 -1101q-56 -139 -163 -209t-245 -70q-105 0 -207 50l43 248q58 -26 112 -26q66 0 116.5 37.5t70.5 109.5zM156 1455h362l162 -334h-261z" />
    <glyph glyph-name="uni1EF8" unicode="&#x1ef8;" horiz-adv-x="1424" 
d="M2 1358h403l314 -518l319 518h385l-544 -853v-505h-329v505zM340 1597q110 207 258 207q43 0 138 -48t122 -48q57 0 113 86l115 -104q-110 -207 -259 -207q-48 0 -134 48t-126 48q-49 0 -112 -86z" />
    <glyph glyph-name="uni1EF9" unicode="&#x1ef9;" horiz-adv-x="1125" 
d="M397 -1l-386 961h351l203 -642l198 642h352l-445 -1101q-56 -139 -163 -209t-245 -70q-105 0 -207 50l43 248q58 -26 112 -26q66 0 116.5 37.5t70.5 109.5zM190 1237q110 207 258 207q43 0 138 -48t122 -48q57 0 113 86l115 -104q-110 -207 -259 -207q-48 0 -134 48
t-126 48q-49 0 -112 -86z" />
    <glyph glyph-name="endash" unicode="&#x2013;" horiz-adv-x="1249" 
d="M1137 668v-244h-1024v244h1024z" />
    <glyph glyph-name="emdash" unicode="&#x2014;" horiz-adv-x="2273" 
d="M2161 668v-244h-2048v244h2048z" />
    <glyph glyph-name="quoteleft" unicode="&#x2018;" horiz-adv-x="556" 
d="M375 912h-312l223 516h226z" />
    <glyph glyph-name="quoteright" unicode="&#x2019;" horiz-adv-x="548" 
d="M208 1428h312l-223 -516h-226z" />
    <glyph glyph-name="quotesinglbase" unicode="&#x201a;" horiz-adv-x="542" 
d="M139 233h312l-193 -516h-256z" />
    <glyph glyph-name="quotedblleft" unicode="&#x201c;" horiz-adv-x="1012" 
d="M519 912l223 516h226l-137 -516h-312zM375 912h-312l223 516h226z" />
    <glyph glyph-name="quotedblright" unicode="&#x201d;" horiz-adv-x="993" 
d="M516 912l137 516h312l-223 -516h-226zM71 912l137 516h312l-223 -516h-226z" />
    <glyph glyph-name="quotedblbase" unicode="&#x201e;" horiz-adv-x="992" 
d="M447 -285l137 516h312l-223 -516h-226zM2 -285l137 516h312l-223 -516h-226z" />
    <glyph glyph-name="dagger" unicode="&#x2020;" horiz-adv-x="809" 
d="M55 1358h226v250h247v-250h228v-215h-228v-636h-247v636h-226v215z" />
    <glyph glyph-name="daggerdbl" unicode="&#x2021;" horiz-adv-x="880" 
d="M90 1213v215h226v210h247v-210h228v-215h-228v-312h228v-215h-228v-209h-247v209h-226v215h226v312h-226z" />
    <glyph glyph-name="bullet" unicode="&#x2022;" horiz-adv-x="792" 
d="M112 672q0 119 82 200t202 81t203 -81t83 -200q0 -118 -83 -199.5t-203 -81.5t-202 81t-82 200z" />
    <glyph glyph-name="ellipsis" unicode="&#x2026;" horiz-adv-x="1561" 
d="M1130 150q0 73 51 123.5t122 50.5q73 0 124.5 -51.5t51.5 -122.5q0 -73 -52.5 -121.5t-123.5 -48.5q-72 0 -122.5 50t-50.5 120zM778 -20q-72 0 -122.5 50t-50.5 120q0 73 51 123.5t122 50.5q73 0 124.5 -51.5t51.5 -122.5q0 -73 -52.5 -121.5t-123.5 -48.5zM83 150
q0 73 51 123.5t122 50.5q73 0 124.5 -51.5t51.5 -122.5q0 -73 -52.5 -121.5t-123.5 -48.5q-72 0 -122.5 50t-50.5 120z" />
    <glyph glyph-name="perthousand" unicode="&#x2030;" horiz-adv-x="2643" 
d="M425 629q-164 0 -271.5 106t-107.5 266q0 162 107.5 269.5t271.5 107.5t272.5 -107.5t108.5 -269.5q0 -160 -108.5 -266t-272.5 -106zM1374 -20q-164 0 -271.5 106t-107.5 266q0 162 107.5 269.5t271.5 107.5t272.5 -107.5t108.5 -269.5q0 -160 -108.5 -266t-272.5 -106z
M1835 352q0 162 107.5 269.5t271.5 107.5t272.5 -107.5t108.5 -269.5q0 -160 -108.5 -266t-272.5 -106t-271.5 106t-107.5 266zM451 26l734 1332h165v-24l-732 -1334h-167v26zM2214 508q-65 0 -107.5 -45t-42.5 -111q0 -64 42.5 -108t107.5 -44q64 0 105.5 44t41.5 108
q0 66 -41.5 111t-105.5 45zM1224 352q0 -64 42.5 -108t107.5 -44q64 0 105.5 44t41.5 108q0 66 -41.5 111t-105.5 45q-65 0 -107.5 -45t-42.5 -111zM425 1157q-65 0 -107.5 -45t-42.5 -111q0 -64 42.5 -108t107.5 -44q64 0 105.5 44t41.5 108q0 66 -41.5 111t-105.5 45z" />
    <glyph glyph-name="guilsinglleft" unicode="&#x2039;" horiz-adv-x="689" 
d="M612 86h-260l-272 394l272 395h260l-254 -395z" />
    <glyph glyph-name="guilsinglright" unicode="&#x203a;" horiz-adv-x="689" 
d="M338 874l272 -395l-272 -394h-260l254 394l-254 395h260z" />
    <glyph glyph-name="fraction" unicode="&#x2044;" horiz-adv-x="353" 
d="M-270 0v26l734 1332h165v-24l-732 -1334h-167z" />
    <glyph glyph-name="uni2070" unicode="&#x2070;" horiz-adv-x="830" 
d="M432 514q-91 0 -160 34.5t-110 95.5t-61.5 137t-20.5 165q0 88 20 164t61 137t110.5 96t160.5 35q74 0 134 -24t100 -64.5t66.5 -96.5t38.5 -117.5t12 -129.5q0 -89 -20 -165t-61 -137t-110 -95.5t-160 -34.5zM432 1187q-50 0 -84 -36t-47.5 -88t-13.5 -117
q0 -104 36 -172.5t109 -68.5q74 0 109.5 69.5t35.5 171.5q0 103 -36 172t-109 69z" />
    <glyph glyph-name="uni2074" unicode="&#x2074;" horiz-adv-x="759" 
d="M405 720h-375v140l339 498h240v-469h108v-169h-108v-186h-204v186zM259 889h146v232z" />
    <glyph glyph-name="uni2075" unicode="&#x2075;" horiz-adv-x="710" 
d="M357 513q-62 0 -115 17.5t-84 42.5t-53 50.5t-31 42.5l-8 18l152 104q2 -4 5.5 -10t16.5 -22.5t28 -29t39.5 -22.5t51.5 -10q44 0 75.5 28.5t31.5 74.5q0 51 -34 78t-82 27q-67 0 -111 -42l-148 53l49 445h492v-178h-325l-13 -139q44 22 103 22q129 0 206 -72.5
t77 -194.5q0 -132 -91.5 -207.5t-231.5 -75.5z" />
    <glyph glyph-name="uni2076" unicode="&#x2076;" horiz-adv-x="775" 
d="M422 514q-88 0 -154.5 32t-105 87t-57.5 122.5t-19 145.5q0 225 102.5 351t283.5 126q80 0 146 -22t99 -51l-66 -172q-82 50 -175 50q-70 0 -115.5 -40t-57.5 -115q56 54 155 54q56 0 105.5 -15.5t90 -47t63.5 -83.5t23 -120q0 -137 -87.5 -219.5t-230.5 -82.5zM306 804
q0 -50 31 -83.5t79 -33.5q49 0 80.5 33.5t31.5 83.5q0 48 -32 80.5t-80 32.5t-79 -32.5t-31 -80.5z" />
    <glyph glyph-name="uni2077" unicode="&#x2077;" horiz-adv-x="671" 
d="M80 1358h606v-150q-214 -323 -327 -673h-233q133 359 339 643h-385v180z" />
    <glyph glyph-name="uni2078" unicode="&#x2078;" horiz-adv-x="776" 
d="M66 761q0 72 36 127t98 82q-53 26 -85.5 72.5t-32.5 104.5q0 106 82.5 168.5t225.5 62.5t226 -62.5t83 -168.5q0 -58 -33 -104.5t-86 -72.5q61 -28 98.5 -83.5t37.5 -125.5q0 -116 -86.5 -181.5t-239.5 -65.5q-152 0 -238 66t-86 181zM390 882q-45 0 -74.5 -27t-29.5 -75
q0 -47 29.5 -74t74.5 -27t74.5 27t29.5 74q0 48 -29.5 75t-74.5 27zM301 1131q0 -40 24 -63t65 -23q40 0 64.5 24t24.5 62q0 37 -24 58t-65 21t-65 -21.5t-24 -57.5z" />
    <glyph glyph-name="uni2079" unicode="&#x2079;" horiz-adv-x="774" 
d="M343 810q-56 0 -105.5 15.5t-90 47t-63.5 83.5t-23 120q0 137 87.5 219.5t230.5 82.5q88 0 154.5 -32t105 -87t57.5 -122.5t19 -145.5q0 -225 -102.5 -351t-283.5 -126q-80 0 -146 22t-99 51l66 172q82 -50 175 -50q70 0 115.5 40t57.5 115q-56 -54 -155 -54zM385 1205
q-49 0 -80.5 -33.5t-31.5 -83.5q0 -48 32 -80.5t80 -32.5t79 32.5t31 80.5q0 50 -31 83.5t-79 33.5z" />
    <glyph glyph-name="uni2080" unicode="&#x2080;" horiz-adv-x="830" 
d="M416 -20q-91 0 -160 34.5t-110 95.5t-61.5 137t-20.5 165q0 88 20 164t61 137t110.5 96t160.5 35q74 0 134 -24t100 -64.5t66.5 -96.5t38.5 -117.5t12 -129.5q0 -89 -20 -165t-61 -137t-110 -95.5t-160 -34.5zM416 653q-50 0 -84 -36t-47.5 -88t-13.5 -117
q0 -104 36 -172.5t109 -68.5q74 0 109.5 69.5t35.5 171.5q0 103 -36 172t-109 69z" />
    <glyph glyph-name="uni2081" unicode="&#x2081;" horiz-adv-x="519" 
d="M202 0v637h-180v187h388v-824h-208z" />
    <glyph glyph-name="uni2082" unicode="&#x2082;" horiz-adv-x="755" 
d="M211 537l-159 101q33 85 118.5 145.5t201.5 60.5q133 0 224.5 -68.5t91.5 -201.5q0 -42 -13.5 -80.5t-31 -65.5t-49.5 -58t-53.5 -47.5t-59.5 -43.5q-14 -10 -35.5 -25.5t-32 -23t-23 -17t-19.5 -16.5t-10 -13h332v-184h-610v78q0 82 56.5 155.5t157.5 149.5
q6 5 27.5 20.5t28.5 21.5t25.5 20t25.5 21t21 20t19.5 21.5t13 19.5t10 21.5t2.5 20.5q0 41 -28 61.5t-65 20.5q-94 0 -166 -114z" />
    <glyph glyph-name="uni2083" unicode="&#x2083;" horiz-adv-x="752" 
d="M357 -21q-108 0 -191 54.5t-115 128.5l151 106q2 -4 6.5 -11t19.5 -25t33 -32t48.5 -25t63.5 -11q38 0 67.5 22.5t29.5 63.5q0 47 -31 67.5t-70 20.5h-131v154h131q37 0 66 23.5t29 57.5q0 39 -30 60.5t-71 21.5q-89 0 -154 -104l-153 105q33 75 115 131.5t192 56.5
q134 0 226.5 -66t92.5 -185q0 -123 -109 -180q51 -25 83 -74t32 -110q0 -81 -47.5 -139t-121 -84.5t-162.5 -26.5z" />
    <glyph glyph-name="uni2084" unicode="&#x2084;" horiz-adv-x="761" 
d="M407 186h-375v140l339 498h240v-469h108v-169h-108v-186h-204v186zM261 355h146v232z" />
    <glyph glyph-name="uni2085" unicode="&#x2085;" horiz-adv-x="710" 
d="M332 -21q-46 0 -86.5 9.5t-69 24.5t-52.5 33t-39 36.5t-25.5 33.5t-14.5 24l-4 10l152 104q2 -4 5.5 -10t16.5 -22.5t28 -29t39.5 -22.5t51.5 -10q44 0 75.5 28.5t31.5 74.5q0 51 -34 78t-82 27q-67 0 -111 -42l-148 53l49 445h492v-178h-325l-13 -139q44 22 103 22
q129 0 206 -72.5t77 -194.5q0 -132 -91.5 -207.5t-231.5 -75.5z" />
    <glyph glyph-name="uni2086" unicode="&#x2086;" horiz-adv-x="776" 
d="M401 -20q-88 0 -154.5 32t-105 87t-57.5 122.5t-19 145.5q0 225 102.5 351t283.5 126q80 0 146 -22t99 -51l-66 -172q-82 50 -175 50q-70 0 -115.5 -40t-57.5 -115q56 54 155 54q56 0 105.5 -15.5t90 -47t63.5 -83.5t23 -120q0 -137 -87.5 -219.5t-230.5 -82.5zM285 270
q0 -50 31 -83.5t79 -33.5q49 0 80.5 33.5t31.5 83.5q0 48 -32 80.5t-80 32.5t-79 -32.5t-31 -80.5z" />
    <glyph glyph-name="uni2087" unicode="&#x2087;" horiz-adv-x="672" 
d="M40 824h606v-150q-214 -323 -327 -673h-233q133 359 339 643h-385v180z" />
    <glyph glyph-name="uni2088" unicode="&#x2088;" horiz-adv-x="777" 
d="M64 227q0 72 36 127t98 82q-53 26 -85.5 72.5t-32.5 104.5q0 106 82.5 168.5t225.5 62.5t226 -62.5t83 -168.5q0 -58 -33 -104.5t-86 -72.5q61 -28 98.5 -83.5t37.5 -125.5q0 -116 -86.5 -181.5t-239.5 -65.5q-152 0 -238 66t-86 181zM388 348q-45 0 -74.5 -27t-29.5 -75
q0 -47 29.5 -74t74.5 -27t74.5 27t29.5 74q0 48 -29.5 75t-74.5 27zM299 597q0 -40 24 -63t65 -23q40 0 64.5 24t24.5 62q0 37 -24 58t-65 21t-65 -21.5t-24 -57.5z" />
    <glyph glyph-name="uni2089" unicode="&#x2089;" horiz-adv-x="776" 
d="M344 276q-56 0 -105.5 15.5t-90 47t-63.5 83.5t-23 120q0 137 87.5 219.5t230.5 82.5q88 0 154.5 -32t105 -87t57.5 -122.5t19 -145.5q0 -225 -102.5 -351t-283.5 -126q-80 0 -146 22t-99 51l66 172q82 -50 175 -50q70 0 115.5 40t57.5 115q-56 -54 -155 -54zM386 671
q-49 0 -80.5 -33.5t-31.5 -83.5q0 -48 32 -80.5t80 -32.5t79 32.5t31 80.5q0 50 -31 83.5t-79 33.5z" />
    <glyph glyph-name="Euro" unicode="&#x20ac;" horiz-adv-x="1495" 
d="M83 732v144h177q48 239 209 370.5t409 131.5q205 0 348 -90.5t193 -252.5l-274 -142q-32 95 -100 149t-170 54q-93 0 -158 -57t-95 -163h323v-144h-345q-1 -16 -1 -50q0 -18 2 -54h344v-144h-320q32 -105 98.5 -161.5t162.5 -56.5q94 0 161.5 58.5t98.5 154.5l276 -150
q-49 -161 -195.5 -255t-348.5 -94q-253 0 -414 131.5t-207 372.5h-174v144h159q-1 14 -1 43q0 21 2 61h-160z" />
    <glyph glyph-name="uni20B9" unicode="&#x20b9;" horiz-adv-x="1212" 
d="M150 1106v252h982v-178h-258q68 -78 93 -174h165v-186h-163q-29 -133 -130.5 -226t-241.5 -116l516 -478h-447l-515 471v241h293q59 0 104 30t70 78h-468v186h469q-25 45 -70 72.5t-105 27.5h-294z" />
    <glyph glyph-name="trademark" unicode="&#x2122;" horiz-adv-x="1360" 
d="M609 818v590h99l210 -433l209 433h99v-590h-85v431l-193 -389h-61l-193 388v-430h-85zM244 1328h-197v80h479v-80h-197v-510h-85v510z" />
    <glyph glyph-name="estimated" unicode="&#x212e;" horiz-adv-x="1698" 
d="M872 -20q-216 0 -394.5 93t-280 253t-101.5 351t104 352.5t282.5 255t389.5 93.5q157 0 301 -57t247.5 -152.5t165 -226.5t61.5 -274v-23h-1257q-11 0 -11 -9v-359q0 -24 17 -47q184 -177 478 -177q150 0 279.5 51.5t219.5 147.5h113q-105 -125 -265 -198.5t-349 -73.5z
M379 1077v-351q0 -13 11 -13h966q6 0 6 13v358q0 23 -17 46q-87 85 -210.5 130t-260.5 45q-293 0 -475 -175q-20 -24 -20 -53z" />
    <glyph glyph-name="onethird" unicode="&#x2153;" horiz-adv-x="1663" 
d="M1243 -21q-108 0 -191 54.5t-115 128.5l151 106q2 -4 6.5 -11t19.5 -25t33 -32t48.5 -25t63.5 -11q38 0 67.5 22.5t29.5 63.5q0 47 -31 67.5t-70 20.5h-131v154h131q37 0 66 23.5t29 57.5q0 39 -30 60.5t-71 21.5q-89 0 -154 -104l-153 105q33 75 115 131.5t192 56.5
q134 0 226.5 -66t92.5 -185q0 -123 -109 -180q51 -25 83 -74t32 -110q0 -81 -47.5 -139t-121 -84.5t-162.5 -26.5zM324 26l734 1332h165v-24l-732 -1334h-167v26zM110 1354h388v-824h-208v637h-180v187z" />
    <glyph glyph-name="twothirds" unicode="&#x2154;" horiz-adv-x="1822" 
d="M81 1178q33 85 118.5 145.5t201.5 60.5q133 0 224.5 -68.5t91.5 -201.5q0 -42 -13.5 -80.5t-31 -65.5t-49.5 -58t-53.5 -47.5t-59.5 -43.5q-14 -10 -35.5 -25.5t-32 -23t-23 -17t-19.5 -16.5t-10 -13h332v-184h-610v78q0 82 56.5 155.5t157.5 149.5q6 5 27.5 20.5
t28.5 21.5t25.5 20t25.5 21t21 20t19.5 21.5t13 19.5t10 21.5t2.5 20.5q0 41 -28 61.5t-65 20.5q-94 0 -166 -114zM1416 -21q-108 0 -191 54.5t-115 128.5l151 106q2 -4 6.5 -11t19.5 -25t33 -32t48.5 -25t63.5 -11q38 0 67.5 22.5t29.5 63.5q0 47 -31 67.5t-70 20.5h-131
v154h131q37 0 66 23.5t29 57.5q0 39 -30 60.5t-71 21.5q-89 0 -154 -104l-153 105q33 75 115 131.5t192 56.5q134 0 226.5 -66t92.5 -185q0 -123 -109 -180q51 -25 83 -74t32 -110q0 -81 -47.5 -139t-121 -84.5t-162.5 -26.5zM681 0h-167v26l734 1332h165v-24z" />
    <glyph glyph-name="minus" unicode="&#x2212;" horiz-adv-x="1176" 
d="M1077 538h-977v283h977v-283z" />
    <glyph glyph-name="uni2215" unicode="&#x2215;" horiz-adv-x="824" 
d="M-34 0v26l734 1332h165v-24l-732 -1334h-167z" />
    <glyph glyph-name="uni2219" unicode="&#x2219;" horiz-adv-x="584" 
d="M118 514q0 73 50 122.5t124 49.5t124.5 -49.5t50.5 -122.5t-50.5 -122.5t-124.5 -49.5t-124 49.5t-50 122.5z" />
    <glyph glyph-name="approxequal" unicode="&#x2248;" horiz-adv-x="1425" 
d="M241 722l-142 213q201 201 388 201q63 0 114.5 -14t87 -34t70.5 -39.5t80.5 -33.5t99.5 -14q74 0 129 21.5t119 74.5l141 -203q-201 -201 -387 -201q-73 0 -134.5 21.5t-97.5 46.5t-94 46.5t-126 21.5q-124 0 -248 -107zM98 465q201 201 388 201q63 0 114.5 -14t87 -34
t70.5 -39.5t80.5 -33.5t99.5 -14q74 0 129 21.5t119 74.5l141 -203q-201 -201 -387 -201q-74 0 -135 21.5t-97 46.5t-94 46.5t-126 21.5q-124 0 -248 -107z" />
    <glyph glyph-name="notequal" unicode="&#x2260;" horiz-adv-x="1318" 
d="M117 594h411l77 172h-488v286h616l185 414l160 -59l-160 -355h284v-286h-413l-77 -172h490v-287h-619l-188 -417l-153 64l158 353h-283v287z" />
    <glyph glyph-name="lessequal" unicode="&#x2264;" horiz-adv-x="1363" 
d="M1216 740v-280h-1097v384l1077 514v-340l-679 -278h699zM1224 275v-275h-1115v275h1115z" />
    <glyph glyph-name="greaterequal" unicode="&#x2265;" horiz-adv-x="1366" 
d="M149 460v280h699l-679 278v340l1077 -514v-384h-1097zM141 0v275h1115v-275h-1115z" />
    <glyph glyph-name="numbersign.onum" horiz-adv-x="1372" 
d="M81 230l40 217h203l35 197h-202l40 217h201l38 206h247l-38 -206h183l38 206h247l-38 -206h220l-40 -217h-219l-35 -197h218l-40 -217h-218l-41 -230h-247l41 230h-183l-41 -230h-247l41 230h-203zM571 447h183l35 197h-183z" />
    <glyph glyph-name="numbersign.onum.tnum" 
d="M107 230l40 217h203l35 197h-202l40 217h201l38 206h247l-38 -206h183l38 206h247l-38 -206h220l-40 -217h-219l-35 -197h218l-40 -217h-218l-41 -230h-247l41 230h-183l-41 -230h-247l41 230h-203zM597 447h183l35 197h-183z" />
    <glyph glyph-name="numbersign.tnum" 
d="M47 312l40 227h223l54 301h-223l42 226h222l52 292h255l-49 -292h240l52 292h256l-51 -292h221l-40 -226h-223l-55 -301h223l-42 -227h-221l-56 -312h-257l56 312h-241l-56 -312h-257l56 312h-221zM620 840l-55 -301h243l55 301h-243z" />
    <glyph glyph-name="dollar.onum" horiz-adv-x="1111" 
d="M104 242l231 153q65 -105 158 -135v157q-75 20 -131 43.5t-110.5 62t-84 98t-29.5 137.5q0 134 104 223t251 103v149h121v-151q239 -28 349 -237l-217 -150q-54 95 -132 121v-160q53 -16 78.5 -24.5t73.5 -27t73.5 -34t60.5 -42.5t52.5 -55.5t30.5 -68.5t13 -86
q0 -77 -32.5 -139.5t-87 -102t-121.5 -62t-141 -27.5v-168h-121v170q-133 15 -233.5 78.5t-155.5 174.5zM710 317q0 37 -96 67v-134q96 12 96 67zM428 761q0 -24 16 -39t49 -27v125q-30 -7 -47.5 -23t-17.5 -36z" />
    <glyph glyph-name="dollar.onum.tnum" 
d="M268 242l231 153q65 -105 158 -135v157q-75 20 -131 43.5t-110.5 62t-84 98t-29.5 137.5q0 134 104 223t251 103v149h121v-151q239 -28 349 -237l-217 -150q-54 95 -132 121v-160q53 -16 78.5 -24.5t73.5 -27t73.5 -34t60.5 -42.5t52.5 -55.5t30.5 -68.5t13 -86
q0 -77 -32.5 -139.5t-87 -102t-121.5 -62t-141 -27.5v-168h-121v170q-133 15 -233.5 78.5t-155.5 174.5zM874 317q0 37 -96 67v-134q96 12 96 67zM592 761q0 -24 16 -39t49 -27v125q-30 -7 -47.5 -23t-17.5 -36z" />
    <glyph glyph-name="dollar.tnum" 
d="M159 292l247 180q84 -130 224 -177v258q-67 21 -113.5 38t-101 43t-90.5 56t-68 70.5t-47 94t-15 118.5q0 111 62 201t159.5 140t213.5 61v161h159v-165q268 -40 433 -283l-243 -179q-83 119 -190 161v-250q72 -24 122 -42.5t104 -43t89.5 -47.5t69.5 -54t53 -65.5
t30.5 -78.5t11.5 -96q0 -95 -40.5 -172t-109 -126t-152.5 -77.5t-178 -35.5v-158h-159v162q-157 21 -282.5 99.5t-188.5 206.5zM527 979q0 -39 25.5 -63.5t77.5 -43.5v211q-48 -11 -75.5 -38.5t-27.5 -65.5zM937 382q0 43 -36.5 70.5t-111.5 52.5v-225q66 9 107 35.5
t41 66.5z" />
    <glyph glyph-name="percent.onum" horiz-adv-x="1844" 
d="M448 482q-164 0 -271.5 106t-107.5 266q0 162 107.5 269.5t271.5 107.5t272.5 -107.5t108.5 -269.5q0 -160 -108.5 -266t-272.5 -106zM1397 -167q-164 0 -271.5 106t-107.5 266q0 162 107.5 269.5t271.5 107.5t272.5 -107.5t108.5 -269.5q0 -160 -108.5 -266t-272.5 -106
zM474 -121l734 1332h165v-24l-732 -1334h-167v26zM1397 361q-65 0 -107.5 -45t-42.5 -111q0 -64 42.5 -108t107.5 -44q64 0 105.5 44t41.5 108q0 66 -41.5 111t-105.5 45zM448 1010q-65 0 -107.5 -45t-42.5 -111q0 -64 42.5 -108t107.5 -44q64 0 105.5 44t41.5 108
q0 66 -41.5 111t-105.5 45z" />
    <glyph glyph-name="ampersand.smcp" horiz-adv-x="1153" 
d="M461 -20q-162 0 -281 83.5t-119 219.5q0 164 224 268q-100 104 -100 206q0 127 89 200t244 73q140 0 231.5 -75.5t91.5 -191.5q0 -82 -57 -155t-130 -111l107 -105q20 23 29.5 69.5t1.5 87.5h226q9 -112 -16 -186t-73 -132l249 -236h-328l-80 74q-124 -89 -309 -89z
M344 301q0 -36 33.5 -62.5t100.5 -26.5q65 0 102 34l-156 151q-80 -38 -80 -96zM518 812q-33 0 -54.5 -19.5t-21.5 -47.5q0 -43 65 -105q78 40 78 105q0 24 -17.5 45.5t-49.5 21.5z" />
    <glyph glyph-name="plus.onum" horiz-adv-x="1314" 
d="M94 678h398v383h327v-383h402v-283h-402v-391h-327v391h-398v283z" />
    <glyph glyph-name="plus.onum.tnum" 
d="M151 678h398v383h327v-383h402v-283h-402v-391h-327v391h-398v283z" />
    <glyph glyph-name="plus.tnum" 
d="M151 825h398v383h327v-383h402v-283h-402v-391h-327v391h-398v283z" />
    <glyph glyph-name="zero.onum" horiz-adv-x="1308" 
d="M656 -20q-256 0 -416 154t-160 402q0 245 160 398t416 153q255 0 414 -153t159 -398q0 -247 -159 -401.5t-414 -154.5zM391 536q0 -117 73.5 -189.5t192.5 -72.5q116 0 188.5 72.5t72.5 189.5q0 115 -72.5 186t-188.5 71q-119 0 -192.5 -71t-73.5 -186z" />
    <glyph glyph-name="zero.onum.tnum" 
d="M716 -20q-256 0 -416 154t-160 402q0 245 160 398t416 153q255 0 414 -153t159 -398q0 -247 -159 -401.5t-414 -154.5zM451 536q0 -117 73.5 -189.5t192.5 -72.5q116 0 188.5 72.5t72.5 189.5q0 115 -72.5 186t-188.5 71q-119 0 -192.5 -71t-73.5 -186z" />
    <glyph glyph-name="zero.slash" horiz-adv-x="1299" 
d="M958 1292l144 212l149 -97l-165 -243q134 -190 134 -495q0 -118 -20.5 -220t-65.5 -189t-111 -148.5t-161 -96.5t-212 -35q-182 0 -310 83l-142 -209l-149 97l160 237q-130 180 -130 481q0 149 33.5 274.5t100.5 224t178.5 154.5t258.5 56q179 0 308 -86zM421 500
l367 541q-55 52 -138 52q-68 0 -117.5 -35t-76.5 -96t-39.5 -131t-12.5 -151q0 -102 17 -180zM879 858l-367 -541q55 -52 138 -52q68 0 117.5 35.5t76.5 97t39 131.5t12 151q0 98 -16 178z" />
    <glyph glyph-name="zero.slash.onum" horiz-adv-x="1263" 
d="M932 1017l158 191l121 -96l-155 -187q150 -152 150 -389q0 -247 -159 -401.5t-414 -154.5q-169 0 -302 71l-157 -190l-121 96l155 186q-151 154 -151 393q0 245 160 398t416 153q167 0 299 -70zM855 682l-324 -391q48 -17 103 -17q116 0 188.5 72.5t72.5 189.5
q0 84 -40 146zM409 387l324 390q-48 16 -99 16q-119 0 -192.5 -71t-73.5 -186q0 -84 41 -149z" />
    <glyph glyph-name="zero.slash.onum.tnum" 
d="M1014 1018l158 190l121 -96l-154 -186q150 -153 150 -390q0 -247 -159 -401.5t-414 -154.5q-171 0 -302 71l-158 -190l-121 96l155 187q-150 153 -150 392q0 245 160 398t416 153q166 0 298 -69zM937 683l-324 -392q48 -17 104 -17q116 0 188.5 72.5t72.5 189.5
q0 84 -41 147zM492 387l323 390q-44 16 -98 16q-119 0 -192.5 -71t-73.5 -186q0 -84 41 -149z" />
    <glyph glyph-name="zero.slash.tnum" 
d="M1022 1292l144 212l149 -97l-164 -242q134 -190 134 -496q0 -118 -20.5 -220t-65.5 -189t-111 -148.5t-161 -96.5t-212 -35q-183 0 -311 83l-142 -209l-149 97l161 237q-130 181 -130 481q0 149 33.5 274.5t100.5 224t178.5 154.5t258.5 56q180 0 307 -86zM943 859
l-367 -542q57 -52 139 -52q68 0 117.5 35.5t76.5 97t39 131.5t12 151q0 101 -17 179zM486 501l367 541q-57 51 -138 51q-68 0 -117.5 -35t-76.5 -96t-39.5 -131t-12.5 -151q0 -101 17 -179z" />
    <glyph glyph-name="zero.tnum" 
d="M715 -20q-146 0 -257 53t-178.5 147.5t-101.5 217.5t-34 271q0 149 33.5 274.5t100.5 224t178.5 154.5t258.5 56q121 0 218.5 -39.5t162 -106.5t108 -159t62.5 -192.5t19 -211.5q0 -118 -20.5 -220t-65.5 -189t-111 -148.5t-161 -96.5t-212 -35zM469 680q0 -117 22 -206
t79 -149t145 -60q68 0 117.5 35.5t76.5 97t39 131.5t12 151q0 86 -13 157.5t-40.5 130.5t-76 92t-115.5 33q-68 0 -117.5 -35t-76.5 -96t-39.5 -131t-12.5 -151z" />
    <glyph glyph-name="one.onum" horiz-adv-x="1049" 
d="M62 278h339v500h-309v299h638v-799h300v-278h-968v278z" />
    <glyph glyph-name="one.onum.tnum" 
d="M230 278h339v500h-309v299h638v-799h300v-278h-968v278z" />
    <glyph glyph-name="one.tnum" 
d="M230 283h340v792h-279v283h608v-1075h299v-283h-968v283z" />
    <glyph glyph-name="two.onum" horiz-adv-x="1121" 
d="M324 650l-263 144q59 125 190 210t307 85q211 0 337 -101t126 -270q0 -67 -32.5 -130.5t-92.5 -119t-126.5 -100.5t-150.5 -90h442v-278h-968v217h-2l2 1v3l5 1l345 238q131 94 175 141t44 100q0 48 -33 77.5t-91 29.5q-73 0 -128.5 -45.5t-85.5 -112.5z" />
    <glyph glyph-name="two.onum.tnum" 
d="M477 650l-263 144q59 125 190 210t307 85q211 0 337 -101t126 -270q0 -67 -32.5 -130.5t-92.5 -119t-126.5 -100.5t-150.5 -90h442v-278h-968v217h-2l2 1v3l5 1l345 238q131 94 175 141t44 100q0 48 -33 77.5t-91 29.5q-73 0 -128.5 -45.5t-85.5 -112.5z" />
    <glyph glyph-name="two.tnum" 
d="M460 899l-257 122q24 64 64 123t100.5 113.5t148 87.5t189.5 33q234 0 373.5 -121t139.5 -324q0 -62 -23 -121.5t-56.5 -105.5t-88.5 -97t-100 -85.5t-111 -82.5q-21 -15 -32 -23q-144 -106 -158 -136h577v-282h-985v120q0 97 68.5 200.5t127.5 156t176 144.5
q17 14 26 21q126 98 165 138q74 77 74 149q0 74 -49 120.5t-128 46.5q-74 0 -138.5 -54t-102.5 -143z" />
    <glyph glyph-name="three.onum" horiz-adv-x="1149" 
d="M564 -310q-185 0 -318 93.5t-193 250.5l242 132q91 -195 272 -195q76 0 127 42.5t51 105.5q0 73 -53 115t-145 42h-203v241h203q77 0 130 44t53 109q0 60 -49 98.5t-126 38.5q-170 0 -249 -177l-244 122q25 63 66.5 120t102 107t146.5 79.5t186 29.5q220 0 356 -112.5
t136 -294.5q0 -95 -49.5 -166.5t-134.5 -109.5q89 -37 144 -116t55 -184q0 -185 -140 -300t-366 -115z" />
    <glyph glyph-name="three.onum.tnum" 
d="M717 -310q-185 0 -318 93.5t-193 250.5l242 132q91 -195 272 -195q76 0 127 42.5t51 105.5q0 73 -53 115t-145 42h-203v241h203q77 0 130 44t53 109q0 60 -49 98.5t-126 38.5q-170 0 -249 -177l-244 122q25 63 66.5 120t102 107t146.5 79.5t186 29.5q220 0 356 -112.5
t136 -294.5q0 -95 -49.5 -166.5t-134.5 -109.5q89 -37 144 -116t55 -184q0 -185 -140 -300t-366 -115z" />
    <glyph glyph-name="three.tnum" 
d="M717 -20q-185 0 -318 93.5t-193 250.5l242 132q91 -195 272 -195q76 0 127 42.5t51 105.5q0 73 -53 115t-145 42h-203v241h203q77 0 130 44t53 109q0 60 -49 98.5t-126 38.5q-170 0 -249 -177l-244 122q25 63 66.5 120t102 107t146.5 79.5t186 29.5q220 0 356 -112.5
t136 -294.5q0 -95 -49.5 -166.5t-134.5 -109.5q89 -37 144 -116t55 -184q0 -185 -140 -300t-366 -115z" />
    <glyph glyph-name="four.onum" horiz-adv-x="1202" 
d="M656 49h-621v227l554 791h377v-750h197v-268h-197v-340h-310v340zM391 317h265v380z" />
    <glyph glyph-name="four.onum.tnum" 
d="M771 49h-621v227l554 791h377v-750h197v-268h-197v-340h-310v340zM506 317h265v380z" />
    <glyph glyph-name="four.tnum" 
d="M771 340h-621v227l554 791h377v-750h197v-268h-197v-340h-310v340zM506 608h265v380z" />
    <glyph glyph-name="five.onum" horiz-adv-x="1128" 
d="M543 -311q-184 0 -312.5 89.5t-196.5 243.5l260 138q45 -92 108 -140t138 -48q88 0 148.5 55t60.5 136q0 86 -57.5 139.5t-147.5 53.5q-134 0 -213 -111l-233 102l77 720h818v-283h-554l-25 -239q20 18 74.5 34.5t119.5 16.5q213 0 340 -118.5t127 -316.5
q0 -212 -147 -342t-385 -130z" />
    <glyph glyph-name="five.onum.tnum" 
d="M703 -311q-184 0 -312.5 89.5t-196.5 243.5l260 138q45 -92 108 -140t138 -48q88 0 148.5 55t60.5 136q0 86 -57.5 139.5t-147.5 53.5q-134 0 -213 -111l-233 102l77 720h818v-283h-554l-25 -239q20 18 74.5 34.5t119.5 16.5q213 0 340 -118.5t127 -316.5
q0 -212 -147 -342t-385 -130z" />
    <glyph glyph-name="five.tnum" 
d="M703 -20q-184 0 -312.5 89.5t-196.5 243.5l260 138q45 -92 108 -140t138 -48q88 0 148.5 55t60.5 136q0 86 -57.5 139.5t-147.5 53.5q-134 0 -213 -111l-233 102l77 720h818v-283h-554l-25 -239q20 18 74.5 34.5t119.5 16.5q213 0 340 -118.5t127 -316.5
q0 -212 -147 -342t-385 -130z" />
    <glyph glyph-name="six.onum" horiz-adv-x="1229" 
d="M635 -20q-113 0 -206 33t-157 90.5t-108 138t-64 173t-20 197.5q0 364 173 565t489 201q111 0 194 -19.5t165 -61.5l-65 -258q-135 66 -271 66q-54 0 -101 -9t-91 -31.5t-76 -56.5t-54 -87t-28 -121q37 50 114.5 82.5t170.5 32.5q96 0 179.5 -27.5t150.5 -80.5
t105.5 -140t38.5 -198q0 -225 -149.5 -357t-389.5 -132zM431 454q0 -87 60 -144t148 -57t148 57t60 144t-60 144t-148 57t-148 -57t-60 -144z" />
    <glyph glyph-name="six.onum.tnum" 
d="M722 -20q-113 0 -206 33t-157 90.5t-108 138t-64 173t-20 197.5q0 364 173 565t489 201q111 0 194 -19.5t165 -61.5l-65 -258q-135 66 -271 66q-54 0 -101 -9t-91 -31.5t-76 -56.5t-54 -87t-28 -121q37 50 114.5 82.5t170.5 32.5q96 0 179.5 -27.5t150.5 -80.5
t105.5 -140t38.5 -198q0 -225 -149.5 -357t-389.5 -132zM518 454q0 -87 60 -144t148 -57t148 57t60 144t-60 144t-148 57t-148 -57t-60 -144z" />
    <glyph glyph-name="six.tnum" 
d="M722 -20q-113 0 -206 33t-157 90.5t-108 138t-64 173t-20 197.5q0 364 173 565t489 201q111 0 194 -19.5t165 -61.5l-65 -258q-135 66 -271 66q-54 0 -101 -9t-91 -31.5t-76 -56.5t-54 -87t-28 -121q37 50 114.5 82.5t170.5 32.5q96 0 179.5 -27.5t150.5 -80.5
t105.5 -140t38.5 -198q0 -225 -149.5 -357t-389.5 -132zM518 454q0 -87 60 -144t148 -57t148 57t60 144t-60 144t-148 57t-148 -57t-60 -144z" />
    <glyph glyph-name="seven.onum" horiz-adv-x="1027" 
d="M26 1067h988v-242q-368 -568 -543 -1116h-339q241 655 540 1071h-646v287z" />
    <glyph glyph-name="seven.onum.tnum" 
d="M220 1067h988v-242q-368 -568 -543 -1116h-339q241 655 540 1071h-646v287z" />
    <glyph glyph-name="seven.tnum" 
d="M220 1358h988v-242q-368 -568 -543 -1116h-339q241 655 540 1071h-646v287z" />
    <glyph glyph-name="eight.onum" horiz-adv-x="1191" 
d="M75 381q0 115 59.5 200t158.5 128q-84 37 -137 112.5t-53 177.5q0 97 40 171.5t110 119t156.5 66.5t185.5 22q79 0 150 -13.5t134.5 -43t109.5 -73t72.5 -107.5t26.5 -142q0 -102 -53 -177.5t-137 -112.5q99 -43 158.5 -128t59.5 -200q0 -83 -29 -151t-78 -114t-116 -77
t-141.5 -45t-156.5 -14q-81 0 -155.5 14t-141.5 45.5t-116 77t-78 113.5t-29 151zM595 573q-80 0 -136 -46t-56 -125q0 -76 56.5 -121.5t135.5 -45.5t135.5 45.5t56.5 121.5q0 79 -56 125t-136 46zM428 970q0 -67 44 -116t123 -49q75 0 121 49t46 116q0 65 -46.5 109.5
t-120.5 44.5t-120.5 -44.5t-46.5 -109.5z" />
    <glyph glyph-name="eight.onum.tnum" 
d="M194 381q0 115 59.5 200t158.5 128q-84 37 -137 112.5t-53 177.5q0 97 40 171.5t110 119t156.5 66.5t185.5 22q79 0 150 -13.5t134.5 -43t109.5 -73t72.5 -107.5t26.5 -142q0 -102 -53 -177.5t-137 -112.5q99 -43 158.5 -128t59.5 -200q0 -83 -29 -151t-78 -114t-116 -77
t-141.5 -45t-156.5 -14q-81 0 -155.5 14t-141.5 45.5t-116 77t-78 113.5t-29 151zM714 573q-80 0 -136 -46t-56 -125q0 -76 56.5 -121.5t135.5 -45.5t135.5 45.5t56.5 121.5q0 79 -56 125t-136 46zM547 970q0 -67 44 -116t123 -49q75 0 121 49t46 116q0 65 -46.5 109.5
t-120.5 44.5t-120.5 -44.5t-46.5 -109.5z" />
    <glyph glyph-name="eight.tnum" 
d="M194 381q0 115 59.5 200t158.5 128q-84 37 -137 112.5t-53 177.5q0 97 40 171.5t110 119t156.5 66.5t185.5 22q79 0 150 -13.5t134.5 -43t109.5 -73t72.5 -107.5t26.5 -142q0 -102 -53 -177.5t-137 -112.5q99 -43 158.5 -128t59.5 -200q0 -83 -29 -151t-78 -114t-116 -77
t-141.5 -45t-156.5 -14q-81 0 -155.5 14t-141.5 45.5t-116 77t-78 113.5t-29 151zM714 573q-80 0 -136 -46t-56 -125q0 -76 56.5 -121.5t135.5 -45.5t135.5 45.5t56.5 121.5q0 79 -56 125t-136 46zM547 970q0 -67 44 -116t123 -49q75 0 121 49t46 116q0 65 -46.5 109.5
t-120.5 44.5t-120.5 -44.5t-46.5 -109.5z" />
    <glyph glyph-name="nine.onum" horiz-adv-x="1227" 
d="M463 146q-96 0 -179.5 27.5t-150.5 80.5t-105.5 140t-38.5 198q0 225 149.5 357t389.5 132q113 0 206 -33t157 -90.5t108 -138t64 -173t20 -197.5q0 -364 -173 -565t-489 -201q-111 0 -194 19.5t-165 61.5l65 258q135 -66 271 -66q54 0 101 9t91 31.5t76 56.5t54 87
t28 121q-37 -50 -114.5 -82.5t-170.5 -32.5zM524 808q-88 0 -148 -57t-60 -144t60 -144t148 -57t148 57t60 144t-60 144t-148 57z" />
    <glyph glyph-name="nine.onum.tnum" 
d="M563 146q-96 0 -179.5 27.5t-150.5 80.5t-105.5 140t-38.5 198q0 225 149.5 357t389.5 132q113 0 206 -33t157 -90.5t108 -138t64 -173t20 -197.5q0 -364 -173 -565t-489 -201q-111 0 -194 19.5t-165 61.5l65 258q135 -66 271 -66q54 0 101 9t91 31.5t76 56.5t54 87
t28 121q-37 -50 -114.5 -82.5t-170.5 -32.5zM624 808q-88 0 -148 -57t-60 -144t60 -144t148 -57t148 57t60 144t-60 144t-148 57z" />
    <glyph glyph-name="nine.tnum" 
d="M563 441q-96 0 -179.5 27.5t-150.5 80.5t-105.5 140t-38.5 198q0 225 149.5 357t389.5 132q113 0 206 -33t157 -90.5t108 -138t64 -173t20 -197.5q0 -364 -173 -565t-489 -201q-111 0 -194 19.5t-165 61.5l65 258q135 -66 271 -66q54 0 101 9t91 31.5t76 56.5t54 87
t28 121q-37 -50 -114.5 -82.5t-170.5 -32.5zM624 1103q-88 0 -148 -57t-60 -144t60 -144t148 -57t148 57t60 144t-60 144t-148 57z" />
    <glyph glyph-name="less.onum" horiz-adv-x="1248" 
d="M1122 -58l-1027 462v257l1027 463v-320l-629 -271l629 -272v-319z" />
    <glyph glyph-name="less.onum.tnum" 
d="M1228 -58l-1027 462v257l1027 463v-320l-629 -271l629 -272v-319z" />
    <glyph glyph-name="less.tnum" 
d="M1228 89l-1027 462v257l1027 463v-320l-629 -271l629 -272v-319z" />
    <glyph glyph-name="equal.onum" horiz-adv-x="1362" 
d="M1224 160h-1085v287h1085v-287zM139 905h1085v-286h-1085v286z" />
    <glyph glyph-name="equal.onum.tnum" 
d="M1257 160h-1085v287h1085v-287zM172 905h1085v-286h-1085v286z" />
    <glyph glyph-name="equal.tnum" 
d="M1257 307h-1085v287h1085v-287zM172 1052h1085v-286h-1085v286z" />
    <glyph glyph-name="greater.onum" horiz-adv-x="1248" 
d="M1154 405l-1027 -463v320l629 271l-629 272v319l1027 -462v-257z" />
    <glyph glyph-name="greater.onum.tnum" 
d="M1228 405l-1027 -463v320l629 271l-629 272v319l1027 -462v-257z" />
    <glyph glyph-name="greater.tnum" 
d="M1228 552l-1027 -463v320l629 271l-629 272v319l1027 -462v-257z" />
    <glyph glyph-name="A.smcp" horiz-adv-x="1171" 
d="M343 0h-331l390 1010h367l391 -1010h-331l-57 166h-372zM586 704l-104 -301h208z" />
    <glyph glyph-name="B.smcp" horiz-adv-x="1075" 
d="M690 0h-556v1010h526q143 0 232 -75.5t89 -205.5q0 -63 -42.5 -128t-94.5 -85q70 -26 117 -90.5t47 -136.5q0 -124 -86.5 -206.5t-231.5 -82.5zM439 240h174q36 0 58.5 25t22.5 56q0 34 -22 58t-59 24h-174v-163zM439 624h163q34 0 53 20.5t19 52.5q0 33 -21 52t-58 19
h-156v-144z" />
    <glyph glyph-name="C.smcp" horiz-adv-x="1106" 
d="M68 505q0 225 150 375t383 150q148 0 271 -75.5t186 -203.5l-230 -162q-69 161 -220 161q-98 0 -161.5 -69t-63.5 -178q0 -107 62 -174.5t157 -67.5q77 0 135.5 41.5t97.5 106.5l229 -159q-156 -270 -468 -270q-230 0 -379 150t-149 375z" />
    <glyph glyph-name="D.smcp" horiz-adv-x="1210" 
d="M134 0v1010h503q138 0 254 -68t183.5 -184t67.5 -252t-67.5 -252.5t-183.5 -185t-253 -68.5h-504zM585 752h-136v-495h136q106 0 174 72.5t68 175.5q0 104 -68 175.5t-174 71.5z" />
    <glyph glyph-name="E.smcp" horiz-adv-x="948" 
d="M134 0v1010h740v-257h-425v-119h377v-245h-377v-132h429v-257h-744z" />
    <glyph glyph-name="F.smcp" horiz-adv-x="957" 
d="M134 0v1010h775v-257h-460v-125h361v-245h-361v-383h-315z" />
    <glyph glyph-name="G.smcp" horiz-adv-x="1175" 
d="M606 -20q-149 0 -272.5 68.5t-194.5 189t-71 267.5q0 224 155.5 374.5t382.5 150.5q155 0 274.5 -66t191.5 -190l-233 -170q-34 63 -92 103.5t-131 40.5q-103 0 -168 -68.5t-65 -176.5t64 -178.5t166 -70.5q66 0 115.5 23t67.5 64h-233v218h549v-76q0 -230 -143 -366.5
t-363 -136.5z" />
    <glyph glyph-name="H.smcp" horiz-adv-x="1263" 
d="M134 1010h315v-368h366v368h315v-1010h-315v385h-366v-385h-315v1010z" />
    <glyph glyph-name="I.smcp" horiz-adv-x="582" 
d="M449 1010v-1010h-315v1010h315z" />
    <glyph glyph-name="J.smcp" horiz-adv-x="923" 
d="M7 172l196 189q75 -102 160 -102q54 0 88.5 34.5t34.5 93.5v624h315v-642q0 -177 -115 -283t-307 -106q-126 0 -223.5 52.5t-148.5 139.5z" />
    <glyph glyph-name="K.smcp" horiz-adv-x="1191" 
d="M134 0v1010h315v-380l341 380h381l-421 -459l437 -551h-378l-270 369l-90 -96v-273h-315z" />
    <glyph glyph-name="L.smcp" horiz-adv-x="964" 
d="M932 257v-257h-798v1010h315v-753h483z" />
    <glyph glyph-name="M.smcp" horiz-adv-x="1449" 
d="M134 1010h376l215 -544l215 544h376v-1010h-310v549l-201 -474h-160l-201 474v-549h-310v1010z" />
    <glyph glyph-name="N.smcp" horiz-adv-x="1217" 
d="M449 0h-315v1010h262l373 -496v496h315v-1010h-262l-373 496v-496z" />
    <glyph glyph-name="O.smcp" horiz-adv-x="1225" 
d="M69 506q0 145 71.5 266t195.5 190t274 69q151 0 276.5 -69t198 -190t72.5 -266q0 -148 -73.5 -269.5t-198 -189.5t-272.5 -68t-272.5 68t-198 189.5t-73.5 269.5zM384 506q0 -105 61 -175t168 -70t168 70t61 175q0 104 -63 173t-166 69t-166 -69t-63 -173z" />
    <glyph glyph-name="P.smcp" horiz-adv-x="1099" 
d="M449 0h-315v1010h576q145 0 245 -100t100 -253q0 -145 -100.5 -243.5t-244.5 -98.5h-261v-315zM449 753v-198h177q52 0 83 29t31 71q0 41 -31 69.5t-83 28.5h-177z" />
    <glyph glyph-name="Q.alt" horiz-adv-x="1568" 
d="M784 -20q-191 0 -353 90t-259 251.5t-97 358.5q0 144 56 274t151 222.5t226 147t276 54.5t276.5 -54.5t226.5 -147.5t151 -222.5t56 -273.5q0 -189 -94 -350t-254 -254l287 -271l-192 -205l-407 382q-32 -2 -50 -2zM413 680q0 -164 104 -273t267 -109q159 0 266 106.5
t107 275.5q0 164 -106.5 271.5t-266.5 107.5t-265.5 -107.5t-105.5 -271.5z" />
    <glyph glyph-name="Q.alt.smcp" horiz-adv-x="1217" 
d="M102 506q0 145 71.5 266t195.5 190t274 69q151 0 276.5 -69t198 -190t72.5 -266q0 -142 -67 -258.5t-182 -186.5l212 -192l-189 -189l-332 299q-145 3 -266 72t-192.5 189t-71.5 266zM646 748q-103 0 -166 -69t-63 -173q0 -105 61 -175t168 -70t168 70t61 175
q0 104 -63 173t-166 69z" />
    <glyph glyph-name="Q.smcp" horiz-adv-x="1225" 
d="M102 506q0 145 71.5 266t195.5 190t274 69q151 0 276.5 -69t198 -190t72.5 -266q0 -116 -45.5 -216t-127.5 -173l78 -105l-194 -141l-96 130q-79 -22 -159 -22q-148 0 -272.5 68t-198 189.5t-73.5 269.5zM646 748q-103 0 -166 -69t-63 -173q0 -95 52 -163t143 -80l-60 82
l193 141l92 -124q38 61 38 144q0 104 -63 173t-166 69z" />
    <glyph glyph-name="R.smcp" horiz-adv-x="1098" 
d="M134 1010h575q145 0 245 -98t100 -248q0 -104 -51.5 -184.5t-138.5 -121.5l197 -359h-311l-168 325h-133v-324h-315v1010zM449 753v-189h176q53 0 83.5 25t30.5 67t-30.5 69.5t-83.5 27.5h-176z" />
    <glyph glyph-name="S.smcp" horiz-adv-x="1008" 
d="M63 216l217 166q50 -71 114 -105t125 -34q48 0 80 14t32 42t-38 43t-166 46q-70 17 -126 42t-103.5 62.5t-74 91.5t-26.5 121q0 141 115 233t290 92q140 0 244.5 -58t164.5 -161l-212 -157q-31 60 -84.5 90.5t-108.5 30.5q-47 0 -78 -17t-31 -45t41 -45t144 -42
q355 -89 355 -328q0 -140 -118.5 -229t-309.5 -89q-157 0 -271 65t-175 171z" />
    <glyph glyph-name="T.smcp" horiz-adv-x="954" 
d="M29 753v257h897v-257h-291v-753h-315v753h-291z" />
    <glyph glyph-name="U.smcp" horiz-adv-x="1194" 
d="M123 1010h315v-603q0 -72 45.5 -109.5t113.5 -37.5q71 0 115.5 37.5t44.5 109.5v603h315v-613q0 -107 -38.5 -189t-105 -130.5t-150.5 -73t-181 -24.5q-216 0 -345 106t-129 311v613z" />
    <glyph glyph-name="V.smcp" horiz-adv-x="1141" 
d="M380 0l-362 1010h342l212 -681l211 681h342l-362 -1010h-383z" />
    <glyph glyph-name="W.smcp" horiz-adv-x="1585" 
d="M309 0l-282 1010h321l165 -662l164 648h232l164 -648l165 662h321l-282 -1010h-346l-138 482l-138 -482h-346z" />
    <glyph glyph-name="X.smcp" horiz-adv-x="1137" 
d="M10 0l377 516l-359 494h349l192 -268l187 268h355l-357 -495l375 -515h-348l-212 297l-206 -297h-353z" />
    <glyph glyph-name="Y.smcp" horiz-adv-x="1140" 
d="M17 1010h354l199 -369l200 369h354l-396 -653v-357h-315v357z" />
    <glyph glyph-name="Z.smcp" horiz-adv-x="1003" 
d="M71 0v228l456 525h-445v257h842v-228l-456 -525h465v-257h-862z" />
    <glyph glyph-name="a.alt" horiz-adv-x="1253" 
d="M518 -20q-201 0 -324.5 140.5t-123.5 357.5q0 219 123.5 360.5t324.5 141.5q194 0 291 -121v101h306v-960h-305l-10 74q-43 -44 -118 -69t-164 -25zM387 480q0 -95 60.5 -156.5t151.5 -61.5q89 0 147 61t58 157t-58 157t-147 61q-92 0 -152 -60t-60 -158z" />
    <glyph glyph-name="g.alt" horiz-adv-x="1125" 
d="M556 -439q-107 0 -194.5 15t-156 45.5t-106 82t-37.5 120.5q0 125 136 196q-57 42 -57 131q0 96 109 182q-77 47 -122.5 121t-45.5 169q0 112 59 194t156.5 122.5t220.5 40.5q83 0 161 -20h395v-217h-141q21 -58 21 -120q0 -112 -59 -194t-156.5 -122.5t-220.5 -40.5
q-58 0 -104 11q-23 -29 -23 -57q0 -18 14.5 -31t35.5 -13h263q83 0 149.5 -16t118 -49.5t79.5 -91.5t28 -137q0 -109 -70 -183t-184.5 -106t-268.5 -32zM518 759q-73 0 -115.5 -36t-42.5 -100t42.5 -100t115.5 -36t115.5 36t42.5 100t-42.5 100t-115.5 36zM342 -113
q0 -43 50 -62.5t162 -19.5q129 0 182.5 18t53.5 57q0 31 -25 48.5t-69 17.5h-330q-24 -27 -24 -59z" />
    <glyph glyph-name="i.TRK" horiz-adv-x="592" 
d="M139 960h315v-960h-315v960zM123 1305q0 77 48 125t124 48q77 0 125.5 -48t48.5 -125q0 -76 -48.5 -124t-125.5 -48q-76 0 -124 48t-48 124z" />
    <glyph glyph-name="l.alt" horiz-adv-x="632" 
d="M130 266v1142h315v-1087q0 -75 83 -75q43 0 87 11l13 -247q-88 -30 -203 -30q-295 0 -295 286z" />
    <glyph glyph-name="u.alt" horiz-adv-x="1181" 
d="M125 395v565h315v-535q0 -70 41.5 -114t104.5 -44q71 0 113.5 43t42.5 115v535h315v-559q0 -185 -130 -303t-341 -118q-210 0 -335.5 116.5t-125.5 298.5z" />
    <glyph glyph-name="y.alt" horiz-adv-x="1166" 
d="M12 960h356l221 -616l215 616h353l-586 -1360h-323l173 445z" />
    <glyph glyph-name="cent.onum" horiz-adv-x="1173" 
d="M114 678q0 192 119 328t308 165v170h131v-165q136 -10 242 -80.5t162 -174.5l-243 -173q-47 115 -161 136v-415q102 19 168 133l238 -174q-144 -227 -406 -248v-180h-131v183q-191 26 -309 163t-118 332zM541 869q-53 -25 -84 -75.5t-31 -115.5q0 -66 31 -117.5t84 -76.5
v385z" />
    <glyph glyph-name="cent.onum.tnum" 
d="M232 678q0 195 123 332.5t317 162.5v168h131v-166q131 -13 234 -83t157 -171l-243 -173q-21 52 -59.5 86.5t-88.5 46.5v-409q95 24 155 130l238 -174q-139 -221 -393 -247v-181h-131v182q-196 22 -318 160t-122 336zM672 875q-59 -23 -93.5 -75.5t-34.5 -121.5
q0 -70 34.5 -123.5t93.5 -75.5v396z" />
    <glyph glyph-name="cent.tnum" 
d="M233 678q0 193 121.5 330.5t312.5 163.5v169h143v-167q130 -14 231 -83.5t154 -169.5l-243 -173q-43 104 -142 132v-407q93 28 149 129l238 -174q-138 -218 -387 -246v-182h-143v183q-193 23 -313.5 160.5t-120.5 334.5zM667 481v391q-56 -23 -89 -75.5t-33 -118.5
q0 -68 33 -121t89 -76z" />
    <glyph glyph-name="sterling.onum" horiz-adv-x="1116" 
d="M237 443h-122v171h120v89q0 179 114.5 281t298.5 102q58 0 111 -14.5t91 -37t70 -50.5t53 -55.5t35.5 -50t20.5 -36.5l6 -15l-223 -131q-2 5 -6 14.5t-19 32.5t-32 40.5t-44.5 32t-58.5 14.5q-53 0 -90.5 -36.5t-37.5 -92.5v-87h248v-171h-248v-57q0 -91 -53 -146h498
v-240h-853v192q62 29 91.5 77.5t29.5 103.5v70z" />
    <glyph glyph-name="sterling.onum.tnum" 
d="M376 443h-122v171h120v89q0 179 114.5 281t298.5 102q58 0 111 -14.5t91 -37t70 -50.5t53 -55.5t35.5 -50t20.5 -36.5l6 -15l-223 -131q-2 5 -6 14.5t-19 32.5t-32 40.5t-44.5 32t-58.5 14.5q-53 0 -90.5 -36.5t-37.5 -92.5v-87h248v-171h-248v-57q0 -91 -53 -146h498
v-240h-853v192q62 29 91.5 77.5t29.5 103.5v70z" />
    <glyph glyph-name="sterling.tnum" 
d="M1214 0h-1076v215q87 61 124.5 119t36.5 132l-1 126h-153v202h152l-1 108q-2 217 139.5 347t380.5 130q319 0 474 -304l-258 -149q-76 170 -220 170q-84 0 -135.5 -53t-51.5 -139v-110h321v-202h-321v-96q0 -144 -91 -232h680v-264z" />
    <glyph glyph-name="currency.onum" horiz-adv-x="1286" 
d="M95 895l163 163l166 -167q102 59 218 59q118 0 222 -59l165 167l163 -163l-167 -166q58 -99 58 -214q0 -122 -63 -220l172 -171l-163 -163l-173 175q-102 -54 -214 -54q-111 0 -209 54l-175 -175l-163 163l171 171q-60 101 -60 220q0 117 57 214zM461 515
q0 -74 53 -126.5t128 -52.5q77 0 131.5 52.5t54.5 126.5q0 76 -54.5 129.5t-131.5 53.5q-75 0 -128 -53.5t-53 -129.5z" />
    <glyph glyph-name="currency.onum.tnum" 
d="M166 895l163 163l166 -167q102 59 218 59q118 0 222 -59l165 167l163 -163l-167 -166q58 -99 58 -214q0 -122 -63 -220l172 -171l-163 -163l-173 175q-102 -54 -214 -54q-111 0 -209 54l-175 -175l-163 163l171 171q-60 101 -60 220q0 117 57 214zM532 515
q0 -74 53 -126.5t128 -52.5q77 0 131.5 52.5t54.5 126.5q0 76 -54.5 129.5t-131.5 53.5q-75 0 -128 -53.5t-53 -129.5z" />
    <glyph glyph-name="currency.tnum" 
d="M166 1042l163 163l166 -167q102 59 218 59q118 0 222 -59l165 167l163 -163l-167 -166q58 -99 58 -214q0 -122 -63 -220l172 -171l-163 -163l-173 175q-102 -54 -214 -54q-111 0 -209 54l-175 -175l-163 163l171 171q-60 101 -60 220q0 117 57 214zM532 662
q0 -74 53 -126.5t128 -52.5q77 0 131.5 52.5t54.5 126.5q0 76 -54.5 129.5t-131.5 53.5q-75 0 -128 -53.5t-53 -129.5z" />
    <glyph glyph-name="yen.onum" horiz-adv-x="1318" 
d="M53 1067h354l252 -404l253 404h354l-372 -563h133v-115h-210v-83h210v-115h-210v-191h-315v191h-211v115h211v83h-211v115h133z" />
    <glyph glyph-name="yen.onum.tnum" 
d="M108 1067h354l252 -404l253 404h354l-372 -563h133v-115h-209l-1 -2v-84h198v-115h-198v-188h-315v188h-186v115h186v84l-2 2h-195v115h119z" />
    <glyph glyph-name="yen.tnum" 
d="M4 1358h403l314 -518l319 518h385l-446 -699h186v-154h-284v-85h284v-154h-284v-266h-329v266h-289v154h289v85h-289v154h190z" />
    <glyph glyph-name="ordfeminine.onum" horiz-adv-x="858" 
d="M364 552q-97 0 -156.5 51t-59.5 133q0 85 70.5 137.5t184.5 52.5q72 0 121 -21v6q0 43 -32.5 71.5t-85.5 28.5q-91 0 -154 -65l-96 126q41 44 113.5 76t153.5 32q129 0 204.5 -64t75.5 -174v-378h-169v66q-26 -37 -70.5 -57.5t-99.5 -20.5zM154 307v150h554v-150h-554z
M334 747q0 -26 21 -40.5t53 -14.5q46 0 81 28t35 63q-31 23 -93 23q-46 0 -71.5 -15.5t-25.5 -43.5z" />
    <glyph glyph-name="ordfeminine.onum.tnum" 
d="M650 552q-97 0 -156.5 51t-59.5 133q0 85 70.5 137.5t184.5 52.5q72 0 121 -21v6q0 43 -32.5 71.5t-85.5 28.5q-91 0 -154 -65l-96 126q41 44 113.5 76t153.5 32q129 0 204.5 -64t75.5 -174v-378h-169v66q-26 -37 -70.5 -57.5t-99.5 -20.5zM440 307v150h554v-150h-554z
M620 747q0 -26 21 -40.5t53 -14.5q46 0 81 28t35 63q-31 23 -93 23q-46 0 -71.5 -15.5t-25.5 -43.5z" />
    <glyph glyph-name="ordfeminine.tnum" 
d="M650 752q-97 0 -156.5 51t-59.5 133q0 85 70.5 137.5t184.5 52.5q72 0 121 -21v6q0 43 -32.5 71.5t-85.5 28.5q-91 0 -154 -65l-96 126q41 44 113.5 76t153.5 32q129 0 204.5 -64t75.5 -174v-378h-169v66q-26 -37 -70.5 -57.5t-99.5 -20.5zM440 507v150h554v-150h-554z
M620 947q0 -26 21 -40.5t53 -14.5q46 0 81 28t35 63q-31 23 -93 23q-46 0 -71.5 -15.5t-25.5 -43.5z" />
    <glyph glyph-name="logicalnot.onum" horiz-adv-x="1366" 
d="M895 217v346h-796v283h1123v-629h-327z" />
    <glyph glyph-name="logicalnot.onum.tnum" 
d="M949 217v346h-796v283h1123v-629h-327z" />
    <glyph glyph-name="logicalnot.tnum" 
d="M949 364v346h-796v283h1123v-629h-327z" />
    <glyph glyph-name="degree.onum" horiz-adv-x="928" 
d="M463 478q-154 0 -255 99t-101 249q0 152 101 252t255 100q155 0 257 -100t102 -252q0 -150 -102 -249t-257 -99zM323 826q0 -60 40 -101t100 -41q61 0 99.5 41t38.5 101q0 62 -38.5 104t-99.5 42q-60 0 -100 -42.5t-40 -103.5z" />
    <glyph glyph-name="degree.onum.tnum" 
d="M713 478q-154 0 -255 99t-101 249q0 152 101 252t255 100q155 0 257 -100t102 -252q0 -150 -102 -249t-257 -99zM573 826q0 -60 40 -101t100 -41q61 0 99.5 41t38.5 101q0 62 -38.5 104t-99.5 42q-60 0 -100 -42.5t-40 -103.5z" />
    <glyph glyph-name="degree.tnum" 
d="M713 678q-154 0 -255 99t-101 249q0 152 101 252t255 100q155 0 257 -100t102 -252q0 -150 -102 -249t-257 -99zM573 1026q0 -60 40 -101t100 -41q61 0 99.5 41t38.5 101q0 62 -38.5 104t-99.5 42q-60 0 -100 -42.5t-40 -103.5z" />
    <glyph glyph-name="plusminus.onum" horiz-adv-x="1305" 
d="M110 894h380v317h323v-317h380v-283h-380v-327h-323v327h-380v283zM1195 -147h-1085v275h1085v-275z" />
    <glyph glyph-name="plusminus.onum.tnum" 
d="M172 894h380v317h323v-317h380v-283h-380v-327h-323v327h-380v283zM1257 -147h-1085v275h1085v-275z" />
    <glyph glyph-name="plusminus.tnum" 
d="M172 1041h380v317h323v-317h380v-283h-380v-327h-323v327h-380v283zM1257 0h-1085v275h1085v-275z" />
    <glyph glyph-name="ordmasculine.onum" horiz-adv-x="943" 
d="M140 851q0 141 94 234t237 93t238 -93.5t95 -233.5q0 -139 -95 -231t-238 -92t-237 92t-94 231zM160 435h624v-155h-624v155zM340 851q0 -55 37.5 -93.5t93.5 -38.5t92 38t36 94q0 57 -36 96t-92 39t-93.5 -39t-37.5 -96z" />
    <glyph glyph-name="ordmasculine.onum.tnum" 
d="M382 851q0 141 94 234t237 93t238 -93.5t95 -233.5q0 -139 -95 -231t-238 -92t-237 92t-94 231zM402 435h624v-155h-624v155zM582 851q0 -55 37.5 -93.5t93.5 -38.5t92 38t36 94q0 57 -36 96t-92 39t-93.5 -39t-37.5 -96z" />
    <glyph glyph-name="ordmasculine.tnum" 
d="M382 1051q0 141 94 234t237 93t238 -93.5t95 -233.5q0 -139 -95 -231t-238 -92t-237 92t-94 231zM402 635h624v-155h-624v155zM582 1051q0 -55 37.5 -93.5t93.5 -38.5t92 38t36 94q0 57 -36 96t-92 39t-93.5 -39t-37.5 -96z" />
    <glyph glyph-name="onequarter.onum" horiz-adv-x="1587" 
d="M820 186l339 498h240v-469h108v-169h-108v-186h-204v186h-375v140zM334 -114l734 1332h165v-24l-732 -1334h-167v26zM310 1027h-180v187h388v-824h-208v637zM1195 447l-146 -232h146v232z" />
    <glyph glyph-name="onehalf.onum" horiz-adv-x="1706" 
d="M1129 397l-159 101q33 85 118.5 145.5t201.5 60.5q133 0 224.5 -68.5t91.5 -201.5q0 -42 -13.5 -80.5t-31 -65.5t-49.5 -58t-53.5 -47.5t-59.5 -43.5q-14 -10 -35.5 -25.5t-32 -23t-23 -17t-19.5 -16.5t-10 -13h332v-184h-610v78q0 82 56.5 155.5t157.5 149.5
q6 5 27.5 20.5t28.5 21.5t25.5 20t25.5 21t21 20t19.5 21.5t13 19.5t10 21.5t2.5 20.5q0 41 -28 61.5t-65 20.5q-94 0 -166 -114zM378 -114l734 1332h165v-24l-732 -1334h-167v26zM360 1027h-180v187h388v-824h-208v637z" />
    <glyph glyph-name="threequarters.onum" horiz-adv-x="1749" 
d="M384 379q-108 0 -191 54.5t-115 128.5l151 106q2 -4 6.5 -11t19.5 -25t33 -32t48.5 -25t63.5 -11q38 0 67.5 22.5t29.5 63.5q0 47 -31 67.5t-70 20.5h-131v154h131q37 0 66 23.5t29 57.5q0 39 -30 60.5t-71 21.5q-89 0 -154 -104l-153 105q33 75 115 131.5t192 56.5
q134 0 226.5 -66t92.5 -185q0 -123 -109 -180q51 -25 83 -74t32 -110q0 -81 -47.5 -139t-121 -84.5t-162.5 -26.5zM994 186l339 498h240v-469h108v-169h-108v-186h-204v186h-375v140zM666 -140h-167v26l734 1332h165v-24zM1369 447l-146 -232h146v232z" />
    <glyph glyph-name="Agrave.smcp" horiz-adv-x="1171" 
d="M343 0h-331l390 1010h367l391 -1010h-331l-57 166h-372zM188 1490h362l162 -334h-261zM586 704l-104 -301h208z" />
    <glyph glyph-name="Aacute.smcp" horiz-adv-x="1171" 
d="M343 0h-331l390 1010h367l391 -1010h-331l-57 166h-372zM460 1153l162 334h362l-263 -334h-261zM482 403h208l-104 301z" />
    <glyph glyph-name="Acircumflex.smcp" horiz-adv-x="1171" 
d="M12 0l390 1010h367l391 -1010h-331l-57 166h-372l-57 -166h-331zM465 1125h-264l287 370h196l287 -370h-264l-121 169zM586 704l-104 -301h208z" />
    <glyph glyph-name="Atilde.smcp" horiz-adv-x="1171" 
d="M343 0h-331l390 1010h367l391 -1010h-331l-57 166h-372zM328 1178l-115 104q110 207 258 207q43 0 138 -48t122 -48q57 0 113 86l115 -104q-110 -207 -259 -207q-48 0 -134 48t-126 48q-49 0 -112 -86zM482 403h208l-104 301z" />
    <glyph glyph-name="Adieresis.smcp" horiz-adv-x="1171" 
d="M343 0h-331l390 1010h367l391 -1010h-331l-57 166h-372zM245 1339q0 67 42 109.5t109 42.5q68 0 110.5 -42.5t42.5 -109.5t-42.5 -109t-110.5 -42q-67 0 -109 42t-42 109zM623 1339q0 67 42 109.5t109 42.5q68 0 110.5 -42.5t42.5 -109.5t-42.5 -109t-110.5 -42
q-67 0 -109 42t-42 109zM586 704l-104 -301h208z" />
    <glyph glyph-name="Aring.smcp" horiz-adv-x="1171" 
d="M343 0h-331l390 1010h367l391 -1010h-331l-57 166h-372zM363 1329q0 95 63 157.5t160 62.5t160 -62.5t63 -157.5q0 -94 -63 -155.5t-160 -61.5t-160 61.5t-63 155.5zM482 403h208l-104 301zM586 1395q-27 0 -44.5 -19t-17.5 -47q0 -26 17.5 -44.5t44.5 -18.5
q26 0 43.5 18.5t17.5 44.5q0 28 -17 47t-44 19z" />
    <glyph glyph-name="AE.smcp" horiz-adv-x="1549" 
d="M301 0h-330l588 1010h916v-257h-425v-119h377v-245h-377v-132h429v-257h-744v166h-345zM516 403h209v388z" />
    <glyph glyph-name="Ccedilla.smcp" horiz-adv-x="1106" 
d="M498 -12q-192 32 -311 175t-119 342q0 225 150 375t383 150q148 0 271 -75.5t186 -203.5l-230 -162q-69 161 -220 161q-98 0 -161.5 -69t-63.5 -178q0 -107 62 -174.5t157 -67.5q77 0 135.5 41.5t97.5 106.5l229 -159q-139 -238 -399 -266l-20 -65q108 -15 162.5 -67
t54.5 -125q0 -91 -89 -147.5t-232 -56.5q-102 0 -164 30v155q62 -19 131 -19q56 0 88 17.5t32 48.5t-32.5 48.5t-89.5 17.5h-74z" />
    <glyph glyph-name="Egrave.smcp" horiz-adv-x="948" 
d="M878 0h-744v1010h740v-257h-425v-119h377v-245h-377v-132h429v-257zM384 1156l-263 334h362l162 -334h-261z" />
    <glyph glyph-name="Eacute.smcp" horiz-adv-x="948" 
d="M134 0v1010h740v-257h-425v-119h377v-245h-377v-132h429v-257h-744zM631 1153h-261l162 334h362z" />
    <glyph glyph-name="Ecircumflex.smcp" horiz-adv-x="948" 
d="M878 0h-744v1010h740v-257h-425v-119h377v-245h-377v-132h429v-257zM118 1125l287 370h196l287 -370h-264l-121 169l-121 -169h-264z" />
    <glyph glyph-name="Edieresis.smcp" horiz-adv-x="948" 
d="M878 0h-744v1010h740v-257h-425v-119h377v-245h-377v-132h429v-257zM546 1339q0 67 42 109.5t109 42.5q68 0 110.5 -42.5t42.5 -109.5t-42.5 -109t-110.5 -42q-67 0 -109 42t-42 109zM168 1339q0 67 42 109.5t109 42.5q68 0 110.5 -42.5t42.5 -109.5t-42.5 -109
t-110.5 -42q-67 0 -109 42t-42 109z" />
    <glyph glyph-name="Igrave.smcp" horiz-adv-x="582" 
d="M449 1010v-1010h-315v1010h315zM157 1156l-263 334h362l162 -334h-261z" />
    <glyph glyph-name="Iacute.smcp" horiz-adv-x="582" 
d="M449 1010v-1010h-315v1010h315zM689 1487l-263 -334h-261l162 334h362z" />
    <glyph glyph-name="Icircumflex.smcp" horiz-adv-x="582" 
d="M134 1010h315v-1010h-315v1010zM-94 1125l287 370h196l287 -370h-264l-121 169l-121 -169h-264z" />
    <glyph glyph-name="Idieresis.smcp" horiz-adv-x="582" 
d="M449 0h-315v1010h315v-1010zM479 1188q-67 0 -109 42t-42 109t42 109.5t109 42.5q68 0 110.5 -42.5t42.5 -109.5t-42.5 -109t-110.5 -42zM-50 1339q0 67 42 109.5t109 42.5q68 0 110.5 -42.5t42.5 -109.5t-42.5 -109t-110.5 -42q-67 0 -109 42t-42 109z" />
    <glyph glyph-name="Eth.smcp" horiz-adv-x="1210" 
d="M28 592h106v418h503q138 0 254 -68t183.5 -184t67.5 -252t-67.5 -252.5t-183.5 -185t-253 -68.5h-504v434h-106v158zM449 592h184v-158h-184v-177h136q106 0 174 72.5t68 175.5q0 104 -68 175.5t-174 71.5h-136v-160z" />
    <glyph glyph-name="Ntilde.smcp" horiz-adv-x="1217" 
d="M134 1010h262l373 -496v496h315v-1010h-262l-373 496v-496h-315v1010zM361 1178l-115 104q110 207 258 207q43 0 138 -48t122 -48q57 0 113 86l115 -104q-110 -207 -259 -207q-48 0 -134 48t-126 48q-49 0 -112 -86z" />
    <glyph glyph-name="Ograve.smcp" horiz-adv-x="1225" 
d="M69 506q0 145 71.5 266t195.5 190t274 69q151 0 276.5 -69t198 -190t72.5 -266q0 -148 -73.5 -269.5t-198 -189.5t-272.5 -68t-272.5 68t-198 189.5t-73.5 269.5zM384 506q0 -105 61 -175t168 -70t168 70t61 175q0 104 -63 173t-166 69t-166 -69t-63 -173zM231 1490h362
l162 -334h-261z" />
    <glyph glyph-name="Oacute.smcp" horiz-adv-x="1225" 
d="M69 506q0 145 71.5 266t195.5 190t274 69q151 0 276.5 -69t198 -190t72.5 -266q0 -148 -73.5 -269.5t-198 -189.5t-272.5 -68t-272.5 68t-198 189.5t-73.5 269.5zM613 748q-103 0 -166 -69t-63 -173q0 -105 61 -175t168 -70t168 70t61 175q0 104 -63 173t-166 69z
M488 1153l162 334h362l-263 -334h-261z" />
    <glyph glyph-name="Ocircumflex.smcp" horiz-adv-x="1225" 
d="M69 506q0 145 71.5 266t195.5 190t274 69q151 0 276.5 -69t198 -190t72.5 -266q0 -148 -73.5 -269.5t-198 -189.5t-272.5 -68t-272.5 68t-198 189.5t-73.5 269.5zM384 506q0 -105 61 -175t168 -70t168 70t61 175q0 104 -63 173t-166 69t-166 -69t-63 -173zM228 1125
l287 370h196l287 -370h-264l-121 169l-121 -169h-264z" />
    <glyph glyph-name="Otilde.smcp" horiz-adv-x="1225" 
d="M69 506q0 145 71.5 266t195.5 190t274 69q151 0 276.5 -69t198 -190t72.5 -266q0 -148 -73.5 -269.5t-198 -189.5t-272.5 -68t-272.5 68t-198 189.5t-73.5 269.5zM613 748q-103 0 -166 -69t-63 -173q0 -105 61 -175t168 -70t168 70t61 175q0 104 -63 173t-166 69z
M240 1282q110 207 258 207q43 0 138 -48t122 -48q57 0 113 86l115 -104q-110 -207 -259 -207q-48 0 -134 48t-126 48q-49 0 -112 -86z" />
    <glyph glyph-name="Odieresis.smcp" horiz-adv-x="1225" 
d="M69 506q0 145 71.5 266t195.5 190t274 69q151 0 276.5 -69t198 -190t72.5 -266q0 -148 -73.5 -269.5t-198 -189.5t-272.5 -68t-272.5 68t-198 189.5t-73.5 269.5zM613 748q-103 0 -166 -69t-63 -173q0 -105 61 -175t168 -70t168 70t61 175q0 104 -63 173t-166 69z
M650 1339q0 67 42 109.5t109 42.5q68 0 110.5 -42.5t42.5 -109.5t-42.5 -109t-110.5 -42q-67 0 -109 42t-42 109zM272 1339q0 67 42 109.5t109 42.5q68 0 110.5 -42.5t42.5 -109.5t-42.5 -109t-110.5 -42q-67 0 -109 42t-42 109z" />
    <glyph glyph-name="multiply.onum" horiz-adv-x="1251" 
d="M411 532l-328 329l214 214l329 -329l329 329l214 -214l-329 -329l329 -329l-214 -214l-329 329l-329 -329l-214 214z" />
    <glyph glyph-name="multiply.onum.tnum" 
d="M499 532l-328 329l214 214l329 -329l329 329l214 -214l-329 -329l329 -329l-214 -214l-329 329l-329 -329l-214 214z" />
    <glyph glyph-name="multiply.tnum" 
d="M499 679l-328 329l214 214l329 -329l329 329l214 -214l-329 -329l329 -329l-214 -214l-329 329l-329 -329l-214 214z" />
    <glyph glyph-name="Oslash.smcp" horiz-adv-x="1295" 
d="M924 960l182 220l121 -96l-181 -218q146 -149 146 -360q0 -148 -73.5 -269.5t-198 -189.5t-272.5 -68q-150 0 -278 72l-180 -218l-121 96l179 216q-144 150 -144 361q0 145 71.5 266t195.5 190t274 69t279 -71zM849 628l-291 -351q43 -16 90 -16q107 0 168 70t61 175
q0 68 -28 122zM446 383l289 349q-38 16 -87 16q-103 0 -166 -69t-63 -173q0 -69 27 -123z" />
    <glyph glyph-name="Ugrave.smcp" horiz-adv-x="1194" 
d="M123 1010h315v-603q0 -72 45.5 -109.5t113.5 -37.5q71 0 115.5 37.5t44.5 109.5v603h315v-613q0 -107 -38.5 -189t-105 -130.5t-150.5 -73t-181 -24.5q-216 0 -345 106t-129 311v613zM221 1490h362l162 -334h-261z" />
    <glyph glyph-name="Uacute.smcp" horiz-adv-x="1194" 
d="M123 1010h315v-603q0 -72 45.5 -109.5t113.5 -37.5q71 0 115.5 37.5t44.5 109.5v603h315v-613q0 -107 -38.5 -189t-105 -130.5t-150.5 -73t-181 -24.5q-216 0 -345 106t-129 311v613zM470 1153l162 334h362l-263 -334h-261z" />
    <glyph glyph-name="Ucircumflex.smcp" horiz-adv-x="1194" 
d="M123 397v613h315v-603q0 -72 45.5 -109.5t113.5 -37.5q71 0 115.5 37.5t44.5 109.5v603h315v-613q0 -107 -38.5 -189t-105 -130.5t-150.5 -73t-181 -24.5q-216 0 -345 106t-129 311zM213 1125l287 370h196l287 -370h-264l-121 169l-121 -169h-264z" />
    <glyph glyph-name="Udieresis.smcp" horiz-adv-x="1194" 
d="M123 1010h315v-603q0 -72 45.5 -109.5t113.5 -37.5q71 0 115.5 37.5t44.5 109.5v603h315v-613q0 -107 -38.5 -189t-105 -130.5t-150.5 -73t-181 -24.5q-216 0 -345 106t-129 311v613zM786 1188q-67 0 -109 42t-42 109t42 109.5t109 42.5q68 0 110.5 -42.5t42.5 -109.5
t-42.5 -109t-110.5 -42zM408 1188q-67 0 -109 42t-42 109t42 109.5t109 42.5q68 0 110.5 -42.5t42.5 -109.5t-42.5 -109t-110.5 -42z" />
    <glyph glyph-name="Yacute.smcp" horiz-adv-x="1140" 
d="M17 1010h354l199 -369l200 369h354l-396 -653v-357h-315v357zM681 1153h-261l162 334h362z" />
    <glyph glyph-name="Thorn.smcp" horiz-adv-x="1120" 
d="M134 0v980h315v-104h201q178 0 288.5 -103t110.5 -269t-110.5 -269t-288.5 -103h-201v-132h-315zM449 379h153q60 0 97.5 33.5t37.5 86.5t-37.5 86.5t-97.5 33.5h-153v-240z" />
    <glyph glyph-name="agrave.alt" horiz-adv-x="1253" 
d="M518 -20q-201 0 -324.5 140.5t-123.5 357.5q0 219 123.5 360.5t324.5 141.5q194 0 291 -121v101h306v-960h-305l-10 74q-43 -44 -118 -69t-164 -25zM599 698q-92 0 -152 -60t-60 -158q0 -95 60.5 -156.5t151.5 -61.5q89 0 147 61t58 157t-58 157t-147 61zM294 1455h362
l162 -334h-261z" />
    <glyph glyph-name="aacute.alt" horiz-adv-x="1253" 
d="M518 -20q-201 0 -324.5 140.5t-123.5 357.5q0 219 123.5 360.5t324.5 141.5q194 0 291 -121v101h306v-960h-305l-10 74q-43 -44 -118 -69t-164 -25zM387 480q0 -95 60.5 -156.5t151.5 -61.5q89 0 147 61t58 157t-58 157t-147 61q-92 0 -152 -60t-60 -158zM779 1113h-261
l162 334h362z" />
    <glyph glyph-name="acircumflex.alt" horiz-adv-x="1253" 
d="M518 -20q-201 0 -324.5 140.5t-123.5 357.5q0 219 123.5 360.5t324.5 141.5q194 0 291 -121v101h306v-960h-305l-10 74q-43 -44 -118 -69t-164 -25zM387 480q0 -95 60.5 -156.5t151.5 -61.5q89 0 147 61t58 157t-58 157t-147 61q-92 0 -152 -60t-60 -158zM244 1084
l287 370h196l287 -370h-264l-121 169l-121 -169h-264z" />
    <glyph glyph-name="atilde.alt" horiz-adv-x="1253" 
d="M518 -20q-201 0 -324.5 140.5t-123.5 357.5q0 219 123.5 360.5t324.5 141.5q194 0 291 -121v101h306v-960h-305l-10 74q-43 -44 -118 -69t-164 -25zM599 698q-92 0 -152 -60t-60 -158q0 -95 60.5 -156.5t151.5 -61.5q89 0 147 61t58 157t-58 157t-147 61zM342 1133
l-115 104q110 207 258 207q43 0 138 -48t122 -48q57 0 113 86l115 -104q-110 -207 -259 -207q-48 0 -134 48t-126 48q-49 0 -112 -86z" />
    <glyph glyph-name="adieresis.alt" horiz-adv-x="1253" 
d="M518 -20q-201 0 -324.5 140.5t-123.5 357.5q0 219 123.5 360.5t324.5 141.5q194 0 291 -121v101h306v-960h-305l-10 74q-43 -44 -118 -69t-164 -25zM599 698q-92 0 -152 -60t-60 -158q0 -95 60.5 -156.5t151.5 -61.5q89 0 147 61t58 157t-58 157t-147 61zM652 1302
q0 67 42 109.5t109 42.5q68 0 110.5 -42.5t42.5 -109.5t-42.5 -109t-110.5 -42q-67 0 -109 42t-42 109zM425 1151q-67 0 -109 42t-42 109t42 109.5t109 42.5q68 0 110.5 -42.5t42.5 -109.5t-42.5 -109t-110.5 -42z" />
    <glyph glyph-name="aring.alt" horiz-adv-x="1253" 
d="M518 -20q-201 0 -324.5 140.5t-123.5 357.5q0 219 123.5 360.5t324.5 141.5q194 0 291 -121v101h306v-960h-305l-10 74q-43 -44 -118 -69t-164 -25zM578 1070q-97 0 -160 61.5t-63 155.5q0 95 63 157.5t160 62.5t160 -62.5t63 -157.5q0 -94 -63 -155.5t-160 -61.5z
M599 698q-92 0 -152 -60t-60 -158q0 -95 60.5 -156.5t151.5 -61.5q89 0 147 61t58 157t-58 157t-147 61zM578 1353q-27 0 -44.5 -19t-17.5 -47q0 -26 17.5 -44.5t44.5 -18.5q26 0 43.5 18.5t17.5 44.5q0 28 -17 47t-44 19z" />
    <glyph glyph-name="divide.onum" horiz-adv-x="1328" 
d="M1218 391h-1107v283h1107v-283zM490 119q0 73 50 122.5t124 49.5t124.5 -49.5t50.5 -122.5t-50.5 -122.5t-124.5 -49.5t-124 49.5t-50 122.5zM664 776q-74 0 -124 49.5t-50 122.5t50 122.5t124 49.5t124.5 -49.5t50.5 -122.5t-50.5 -122.5t-124.5 -49.5z" />
    <glyph glyph-name="divide.onum.tnum" 
d="M1268 391h-1107v283h1107v-283zM540 119q0 73 50 122.5t124 49.5t124.5 -49.5t50.5 -122.5t-50.5 -122.5t-124.5 -49.5t-124 49.5t-50 122.5zM714 776q-74 0 -124 49.5t-50 122.5t50 122.5t124 49.5t124.5 -49.5t50.5 -122.5t-50.5 -122.5t-124.5 -49.5z" />
    <glyph glyph-name="divide.tnum" 
d="M1268 538h-1107v283h1107v-283zM540 266q0 73 50 122.5t124 49.5t124.5 -49.5t50.5 -122.5t-50.5 -122.5t-124.5 -49.5t-124 49.5t-50 122.5zM714 923q-74 0 -124 49.5t-50 122.5t50 122.5t124 49.5t124.5 -49.5t50.5 -122.5t-50.5 -122.5t-124.5 -49.5z" />
    <glyph glyph-name="ugrave.alt" horiz-adv-x="1181" 
d="M125 395v565h315v-535q0 -70 41.5 -114t104.5 -44q71 0 113.5 43t42.5 115v535h315v-559q0 -185 -130 -303t-341 -118q-210 0 -335.5 116.5t-125.5 298.5zM212 1455h362l162 -334h-261z" />
    <glyph glyph-name="uacute.alt" horiz-adv-x="1181" 
d="M586 -20q-210 0 -335.5 116.5t-125.5 298.5v565h315v-535q0 -70 41.5 -114t104.5 -44q71 0 113.5 43t42.5 115v535h315v-559q0 -185 -130 -303t-341 -118zM709 1113h-261l162 334h362z" />
    <glyph glyph-name="ucircumflex.alt" horiz-adv-x="1181" 
d="M125 960h315v-535q0 -70 41.5 -114t104.5 -44q71 0 113.5 43t42.5 115v535h315v-559q0 -185 -130 -303t-341 -118q-210 0 -335.5 116.5t-125.5 298.5v565zM206 1087l287 370h196l287 -370h-264l-121 169l-121 -169h-264z" />
    <glyph glyph-name="udieresis.alt" horiz-adv-x="1181" 
d="M125 395v565h315v-535q0 -70 41.5 -114t104.5 -44q71 0 113.5 43t42.5 115v535h315v-559q0 -185 -130 -303t-341 -118q-210 0 -335.5 116.5t-125.5 298.5zM628 1302q0 67 42 109.5t109 42.5q68 0 110.5 -42.5t42.5 -109.5t-42.5 -109t-110.5 -42q-67 0 -109 42t-42 109z
M401 1151q-67 0 -109 42t-42 109t42 109.5t109 42.5q68 0 110.5 -42.5t42.5 -109.5t-42.5 -109t-110.5 -42z" />
    <glyph glyph-name="yacute.alt" horiz-adv-x="1166" 
d="M421 45l-409 915h356l221 -616l215 616h353l-586 -1360h-323zM458 1113l162 334h362l-263 -334h-261z" />
    <glyph glyph-name="ydieresis.alt" horiz-adv-x="1166" 
d="M421 45l-409 915h356l221 -616l215 616h353l-586 -1360h-323zM621 1306q0 67 42 109.5t109 42.5q68 0 110.5 -42.5t42.5 -109.5t-42.5 -109t-110.5 -42q-67 0 -109 42t-42 109zM394 1155q-67 0 -109 42t-42 109t42 109.5t109 42.5q68 0 110.5 -42.5t42.5 -109.5
t-42.5 -109t-110.5 -42z" />
    <glyph glyph-name="Amacron.smcp" horiz-adv-x="1171" 
d="M343 0h-331l390 1010h367l391 -1010h-331l-57 166h-372zM291 1204v204h591v-204h-591zM586 704l-104 -301h208z" />
    <glyph glyph-name="amacron.alt" horiz-adv-x="1253" 
d="M518 -20q-201 0 -324.5 140.5t-123.5 357.5q0 219 123.5 360.5t324.5 141.5q194 0 291 -121v101h306v-960h-305l-10 74q-43 -44 -118 -69t-164 -25zM387 480q0 -95 60.5 -156.5t151.5 -61.5q89 0 147 61t58 157t-58 157t-147 61q-92 0 -152 -60t-60 -158zM887 1162h-591
v204h591v-204z" />
    <glyph glyph-name="Abreve.smcp" horiz-adv-x="1171" 
d="M12 0l390 1010h367l391 -1010h-331l-57 166h-372l-57 -166h-331zM262 1481h210q2 -57 33.5 -92.5t80.5 -35.5q51 0 81.5 35t32.5 93h210q-7 -148 -95.5 -236.5t-228.5 -88.5q-139 0 -228 89t-96 236zM586 704l-104 -301h208z" />
    <glyph glyph-name="abreve.alt" horiz-adv-x="1253" 
d="M518 -20q-201 0 -324.5 140.5t-123.5 357.5q0 219 123.5 360.5t324.5 141.5q194 0 291 -121v101h306v-960h-305l-10 74q-43 -44 -118 -69t-164 -25zM599 698q-92 0 -152 -60t-60 -158q0 -95 60.5 -156.5t151.5 -61.5q89 0 147 61t58 157t-58 157t-147 61zM277 1440h210
q2 -57 33.5 -92.5t80.5 -35.5q51 0 81.5 35t32.5 93h210q-7 -148 -95.5 -236.5t-228.5 -88.5q-139 0 -228 89t-96 236z" />
    <glyph glyph-name="Aogonek.smcp" horiz-adv-x="1171" 
d="M12 0l390 1010h367l391 -1010h-110q-196 -113 -196 -194q0 -35 25 -56t68 -21q57 0 109 27l64 -176q-88 -57 -220 -57q-120 0 -190 58t-70 153q0 151 191 266h-2l-57 166h-372l-57 -166h-331zM586 704l-104 -301h208z" />
    <glyph glyph-name="aogonek.alt" horiz-adv-x="1253" 
d="M518 -20q-201 0 -324.5 140.5t-123.5 357.5q0 219 123.5 360.5t324.5 141.5q194 0 291 -121v101h306v-960h-90q-196 -113 -196 -194q0 -35 25 -56t68 -21q57 0 109 27l64 -176q-88 -57 -220 -57q-120 0 -190 58t-70 153q0 155 195 268l-10 72q-43 -44 -118 -69t-164 -25z
M387 480q0 -95 60.5 -156.5t151.5 -61.5q89 0 147 61t58 157t-58 157t-147 61q-92 0 -152 -60t-60 -158z" />
    <glyph glyph-name="Cacute.smcp" horiz-adv-x="1106" 
d="M68 505q0 225 150 375t383 150q148 0 271 -75.5t186 -203.5l-230 -162q-69 161 -220 161q-98 0 -161.5 -69t-63.5 -178q0 -107 62 -174.5t157 -67.5q77 0 135.5 41.5t97.5 106.5l229 -159q-156 -270 -468 -270q-230 0 -379 150t-149 375zM490 1153l162 334h362l-263 -334
h-261z" />
    <glyph glyph-name="Ccircumflex.smcp" horiz-adv-x="1106" 
d="M596 -20q-230 0 -379 150t-149 375t150 375t383 150q148 0 271 -75.5t186 -203.5l-230 -162q-69 161 -220 161q-98 0 -161.5 -69t-63.5 -178q0 -107 62 -174.5t157 -67.5q77 0 135.5 41.5t97.5 106.5l229 -159q-156 -270 -468 -270zM483 1125h-264l287 370h196l287 -370
h-264l-121 169z" />
    <glyph glyph-name="Cdotaccent.smcp" horiz-adv-x="1106" 
d="M596 -20q-230 0 -379 150t-149 375t150 375t383 150q148 0 271 -75.5t186 -203.5l-230 -162q-69 161 -220 161q-98 0 -161.5 -69t-63.5 -178q0 -107 62 -174.5t157 -67.5q77 0 135.5 41.5t97.5 106.5l229 -159q-156 -270 -468 -270zM411 1342q0 77 48 125t124 48
q77 0 125.5 -48t48.5 -125q0 -76 -48.5 -124t-125.5 -48q-76 0 -124 48t-48 124z" />
    <glyph glyph-name="Ccaron.smcp" horiz-adv-x="1106" 
d="M68 505q0 225 150 375t383 150q148 0 271 -75.5t186 -203.5l-230 -162q-69 161 -220 161q-98 0 -161.5 -69t-63.5 -178q0 -107 62 -174.5t157 -67.5q77 0 135.5 41.5t97.5 106.5l229 -159q-156 -270 -468 -270q-230 0 -379 150t-149 375zM496 1133l-287 370h264l121 -169
l121 169h264l-287 -370h-196z" />
    <glyph glyph-name="Dcaron.smcp" horiz-adv-x="1210" 
d="M638 0h-504v1010h503q138 0 254 -68t183.5 -184t67.5 -252t-67.5 -252.5t-183.5 -185t-253 -68.5zM449 257h136q106 0 174 72.5t68 175.5q0 104 -68 175.5t-174 71.5h-136v-495zM481 1133l-287 370h264l121 -169l121 169h264l-287 -370h-196z" />
    <glyph glyph-name="Dcroat.smcp" horiz-adv-x="1210" 
d="M28 592h106v418h503q138 0 254 -68t183.5 -184t67.5 -252t-67.5 -252.5t-183.5 -185t-253 -68.5h-504v434h-106v158zM449 592h184v-158h-184v-177h136q106 0 174 72.5t68 175.5q0 104 -68 175.5t-174 71.5h-136v-160z" />
    <glyph glyph-name="Emacron.smcp" horiz-adv-x="948" 
d="M878 0h-744v1010h740v-257h-425v-119h377v-245h-377v-132h429v-257zM791 1204h-591v204h591v-204z" />
    <glyph glyph-name="Ebreve.smcp" horiz-adv-x="948" 
d="M878 0h-744v1010h740v-257h-425v-119h377v-245h-377v-132h429v-257zM191 1481h210q2 -57 33.5 -92.5t80.5 -35.5q51 0 81.5 35t32.5 93h210q-7 -148 -95.5 -236.5t-228.5 -88.5q-139 0 -228 89t-96 236z" />
    <glyph glyph-name="Edotaccent.smcp" horiz-adv-x="948" 
d="M134 0v1010h740v-257h-425v-119h377v-245h-377v-132h429v-257h-744zM342 1342q0 77 48 125t124 48q77 0 125.5 -48t48.5 -125q0 -76 -48.5 -124t-125.5 -48q-76 0 -124 48t-48 124z" />
    <glyph glyph-name="Eogonek.smcp" horiz-adv-x="948" 
d="M134 0v1010h740v-257h-425v-119h377v-245h-377v-132h429v-257q-196 -113 -196 -194q0 -35 25 -56t68 -21q57 0 109 27l64 -176q-88 -57 -220 -57q-120 0 -190 58t-70 153q0 151 191 266h-525z" />
    <glyph glyph-name="Ecaron.smcp" horiz-adv-x="948" 
d="M878 0h-744v1010h740v-257h-425v-119h377v-245h-377v-132h429v-257zM119 1503h264l121 -169l121 169h264l-287 -370h-196z" />
    <glyph glyph-name="Gcircumflex.smcp" horiz-adv-x="1175" 
d="M606 -20q-149 0 -272.5 68.5t-194.5 189t-71 267.5q0 224 155.5 374.5t382.5 150.5q155 0 274.5 -66t191.5 -190l-233 -170q-34 63 -92 103.5t-131 40.5q-103 0 -168 -68.5t-65 -176.5t64 -178.5t166 -70.5q66 0 115.5 23t67.5 64h-233v218h549v-76q0 -230 -143 -366.5
t-363 -136.5zM487 1125h-264l287 370h196l287 -370h-264l-121 169z" />
    <glyph glyph-name="gcircumflex.alt" horiz-adv-x="1125" 
d="M556 -439q-107 0 -194.5 15t-156 45.5t-106 82t-37.5 120.5q0 125 136 196q-57 42 -57 131q0 96 109 182q-77 47 -122.5 121t-45.5 169q0 112 59 194t156.5 122.5t220.5 40.5q83 0 161 -20h395v-217h-141q21 -58 21 -120q0 -112 -59 -194t-156.5 -122.5t-220.5 -40.5
q-58 0 -104 11q-23 -29 -23 -57q0 -18 14.5 -31t35.5 -13h263q83 0 149.5 -16t118 -49.5t79.5 -91.5t28 -137q0 -109 -70 -183t-184.5 -106t-268.5 -32zM164 1084l287 370h196l287 -370h-264l-121 169l-121 -169h-264zM360 623q0 -64 42.5 -100t115.5 -36t115.5 36t42.5 100
t-42.5 100t-115.5 36t-115.5 -36t-42.5 -100zM342 -113q0 -43 50 -62.5t162 -19.5q129 0 182.5 18t53.5 57q0 31 -25 48.5t-69 17.5h-330q-24 -27 -24 -59z" />
    <glyph glyph-name="Gbreve.smcp" horiz-adv-x="1175" 
d="M68 505q0 224 155.5 374.5t382.5 150.5q155 0 274.5 -66t191.5 -190l-233 -170q-34 63 -92 103.5t-131 40.5q-103 0 -168 -68.5t-65 -176.5t64 -178.5t166 -70.5q66 0 115.5 23t67.5 64h-233v218h549v-76q0 -230 -143 -366.5t-363 -136.5q-149 0 -272.5 68.5t-194.5 189
t-71 267.5zM284 1481h210q2 -57 33.5 -92.5t80.5 -35.5q51 0 81.5 35t32.5 93h210q-7 -148 -95.5 -236.5t-228.5 -88.5q-139 0 -228 89t-96 236z" />
    <glyph glyph-name="gbreve.alt" horiz-adv-x="1125" 
d="M556 -439q-107 0 -194.5 15t-156 45.5t-106 82t-37.5 120.5q0 125 136 196q-57 42 -57 131q0 96 109 182q-77 47 -122.5 121t-45.5 169q0 112 59 194t156.5 122.5t220.5 40.5q83 0 161 -20h395v-217h-141q21 -58 21 -120q0 -112 -59 -194t-156.5 -122.5t-220.5 -40.5
q-58 0 -104 11q-23 -29 -23 -57q0 -18 14.5 -31t35.5 -13h263q83 0 149.5 -16t118 -49.5t79.5 -91.5t28 -137q0 -109 -70 -183t-184.5 -106t-268.5 -32zM561 1115q-139 0 -228 89t-96 236h210q2 -57 33.5 -92.5t80.5 -35.5q51 0 81.5 35t32.5 93h210q-7 -148 -95.5 -236.5
t-228.5 -88.5zM518 759q-73 0 -115.5 -36t-42.5 -100t42.5 -100t115.5 -36t115.5 36t42.5 100t-42.5 100t-115.5 36zM366 -54q-24 -27 -24 -59q0 -43 50 -62.5t162 -19.5q129 0 182.5 18t53.5 57q0 31 -25 48.5t-69 17.5h-330z" />
    <glyph glyph-name="Gdotaccent.smcp" horiz-adv-x="1175" 
d="M68 505q0 224 155.5 374.5t382.5 150.5q155 0 274.5 -66t191.5 -190l-233 -170q-34 63 -92 103.5t-131 40.5q-103 0 -168 -68.5t-65 -176.5t64 -178.5t166 -70.5q66 0 115.5 23t67.5 64h-233v218h549v-76q0 -230 -143 -366.5t-363 -136.5q-149 0 -272.5 68.5t-194.5 189
t-71 267.5zM435 1342q0 77 48 125t124 48q77 0 125.5 -48t48.5 -125q0 -76 -48.5 -124t-125.5 -48q-76 0 -124 48t-48 124z" />
    <glyph glyph-name="gdotaccent.alt" horiz-adv-x="1125" 
d="M62 -176q0 125 136 196q-57 42 -57 131q0 96 109 182q-77 47 -122.5 121t-45.5 169q0 112 59 194t156.5 122.5t220.5 40.5q83 0 161 -20h395v-217h-141q21 -58 21 -120q0 -112 -59 -194t-156.5 -122.5t-220.5 -40.5q-58 0 -104 11q-23 -29 -23 -57q0 -18 14.5 -31
t35.5 -13h263q83 0 149.5 -16t118 -49.5t79.5 -91.5t28 -137q0 -109 -70 -183t-184.5 -106t-268.5 -32q-107 0 -194.5 15t-156 45.5t-106 82t-37.5 120.5zM537 1133q-76 0 -124 48t-48 124q0 77 48 125t124 48q77 0 125.5 -48t48.5 -125q0 -76 -48.5 -124t-125.5 -48z
M518 759q-73 0 -115.5 -36t-42.5 -100t42.5 -100t115.5 -36t115.5 36t42.5 100t-42.5 100t-115.5 36zM366 -54q-24 -27 -24 -59q0 -43 50 -62.5t162 -19.5q129 0 182.5 18t53.5 57q0 31 -25 48.5t-69 17.5h-330z" />
    <glyph glyph-name="Gcommaaccent.smcp" horiz-adv-x="1175" 
d="M606 -20q-149 0 -272.5 68.5t-194.5 189t-71 267.5q0 224 155.5 374.5t382.5 150.5q155 0 274.5 -66t191.5 -190l-233 -170q-34 63 -92 103.5t-131 40.5q-103 0 -168 -68.5t-65 -176.5t64 -178.5t166 -70.5q66 0 115.5 23t67.5 64h-233v218h549v-76q0 -230 -143 -366.5
t-363 -136.5zM703 -538h-226v442h297z" />
    <glyph glyph-name="gcommaaccent.alt" horiz-adv-x="1125" 
d="M556 -439q-107 0 -194.5 15t-156 45.5t-106 82t-37.5 120.5q0 125 136 196q-57 42 -57 131q0 96 109 182q-77 47 -122.5 121t-45.5 169q0 112 59 194t156.5 122.5t220.5 40.5q83 0 161 -20h395v-217h-141q21 -58 21 -120q0 -112 -59 -194t-156.5 -122.5t-220.5 -40.5
q-58 0 -104 11q-23 -29 -23 -57q0 -18 14.5 -31t35.5 -13h263q83 0 149.5 -16t118 -49.5t79.5 -91.5t28 -137q0 -109 -70 -183t-184.5 -106t-268.5 -32zM300 1109l71 442h226v-442h-297zM360 623q0 -64 42.5 -100t115.5 -36t115.5 36t42.5 100t-42.5 100t-115.5 36
t-115.5 -36t-42.5 -100zM342 -113q0 -43 50 -62.5t162 -19.5q129 0 182.5 18t53.5 57q0 31 -25 48.5t-69 17.5h-330q-24 -27 -24 -59z" />
    <glyph glyph-name="Hcircumflex.smcp" horiz-adv-x="1263" 
d="M134 0v1010h315v-368h366v368h315v-1010h-315v385h-366v-385h-315zM511 1125h-264l287 370h196l287 -370h-264l-121 169z" />
    <glyph glyph-name="Hbar.smcp" horiz-adv-x="1286" 
d="M1142 890h103v-153h-103v-737h-315v385h-366v-385h-315v737h-104v153h104v120h315v-120h366v120h315v-120zM827 737h-366v-95h366v95z" />
    <glyph glyph-name="Itilde.smcp" horiz-adv-x="582" 
d="M134 1010h315v-1010h-315v1010zM-13 1178l-115 104q110 207 258 207q43 0 138 -48t122 -48q57 0 113 86l115 -104q-110 -207 -259 -207q-48 0 -134 48t-126 48q-49 0 -112 -86z" />
    <glyph glyph-name="Imacron.smcp" horiz-adv-x="582" 
d="M449 1010v-1010h-315v1010h315zM587 1408v-204h-591v204h591z" />
    <glyph glyph-name="Ibreve.smcp" horiz-adv-x="582" 
d="M449 0h-315v1010h315v-1010zM-33 1481h210q2 -57 33.5 -92.5t80.5 -35.5q51 0 81.5 35t32.5 93h210q-7 -148 -95.5 -236.5t-228.5 -88.5q-139 0 -228 89t-96 236z" />
    <glyph glyph-name="Iogonek.smcp" horiz-adv-x="582" 
d="M-8 -266q0 151 191 266h-49v1010h315v-1010h-47q-196 -113 -196 -194q0 -35 25 -56t68 -21q57 0 109 27l64 -176q-88 -57 -220 -57q-120 0 -190 58t-70 153z" />
    <glyph glyph-name="Idotaccent.smcp" horiz-adv-x="582" 
d="M134 1010h315v-1010h-315v1010zM118 1342q0 77 48 125t124 48q77 0 125.5 -48t48.5 -125q0 -76 -48.5 -124t-125.5 -48q-76 0 -124 48t-48 124z" />
    <glyph glyph-name="dotlessi.smcp" horiz-adv-x="582" 
d="M449 1010v-1010h-315v1010h315z" />
    <glyph glyph-name="IJ.smcp" horiz-adv-x="1428" 
d="M512 172l196 189q75 -102 160 -102q54 0 88.5 34.5t34.5 93.5v624h315v-642q0 -177 -115 -283t-307 -106q-126 0 -223.5 52.5t-148.5 139.5zM134 0v1010h315v-1010h-315z" />
    <glyph glyph-name="Jcircumflex.smcp" horiz-adv-x="923" 
d="M7 172l196 189q75 -102 160 -102q54 0 88.5 34.5t34.5 93.5v624h315v-642q0 -177 -115 -283t-307 -106q-126 0 -223.5 52.5t-148.5 139.5zM255 1125l287 370h196l287 -370h-264l-121 169l-121 -169h-264z" />
    <glyph glyph-name="Kcommaaccent.smcp" horiz-adv-x="1191" 
d="M134 0v1010h315v-380l341 380h381l-421 -459l437 -551h-378l-270 369l-90 -96v-273h-315zM673 -538h-226v442h297z" />
    <glyph glyph-name="kgreenlandic.smcp" horiz-adv-x="1191" 
d="M134 0v1010h315v-380l341 380h381l-421 -459l437 -551h-378l-270 369l-90 -96v-273h-315z" />
    <glyph glyph-name="Lacute.smcp" horiz-adv-x="964" 
d="M932 257v-257h-798v1010h315v-753h483zM691 1487l-263 -334h-261l162 334h362z" />
    <glyph glyph-name="lacute.alt" horiz-adv-x="632" 
d="M130 1408h315v-1087q0 -75 83 -75q43 0 87 11l13 -247q-88 -30 -203 -30q-295 0 -295 286v1142zM413 1473h-261l162 334h362z" />
    <glyph glyph-name="Lcommaaccent.smcp" horiz-adv-x="964" 
d="M932 257v-257h-798v1010h315v-753h483zM397 -538v442h297l-71 -442h-226z" />
    <glyph glyph-name="lcommaaccent.alt" horiz-adv-x="632" 
d="M130 266v1142h315v-1087q0 -75 83 -75q43 0 87 11l13 -247q-88 -30 -203 -30q-295 0 -295 286zM221 -538v442h297l-71 -442h-226z" />
    <glyph glyph-name="Lcaron.smcp" horiz-adv-x="968" 
d="M606 558v442h297l-71 -442h-226zM932 257v-257h-798v1010h315v-753h483z" />
    <glyph glyph-name="lcaron.alt" horiz-adv-x="645" 
d="M130 1408h315v-1087q0 -75 83 -75q43 0 87 11l13 -247q-88 -30 -203 -30q-295 0 -295 286v1142zM556 966v442h297l-71 -442h-226z" />
    <glyph glyph-name="Ldot.smcp" horiz-adv-x="966" 
d="M932 0h-798v1010h315v-753h483v-257zM562 536q0 77 48 125t124 48q77 0 125.5 -48t48.5 -125q0 -76 -48.5 -124t-125.5 -48q-76 0 -124 48t-48 124z" />
    <glyph glyph-name="ldot.alt" horiz-adv-x="848" 
d="M130 1408h315v-1087q0 -75 83 -75q43 0 87 11l13 -247q-88 -30 -203 -30q-295 0 -295 286v1142zM688 507q-76 0 -124 48t-48 124q0 77 48 125t124 48q77 0 125.5 -48t48.5 -125q0 -76 -48.5 -124t-125.5 -48z" />
    <glyph glyph-name="Lslash.smcp" horiz-adv-x="996" 
d="M481 664l225 13v-152l-225 -13v-255h483v-257h-798v493l-147 -9v152l147 9v365h315v-346z" />
    <glyph glyph-name="lslash.alt" horiz-adv-x="702" 
d="M25 380v170l155 61v797h315v-673l164 65v-184l-164 -61v-234q0 -75 83 -75q43 0 87 11l13 -247q-88 -30 -203 -30q-295 0 -295 286v172z" />
    <glyph glyph-name="Nacute.smcp" horiz-adv-x="1217" 
d="M134 1010h262l373 -496v496h315v-1010h-262l-373 496v-496h-315v1010zM731 1153h-261l162 334h362z" />
    <glyph glyph-name="Ncommaaccent.smcp" horiz-adv-x="1217" 
d="M134 1010h262l373 -496v496h315v-1010h-262l-373 496v-496h-315v1010zM481 -538v442h297l-71 -442h-226z" />
    <glyph glyph-name="Ncaron.smcp" horiz-adv-x="1217" 
d="M134 0v1010h262l373 -496v496h315v-1010h-262l-373 496v-496h-315zM224 1503h264l121 -169l121 169h264l-287 -370h-196z" />
    <glyph glyph-name="napostrophe.smcp" horiz-adv-x="1493" 
d="M410 0v1010h262l373 -496v496h315v-1010h-262l-373 496v-496h-315zM267 912h-226l137 516h312z" />
    <glyph glyph-name="Eng.smcp" horiz-adv-x="1217" 
d="M134 0v1010h262l373 -496v496h315v-1054q0 -93 -30.5 -166.5t-81.5 -118t-115.5 -68t-135.5 -23.5q-134 0 -204 43l26 248q67 -21 109 -21q117 0 117 129v91l-320 426v-496h-315z" />
    <glyph glyph-name="Omacron.smcp" horiz-adv-x="1225" 
d="M69 506q0 145 71.5 266t195.5 190t274 69q151 0 276.5 -69t198 -190t72.5 -266q0 -148 -73.5 -269.5t-198 -189.5t-272.5 -68t-272.5 68t-198 189.5t-73.5 269.5zM613 748q-103 0 -166 -69t-63 -173q0 -105 61 -175t168 -70t168 70t61 175q0 104 -63 173t-166 69z
M318 1408h591v-204h-591v204z" />
    <glyph glyph-name="Obreve.smcp" horiz-adv-x="1225" 
d="M69 506q0 145 71.5 266t195.5 190t274 69q151 0 276.5 -69t198 -190t72.5 -266q0 -148 -73.5 -269.5t-198 -189.5t-272.5 -68t-272.5 68t-198 189.5t-73.5 269.5zM384 506q0 -105 61 -175t168 -70t168 70t61 175q0 104 -63 173t-166 69t-166 -69t-63 -173zM613 1156
q-139 0 -228 89t-96 236h210q2 -57 33.5 -92.5t80.5 -35.5q51 0 81.5 35t32.5 93h210q-7 -148 -95.5 -236.5t-228.5 -88.5z" />
    <glyph glyph-name="Ohungarumlaut.smcp" horiz-adv-x="1225" 
d="M69 506q0 145 71.5 266t195.5 190t274 69q151 0 276.5 -69t198 -190t72.5 -266q0 -148 -73.5 -269.5t-198 -189.5t-272.5 -68t-272.5 68t-198 189.5t-73.5 269.5zM384 506q0 -105 61 -175t168 -70t168 70t61 175q0 104 -63 173t-166 69t-166 -69t-63 -173zM691 1153
l182 334h342l-273 -334h-251zM572 1153h-251l162 334h322z" />
    <glyph glyph-name="OE.smcp" horiz-adv-x="1711" 
d="M615 -19q-243 0 -394.5 146t-151.5 380q0 233 151.5 378t394.5 145q144 0 252 -75v55h770v-257h-455v-119h407v-245h-407v-132h459v-257h-774v55q-106 -74 -252 -74zM381 507q0 -110 68 -179t177 -69q104 0 170.5 65.5t70.5 171.5v11q0 109 -67 176.5t-174 67.5
q-109 0 -177 -67.5t-68 -176.5z" />
    <glyph glyph-name="Racute.smcp" horiz-adv-x="1098" 
d="M449 0h-315v1010h575q145 0 245 -98t100 -248q0 -104 -51.5 -184.5t-138.5 -121.5l197 -359h-311l-168 325h-133v-324zM661 1153h-261l162 334h362zM449 564h176q53 0 83.5 25t30.5 67t-30.5 69.5t-83.5 27.5h-176v-189z" />
    <glyph glyph-name="Rcommaaccent.smcp" horiz-adv-x="1098" 
d="M134 0v1010h575q145 0 245 -98t100 -248q0 -104 -51.5 -184.5t-138.5 -121.5l197 -359h-311l-168 325h-133v-324h-315zM417 -538v442h297l-71 -442h-226zM625 753h-176v-189h176q53 0 83.5 25t30.5 67t-30.5 69.5t-83.5 27.5z" />
    <glyph glyph-name="Rcaron.smcp" horiz-adv-x="1098" 
d="M134 0v1010h575q145 0 245 -98t100 -248q0 -104 -51.5 -184.5t-138.5 -121.5l197 -359h-311l-168 325h-133v-324h-315zM469 1133l-287 370h264l121 -169l121 169h264l-287 -370h-196zM449 564h176q53 0 83.5 25t30.5 67t-30.5 69.5t-83.5 27.5h-176v-189z" />
    <glyph glyph-name="Sacute.smcp" horiz-adv-x="1008" 
d="M509 -20q-157 0 -271 65t-175 171l217 166q50 -71 114 -105t125 -34q48 0 80 14t32 42t-38 43t-166 46q-70 17 -126 42t-103.5 62.5t-74 91.5t-26.5 121q0 141 115 233t290 92q140 0 244.5 -58t164.5 -161l-212 -157q-31 60 -84.5 90.5t-108.5 30.5q-47 0 -78 -17
t-31 -45t41 -45t144 -42q355 -89 355 -328q0 -140 -118.5 -229t-309.5 -89zM380 1153l162 334h362l-263 -334h-261z" />
    <glyph glyph-name="Scircumflex.smcp" horiz-adv-x="1008" 
d="M509 -20q-157 0 -271 65t-175 171l217 166q50 -71 114 -105t125 -34q48 0 80 14t32 42t-38 43t-166 46q-70 17 -126 42t-103.5 62.5t-74 91.5t-26.5 121q0 141 115 233t290 92q140 0 244.5 -58t164.5 -161l-212 -157q-31 60 -84.5 90.5t-108.5 30.5q-47 0 -78 -17
t-31 -45t41 -45t144 -42q355 -89 355 -328q0 -140 -118.5 -229t-309.5 -89zM393 1125h-264l287 370h196l287 -370h-264l-121 169z" />
    <glyph glyph-name="Scedilla.smcp" horiz-adv-x="1008" 
d="M390 -9q-113 22 -196 81.5t-131 143.5l217 166q50 -71 114 -105t125 -34q48 0 80 14t32 42t-38 43t-166 46q-70 17 -126 42t-103.5 62.5t-74 91.5t-26.5 121q0 141 115 233t290 92q140 0 244.5 -58t164.5 -161l-212 -157q-31 60 -84.5 90.5t-108.5 30.5q-47 0 -78 -17
t-31 -45t41 -45t144 -42q355 -89 355 -328q0 -131 -105 -218.5t-278 -98.5l-19 -62q108 -15 162.5 -67t54.5 -125q0 -91 -89 -147.5t-232 -56.5q-102 0 -164 30v155q62 -19 131 -19q56 0 88 17.5t32 48.5t-32.5 48.5t-89.5 17.5h-74z" />
    <glyph glyph-name="Scaron.smcp" horiz-adv-x="1008" 
d="M63 216l217 166q50 -71 114 -105t125 -34q48 0 80 14t32 42t-38 43t-166 46q-70 17 -126 42t-103.5 62.5t-74 91.5t-26.5 121q0 141 115 233t290 92q140 0 244.5 -58t164.5 -161l-212 -157q-31 60 -84.5 90.5t-108.5 30.5q-47 0 -78 -17t-31 -45t41 -45t144 -42
q355 -89 355 -328q0 -140 -118.5 -229t-309.5 -89q-157 0 -271 65t-175 171zM415 1133l-287 370h264l121 -169l121 169h264l-287 -370h-196z" />
    <glyph glyph-name="Tcedilla.smcp" horiz-adv-x="954" 
d="M320 753h-291v257h897v-257h-291v-753h-102l-25 -81q108 -15 162.5 -67t54.5 -125q0 -91 -89 -147.5t-232 -56.5q-102 0 -164 30v155q62 -19 131 -19q56 0 88 17.5t32 48.5t-32.5 48.5t-89.5 17.5h-74l71 179h-46v753z" />
    <glyph glyph-name="Tcaron.smcp" horiz-adv-x="954" 
d="M29 753v257h897v-257h-291v-753h-315v753h-291zM379 1133l-287 370h264l121 -169l121 169h264l-287 -370h-196z" />
    <glyph glyph-name="Tbar.smcp" horiz-adv-x="996" 
d="M341 753h-291v257h897v-257h-291v-160h206v-152h-206v-441h-315v441h-206v152h206v160z" />
    <glyph glyph-name="Utilde.smcp" horiz-adv-x="1194" 
d="M123 397v613h315v-603q0 -72 45.5 -109.5t113.5 -37.5q71 0 115.5 37.5t44.5 109.5v603h315v-613q0 -107 -38.5 -189t-105 -130.5t-150.5 -73t-181 -24.5q-216 0 -345 106t-129 311zM340 1178l-115 104q110 207 258 207q43 0 138 -48t122 -48q57 0 113 86l115 -104
q-110 -207 -259 -207q-48 0 -134 48t-126 48q-49 0 -112 -86z" />
    <glyph glyph-name="utilde.alt" horiz-adv-x="1181" 
d="M125 395v565h315v-535q0 -70 41.5 -114t104.5 -44q71 0 113.5 43t42.5 115v535h315v-559q0 -185 -130 -303t-341 -118q-210 0 -335.5 116.5t-125.5 298.5zM218 1237q110 207 258 207q43 0 138 -48t122 -48q57 0 113 86l115 -104q-110 -207 -259 -207q-48 0 -134 48
t-126 48q-49 0 -112 -86z" />
    <glyph glyph-name="Umacron.smcp" horiz-adv-x="1194" 
d="M123 1010h315v-603q0 -72 45.5 -109.5t113.5 -37.5q71 0 115.5 37.5t44.5 109.5v603h315v-613q0 -107 -38.5 -189t-105 -130.5t-150.5 -73t-181 -24.5q-216 0 -345 106t-129 311v613zM302 1408h591v-204h-591v204z" />
    <glyph glyph-name="umacron.alt" horiz-adv-x="1181" 
d="M586 -20q-210 0 -335.5 116.5t-125.5 298.5v565h315v-535q0 -70 41.5 -114t104.5 -44q71 0 113.5 43t42.5 115v535h315v-559q0 -185 -130 -303t-341 -118zM296 1367h591v-204h-591v204z" />
    <glyph glyph-name="Ubreve.smcp" horiz-adv-x="1194" 
d="M123 397v613h315v-603q0 -72 45.5 -109.5t113.5 -37.5q71 0 115.5 37.5t44.5 109.5v603h315v-613q0 -107 -38.5 -189t-105 -130.5t-150.5 -73t-181 -24.5q-216 0 -345 106t-129 311zM598 1156q-139 0 -228 89t-96 236h210q2 -57 33.5 -92.5t80.5 -35.5q51 0 81.5 35
t32.5 93h210q-7 -148 -95.5 -236.5t-228.5 -88.5z" />
    <glyph glyph-name="ubreve.alt" horiz-adv-x="1181" 
d="M125 960h315v-535q0 -70 41.5 -114t104.5 -44q71 0 113.5 43t42.5 115v535h315v-559q0 -185 -130 -303t-341 -118q-210 0 -335.5 116.5t-125.5 298.5v565zM591 1113q-139 0 -228 89t-96 236h210q2 -57 33.5 -92.5t80.5 -35.5q51 0 81.5 35t32.5 93h210
q-7 -148 -95.5 -236.5t-228.5 -88.5z" />
    <glyph glyph-name="Uring.smcp" horiz-adv-x="1194" 
d="M123 1010h315v-603q0 -72 45.5 -109.5t113.5 -37.5q71 0 115.5 37.5t44.5 109.5v603h315v-613q0 -107 -38.5 -189t-105 -130.5t-150.5 -73t-181 -24.5q-216 0 -345 106t-129 311v613zM375 1329q0 95 63 157.5t160 62.5t160 -62.5t63 -157.5q0 -94 -63 -155.5t-160 -61.5
t-160 61.5t-63 155.5zM536 1329q0 -26 17.5 -44.5t44.5 -18.5q26 0 43.5 18.5t17.5 44.5q0 28 -17 47t-44 19t-44.5 -19t-17.5 -47z" />
    <glyph glyph-name="uring.alt" horiz-adv-x="1181" 
d="M125 960h315v-535q0 -70 41.5 -114t104.5 -44q71 0 113.5 43t42.5 115v535h315v-559q0 -185 -130 -303t-341 -118q-210 0 -335.5 116.5t-125.5 298.5v565zM368 1286q0 95 63 157.5t160 62.5t160 -62.5t63 -157.5q0 -94 -63 -155.5t-160 -61.5t-160 61.5t-63 155.5z
M591 1352q-27 0 -44.5 -19t-17.5 -47q0 -26 17.5 -44.5t44.5 -18.5q26 0 43.5 18.5t17.5 44.5q0 28 -17 47t-44 19z" />
    <glyph glyph-name="Uhungarumlaut.smcp" horiz-adv-x="1194" 
d="M123 1010h315v-603q0 -72 45.5 -109.5t113.5 -37.5q71 0 115.5 37.5t44.5 109.5v603h315v-613q0 -107 -38.5 -189t-105 -130.5t-150.5 -73t-181 -24.5q-216 0 -345 106t-129 311v613zM661 1153l182 334h342l-273 -334h-251zM542 1153h-251l162 334h322z" />
    <glyph glyph-name="uhungarumlaut.alt" horiz-adv-x="1181" 
d="M586 -20q-210 0 -335.5 116.5t-125.5 298.5v565h315v-535q0 -70 41.5 -114t104.5 -44q71 0 113.5 43t42.5 115v535h315v-559q0 -185 -130 -303t-341 -118zM909 1113h-251l182 334h342zM288 1113l162 334h322l-233 -334h-251z" />
    <glyph glyph-name="Uogonek.smcp" horiz-adv-x="1194" 
d="M123 397v613h315v-603q0 -72 45.5 -109.5t113.5 -37.5q71 0 115.5 37.5t44.5 109.5v603h315v-613q0 -163 -84.5 -262.5t-226.5 -135.5q-195 -112 -195 -193q0 -35 25 -56t68 -21q57 0 109 27l64 -176q-88 -57 -220 -57q-120 0 -190 58t-70 153q0 141 165 250
q-182 19 -288 123.5t-106 289.5z" />
    <glyph glyph-name="uogonek.alt" horiz-adv-x="1181" 
d="M497 -14q-172 24 -272 136t-100 273v565h315v-535q0 -70 41.5 -114t104.5 -44q71 0 113.5 43t42.5 115v535h315v-559q0 -149 -87 -257t-236 -146q-192 -111 -192 -192q0 -35 25 -56t68 -21q57 0 109 27l64 -176q-88 -57 -220 -57q-120 0 -190 58t-70 153q0 143 169 252z
" />
    <glyph glyph-name="Wcircumflex.smcp" horiz-adv-x="1585" 
d="M27 1010h321l165 -662l164 648h232l164 -648l165 662h321l-282 -1010h-346l-138 482l-138 -482h-346zM672 1125h-264l287 370h196l287 -370h-264l-121 169z" />
    <glyph glyph-name="Ycircumflex.smcp" horiz-adv-x="1140" 
d="M17 1010h354l199 -369l200 369h354l-396 -653v-357h-315v357zM450 1125h-264l287 370h196l287 -370h-264l-121 169z" />
    <glyph glyph-name="ycircumflex.alt" horiz-adv-x="1166" 
d="M12 960h356l221 -616l215 616h353l-586 -1360h-323l173 445zM199 1085l287 370h196l287 -370h-264l-121 169l-121 -169h-264z" />
    </font>
</defs>
</svg>
