<?xml version="1.0" standalone="no"?>
<!DOCTYPE svg PUBLIC "-//W3C//DTD SVG 1.1//EN" "http://www.w3.org/Graphics/SVG/1.1/DTD/svg11.dtd" >
<svg xmlns="http://www.w3.org/2000/svg">
<metadata></metadata>
<defs>
<font id="nokia_pure_textregular" horiz-adv-x="1212" >
<font-face units-per-em="2048" ascent="1638" descent="-410" />
<missing-glyph horiz-adv-x="499" />
<glyph unicode="&#xfb01;" horiz-adv-x="1220" d="M61 870v154h195v106q0 92 19.5 171t63.5 137.5t115.5 91.5t176.5 33q53 0 91 -6.5t48 -8.5l-12 -143q-8 2 -29.5 4t-64.5 2q-117 0 -171.5 -67.5t-54.5 -227.5v-92h629v-1024h-182v870h-447v-870h-182v870h-195zM856 1356q0 53 32 89t87 36t87 -35t32 -90t-32 -90 t-87 -35t-87 36t-32 89z" />
<glyph unicode="&#xfb02;" horiz-adv-x="1241" d="M61 870v154h195v106q0 92 19.5 171t63.5 137.5t115.5 91.5t176.5 33q53 0 91 -6.5t48 -8.5l-12 -143q-8 2 -29.5 4t-64.5 2q-117 0 -171.5 -67.5t-54.5 -227.5v-92h318v-154h-318v-870h-182v870h-195zM905 0v1536h182v-1536h-182z" />
<glyph unicode="&#xfb03;" horiz-adv-x="1849" d="M61 870v154h195v117q0 92 22.5 170t69.5 133t123 87t180 32q70 0 121 -9.5t66 -13.5l-21 -139q-10 2 -50 6t-83 4q-117 0 -181.5 -62.5t-64.5 -222.5v-102h447v106q0 92 19.5 171t63.5 137.5t115.5 91.5t176.5 33q53 0 91 -6.5t48 -8.5l-13 -143q-8 2 -29.5 4t-64.5 2 q-117 0 -171 -67.5t-54 -227.5v-92h629v-1024h-183v870h-446v-870h-182v870h-447v-870h-182v870h-195zM1485 1356q0 53 31.5 89t87.5 36q55 0 86.5 -35t31.5 -90t-31.5 -90t-86.5 -35t-87 36t-32 89z" />
<glyph unicode="&#xfb04;" horiz-adv-x="1869" d="M61 870v154h195v117q0 92 22.5 170t69.5 133t123 87t180 32q70 0 121 -9.5t66 -13.5l-21 -139q-10 2 -50 6t-83 4q-117 0 -181.5 -62.5t-64.5 -222.5v-102h447v106q0 92 19.5 171t63.5 137.5t115.5 91.5t176.5 33q53 0 91 -6.5t48 -8.5l-13 -143q-8 2 -29.5 4t-64.5 2 q-117 0 -171 -67.5t-54 -227.5v-92h317v-154h-317v-870h-182v870h-447v-870h-182v870h-195zM1534 0v1536h182v-1536h-182z" />
<glyph unicode="&#xd;" horiz-adv-x="499" />
<glyph horiz-adv-x="0" />
<glyph horiz-adv-x="0" />
<glyph unicode=" "  horiz-adv-x="499" />
<glyph unicode="&#x09;" horiz-adv-x="499" />
<glyph unicode="&#xa0;" horiz-adv-x="499" />
<glyph unicode="!" horiz-adv-x="618" d="M178 111q0 59 36 98t95 39t95 -39t36 -98t-35.5 -98.5t-95.5 -39.5q-59 0 -95 39t-36 99zM215 395v1045h188v-1045h-188z" />
<glyph unicode="&#x22;" horiz-adv-x="921" d="M180 1440h195l-19 -537h-155zM547 1440h195l-19 -537h-155z" />
<glyph unicode="#" d="M39 383l27 147h202l76 379h-225l26 148h228l71 356h162l-71 -356h280l72 356h162l-72 -356h197l-27 -148h-199l-76 -379h222l-27 -147h-221l-76 -383h-162l76 383h-283l-75 -383h-162l76 383h-201zM430 530h281l75 379h-280z" />
<glyph unicode="$" d="M102 113l76 133q25 -14 57.5 -32.5t75.5 -35t95.5 -30t115.5 -15.5v522l-69 23q-68 25 -124.5 55.5t-96 73.5t-61 99.5t-21.5 133.5q0 156 96 259.5t276 125.5v193h137v-188q113 -10 199 -42t139 -67l-67 -135q-35 20 -103.5 50t-167.5 40v-496l56 -18 q158 -53 238.5 -140t80.5 -235q0 -160 -94 -267.5t-281 -129.5v-213h-137v207q-92 2 -165.5 20.5t-127 41t-86 41.5t-41.5 26zM319 1053q0 -43 9.5 -78t32 -62.5t61.5 -51t100 -44.5v457q-98 -16 -150.5 -72.5t-52.5 -148.5zM659 139q113 23 156 84.5t43 151.5 q0 82 -42 142.5t-157 100.5v-479z" />
<glyph unicode="%" horiz-adv-x="1914" d="M113 1030q0 199 80.5 304.5t242.5 105.5q160 0 240 -105.5t80 -304.5t-80 -303t-240 -104q-323 -1 -323 407zM270 1030q0 -274 166 -274q80 0 121 69.5t41 204.5q0 274 -162 275q-166 -1 -166 -275zM483 0l764 1413h187l-764 -1413h-187zM1159 381q0 199 81 304.5 t243 105.5q160 0 239.5 -105.5t79.5 -304.5t-78.5 -303.5t-240.5 -104.5q-324 0 -324 408zM1317 381q0 -274 166 -275q82 0 122 70t40 205q0 274 -162 274q-166 0 -166 -274z" />
<glyph unicode="&#x26;" horiz-adv-x="1406" d="M102 381q0 152 86 255t236 173q-74 88 -108.5 160.5t-34.5 163.5q0 154 94 247t272 93q72 0 136.5 -19.5t112.5 -58.5t76.5 -98.5t28.5 -137.5q0 -72 -22.5 -128t-64.5 -102t-101 -84t-133 -73l362 -432q45 49 83 108.5t73 131.5l137 -70q-35 -78 -84 -153.5t-106 -137.5 l186 -219h-223l-92 106q-90 -61 -195.5 -97t-228.5 -36q-129 0 -221 31t-151.5 84t-88.5 128t-29 165zM297 397q0 -262 303 -262q172 0 315 90l-399 473q-106 -57 -162.5 -130.5t-56.5 -170.5zM451 1135q0 -72 37.5 -131.5t95.5 -124.5q51 25 97 50t79 56t52 71t19 93 q0 86 -52 134t-134 48q-92 0 -143 -53t-51 -143z" />
<glyph unicode="'" horiz-adv-x="552" d="M180 1440h195l-19 -537h-155z" />
<glyph unicode="(" horiz-adv-x="585" d="M123 670q0 160 21.5 297t52 247.5t65.5 192.5t62 129h180q-33 -61 -65.5 -150.5t-59.5 -200t-43.5 -240.5t-16.5 -275t16.5 -275.5t43.5 -241t59.5 -199.5t65.5 -151h-180q-27 47 -62 129t-65.5 193t-52 248t-21.5 297z" />
<glyph unicode=")" horiz-adv-x="585" d="M82 -197q33 61 65.5 150.5t59 200t43 240.5t16.5 276q0 145 -16.5 275t-43 240.5t-59 200t-65.5 150.5h180q27 -47 61.5 -129t65.5 -192.5t52.5 -247.5t21.5 -297t-21.5 -297t-52.5 -248t-65.5 -193t-61.5 -129h-180z" />
<glyph unicode="*" horiz-adv-x="833" d="M61 1227l52 143l243 -117l-30 283h180l-31 -283q59 29 121.5 58.5t122.5 58.5l53 -143l-262 -80l205 -223l-127 -99l-172 238l-172 -238l-125 99l203 223z" />
<glyph unicode="+" d="M154 625v163h366v400h172v-400h367v-163h-367v-400h-172v400h-366z" />
<glyph unicode="," horiz-adv-x="552" d="M72 -301q12 18 33.5 53t43 76t41 83t27.5 73q-33 16 -54.5 46.5t-21.5 78.5q0 66 37 102.5t98 36.5q57 0 94.5 -40t37.5 -108t-32 -144.5t-73 -145t-78 -118.5t-49 -65z" />
<glyph unicode="-" horiz-adv-x="833" d="M123 479v189h588v-189h-588z" />
<glyph unicode="." horiz-adv-x="552" d="M145 111q0 59 36 98t95 39t95.5 -39t36.5 -98t-36 -98.5t-96 -39.5q-59 0 -95 39t-36 99z" />
<glyph unicode="/" horiz-adv-x="897" d="M31 -96l639 1632h196l-639 -1632h-196z" />
<glyph unicode="0" d="M100 707q0 356 123 544.5t383 188.5t383 -187.5t123 -545.5q0 -360 -123 -547t-383 -187t-383 188t-123 546zM293 707q0 -289 75.5 -430.5t237.5 -141.5q160 0 237 142.5t77 429.5q0 289 -77 429t-237 140t-236.5 -140t-76.5 -429z" />
<glyph unicode="1" d="M180 1141l457 272h133v-1413h-186v1194l-332 -193z" />
<glyph unicode="2" d="M154 1214q20 31 58 70t92 74t126 58.5t162 23.5q111 0 190.5 -32t131 -84t75 -119.5t23.5 -137.5q0 -78 -25.5 -143.5t-70 -123t-100.5 -108.5t-118 -98q-156 -119 -239.5 -220.5t-96.5 -213.5h668v-160h-860v33q0 111 23.5 200t71.5 166.5t120 149t168 145.5 q63 49 113.5 93t84 87.5t51 88.5t17.5 98q0 92 -57 155.5t-182 63.5q-61 0 -110.5 -17.5t-88.5 -42t-65.5 -53t-45.5 -53.5z" />
<glyph unicode="3" d="M121 27l41 147q37 -10 109.5 -24.5t195.5 -14.5q150 0 242 64.5t92 195.5q0 106 -75 177t-239 71h-143v160h137q156 0 226.5 72.5t70.5 177.5q0 98 -57 163.5t-186 65.5q-59 0 -107.5 -12.5t-86.5 -30.5t-65.5 -39.5t-46.5 -38.5l-100 107q18 23 54 52.5t88.5 56t119 45 t148.5 18.5q113 0 192.5 -30t131.5 -80t77 -114.5t25 -134.5q0 -66 -19.5 -121t-53.5 -98t-79 -75.5t-96 -53.5q57 -14 107 -42.5t87 -72t58.5 -99.5t21.5 -124q0 -102 -39 -181t-107.5 -132t-161.5 -81t-202 -28q-129 0 -219 17.5t-141 36.5z" />
<glyph unicode="4" d="M127 354v148l530 911h189l-529 -903h394v364h172v-364h211v-156h-211v-354h-172v354h-584z" />
<glyph unicode="5" d="M129 27l41 147q37 -10 108.5 -23.5t200.5 -13.5q156 0 252 80t96 234q0 51 -13 102t-46 93t-88 67.5t-139 25.5q-86 0 -141.5 -22.5t-90.5 -42.5l-100 71l80 668h678v-162h-545l-45 -401q16 10 71.5 24.5t141.5 14.5q92 0 171 -26.5t135 -80t89 -136.5t33 -195 q0 -98 -35 -185.5t-101.5 -152t-165 -102.5t-227.5 -38t-219 17.5t-141 36.5z" />
<glyph unicode="6" d="M164 610q0 412 139 621t410 209q111 0 186.5 -23.5t136.5 -64.5l-71 -131q-115 59 -252 59q-174 0 -264.5 -133t-106.5 -387q41 66 127 115t199 49q86 0 161.5 -27t132 -82t90 -142t33.5 -206t-32.5 -211t-92 -154.5t-143.5 -95.5t-188 -33q-217 0 -341 158t-124 479z M350 469q0 -63 16.5 -124.5t50.5 -109t86 -77t124 -29.5q74 0 126 24.5t85.5 67.5t50 100.5t16.5 122.5q0 166 -68.5 243t-197.5 77q-135 0 -212 -83t-77 -212z" />
<glyph unicode="7" d="M125 1251v162h913v-149l-571 -1264h-193l578 1251h-727z" />
<glyph unicode="8" d="M137 334q0 76 22.5 135t61.5 105.5t92.5 82t114.5 66.5q-47 25 -92 55.5t-81 72.5t-58.5 98.5t-22.5 129.5q0 74 28.5 139.5t83 114.5t134.5 78t184 29q113 0 194 -28t134 -77t78.5 -113.5t25.5 -138.5q0 -61 -19.5 -113t-52 -95.5t-76.5 -77t-91 -60.5 q131 -66 203.5 -149.5t72.5 -227.5q0 -184 -124 -285.5t-345 -101.5q-111 0 -198 27t-147 75t-91 113.5t-31 145.5zM313 350q0 -100 75 -163.5t216 -63.5q135 0 213 59.5t78 175.5q0 119 -78.5 188t-230.5 118q-59 -27 -108.5 -56.5t-86.5 -66.5t-57.5 -83t-20.5 -108z M346 1079q0 -59 22.5 -103t61.5 -78t92.5 -58.5t112.5 -42.5q106 47 166.5 111.5t60.5 168.5q0 94 -64.5 156.5t-193.5 62.5q-123 0 -190.5 -62.5t-67.5 -154.5z" />
<glyph unicode="9" d="M127 946q0 119 33 210t92 154.5t143 96.5t189 33q217 0 341 -159t124 -488q0 -207 -40 -362t-114 -256t-180.5 -151.5t-239.5 -50.5q-117 0 -186.5 16.5t-87.5 24.5l37 148q10 -4 33.5 -9.5t55 -10.5t68.5 -8t74 -3q102 0 174 35t119 101.5t72.5 163.5t35.5 222 q-41 -66 -127 -115t-198 -49q-86 0 -162 27t-132 82t-90 141t-34 207zM307 969q0 -166 68.5 -243t197.5 -77q135 0 212 83t77 212q0 63 -16.5 124.5t-50 109t-86 77t-123.5 29.5q-74 0 -127 -24.5t-87 -67.5t-49.5 -100.5t-15.5 -122.5z" />
<glyph unicode=":" horiz-adv-x="552" d="M145 111q0 59 36 98t95 39t95.5 -39t36.5 -98t-36 -98.5t-96 -39.5q-59 0 -95 39t-36 99zM145 891q0 59 36 98t95 39t95.5 -39t36.5 -98t-36 -98.5t-96 -39.5q-59 0 -95 39t-36 99z" />
<glyph unicode=";" horiz-adv-x="552" d="M72 -301q12 18 33.5 53t43 76t41 83t27.5 73q-33 16 -54.5 46.5t-21.5 78.5q0 66 37 102.5t98 36.5q57 0 94.5 -40t37.5 -108t-32 -144.5t-73 -145t-78 -118.5t-49 -65zM145 887q0 59 36 98t95 39t95.5 -39t36.5 -98t-36 -98.5t-96 -39.5q-59 0 -95 39t-36 99z" />
<glyph unicode="&#x3c;" d="M176 631v151l797 383l63 -155l-671 -303l671 -304l-63 -155z" />
<glyph unicode="=" d="M195 420v164h823v-164h-823zM195 829v164h823v-164h-823z" />
<glyph unicode="&#x3e;" d="M176 403l672 304l-672 303l64 155l796 -383v-151l-796 -383z" />
<glyph unicode="?" horiz-adv-x="1112" d="M88 1249q23 33 62.5 72t95 72.5t127 56.5t155.5 23q127 0 212 -35t135.5 -90.5t72 -124t21.5 -133.5q0 -63 -17.5 -114.5t-45 -94.5t-62.5 -79t-70 -67q-39 -35 -73.5 -67.5t-60.5 -70.5t-41 -87t-15 -115h-191q0 78 17.5 138.5t48 109.5t71.5 91t86 83q25 23 52.5 49.5 t51 59t38 70.5t14.5 85q0 96 -60.5 160t-199.5 64q-106 0 -178 -46.5t-131 -113.5zM356 111q0 59 36 98t95 39t95 -39t36 -98t-35.5 -98.5t-95.5 -39.5q-59 0 -95 39t-36 99z" />
<glyph unicode="@" horiz-adv-x="2064" d="M131 442q0 223 70.5 422t199.5 348.5t311.5 236.5t405.5 87q201 0 358.5 -56.5t267 -159.5t167 -245.5t57.5 -314.5t-48 -308.5t-125 -230.5t-172 -143t-189 -49q-59 0 -96.5 11t-59 27.5t-31.5 34t-14 29.5q-45 -35 -112.5 -68.5t-176.5 -33.5q-74 0 -136.5 24.5 t-107.5 72.5t-70.5 117.5t-25.5 162.5q0 133 35 243.5t96.5 190.5t146.5 125t185 45q70 0 119 -19.5t79.5 -44t47 -48.5t20.5 -34l33 123h162l-119 -633q-6 -33 -10 -61.5t-4 -46.5q0 -35 19.5 -49.5t58.5 -14.5q41 0 97 33t107.5 102.5t87 179t35.5 263.5q0 150 -49 265.5 t-139 194t-215 119.5t-279 41q-184 0 -333.5 -74.5t-255 -202.5t-164 -299t-58.5 -362q0 -158 41 -296t134 -240.5t244 -162.5t370 -60q133 0 243.5 28.5t197.5 68.5t149.5 85t101.5 80l108 -119q-145 -133 -342.5 -217t-459.5 -84q-264 0 -448.5 71.5t-298.5 195.5 t-165 292t-51 358zM786 406q0 -111 53.5 -171.5t145.5 -60.5t149.5 34t84.5 64l45 238q4 20 8 59t4 84q0 96 -48 150.5t-149 54.5q-61 0 -114.5 -31.5t-93.5 -90t-62.5 -142.5t-22.5 -188z" />
<glyph unicode="A" horiz-adv-x="1191" d="M20 0l476 1440h198l477 -1440h-196l-119 369h-537l-118 -369h-181zM373 535h430l-213 665z" />
<glyph unicode="B" horiz-adv-x="1243" d="M174 0v1440h420q133 0 221 -35t140.5 -88t73 -118.5t20.5 -129.5q0 -78 -25 -135t-60.5 -95t-76.5 -58.5t-74 -26.5q39 -6 92 -24.5t102.5 -58.5t83 -105.5t33.5 -166.5q0 -86 -28.5 -159.5t-91 -127t-159.5 -83t-233 -29.5h-438zM358 164h281q82 0 138.5 20.5t91 54 t49 77.5t14.5 94q0 72 -25.5 120t-72 77.5t-111 43t-143.5 13.5h-222v-500zM358 823h211q84 0 140.5 20.5t90.5 54.5t47 76t13 85q0 111 -70.5 164t-201.5 53h-230v-453z" />
<glyph unicode="C" horiz-adv-x="1271" d="M125 719q0 166 40 303t120 234.5t198.5 151.5t278.5 54q145 0 253.5 -42t194.5 -113l-98 -138q-27 20 -59.5 41t-75.5 37.5t-95 26.5t-120 10q-219 0 -325.5 -150.5t-106.5 -414.5t105.5 -413.5t324.5 -149.5q61 0 115.5 11t98.5 27.5t78.5 37t57.5 36.5l98 -137 q-63 -55 -180 -104.5t-276 -49.5q-156 0 -273 51.5t-195.5 146.5t-118.5 233.5t-40 310.5z" />
<glyph unicode="D" horiz-adv-x="1427" d="M174 0v1440h479q158 0 280 -53.5t204 -148.5t124 -227t42 -292q0 -162 -42 -295t-124 -227.5t-204 -145.5t-280 -51h-479zM362 170h291q223 0 334 147.5t111 403.5t-112 402.5t-333 146.5h-291v-1100z" />
<glyph unicode="E" horiz-adv-x="1103" d="M174 0v1440h848v-170h-660v-436h517v-170h-517v-494h680v-170h-868z" />
<glyph unicode="F" horiz-adv-x="1054" d="M174 0v1440h807v-170h-619v-436h496v-170h-496v-664h-188z" />
<glyph unicode="G" horiz-adv-x="1382" d="M125 719q0 166 40 304t120 238.5t198.5 156t278.5 55.5q147 0 265 -41t204 -113l-98 -137q-53 41 -144.5 77.5t-226.5 36.5q-111 0 -192 -41t-134 -115.5t-79.5 -182t-26.5 -238.5q0 -133 26.5 -239.5t82 -182.5t140.5 -117t203 -41q104 0 174 11.5t119 27.5v424h-260 v164h442v-711q-18 -10 -58 -24.5t-100.5 -28.5t-140 -24.5t-180.5 -10.5q-166 0 -287.5 52.5t-203.5 150.5t-122 237.5t-40 311.5z" />
<glyph unicode="H" horiz-adv-x="1388" d="M174 0v1440h188v-586h664v586h188v-1440h-188v684h-664v-684h-188z" />
<glyph unicode="I" horiz-adv-x="536" d="M174 0v1440h188v-1440h-188z" />
<glyph unicode="J" horiz-adv-x="983" d="M41 72l65 137q6 -4 30 -17.5t60.5 -26.5t86 -23.5t106.5 -10.5q51 0 97 11.5t81 41t54.5 81.5t19.5 136v1039h188v-1041q0 -123 -33.5 -204.5t-91 -133t-133 -73t-161.5 -21.5q-84 0 -150.5 15.5t-114 34t-74 35t-30.5 20.5z" />
<glyph unicode="K" horiz-adv-x="1226" d="M174 0v1440h188v-666l578 666h207l-572 -660l631 -780h-241l-603 754v-754h-188z" />
<glyph unicode="L" horiz-adv-x="1058" d="M174 0v1440h188v-1270h629v-170h-817z" />
<glyph unicode="M" horiz-adv-x="1611" d="M174 0v1440h207l426 -871l424 871h207v-1440h-185v1118l-370 -749h-166l-359 729v-1098h-184z" />
<glyph unicode="N" horiz-adv-x="1388" d="M174 0v1440h195l661 -1135v1135h184v-1440h-182l-674 1143v-1143h-184z" />
<glyph unicode="O" horiz-adv-x="1523" d="M125 719q0 166 40 304t120 238.5t198.5 156t278.5 55.5q158 0 277.5 -55.5t199.5 -156t120 -238.5t40 -304q0 -168 -40 -306.5t-120 -237.5t-199.5 -153.5t-277.5 -54.5q-160 0 -278.5 54.5t-198.5 153.5t-120 237.5t-40 306.5zM330 719q0 -133 25.5 -239.5t79.5 -182.5 t135 -117t192 -41t192.5 41t135 117t79 182.5t25.5 239.5q0 131 -26.5 238.5t-80 182t-134.5 115.5t-191 41q-111 0 -192 -41t-134 -115.5t-79.5 -182t-26.5 -238.5z" />
<glyph unicode="P" horiz-adv-x="1163" d="M174 0v1440h404q133 0 225 -42t149.5 -108.5t83 -146.5t25.5 -154t-25.5 -153.5t-85 -146t-155 -108.5t-236.5 -42h-201v-539h-184zM358 702h197q154 0 235.5 77t81.5 210t-79.5 210t-219.5 77h-215v-574z" />
<glyph unicode="Q" horiz-adv-x="1523" d="M125 719q0 166 40 304t120 238.5t198.5 156t278.5 55.5q158 0 277.5 -55.5t199.5 -156t120 -238.5t40 -304q0 -248 -85 -425t-255 -263q59 -61 154.5 -102.5t201.5 -57.5l-37 -150q-74 6 -151.5 31t-148 58.5t-130 76.5t-94.5 86q-47 -6 -92 -6q-160 0 -278.5 54.5 t-198.5 153.5t-120 237.5t-40 306.5zM330 719q0 -133 25.5 -239.5t79.5 -182.5t135 -117t192 -41t192.5 41t135 117t79 182.5t25.5 239.5q0 131 -26.5 238.5t-80 182t-134.5 115.5t-191 41q-111 0 -192 -41t-134 -115.5t-79.5 -182t-26.5 -238.5z" />
<glyph unicode="R" horiz-adv-x="1234" d="M174 0v1440h416q133 0 222 -42t143.5 -106.5t77 -139.5t22.5 -142q0 -152 -78 -254.5t-221 -147.5l377 -608h-220l-342 580h-213v-580h-184zM358 743h213q147 0 221 71t74 196q0 123 -72.5 194.5t-207.5 71.5h-228v-533z" />
<glyph unicode="S" horiz-adv-x="1175" d="M84 98l80 148q27 -16 67.5 -36t95 -35t118 -25.5t135.5 -10.5q154 0 225.5 64.5t71.5 167.5q0 37 -10.5 72.5t-37 67.5t-72.5 58.5t-118 46.5l-168 48q-164 45 -263 138t-99 255q0 86 30.5 160.5t91 132t149.5 90.5t204 33q141 0 254.5 -34t179.5 -77l-70 -145 q-20 12 -59 26t-88 28.5t-106.5 24t-114.5 9.5q-137 0 -211 -63.5t-74 -166.5q0 -90 56.5 -145.5t187.5 -91.5l168 -47q180 -51 272 -144.5t92 -263.5q0 -92 -32.5 -169t-96 -132t-155 -85t-207.5 -30q-102 0 -186.5 16.5t-148 38t-104.5 44t-57 32.5z" />
<glyph unicode="T" horiz-adv-x="1196" d="M68 1270v170h1060v-170h-436v-1270h-188v1270h-436z" />
<glyph unicode="U" horiz-adv-x="1374" d="M154 563v877h188v-854q0 -127 17.5 -213t57.5 -138.5t106.5 -75t162.5 -22.5q98 0 163.5 22.5t106.5 75t58.5 138.5t17.5 213v854h189v-877q0 -152 -29 -263.5t-93.5 -185t-166 -110.5t-246.5 -37t-245.5 37t-165 110.5t-93 185.5t-28.5 263z" />
<glyph unicode="V" horiz-adv-x="1185" d="M20 1440h197l389 -1225l379 1225h180l-456 -1440h-211z" />
<glyph unicode="W" horiz-adv-x="1665" d="M31 1440h196l246 -1180l264 1147h207l256 -1149l252 1182h182l-331 -1440h-211l-258 1128l-261 -1128h-211z" />
<glyph unicode="X" horiz-adv-x="1263" d="M51 0l473 758l-411 682h223l303 -518l311 518h203l-414 -666l473 -774h-227l-360 610l-365 -610h-209z" />
<glyph unicode="Y" horiz-adv-x="1148" d="M20 1440h209l355 -619l350 619h194l-460 -789v-651h-189v651q-111 193 -229.5 394.5t-229.5 394.5z" />
<glyph unicode="Z" horiz-adv-x="1204" d="M92 0v154l785 1116h-752v170h969v-154l-787 -1116h805v-170h-1020z" />
<glyph unicode="[" horiz-adv-x="708" d="M174 -197v1733h463v-156h-268v-1423h268v-154h-463z" />
<glyph unicode="\" horiz-adv-x="897" d="M31 1536h196l639 -1632h-196z" />
<glyph unicode="]" horiz-adv-x="708" d="M72 -43h268v1423h-268v156h463v-1733h-463v154z" />
<glyph unicode="^" horiz-adv-x="1204" d="M117 647l383 766h202l385 -766h-198l-293 606l-293 -606h-186z" />
<glyph unicode="_" horiz-adv-x="1024" d="M0 -205h1024v-170h-1024v170z" />
<glyph unicode="`" horiz-adv-x="1034" d="M256 1372l80 162l442 -240l-65 -131z" />
<glyph unicode="a" horiz-adv-x="1073" d="M88 293q0 158 102.5 252t307.5 94q33 0 73.5 -2t77.5 -5t65.5 -6t39.5 -5v63q0 113 -66.5 162t-189.5 49q-111 0 -188 -24.5t-111 -45.5l-56 129q18 12 51 28.5t81.5 32t111 26t139.5 10.5q186 0 295 -91.5t109 -265.5v-694h-164l-8 115q-47 -66 -137.5 -104t-186.5 -38 q-61 0 -122.5 16.5t-110.5 53.5t-81 98.5t-32 151.5zM264 293q0 -88 58.5 -131t152.5 -43q51 0 100.5 16.5t89.5 46t64.5 69.5t24.5 89v137q-2 0 -27 4t-61.5 7.5t-79.5 6.5t-80 3q-66 0 -112 -16.5t-74.5 -44t-42 -64.5t-13.5 -80z" />
<glyph unicode="b" horiz-adv-x="1183" d="M143 0v1536h183v-639q8 18 31.5 44t62.5 50.5t92 42t123 17.5q113 0 196.5 -41t139 -113t82 -167t26.5 -206q0 -152 -41 -255t-106.5 -166.5t-148.5 -91t-167 -27.5q-61 0 -109 11t-85 27.5t-62.5 35t-40.5 34.5l-8 -92h-168zM324 260q29 -39 97.5 -79t170.5 -40 q137 0 218 91.5t81 291.5q0 78 -16.5 144.5t-51.5 114.5t-87 75t-124 27q-141 0 -214.5 -98.5t-73.5 -303.5v-223z" />
<glyph unicode="c" horiz-adv-x="1005" d="M104 512q0 119 33 218t96.5 170t153.5 110t207 39q78 0 139.5 -16.5t105.5 -36t69.5 -38t29.5 -24.5l-80 -131q-6 6 -27.5 18.5t-55.5 26.5t-79 24.5t-98 10.5q-139 0 -222 -90.5t-83 -280.5q0 -195 83 -284t222 -89q104 0 172 27t90 39l72 -129q-4 -6 -31 -22.5t-71 -34 t-104 -31t-134 -13.5q-236 0 -362 140.5t-126 396.5z" />
<glyph unicode="d" horiz-adv-x="1183" d="M104 512q0 111 28 209t83 172t139 116t195 42q72 0 126 -18.5t91 -43t59.5 -49.5t32.5 -39v635h182v-1536h-168l-8 90q-43 -41 -114.5 -73.5t-192.5 -32.5q-86 0 -167 25.5t-144.5 87t-102.5 162.5t-39 253zM293 512q0 -100 21.5 -171t60.5 -115t94 -64.5t125 -20.5 q100 0 168.5 39t97.5 78v223q0 209 -72.5 306.5t-216.5 97.5q-72 0 -124 -28t-86.5 -77t-51 -117.5t-16.5 -150.5z" />
<glyph unicode="e" horiz-adv-x="1120" d="M104 514q0 119 31 218t90.5 170t146.5 110t201 39q104 0 186.5 -32t139.5 -99.5t88 -173t31 -252.5v-29h-729q10 -150 91 -240t253 -90q106 0 175 18.5t97 28.5l49 -135q-10 -6 -38.5 -18.5t-71.5 -24.5t-99.5 -21.5t-126.5 -9.5q-256 0 -385 143.5t-129 397.5zM293 606 h536q-10 139 -68.5 215t-187.5 76q-131 0 -195.5 -78t-84.5 -213z" />
<glyph unicode="f" horiz-adv-x="792" d="M61 870v154h195v117q0 92 22.5 170t69.5 133t123 87t180 32q70 0 121 -9.5t66 -13.5l-21 -139q-10 2 -50 6t-83 4q-117 0 -181.5 -62.5t-64.5 -222.5v-102h318v-154h-318v-870h-182v870h-195z" />
<glyph unicode="g" horiz-adv-x="1159" d="M82 -205q0 68 40 128.5t97 101.5q-55 39 -72.5 85t-17.5 85q0 72 41 124t82 87q-53 47 -84 112.5t-31 157.5q0 104 40 176t102.5 116t140.5 63.5t153 19.5q51 0 90 -4.5t70 -9.5t58.5 -9t58.5 -4h278v-137h-53q-10 0 -28.5 1t-40 2l-43 2t-35.5 3q57 -43 79.5 -109.5 t22.5 -115.5q0 -106 -42 -177t-105.5 -114t-140 -60.5t-146.5 -17.5q-59 0 -122.5 9t-115.5 30q-4 -2 -12 -12.5t-16 -25.5t-15.5 -34.5t-7.5 -38.5q0 -23 7.5 -41t30 -33.5t63.5 -24.5t108 -11l211 -4q78 -2 148.5 -12.5t124 -39t85 -79t31.5 -129.5q0 -68 -38 -128.5 t-110.5 -104.5t-179 -70.5t-243.5 -26.5q-80 0 -162 12t-148.5 43t-109.5 83t-43 132zM268 -180q0 -47 24.5 -75t66.5 -44t95.5 -21.5t108.5 -5.5q78 0 143.5 10.5t113.5 31t75 52t27 72.5q0 18 -6.5 38t-25 34t-55 24.5t-98.5 10.5l-200 4q-76 2 -126.5 9t-72.5 11 q-29 -27 -49.5 -66.5t-20.5 -84.5zM319 676q0 -66 24 -112t60.5 -75.5t85 -43t97.5 -13.5t96 13.5t85 43t60.5 75.5t22.5 112t-22.5 112t-60.5 75.5t-85 43t-96 13.5t-97.5 -13.5t-85 -43t-60.5 -76t-24 -111.5z" />
<glyph unicode="h" horiz-adv-x="1155" d="M143 0v1536h183v-643q14 25 41.5 52.5t67.5 51t94.5 39t121.5 15.5q176 0 268.5 -102.5t92.5 -280.5v-668h-183v629q0 78 -15 129t-44 80.5t-67.5 41t-84.5 11.5q-80 0 -135 -31t-90 -82t-51 -118.5t-16 -141.5v-518h-183z" />
<glyph unicode="i" horiz-adv-x="489" d="M125 1356q0 53 31.5 89t87.5 36q55 0 86.5 -35t31.5 -90t-31.5 -90t-86.5 -35t-87 36t-32 89zM154 0v1024h182v-1024h-182z" />
<glyph unicode="j" horiz-adv-x="489" d="M-205 -451l19 142q39 -10 71.5 -13.5t61.5 -3.5q61 0 101 16.5t63.5 53.5t33 94.5t9.5 141.5v1044h182v-1081q0 -217 -93 -317.5t-286 -100.5q-76 0 -162 24zM125 1356q0 53 31.5 89t87.5 36q55 0 86.5 -35t31.5 -90t-31.5 -90t-86.5 -35t-87 36t-32 89z" />
<glyph unicode="k" horiz-adv-x="1056" d="M143 0v1536h183v-971l444 459h205l-440 -453l512 -571h-240l-481 545v-545h-183z" />
<glyph unicode="l" horiz-adv-x="489" d="M154 0v1536h182v-1536h-182z" />
<glyph unicode="m" horiz-adv-x="1763" d="M143 0v1024h168l8 -139q14 25 39 53.5t62 54t89 42t120 16.5q119 0 190.5 -50.5t110.5 -136.5q18 31 48 65t72 60.5t96 44t122 17.5q180 0 266 -101.5t86 -275.5v-674h-182v643q0 141 -50.5 194.5t-146.5 53.5q-74 0 -125 -33t-83 -85t-46 -120.5t-14 -138.5v-514h-182 v643q0 141 -52.5 194.5t-144.5 53.5q-74 0 -125 -32t-83 -85t-46 -120.5t-14 -139.5v-514h-183z" />
<glyph unicode="n" horiz-adv-x="1155" d="M143 0v1024h168l8 -141q12 25 39 54.5t69 55t97.5 42t126.5 16.5q176 0 268.5 -102.5t92.5 -280.5v-668h-183v629q0 78 -15 129t-44 80.5t-67.5 41t-84.5 11.5q-80 0 -136 -32t-91 -86t-50 -123.5t-15 -145.5v-504h-183z" />
<glyph unicode="o" horiz-adv-x="1191" d="M104 512q0 119 33 218t96.5 171t154.5 111t208 39t208 -39t154.5 -110t96 -170t32.5 -220q0 -123 -32.5 -222.5t-95 -170t-154.5 -108.5t-209 -38t-209 39t-154.5 110t-95.5 170t-33 220zM293 512q0 -84 18.5 -153.5t55 -119t94 -77t135.5 -27.5q156 0 229.5 104.5 t73.5 272.5q0 82 -18.5 150.5t-56.5 118.5t-95 79t-133 29q-152 0 -227.5 -104.5t-75.5 -272.5z" />
<glyph unicode="p" horiz-adv-x="1183" d="M143 -451v1475h168l8 -133q14 25 41 53.5t67 52t91 39t117 15.5q113 0 196.5 -41t139 -113t82 -167t26.5 -206q0 -152 -41 -254t-107.5 -166.5t-151.5 -92t-171 -27.5q-104 0 -171.5 23.5t-110.5 47.5v-506h-183zM324 233q33 -29 101.5 -60.5t166.5 -31.5q137 0 218 91.5 t81 291.5q0 78 -16.5 144.5t-51.5 114.5t-87 75t-124 27q-141 0 -214.5 -98.5t-73.5 -303.5v-250z" />
<glyph unicode="q" horiz-adv-x="1183" d="M104 512q0 111 28 209t83 172t139 116t195 42q63 0 115.5 -15.5t92.5 -38t66.5 -49t40.5 -51.5l8 127h168v-1475h-182v521q-20 -12 -47 -27.5t-62.5 -29t-83 -21.5t-108.5 -8q-86 0 -167 25.5t-144.5 87t-102.5 162.5t-39 253zM293 512q0 -100 21.5 -171t60.5 -115 t94 -64.5t125 -20.5q100 0 168.5 38t97.5 75v229q0 205 -74 303.5t-215 98.5q-72 0 -124 -28t-86.5 -77t-51 -117.5t-16.5 -150.5z" />
<glyph unicode="r" horiz-adv-x="784" d="M143 0v1024h168l8 -174q18 35 48 68.5t71 59.5t93.5 42t115.5 16q29 0 67 -5t44 -7l-17 -156q-10 4 -39.5 8.5t-60.5 4.5q-143 0 -229 -111t-86 -317v-453h-183z" />
<glyph unicode="s" horiz-adv-x="991" d="M70 88l63 131q51 -27 141.5 -59.5t212.5 -32.5q68 0 113 11.5t71.5 30.5t37 46t10.5 57q0 57 -41 95.5t-148 58.5l-127 25q-66 12 -121 34.5t-96 58.5t-64.5 85t-23.5 114q0 70 29 126.5t81 96.5t125 62.5t163 22.5q119 0 213 -29t153 -64l-57 -133q-14 8 -46 20.5 t-73 24t-90 19.5t-100 8q-115 0 -168.5 -38t-53.5 -107q0 -29 8.5 -50.5t30 -39t58.5 -31t94 -23.5l129 -24q72 -14 129 -37t97 -57.5t61.5 -84t21.5 -116.5q0 -143 -107.5 -229.5t-306.5 -86.5q-143 0 -250.5 37t-168.5 78z" />
<glyph unicode="t" horiz-adv-x="796" d="M37 870v154h205v283l182 49v-332h305v-154h-305v-553q0 -61 15.5 -98t43 -56.5t65.5 -26.5t85 -7t76.5 4t40.5 6l14 -137q-27 -6 -75 -12t-107 -6q-176 0 -258 76.5t-82 236.5v573h-205z" />
<glyph unicode="u" horiz-adv-x="1155" d="M143 356v668h183v-641q0 -74 15 -122t43 -76.5t66.5 -40t86.5 -11.5q80 0 136 32t91 86t50 123.5t15 145.5v504h183v-1024h-168l-8 137q-12 -25 -39 -53.5t-68 -53t-96 -41t-127 -16.5q-176 0 -269.5 102.5t-93.5 280.5z" />
<glyph unicode="v" horiz-adv-x="1005" d="M20 1024h195l295 -846l291 846h184l-379 -1024h-205z" />
<glyph unicode="w" horiz-adv-x="1417" d="M27 1024h192l215 -829l195 794h176l192 -794l211 829h183l-301 -1024h-193l-184 760l-191 -760h-194z" />
<glyph unicode="x" horiz-adv-x="1013" d="M31 0l368 528l-344 496h215l238 -352l237 352h191l-334 -479l381 -545h-217l-270 399l-273 -399h-192z" />
<glyph unicode="y" horiz-adv-x="1026" d="M20 1024h205l291 -748l299 748h191l-623 -1475h-178l213 508z" />
<glyph unicode="z" horiz-adv-x="1026" d="M102 0v145l603 725h-584v154h797v-147l-601 -723h607v-154h-822z" />
<glyph unicode="{" horiz-adv-x="714" d="M113 594v151q80 16 111.5 68.5t31.5 124.5v262q0 76 16.5 138.5t60.5 106.5t118.5 67.5t191.5 23.5v-156q-72 -2 -113 -15t-60 -39t-24.5 -62.5t-5.5 -81.5v-285q0 -78 -32.5 -132t-100.5 -95q68 -41 100.5 -95.5t32.5 -132.5v-284q0 -47 5.5 -83t24.5 -61.5t60 -39 t113 -15.5v-156q-117 0 -191.5 23.5t-118.5 68t-60.5 105.5t-16.5 139v262q0 72 -31.5 124.5t-111.5 68.5z" />
<glyph unicode="|" horiz-adv-x="552" d="M184 -451v1987h185v-1987h-185z" />
<glyph unicode="}" horiz-adv-x="714" d="M72 -41q70 2 110.5 15.5t61 39t25.5 61.5t5 83v284q0 78 33 132.5t99 95.5q-66 41 -99 95t-33 132v285q0 45 -5 81.5t-25.5 62.5t-61.5 39t-110 15v156q117 0 191.5 -23.5t118.5 -67.5t60.5 -106.5t16.5 -138.5v-262q0 -72 30.5 -124t112.5 -69v-151 q-82 -16 -112.5 -68.5t-30.5 -124.5v-262q0 -78 -16.5 -139t-60.5 -105.5t-119 -68t-191 -23.5v156z" />
<glyph unicode="~" horiz-adv-x="1210" d="M82 815q27 29 62.5 57.5t76.5 52t88 38t99 14.5q72 0 129 -26.5t104 -55.5q37 -23 75 -41t75 -18q70 0 121 26.5t112 83.5l104 -127q-29 -29 -63.5 -58.5t-76.5 -52t-88 -37t-97 -14.5q-72 0 -129.5 27t-104.5 55q-37 23 -74.5 41.5t-74.5 18.5q-72 0 -122 -27t-112 -84z " />
<glyph unicode="&#xa1;" horiz-adv-x="618" d="M178 913q0 59 36 98.5t95 39.5t95 -39t36 -99q0 -59 -35.5 -98t-95.5 -39q-59 0 -95 39t-36 98zM215 -451v1045h188v-1045h-188z" />
<glyph unicode="&#xa2;" d="M199 707q0 106 26.5 197t77.5 161t125 114t170 58v203h133v-199q68 -4 121 -20.5t92 -36t61.5 -35.5t26.5 -21l-74 -124q-12 10 -72.5 40.5t-154.5 38.5v-757q90 6 148.5 31.5t81.5 35.5l65 -123q-4 -6 -26.5 -20t-61.5 -30.5t-91 -31t-116 -18.5v-197h-133v203 q-195 27 -297 164t-102 367zM381 707q0 -166 57.5 -255.5t159.5 -115.5v737q-102 -29 -159.5 -118.5t-57.5 -247.5z" />
<glyph unicode="&#xa3;" d="M147 713v153h150q-6 53 -10 101.5t-4 85.5q0 88 24.5 164.5t75.5 133t130 89.5t189 33q84 0 152 -20.5t115 -46.5t75.5 -51.5t36.5 -33.5l-98 -123q-6 6 -28.5 24.5t-57.5 38t-83 35t-109 15.5q-123 0 -181.5 -66.5t-58.5 -200.5q0 -86 12 -178h344v-153h-321 q8 -59 14 -111.5t6 -87.5q0 -76 -19.5 -136.5t-46 -104.5t-52 -72.5t-37.5 -40.5h692v-160h-883v145q25 33 52.5 70t52 83t41 102.5t16.5 129.5q0 33 -5 80t-12 103h-172z" />
<glyph unicode="&#xa4;" d="M119 332l153 153q-29 47 -44 101.5t-15 120.5t15.5 120t43.5 99l-153 155l112 113l156 -156q47 29 102.5 45.5t116.5 16.5q59 0 115.5 -16.5t103.5 -45.5l156 156l113 -113l-156 -155q29 -45 45 -99.5t16 -119.5q0 -125 -61 -222l156 -153l-113 -113l-156 156 q-96 -61 -219 -62q-125 0 -219 62l-156 -156zM360 707q0 -59 19.5 -107.5t53.5 -82.5t79 -51t94 -17t94 17t79 51t53.5 82.5t19.5 107.5t-19.5 107t-53.5 82t-79 51.5t-94 17.5t-94 -17.5t-79 -51.5t-53.5 -82t-19.5 -107z" />
<glyph unicode="&#xa5;" d="M68 1440h204l344 -637l340 637h191l-391 -697h264v-139h-324v-184h324v-139h-324v-281h-180v281h-319v139h319v184h-319v139h260z" />
<glyph unicode="&#xa6;" horiz-adv-x="552" d="M184 211h185v-662h-185v662zM184 874v662h185v-662h-185z" />
<glyph unicode="&#xa7;" horiz-adv-x="1193" d="M162 670q0 96 39 163.5t106 131.5q-111 94 -110 243q0 94 34.5 162t91 111t131 62.5t154.5 19.5q78 0 143.5 -15.5t113.5 -34t77 -36t33 -23.5l-76 -125q-6 6 -32.5 18.5t-66.5 27t-89 24.5t-103 10q-39 0 -80 -7t-74.5 -27.5t-56 -57.5t-22.5 -96q0 -49 20.5 -83 t50 -58.5t62.5 -41t59 -26.5l181 -72q57 -23 106 -53.5t86 -69.5t57.5 -89t20.5 -114q0 -98 -39 -164.5t-109 -130.5q57 -49 87 -108t30 -135q0 -94 -36 -162t-95 -111t-136 -62.5t-159 -19.5q-78 0 -144.5 15.5t-115.5 34t-80 36t-35 23.5l70 127q6 -6 34.5 -19.5 t70.5 -26.5t94.5 -24.5t105.5 -11.5q43 0 87 7t79 27.5t56.5 57.5t21.5 96q0 49 -20.5 83t-50 58.5t-62.5 41t-60 26.5l-180 72q-57 23 -106.5 53.5t-86 69.5t-57 89t-20.5 114zM336 709q0 -43 17.5 -77t46 -61.5t65.5 -49t78 -38.5q53 -23 109.5 -45t105.5 -45 q35 39 60.5 81t25.5 101q0 43 -16.5 77t-45 61.5t-66.5 49t-79 38.5l-156 63q-16 6 -30.5 12.5t-28.5 14.5q-35 -39 -60.5 -81t-25.5 -101z" />
<glyph unicode="&#xa8;" horiz-adv-x="1034" d="M203 1331q0 53 31.5 88t84.5 35t85 -35t32 -88t-31.5 -88t-85.5 -35q-53 0 -84.5 35t-31.5 88zM598 1331q0 53 32 88t85 35t84.5 -35t31.5 -88t-31.5 -88t-84.5 -35t-85 35t-32 88z" />
<glyph unicode="&#xa9;" horiz-adv-x="1654" d="M82 723q0 156 57.5 293t157.5 238.5t237.5 160t294.5 58.5q156 0 292 -58.5t236.5 -160t158 -238.5t57.5 -293q0 -158 -57.5 -294t-158 -237.5t-236.5 -160t-294 -58.5t-294 58.5t-236 160t-157.5 237.5t-57.5 294zM240 721q0 -127 44 -237.5t122.5 -192.5t186 -128 t234.5 -46t234.5 46t186.5 128t123 192.5t44 237.5t-44 237.5t-123 192.5t-186.5 129t-232.5 47q-127 0 -234.5 -47t-186 -129t-123.5 -192.5t-45 -237.5zM473 721q0 176 97.5 283.5t275.5 107.5q59 0 107 -11t82 -26.5t52.5 -29t22.5 -17.5l-61 -104q-10 8 -65.5 30.5 t-133.5 22.5q-102 0 -162.5 -62.5t-60.5 -193.5q0 -135 60.5 -196.5t162.5 -61.5q76 0 129 17.5t70 25.5l57 -103q-4 -4 -24.5 -16t-54.5 -24.5t-80 -22.5t-101 -10q-180 0 -276.5 102.5t-96.5 288.5z" />
<glyph unicode="&#xaa;" horiz-adv-x="763" d="M86 592v129h555v-129h-555zM86 1022q0 94 64.5 153.5t205.5 59.5q43 0 87 -4t61 -6v16q0 57 -35 88t-117 31q-72 0 -120 -15.5t-70 -27.5l-39 98q23 14 83 36t165 22q127 0 198.5 -57.5t71.5 -180.5v-393h-129l-6 69q-33 -41 -86 -63.5t-123 -22.5q-39 0 -77 10.5 t-67.5 34t-48 61.5t-18.5 91zM223 1030q0 -96 109 -96q76 0 124 33.5t48 93.5v59q-31 4 -71 8.5t-79 4.5q-53 0 -92 -26t-39 -77z" />
<glyph unicode="&#xab;" horiz-adv-x="1017" d="M102 512l236 395h174l-227 -395l227 -395h-174zM505 512l236 395h174l-227 -395l227 -395h-174z" />
<glyph unicode="&#xac;" d="M195 809v164h823v-533h-172v369h-651z" />
<glyph unicode="&#xad;" horiz-adv-x="833" d="M123 479v189h588v-189h-588z" />
<glyph unicode="&#xae;" horiz-adv-x="1654" d="M82 723q0 156 57.5 293t157.5 238.5t237.5 160t294.5 58.5q156 0 292 -58.5t236.5 -160t158 -238.5t57.5 -293q0 -158 -57.5 -294t-158 -237.5t-236.5 -160t-294 -58.5t-294 58.5t-236 160t-157.5 237.5t-57.5 294zM240 721q0 -127 44 -237.5t122.5 -192.5t186 -128 t234.5 -46t234.5 46t186.5 128t123 192.5t44 237.5t-44 237.5t-123 192.5t-186.5 129t-232.5 47q-127 0 -234.5 -47t-186 -129t-123.5 -192.5t-45 -237.5zM555 338v764h301q76 0 127 -23.5t82 -58.5t44 -77t13 -79q0 -84 -44 -136t-122 -79l209 -311h-159l-185 291h-129 v-291h-137zM692 748h123q82 0 125 25t43 91q0 68 -42 94.5t-120 26.5h-129v-237z" />
<glyph unicode="&#xaf;" horiz-adv-x="1034" d="M221 1229v147h594v-147h-594z" />
<glyph unicode="&#xb0;" horiz-adv-x="821" d="M102 1139q0 66 24 121t65.5 95t97 62.5t121.5 22.5t122 -22.5t98 -62.5t65.5 -95.5t23.5 -118.5q0 -66 -23.5 -121t-65.5 -95t-98.5 -62.5t-119.5 -22.5q-66 0 -122.5 22.5t-98 62.5t-65.5 94t-24 120zM250 1139q0 -70 46 -117t116 -47t115.5 47t45.5 119q0 68 -46 115 t-117 47q-68 0 -114 -47.5t-46 -116.5z" />
<glyph unicode="&#xb1;" d="M154 0v164h905v-164h-905zM154 655v164h366v369h172v-369h367v-164h-367v-368h-172v368h-366z" />
<glyph unicode="&#xb2;" horiz-adv-x="868" d="M117 1296q14 18 41.5 44t64.5 47.5t84 37t103 15.5q74 0 126 -18.5t86.5 -49.5t51 -70.5t16.5 -82.5q0 -47 -17.5 -86t-47 -71t-66.5 -60.5t-76 -53.5q-82 -53 -126 -91t-58 -85h401v-133h-567v41q0 61 15.5 111.5t46 93.5t78 80.5t108.5 76.5q74 47 115 86t41 86 q0 39 -32 67t-97 28q-35 0 -67 -11.5t-57.5 -27t-45 -32.5t-29.5 -30z" />
<glyph unicode="&#xb3;" horiz-adv-x="868" d="M123 655l35 127q29 -10 79 -19t121 -9q182 0 183 114q0 47 -38 77t-132 30h-97v131h93q86 0 122.5 30.5t36.5 75.5q0 41 -29.5 70t-95.5 29q-70 0 -125 -28t-79 -48l-74 96q14 14 42 33.5t63.5 36t79.5 28t95 11.5q143 0 210 -63.5t67 -149.5q0 -61 -37 -106.5t-88 -69.5 q61 -20 100 -68.5t39 -114.5q0 -121 -93 -183t-234 -62q-78 0 -140.5 10t-103.5 22z" />
<glyph unicode="&#xb4;" horiz-adv-x="1034" d="M256 1294l442 240l80 -162l-456 -209z" />
<glyph unicode="&#xb5;" horiz-adv-x="1155" d="M143 -451v1475h183v-635q0 -74 15 -124t44 -78.5t66.5 -41t85.5 -12.5q80 0 136 32t91 86t50 123.5t15 145.5v504h183v-1024h-168l-8 137q-33 -61 -111 -112.5t-197 -51.5q-76 0 -127 21.5t-75 46.5v-492h-183z" />
<glyph unicode="&#xb6;" horiz-adv-x="1325" d="M102 1059q0 104 35 177t99.5 118t152.5 65.5t197 20.5h555v-1719h-180v1575h-236v-1575h-180v971q-102 0 -184 26.5t-139.5 76t-88.5 117t-31 147.5z" />
<glyph unicode="&#xb7;" horiz-adv-x="552" d="M145 709q0 59 36 98t95 39t95.5 -39t36.5 -98t-36 -98.5t-96 -39.5q-59 0 -95 39t-36 99z" />
<glyph unicode="&#xb8;" horiz-adv-x="1034" d="M287 -444l32 104q35 -10 71 -17.5t75 -7.5q66 0 99.5 21.5t33.5 58.5q0 29 -27.5 50.5t-91.5 21.5q-37 0 -73 -6l47 219h120l-20 -100q94 -8 144.5 -57.5t50.5 -121.5q0 -49 -20.5 -85.5t-56.5 -62.5t-82 -38t-97 -12q-88 0 -141.5 14t-63.5 19z" />
<glyph unicode="&#xb9;" horiz-adv-x="868" d="M147 1268l297 157h115v-786h-153v614l-193 -106z" />
<glyph unicode="&#xba;" horiz-adv-x="794" d="M82 1149q0 145 82 235.5t233 90.5q152 0 234 -89.5t82 -236.5t-81 -235.5t-235 -88.5t-234.5 88t-80.5 236zM88 592v129h619v-129h-619zM227 1149q0 -94 39 -152.5t131 -58.5t131 59.5t39 151.5t-40 152.5t-130 60.5q-88 0 -129 -60.5t-41 -152.5z" />
<glyph unicode="&#xbb;" horiz-adv-x="1017" d="M102 117l228 395l-228 395h174l236 -395l-236 -395h-174zM505 117l228 395l-228 395h174l236 -395l-236 -395h-174z" />
<glyph unicode="&#xbc;" horiz-adv-x="1875" d="M90 1268l297 157h115v-786h-153v614l-193 -106zM401 0l768 1413h182l-768 -1413h-182zM1055 180v111l330 499h159l-321 -481h199v158h139v-158h106v-129h-106v-176h-139v176h-367z" />
<glyph unicode="&#xbd;" horiz-adv-x="1875" d="M90 1268l297 157h115v-786h-153v614l-193 -106zM401 0l768 1413h182l-768 -1413h-182zM1084 661q14 18 41.5 44t64.5 47.5t84 37t103 15.5q74 0 126 -18.5t86.5 -49.5t51 -70.5t16.5 -82.5q0 -47 -17.5 -86t-47 -71t-66.5 -60.5t-76 -53.5q-82 -53 -126 -91t-58 -85h401 v-133h-567v41q0 61 15.5 111.5t46 93.5t78 80.5t108.5 76.5q74 47 115 86t41 86q0 39 -32 67t-97 28q-35 0 -67 -11.5t-57.5 -27t-45 -32.5t-29.5 -30z" />
<glyph unicode="&#xbe;" horiz-adv-x="1875" d="M107 655l35 127q29 -10 79 -19t121 -9q182 0 183 114q0 47 -38 77t-132 30h-97v131h93q86 0 122.5 30.5t36.5 75.5q0 41 -29.5 70t-95.5 29q-70 0 -125 -28t-79 -48l-74 96q14 14 42 33.5t63.5 36t79.5 28t95 11.5q143 0 210 -63.5t67 -149.5q0 -61 -37 -106.5t-88 -69.5 q61 -20 100 -68.5t39 -114.5q0 -121 -93 -183t-234 -62q-78 0 -140.5 10t-103.5 22zM463 0l768 1413h182l-768 -1413h-182zM1116 180v111l330 499h159l-321 -481h199v158h139v-158h106v-129h-106v-176h-139v176h-367z" />
<glyph unicode="&#xbf;" horiz-adv-x="1112" d="M143 -92q0 63 17.5 114.5t45 94.5t62.5 78.5t70 66.5q39 35 73.5 67.5t60.5 70.5t41 87.5t15 114.5h191q0 -78 -17.5 -138.5t-48 -109.5t-71.5 -91t-86 -83q-25 -23 -52.5 -50.5t-51 -59t-38 -70.5t-14.5 -84q0 -96 60.5 -159.5t199.5 -63.5q106 0 178 46t131 114 l115 -105q-23 -33 -62.5 -71.5t-95 -72.5t-127 -56.5t-155.5 -22.5q-127 0 -212 34.5t-136.5 90t-72 124t-20.5 134.5zM494 913q0 59 35.5 98.5t95.5 39.5q59 0 95 -39t36 -99q0 -59 -36 -98t-95 -39t-95 39t-36 98z" />
<glyph unicode="&#xc0;" horiz-adv-x="1191" d="M20 0l476 1440h198l477 -1440h-196l-119 369h-537l-118 -369h-181zM272 1731l68 165l498 -215l-58 -133zM373 535h430l-213 665z" />
<glyph unicode="&#xc1;" horiz-adv-x="1191" d="M20 0l476 1440h198l477 -1440h-196l-119 369h-537l-118 -369h-181zM354 1681l498 215l68 -165l-508 -183zM373 535h430l-213 665z" />
<glyph unicode="&#xc2;" horiz-adv-x="1191" d="M20 0l476 1440h198l477 -1440h-196l-119 369h-537l-118 -369h-181zM230 1645l282 225h170l283 -225l-78 -97l-291 185l-289 -185zM373 535h430l-213 665z" />
<glyph unicode="&#xc3;" horiz-adv-x="1191" d="M20 0l476 1440h198l477 -1440h-196l-119 369h-537l-118 -369h-181zM218 1587q0 119 57 180.5t158 61.5q51 0 89 -17.5t70.5 -37t63 -37t67.5 -17.5q53 0 74 29t21 76h135q0 -123 -57.5 -182.5t-157.5 -59.5q-51 0 -89 17.5t-71 37t-63.5 37t-67.5 17.5q-53 0 -73.5 -29 t-20.5 -76h-135zM373 535h430l-213 665z" />
<glyph unicode="&#xc4;" horiz-adv-x="1191" d="M20 0l476 1440h198l477 -1440h-196l-119 369h-537l-118 -369h-181zM264 1714q0 55 33 92t90 37t90 -36t33 -93t-32.5 -93t-90.5 -36q-57 0 -90 37t-33 92zM373 535h430l-213 665zM684 1714q0 55 33 92t90 37t90 -36t33 -93t-33 -93t-90 -36t-90 37t-33 92z" />
<glyph unicode="&#xc5;" horiz-adv-x="1191" d="M20 0l439 1331q-43 29 -68.5 76t-25.5 106q0 49 18 90.5t50 72t74 47t89 16.5q98 0 164.5 -62.5t66.5 -160.5q0 -59 -26.5 -107.5t-71.5 -79.5l442 -1329h-196l-119 369h-537l-118 -369h-181zM373 535h430l-213 686zM485 1513q0 -47 32 -80.5t79 -33.5t80 33.5t33 80.5 t-33 80t-80 33t-79 -32.5t-32 -80.5z" />
<glyph unicode="&#xc6;" horiz-adv-x="1808" d="M20 0l783 1440h923v-170h-639v-436h496v-170h-496v-494h660v-170h-842v424h-469l-229 -424h-187zM522 584h383v706z" />
<glyph unicode="&#xc7;" horiz-adv-x="1271" d="M125 719q0 166 40 303t120 234.5t198.5 151.5t278.5 54q145 0 253.5 -42t194.5 -113l-98 -138q-27 20 -59.5 41t-75.5 37.5t-95.5 26.5t-119.5 10q-219 0 -325.5 -150.5t-106.5 -414.5t105.5 -413.5t324.5 -149.5q61 0 115.5 11t98.5 27.5t78.5 37t57.5 36.5l98 -137 q-59 -53 -168.5 -101t-261.5 -53l-16 -79q100 -8 151.5 -58.5t51.5 -124.5q0 -53 -21.5 -91t-57.5 -64.5t-84 -39t-102 -12.5q-92 0 -147 14.5t-66 18.5l33 109q35 -10 73 -17.5t77 -7.5q68 0 104.5 21.5t36.5 62.5q0 29 -29.5 50.5t-93.5 21.5q-41 0 -78 -6l43 209 q-262 31 -395 224t-133 511z" />
<glyph unicode="&#xc8;" horiz-adv-x="1103" d="M174 0v1440h848v-170h-660v-436h517v-170h-517v-494h680v-170h-868zM329 1731l68 165l498 -215l-58 -133z" />
<glyph unicode="&#xc9;" horiz-adv-x="1103" d="M174 0v1440h848v-170h-660v-436h517v-170h-517v-494h680v-170h-868zM329 1681l498 215l68 -165l-508 -183z" />
<glyph unicode="&#xca;" horiz-adv-x="1103" d="M174 0v1440h848v-170h-660v-436h517v-170h-517v-494h680v-170h-868zM246 1645l282 225h170l283 -225l-78 -97l-291 185l-289 -185z" />
<glyph unicode="&#xcb;" horiz-adv-x="1103" d="M174 0v1440h848v-170h-660v-436h517v-170h-517v-494h680v-170h-868zM260 1714q0 55 33 92t90 37t90 -36t33 -93t-32.5 -93t-90.5 -36q-57 0 -90 37t-33 92zM680 1714q0 55 33 92t90 37t90 -36t33 -93t-33 -93t-90 -36t-90 37t-33 92z" />
<glyph unicode="&#xcc;" horiz-adv-x="536" d="M-66 1731l68 165l498 -215l-58 -133zM174 0v1440h188v-1440h-188z" />
<glyph unicode="&#xcd;" horiz-adv-x="536" d="M45 1681l498 215l68 -165l-508 -183zM174 0v1440h188v-1440h-188z" />
<glyph unicode="&#xce;" horiz-adv-x="536" d="M-94 1645l282 225h170l283 -225l-78 -97l-291 185l-289 -185zM174 0v1440h188v-1440h-188z" />
<glyph unicode="&#xcf;" horiz-adv-x="536" d="M-60 1714q0 55 33 92t90 37t90 -36t33 -93t-32.5 -93t-90.5 -36q-57 0 -90 37t-33 92zM174 0v1440h188v-1440h-188zM360 1714q0 55 33 92t90 37t90 -36t33 -93t-33 -93t-90 -36t-90 37t-33 92z" />
<glyph unicode="&#xd0;" horiz-adv-x="1427" d="M20 657v154h154v629h479q158 0 280 -53.5t204 -148.5t124 -227t42 -292q0 -162 -42 -295t-124 -227.5t-204 -145.5t-280 -51h-479v657h-154zM362 170h291q223 0 334 147.5t111 403.5t-112 402.5t-333 146.5h-291v-459h328v-154h-328v-487z" />
<glyph unicode="&#xd1;" horiz-adv-x="1388" d="M174 0v1440h195l661 -1135v1135h184v-1440h-182l-674 1143v-1143h-184zM316 1587q0 119 57 180.5t158 61.5q51 0 89 -17.5t70.5 -37t63 -37t67.5 -17.5q53 0 74 29t21 76h135q0 -123 -57.5 -182.5t-157.5 -59.5q-51 0 -89 17.5t-71 37t-63.5 37t-67.5 17.5 q-53 0 -73.5 -29t-20.5 -76h-135z" />
<glyph unicode="&#xd2;" horiz-adv-x="1523" d="M125 719q0 166 40 304t120 238.5t198.5 156t278.5 55.5q158 0 277.5 -55.5t199.5 -156t120 -238.5t40 -304q0 -168 -40 -306.5t-120 -237.5t-199.5 -153.5t-277.5 -54.5q-160 0 -278.5 54.5t-198.5 153.5t-120 237.5t-40 306.5zM330 719q0 -133 25.5 -239.5t79.5 -182.5 t135 -117t192 -41t192.5 41t135 117t79 182.5t25.5 239.5q0 131 -26.5 238.5t-80 182t-134.5 115.5t-191 41q-111 0 -192 -41t-134 -115.5t-79.5 -182t-26.5 -238.5zM458 1731l68 165l498 -215l-58 -133z" />
<glyph unicode="&#xd3;" horiz-adv-x="1523" d="M125 719q0 166 40 304t120 238.5t198.5 156t278.5 55.5q158 0 277.5 -55.5t199.5 -156t120 -238.5t40 -304q0 -168 -40 -306.5t-120 -237.5t-199.5 -153.5t-277.5 -54.5q-160 0 -278.5 54.5t-198.5 153.5t-120 237.5t-40 306.5zM330 719q0 -133 25.5 -239.5t79.5 -182.5 t135 -117t192 -41t192.5 41t135 117t79 182.5t25.5 239.5q0 131 -26.5 238.5t-80 182t-134.5 115.5t-191 41q-111 0 -192 -41t-134 -115.5t-79.5 -182t-26.5 -238.5zM499 1681l498 215l68 -165l-508 -183z" />
<glyph unicode="&#xd4;" horiz-adv-x="1523" d="M125 719q0 166 40 304t120 238.5t198.5 156t278.5 55.5q158 0 277.5 -55.5t199.5 -156t120 -238.5t40 -304q0 -168 -40 -306.5t-120 -237.5t-199.5 -153.5t-277.5 -54.5q-160 0 -278.5 54.5t-198.5 153.5t-120 237.5t-40 306.5zM330 719q0 -133 25.5 -239.5t79.5 -182.5 t135 -117t192 -41t192.5 41t135 117t79 182.5t25.5 239.5q0 131 -26.5 238.5t-80 182t-134.5 115.5t-191 41q-111 0 -192 -41t-134 -115.5t-79.5 -182t-26.5 -238.5zM396 1645l282 225h170l283 -225l-78 -97l-291 185l-289 -185z" />
<glyph unicode="&#xd5;" horiz-adv-x="1523" d="M125 719q0 166 40 304t120 238.5t198.5 156t278.5 55.5q158 0 277.5 -55.5t199.5 -156t120 -238.5t40 -304q0 -168 -40 -306.5t-120 -237.5t-199.5 -153.5t-277.5 -54.5q-160 0 -278.5 54.5t-198.5 153.5t-120 237.5t-40 306.5zM330 719q0 -133 25.5 -239.5t79.5 -182.5 t135 -117t192 -41t192.5 41t135 117t79 182.5t25.5 239.5q0 131 -26.5 238.5t-80 182t-134.5 115.5t-191 41q-111 0 -192 -41t-134 -115.5t-79.5 -182t-26.5 -238.5zM383 1587q0 119 57 180.5t158 61.5q51 0 89 -17.5t70.5 -37t63 -37t67.5 -17.5q53 0 74 29t21 76h135 q0 -123 -57.5 -182.5t-157.5 -59.5q-51 0 -89 17.5t-71 37t-63.5 37t-67.5 17.5q-53 0 -73.5 -29t-20.5 -76h-135z" />
<glyph unicode="&#xd6;" horiz-adv-x="1523" d="M125 719q0 166 40 304t120 238.5t198.5 156t278.5 55.5q158 0 277.5 -55.5t199.5 -156t120 -238.5t40 -304q0 -168 -40 -306.5t-120 -237.5t-199.5 -153.5t-277.5 -54.5q-160 0 -278.5 54.5t-198.5 153.5t-120 237.5t-40 306.5zM330 719q0 -133 25.5 -239.5t79.5 -182.5 t135 -117t192 -41t192.5 41t135 117t79 182.5t25.5 239.5q0 131 -26.5 238.5t-80 182t-134.5 115.5t-191 41q-111 0 -192 -41t-134 -115.5t-79.5 -182t-26.5 -238.5zM430 1714q0 55 33 92t90 37t90 -36t33 -93t-32.5 -93t-90.5 -36q-57 0 -90 37t-33 92zM850 1714 q0 55 33 92t90 37t90 -36t33 -93t-33 -93t-90 -36t-90 37t-33 92z" />
<glyph unicode="&#xd7;" d="M221 399l281 299l-281 301l113 105l270 -295l273 295l112 -105l-282 -301l282 -299l-112 -104l-273 293l-270 -293z" />
<glyph unicode="&#xd8;" horiz-adv-x="1523" d="M125 719q0 166 40 304t120 238.5t198.5 156t278.5 55.5q98 0 182 -23t154 -64l112 177l129 -74l-127 -199q94 -100 140.5 -245.5t46.5 -325.5q0 -168 -40 -306.5t-120 -237.5t-199.5 -153.5t-277.5 -54.5q-102 0 -186 22.5t-154 63.5l-109 -172l-129 74l123 192 q-92 100 -137 246t-45 326zM330 719q0 -248 88 -397l579 907q-47 33 -105 50t-130 17q-111 0 -192 -41t-134 -115.5t-79.5 -182t-26.5 -238.5zM522 209q99 -70 240 -70q111 0 192.5 41t135 117t79 182.5t25.5 239.5q0 250 -92 397z" />
<glyph unicode="&#xd9;" horiz-adv-x="1374" d="M154 563v877h188v-854q0 -127 17.5 -213t57.5 -138.5t106.5 -75t162.5 -22.5q98 0 163.5 22.5t106.5 75t58.5 138.5t17.5 213v854h189v-877q0 -152 -29 -263.5t-93.5 -185t-166 -110.5t-246.5 -37t-245.5 37t-165 110.5t-93 185.5t-28.5 263zM383 1731l68 165l498 -215 l-58 -133z" />
<glyph unicode="&#xda;" horiz-adv-x="1374" d="M154 563v877h188v-854q0 -127 17.5 -213t57.5 -138.5t106.5 -75t162.5 -22.5q98 0 163.5 22.5t106.5 75t58.5 138.5t17.5 213v854h189v-877q0 -152 -29 -263.5t-93.5 -185t-166 -110.5t-246.5 -37t-245.5 37t-165 110.5t-93 185.5t-28.5 263zM423 1681l498 215l68 -165 l-508 -183z" />
<glyph unicode="&#xdb;" horiz-adv-x="1374" d="M154 563v877h188v-854q0 -127 17.5 -213t57.5 -138.5t106.5 -75t162.5 -22.5q98 0 163.5 22.5t106.5 75t58.5 138.5t17.5 213v854h189v-877q0 -152 -29 -263.5t-93.5 -185t-166 -110.5t-246.5 -37t-245.5 37t-165 110.5t-93 185.5t-28.5 263zM320 1645l282 225h170 l283 -225l-78 -97l-291 185l-289 -185z" />
<glyph unicode="&#xdc;" horiz-adv-x="1374" d="M154 563v877h188v-854q0 -127 17.5 -213t57.5 -138.5t106.5 -75t162.5 -22.5q98 0 163.5 22.5t106.5 75t58.5 138.5t17.5 213v854h189v-877q0 -152 -29 -263.5t-93.5 -185t-166 -110.5t-246.5 -37t-245.5 37t-165 110.5t-93 185.5t-28.5 263zM354 1714q0 55 33 92t90 37 t90 -36t33 -93t-32.5 -93t-90.5 -36q-57 0 -90 37t-33 92zM774 1714q0 55 33 92t90 37t90 -36t33 -93t-33 -93t-90 -36t-90 37t-33 92z" />
<glyph unicode="&#xdd;" horiz-adv-x="1148" d="M20 1440h209l355 -619l350 619h194l-460 -789v-651h-189v651q-111 193 -229.5 394.5t-229.5 394.5zM331 1681l498 215l68 -165l-508 -183z" />
<glyph unicode="&#xde;" horiz-adv-x="1163" d="M174 0v1440h184v-256h220q133 0 225 -42t149.5 -108.5t83 -146.5t25.5 -154t-25.5 -153.5t-85 -146t-155 -108.5t-236.5 -42h-201v-283h-184zM358 446h197q154 0 235.5 77t81.5 210t-79.5 210t-219.5 77h-215v-574z" />
<glyph unicode="&#xdf;" horiz-adv-x="1265" d="M143 0v1094q0 221 107.5 345t343.5 124q102 0 179 -26t127 -70t74.5 -105.5t24.5 -130.5q0 -47 -13 -88t-34.5 -76t-47 -63.5t-50.5 -53.5q-51 -51 -84 -82.5t-33 -83.5q0 -31 16.5 -53t41 -38.5t55.5 -30t61 -27.5q55 -27 103.5 -55.5t84.5 -67.5t55.5 -90t19.5 -121 q0 -147 -95.5 -237.5t-283.5 -90.5q-47 0 -93.5 7.5t-86.5 18.5t-69.5 23.5t-45.5 24.5l59 131q102 -53 227 -53q104 0 153.5 48t49.5 124q0 39 -11 68.5t-35.5 54t-65.5 47t-99 49.5q-68 31 -111.5 57.5t-68.5 54t-35 59.5t-10 71q0 41 12.5 73.5t32.5 61.5t46 54.5 t50 51.5q41 41 82 97.5t41 132.5q0 72 -58.5 126t-164.5 54q-268 0 -268 -319v-1090h-183z" />
<glyph unicode="&#xe0;" horiz-adv-x="1073" d="M88 293q0 158 102.5 252t307.5 94q33 0 73.5 -2t77.5 -5t65.5 -6t39.5 -5v63q0 113 -66.5 162t-189.5 49q-111 0 -188 -24.5t-111 -45.5l-56 129q18 12 51 28.5t81.5 32t111 26t139.5 10.5q186 0 295 -91.5t109 -265.5v-694h-164l-8 115q-47 -66 -137.5 -104t-186.5 -38 q-61 0 -122.5 16.5t-110.5 53.5t-81 98.5t-32 151.5zM264 293q0 -88 58.5 -131t152.5 -43q51 0 100.5 16.5t89.5 46t64.5 69.5t24.5 89v137q-2 0 -27 4t-61.5 7.5t-79.5 6.5t-80 3q-66 0 -112 -16.5t-74.5 -44t-42 -64.5t-13.5 -80zM276 1372l80 162l442 -240l-65 -131z" />
<glyph unicode="&#xe1;" horiz-adv-x="1073" d="M88 293q0 158 102.5 252t307.5 94q33 0 73.5 -2t77.5 -5t65.5 -6t39.5 -5v63q0 113 -66.5 162t-189.5 49q-111 0 -188 -24.5t-111 -45.5l-56 129q18 12 51 28.5t81.5 32t111 26t139.5 10.5q186 0 295 -91.5t109 -265.5v-694h-164l-8 115q-47 -66 -137.5 -104t-186.5 -38 q-61 0 -122.5 16.5t-110.5 53.5t-81 98.5t-32 151.5zM264 293q0 -88 58.5 -131t152.5 -43q51 0 100.5 16.5t89.5 46t64.5 69.5t24.5 89v137q-2 0 -27 4t-61.5 7.5t-79.5 6.5t-80 3q-66 0 -112 -16.5t-74.5 -44t-42 -64.5t-13.5 -80zM297 1294l442 240l80 -162l-456 -209z " />
<glyph unicode="&#xe2;" horiz-adv-x="1073" d="M88 293q0 158 102.5 252t307.5 94q33 0 73.5 -2t77.5 -5t65.5 -6t39.5 -5v63q0 113 -66.5 162t-189.5 49q-111 0 -188 -24.5t-111 -45.5l-56 129q18 12 51 28.5t81.5 32t111 26t139.5 10.5q186 0 295 -91.5t109 -265.5v-694h-164l-8 115q-47 -66 -137.5 -104t-186.5 -38 q-61 0 -122.5 16.5t-110.5 53.5t-81 98.5t-32 151.5zM208 1266l252 231h154l252 -231l-94 -90l-236 182l-233 -182zM264 293q0 -88 58.5 -131t152.5 -43q51 0 100.5 16.5t89.5 46t64.5 69.5t24.5 89v137q-2 0 -27 4t-61.5 7.5t-79.5 6.5t-80 3q-66 0 -112 -16.5t-74.5 -44 t-42 -64.5t-13.5 -80z" />
<glyph unicode="&#xe3;" horiz-adv-x="1073" d="M88 293q0 158 102.5 252t307.5 94q33 0 73.5 -2t77.5 -5t65.5 -6t39.5 -5v63q0 113 -66.5 162t-189.5 49q-111 0 -188 -24.5t-111 -45.5l-56 129q18 12 51 28.5t81.5 32t111 26t139.5 10.5q186 0 295 -91.5t109 -265.5v-694h-164l-8 115q-47 -66 -137.5 -104t-186.5 -38 q-61 0 -122.5 16.5t-110.5 53.5t-81 98.5t-32 151.5zM185 1190q0 119 55 179.5t154 60.5q49 0 87 -16.5t70.5 -37t64.5 -37t66 -16.5q49 0 69.5 26.5t20.5 73.5h132q0 -119 -55.5 -179t-153.5 -60q-49 0 -87 17.5t-71 36.5t-63.5 36.5t-65.5 17.5q-51 0 -71.5 -27.5 t-20.5 -74.5h-131zM264 293q0 -88 58.5 -131t152.5 -43q51 0 100.5 16.5t89.5 46t64.5 69.5t24.5 89v137q-2 0 -27 4t-61.5 7.5t-79.5 6.5t-80 3q-66 0 -112 -16.5t-74.5 -44t-42 -64.5t-13.5 -80z" />
<glyph unicode="&#xe4;" horiz-adv-x="1073" d="M88 293q0 158 102.5 252t307.5 94q33 0 73.5 -2t77.5 -5t65.5 -6t39.5 -5v63q0 113 -66.5 162t-189.5 49q-111 0 -188 -24.5t-111 -45.5l-56 129q18 12 51 28.5t81.5 32t111 26t139.5 10.5q186 0 295 -91.5t109 -265.5v-694h-164l-8 115q-47 -66 -137.5 -104t-186.5 -38 q-61 0 -122.5 16.5t-110.5 53.5t-81 98.5t-32 151.5zM223 1331q0 53 31.5 88t84.5 35t85 -35t32 -88t-31.5 -88t-85.5 -35q-53 0 -84.5 35t-31.5 88zM264 293q0 -88 58.5 -131t152.5 -43q51 0 100.5 16.5t89.5 46t64.5 69.5t24.5 89v137q-2 0 -27 4t-61.5 7.5t-79.5 6.5 t-80 3q-66 0 -112 -16.5t-74.5 -44t-42 -64.5t-13.5 -80zM618 1331q0 53 32 88t85 35t84.5 -35t31.5 -88t-31.5 -88t-84.5 -35t-85 35t-32 88z" />
<glyph unicode="&#xe5;" horiz-adv-x="1073" d="M88 293q0 158 102.5 252t307.5 94q33 0 73.5 -2t77.5 -5t65.5 -6t39.5 -5v63q0 113 -66.5 162t-189.5 49q-111 0 -188 -24.5t-111 -45.5l-56 129q18 12 51 28.5t81.5 32t111 26t139.5 10.5q186 0 295 -91.5t109 -265.5v-694h-164l-8 115q-47 -66 -137.5 -104t-186.5 -38 q-61 0 -122.5 16.5t-110.5 53.5t-81 98.5t-32 151.5zM264 293q0 -88 58.5 -131t152.5 -43q51 0 100.5 16.5t89.5 46t64.5 69.5t24.5 89v137q-2 0 -27 4t-61.5 7.5t-79.5 6.5t-80 3q-66 0 -112 -16.5t-74.5 -44t-42 -64.5t-13.5 -80zM313 1384q0 47 17.5 87t48 70t71.5 46.5 t88 16.5t88 -16.5t72 -45.5t48 -69t17 -87t-17 -88t-48 -69.5t-72 -45t-86 -16.5q-47 0 -88 16.5t-71.5 45t-49 68.5t-18.5 87zM432 1384q0 -47 30.5 -78.5t75.5 -31.5t77 31.5t32 78.5t-32 78t-77 31t-75.5 -30.5t-30.5 -78.5z" />
<glyph unicode="&#xe6;" horiz-adv-x="1761" d="M88 293q0 158 102.5 252t307.5 94q33 0 72.5 -2t76.5 -5t65.5 -6t41.5 -5v63q0 113 -66.5 162t-189.5 49q-111 0 -188 -24.5t-111 -45.5l-56 129q18 12 51 28.5t80.5 32t107.5 26t132 10.5q127 0 223.5 -42t139.5 -135q53 78 138 127.5t199 49.5q104 0 186.5 -32 t139.5 -99.5t88 -173t31 -252.5v-29h-729q10 -150 91 -240t253 -90q106 0 175 18.5t97 28.5l49 -135q-10 -6 -38.5 -18.5t-71.5 -24.5t-99.5 -21.5t-125.5 -9.5q-90 0 -157 16.5t-117 43t-85.5 61.5t-60.5 70q-16 -23 -45 -55.5t-74 -62.5t-110.5 -51.5t-155.5 -21.5 q-68 0 -134.5 16.5t-117.5 53.5t-83 98.5t-32 151.5zM264 293q0 -88 58.5 -131t152.5 -43q121 0 200 61.5t79 159.5v137q-2 0 -27 4t-61.5 7.5t-79.5 6.5t-80 3q-66 0 -112 -16.5t-74.5 -44t-42 -64.5t-13.5 -80zM934 606h536q-10 139 -68.5 215t-187.5 76 q-131 0 -195.5 -78t-84.5 -213z" />
<glyph unicode="&#xe7;" horiz-adv-x="1005" d="M104 512q0 119 33 218t96.5 170t153.5 110t207 39q78 0 139.5 -16.5t105.5 -36t69.5 -38t29.5 -24.5l-80 -131q-6 6 -27.5 18.5t-55.5 26.5t-79 24.5t-98 10.5q-139 0 -222 -90.5t-83 -280.5q0 -195 83 -284t222 -89q104 0 172 27t90 39l72 -129q-4 -6 -29.5 -21.5 t-68.5 -33t-102.5 -31t-129.5 -15.5l-14 -75q94 -8 144 -57.5t50 -121.5q0 -49 -20.5 -85.5t-56 -62.5t-81.5 -38t-98 -12q-88 0 -141 14t-63 19l32 104q35 -10 71 -17.5t75 -7.5q66 0 99.5 21.5t33.5 58.5q0 29 -27.5 50.5t-91.5 21.5q-37 0 -74 -6l43 205 q-184 31 -281.5 167t-97.5 359z" />
<glyph unicode="&#xe8;" horiz-adv-x="1120" d="M104 514q0 119 31 218t90.5 170t146.5 110t201 39q104 0 186.5 -32t139.5 -99.5t88 -173t31 -252.5v-29h-729q10 -150 91 -240t253 -90q106 0 175 18.5t97 28.5l49 -135q-10 -6 -38.5 -18.5t-71.5 -24.5t-99.5 -21.5t-126.5 -9.5q-256 0 -385 143.5t-129 397.5zM293 606 h536q-10 139 -68.5 215t-187.5 76q-131 0 -195.5 -78t-84.5 -213zM340 1372l80 162l442 -240l-65 -131z" />
<glyph unicode="&#xe9;" horiz-adv-x="1120" d="M104 514q0 119 31 218t90.5 170t146.5 110t201 39q104 0 186.5 -32t139.5 -99.5t88 -173t31 -252.5v-29h-729q10 -150 91 -240t253 -90q106 0 175 18.5t97 28.5l49 -135q-10 -6 -38.5 -18.5t-71.5 -24.5t-99.5 -21.5t-126.5 -9.5q-256 0 -385 143.5t-129 397.5zM293 606 h536q-10 139 -68.5 215t-187.5 76q-131 0 -195.5 -78t-84.5 -213zM330 1294l442 240l80 -162l-456 -209z" />
<glyph unicode="&#xea;" horiz-adv-x="1120" d="M104 514q0 119 31 218t90.5 170t146.5 110t201 39q104 0 186.5 -32t139.5 -99.5t88 -173t31 -252.5v-29h-729q10 -150 91 -240t253 -90q106 0 175 18.5t97 28.5l49 -135q-10 -6 -38.5 -18.5t-71.5 -24.5t-99.5 -21.5t-126.5 -9.5q-256 0 -385 143.5t-129 397.5zM241 1266 l252 231h154l252 -231l-94 -90l-236 182l-233 -182zM293 606h536q-10 139 -68.5 215t-187.5 76q-131 0 -195.5 -78t-84.5 -213z" />
<glyph unicode="&#xeb;" horiz-adv-x="1120" d="M104 514q0 119 31 218t90.5 170t146.5 110t201 39q104 0 186.5 -32t139.5 -99.5t88 -173t31 -252.5v-29h-729q10 -150 91 -240t253 -90q106 0 175 18.5t97 28.5l49 -135q-10 -6 -38.5 -18.5t-71.5 -24.5t-99.5 -21.5t-126.5 -9.5q-256 0 -385 143.5t-129 397.5zM256 1331 q0 53 31.5 88t84.5 35t85 -35t32 -88t-31.5 -88t-85.5 -35q-53 0 -84.5 35t-31.5 88zM293 606h536q-10 139 -68.5 215t-187.5 76q-131 0 -195.5 -78t-84.5 -213zM651 1331q0 53 32 88t85 35t84.5 -35t31.5 -88t-31.5 -88t-84.5 -35t-85 35t-32 88z" />
<glyph unicode="&#xec;" horiz-adv-x="489" d="M-37 1372l80 162l442 -240l-65 -131zM154 0v1024h182v-1024h-182z" />
<glyph unicode="&#xed;" horiz-adv-x="489" d="M14 1294l442 240l80 -162l-456 -209zM154 0v1024h182v-1024h-182z" />
<glyph unicode="&#xee;" horiz-adv-x="489" d="M-80 1266l252 231h154l252 -231l-94 -90l-236 182l-233 -182zM154 0v1024h182v-1024h-182z" />
<glyph unicode="&#xef;" horiz-adv-x="489" d="M-65 1331q0 53 31.5 88t84.5 35t85 -35t32 -88t-31.5 -88t-85.5 -35q-53 0 -84.5 35t-31.5 88zM154 0v1024h182v-1024h-182zM330 1331q0 53 32 88t85 35t84.5 -35t31.5 -88t-31.5 -88t-84.5 -35t-85 35t-32 88z" />
<glyph unicode="&#xf0;" horiz-adv-x="1189" d="M104 481q0 117 33 211t93.5 158.5t147.5 99.5t195 35q96 0 171 -32.5t100 -65.5q-35 117 -89.5 207t-125.5 157l-191 -155l-78 94l170 139q-55 37 -114.5 62.5t-118.5 40.5l45 131q166 -45 307 -140l172 142l78 -95l-149 -122q160 -141 247.5 -350.5t87.5 -471.5 q0 -279 -127 -416t-362 -137q-236 0 -364 134.5t-128 373.5zM293 481q0 -166 72.5 -258t230.5 -92t230.5 93t72.5 257q0 160 -74.5 255t-228.5 95t-228.5 -93t-74.5 -257z" />
<glyph unicode="&#xf1;" horiz-adv-x="1155" d="M204 0v1024h168l8 -141q12 25 39 54.5t69 55t97.5 42t126.5 16.5q176 0 268.5 -102.5t92.5 -280.5v-668h-183v629q0 78 -15 129t-44 80.5t-67.5 41t-84.5 11.5q-80 0 -136 -32t-91 -86t-50 -123.5t-15 -145.5v-504h-183zM226 1190q0 119 55 179.5t154 60.5q49 0 87 -16.5 t70.5 -37t64.5 -37t66 -16.5q49 0 69.5 26.5t20.5 73.5h132q0 -119 -55.5 -179t-153.5 -60q-49 0 -87 17.5t-71 36.5t-63.5 36.5t-65.5 17.5q-51 0 -71.5 -27.5t-20.5 -74.5h-131z" />
<glyph unicode="&#xf2;" horiz-adv-x="1191" d="M104 512q0 119 33 218t96.5 171t154.5 111t208 39t208 -39t154.5 -110t96 -170t32.5 -220q0 -123 -32.5 -222.5t-95 -170t-154.5 -108.5t-209 -38t-209 39t-154.5 110t-95.5 170t-33 220zM293 512q0 -84 18.5 -153.5t55 -119t94 -77t135.5 -27.5q156 0 229.5 104.5 t73.5 272.5q0 82 -18.5 150.5t-56.5 118.5t-95 79t-133 29q-152 0 -227.5 -104.5t-75.5 -272.5zM336 1372l80 162l442 -240l-65 -131z" />
<glyph unicode="&#xf3;" horiz-adv-x="1191" d="M104 512q0 119 33 218t96.5 171t154.5 111t208 39t208 -39t154.5 -110t96 -170t32.5 -220q0 -123 -32.5 -222.5t-95 -170t-154.5 -108.5t-209 -38t-209 39t-154.5 110t-95.5 170t-33 220zM293 512q0 -84 18.5 -153.5t55 -119t94 -77t135.5 -27.5q156 0 229.5 104.5 t73.5 272.5q0 82 -18.5 150.5t-56.5 118.5t-95 79t-133 29q-152 0 -227.5 -104.5t-75.5 -272.5zM336 1294l442 240l80 -162l-456 -209z" />
<glyph unicode="&#xf4;" horiz-adv-x="1191" d="M104 512q0 119 33 218t96.5 171t154.5 111t208 39t208 -39t154.5 -110t96 -170t32.5 -220q0 -123 -32.5 -222.5t-95 -170t-154.5 -108.5t-209 -38t-209 39t-154.5 110t-95.5 170t-33 220zM268 1266l252 231h154l252 -231l-94 -90l-236 182l-233 -182zM293 512 q0 -84 18.5 -153.5t55 -119t94 -77t135.5 -27.5q156 0 229.5 104.5t73.5 272.5q0 82 -18.5 150.5t-56.5 118.5t-95 79t-133 29q-152 0 -227.5 -104.5t-75.5 -272.5z" />
<glyph unicode="&#xf5;" horiz-adv-x="1191" d="M104 512q0 119 33 218t96.5 171t154.5 111t208 39t208 -39t154.5 -110t96 -170t32.5 -220q0 -123 -32.5 -222.5t-95 -170t-154.5 -108.5t-209 -38t-209 39t-154.5 110t-95.5 170t-33 220zM244 1190q0 119 55 179.5t154 60.5q49 0 87 -16.5t70.5 -37t64.5 -37t66 -16.5 q49 0 69.5 26.5t20.5 73.5h132q0 -119 -55.5 -179t-153.5 -60q-49 0 -87 17.5t-71 36.5t-63.5 36.5t-65.5 17.5q-51 0 -71.5 -27.5t-20.5 -74.5h-131zM293 512q0 -84 18.5 -153.5t55 -119t94 -77t135.5 -27.5q156 0 229.5 104.5t73.5 272.5q0 82 -18.5 150.5t-56.5 118.5 t-95 79t-133 29q-152 0 -227.5 -104.5t-75.5 -272.5z" />
<glyph unicode="&#xf6;" horiz-adv-x="1191" d="M104 512q0 119 33 218t96.5 171t154.5 111t208 39t208 -39t154.5 -110t96 -170t32.5 -220q0 -123 -32.5 -222.5t-95 -170t-154.5 -108.5t-209 -38t-209 39t-154.5 110t-95.5 170t-33 220zM283 1331q0 53 31.5 88t84.5 35t85 -35t32 -88t-31.5 -88t-85.5 -35 q-53 0 -84.5 35t-31.5 88zM293 512q0 -84 18.5 -153.5t55 -119t94 -77t135.5 -27.5q156 0 229.5 104.5t73.5 272.5q0 82 -18.5 150.5t-56.5 118.5t-95 79t-133 29q-152 0 -227.5 -104.5t-75.5 -272.5zM678 1331q0 53 32 88t85 35t84.5 -35t31.5 -88t-31.5 -88t-84.5 -35 t-85 35t-32 88z" />
<glyph unicode="&#xf7;" d="M154 625v163h905v-163h-905zM475 367q0 59 36 98t95 39t95 -39t36 -98t-35.5 -98.5t-95.5 -39.5q-59 0 -95 39t-36 99zM475 1047q0 59 36 98t95 39t95 -39t36 -98t-35.5 -98.5t-95.5 -39.5q-59 0 -95 39t-36 99z" />
<glyph unicode="&#xf8;" horiz-adv-x="1191" d="M104 512q0 119 33 218t96.5 171t154.5 111t208 39q74 0 137.5 -16.5t116.5 -45.5l90 129l100 -65l-94 -138q68 -72 104.5 -174t36.5 -229q0 -123 -32.5 -222.5t-95 -170t-154.5 -108.5t-209 -38q-76 0 -139.5 16.5t-116.5 45.5l-88 -129l-100 65l94 135 q-141 145 -142 406zM289 512q0 -78 14 -141.5t45 -112.5l408 592q-35 20 -74 31.5t-86 11.5q-76 0 -133 -27.5t-96 -79t-58.5 -121t-19.5 -153.5zM434 172q66 -41 162 -41q78 0 136.5 27.5t96 79t56 121t18.5 153.5q0 147 -63 250z" />
<glyph unicode="&#xf9;" horiz-adv-x="1155" d="M143 356v668h183v-641q0 -74 15 -122t43 -76.5t66.5 -40t86.5 -11.5q80 0 136 32t91 86t50 123.5t15 145.5v504h183v-1024h-168l-8 137q-12 -25 -39 -53.5t-68 -53t-96 -41t-127 -16.5q-176 0 -269.5 102.5t-93.5 280.5zM276 1372l80 162l442 -240l-65 -131z" />
<glyph unicode="&#xfa;" horiz-adv-x="1155" d="M143 356v668h183v-641q0 -74 15 -122t43 -76.5t66.5 -40t86.5 -11.5q80 0 136 32t91 86t50 123.5t15 145.5v504h183v-1024h-168l-8 137q-12 -25 -39 -53.5t-68 -53t-96 -41t-127 -16.5q-176 0 -269.5 102.5t-93.5 280.5zM358 1294l442 240l80 -162l-456 -209z" />
<glyph unicode="&#xfb;" horiz-adv-x="1155" d="M143 356v668h183v-641q0 -74 15 -122t43 -76.5t66.5 -40t86.5 -11.5q80 0 136 32t91 86t50 123.5t15 145.5v504h183v-1024h-168l-8 137q-12 -25 -39 -53.5t-68 -53t-96 -41t-127 -16.5q-176 0 -269.5 102.5t-93.5 280.5zM249 1266l252 231h154l252 -231l-94 -90l-236 182 l-233 -182z" />
<glyph unicode="&#xfc;" horiz-adv-x="1155" d="M143 356v668h183v-641q0 -74 15 -122t43 -76.5t66.5 -40t86.5 -11.5q80 0 136 32t91 86t50 123.5t15 145.5v504h183v-1024h-168l-8 137q-12 -25 -39 -53.5t-68 -53t-96 -41t-127 -16.5q-176 0 -269.5 102.5t-93.5 280.5zM264 1331q0 53 31.5 88t84.5 35t85 -35t32 -88 t-31.5 -88t-85.5 -35q-53 0 -84.5 35t-31.5 88zM659 1331q0 53 32 88t85 35t84.5 -35t31.5 -88t-31.5 -88t-84.5 -35t-85 35t-32 88z" />
<glyph unicode="&#xfd;" horiz-adv-x="1026" d="M20 1024h205l291 -748l299 748h191l-623 -1475h-178l213 508zM313 1294l442 240l80 -162l-456 -209z" />
<glyph unicode="&#xfe;" horiz-adv-x="1183" d="M143 -451v1987h183v-635q16 25 43.5 51.5t65.5 48t88 36t112 14.5q113 0 196.5 -41t139 -113t82 -167t26.5 -206q0 -152 -41 -254t-107.5 -166.5t-151.5 -92t-171 -27.5q-104 0 -171.5 23.5t-110.5 47.5v-506h-183zM324 233q33 -29 101.5 -60.5t166.5 -31.5 q137 0 218 91.5t81 291.5q0 78 -16.5 144.5t-51.5 114.5t-87 75t-124 27q-141 0 -214.5 -98.5t-73.5 -303.5v-250z" />
<glyph unicode="&#xff;" horiz-adv-x="1026" d="M20 1024h205l291 -748l299 748h191l-623 -1475h-178l213 508zM203 1331q0 53 31.5 88t84.5 35t85 -35t32 -88t-31.5 -88t-85.5 -35q-53 0 -84.5 35t-31.5 88zM598 1331q0 53 32 88t85 35t84.5 -35t31.5 -88t-31.5 -88t-84.5 -35t-85 35t-32 88z" />
<glyph unicode="&#x152;" horiz-adv-x="1849" d="M125 719q0 166 40 299t120 227t198.5 144.5t278.5 50.5h1005v-170h-639v-436h496v-170h-496v-494h660v-170h-1026q-160 0 -278.5 49t-198.5 142.5t-120 226.5t-40 301zM330 719q0 -266 104.5 -407.5t327.5 -141.5h178v1100h-178q-221 0 -326.5 -142.5t-105.5 -408.5z" />
<glyph unicode="&#x153;" horiz-adv-x="1904" d="M104 512q0 119 33 218t96.5 171t154.5 111t208 39q129 0 233.5 -55.5t155.5 -145.5q57 94 148.5 147.5t224.5 53.5q104 0 186 -32t139.5 -99.5t88 -173t30.5 -252.5v-29h-729q10 -172 100.5 -251t243.5 -79q106 0 175 18.5t98 28.5l49 -135q-10 -6 -39 -18.5t-72 -24.5 t-99 -21.5t-126 -9.5q-145 0 -249.5 48.5t-168.5 152.5q-63 -96 -160.5 -148.5t-228.5 -52.5q-117 0 -209 39t-154.5 110t-95.5 170t-33 220zM293 512q0 -84 18.5 -153.5t55 -119t94 -77t135.5 -27.5q156 0 229.5 104.5t73.5 272.5q0 82 -18.5 150.5t-56.5 118.5t-95 79 t-133 29q-152 0 -227.5 -104.5t-75.5 -272.5zM1077 606h537q-10 139 -68.5 215t-187.5 76q-131 0 -195.5 -78t-85.5 -213z" />
<glyph unicode="&#x178;" horiz-adv-x="1148" d="M20 1440h209l355 -619l350 619h194l-460 -789v-651h-189v651q-111 193 -229.5 394.5t-229.5 394.5zM241 1714q0 55 33 92t90 37t90 -36t33 -93t-32.5 -93t-90.5 -36q-57 0 -90 37t-33 92zM661 1714q0 55 33 92t90 37t90 -36t33 -93t-33 -93t-90 -36t-90 37t-33 92z" />
<glyph unicode="&#x2c6;" horiz-adv-x="1034" d="M188 1266l252 231h154l252 -231l-94 -90l-236 182l-233 -182z" />
<glyph unicode="&#x2dc;" horiz-adv-x="1034" d="M158 1190q0 119 55 179.5t154 60.5q49 0 87 -16.5t70.5 -37t64.5 -37t66 -16.5q49 0 69.5 26.5t20.5 73.5h132q0 -119 -55.5 -179t-153.5 -60q-49 0 -87 17.5t-71 36.5t-63.5 36.5t-65.5 17.5q-51 0 -71.5 -27.5t-20.5 -74.5h-131z" />
<glyph unicode="&#x2000;" horiz-adv-x="948" />
<glyph unicode="&#x2001;" horiz-adv-x="1896" />
<glyph unicode="&#x2002;" horiz-adv-x="948" />
<glyph unicode="&#x2003;" horiz-adv-x="1896" />
<glyph unicode="&#x2004;" horiz-adv-x="632" />
<glyph unicode="&#x2005;" horiz-adv-x="474" />
<glyph unicode="&#x2006;" horiz-adv-x="316" />
<glyph unicode="&#x2007;" horiz-adv-x="316" />
<glyph unicode="&#x2008;" horiz-adv-x="237" />
<glyph unicode="&#x2009;" horiz-adv-x="379" />
<glyph unicode="&#x200a;" horiz-adv-x="105" />
<glyph unicode="&#x2010;" horiz-adv-x="833" d="M123 479v189h588v-189h-588z" />
<glyph unicode="&#x2011;" horiz-adv-x="833" d="M123 479v189h588v-189h-588z" />
<glyph unicode="&#x2012;" horiz-adv-x="833" d="M123 479v189h588v-189h-588z" />
<glyph unicode="&#x2013;" horiz-adv-x="1024" d="M0 520v176h1024v-176h-1024z" />
<glyph unicode="&#x2014;" horiz-adv-x="2048" d="M0 520v176h2048v-176h-2048z" />
<glyph unicode="&#x2018;" horiz-adv-x="552" d="M154 1137q0 61 28.5 130.5t65.5 131t70.5 106.5t43.5 58l95 -66q-12 -16 -30.5 -48t-39 -69t-37 -73.5t-24.5 -65.5q29 -16 48 -44t19 -69q0 -57 -32.5 -90.5t-88.5 -33.5q-51 0 -84.5 36t-33.5 97z" />
<glyph unicode="&#x2019;" horiz-adv-x="552" d="M96 1069q12 16 30.5 47t39 68t37 74.5t24.5 66.5q-29 16 -48 44t-19 69q0 57 32.5 91t88.5 34q51 0 84.5 -36t33.5 -97t-28.5 -131t-65.5 -131.5t-70.5 -106.5t-44.5 -57z" />
<glyph unicode="&#x201a;" horiz-adv-x="552" d="M96 -252q12 16 30.5 47t39 68t37 74.5t24.5 66.5q-29 16 -48 44t-19 69q0 57 32.5 91t88.5 34q51 0 84.5 -36t33.5 -97t-28.5 -131t-65.5 -131.5t-70.5 -106.5t-44.5 -57z" />
<glyph unicode="&#x201c;" horiz-adv-x="948" d="M154 1137q0 61 28.5 130.5t65.5 131t70.5 106.5t43.5 58l95 -66q-12 -16 -30.5 -48t-39 -69t-37 -73.5t-24.5 -65.5q29 -16 48 -44t19 -69q0 -57 -32.5 -90.5t-88.5 -33.5q-51 0 -84.5 36t-33.5 97zM549 1137q0 61 28.5 130.5t65.5 131t70.5 106.5t43.5 58l95 -66 q-12 -16 -30.5 -48t-39 -69t-37 -73.5t-24.5 -65.5q29 -16 48 -44t19 -69q0 -57 -32.5 -90.5t-88.5 -33.5q-51 0 -84.5 36t-33.5 97z" />
<glyph unicode="&#x201d;" horiz-adv-x="948" d="M96 1069q12 16 30.5 47t39 68t37 74.5t24.5 66.5q-29 16 -48 44t-19 69q0 57 32.5 91t88.5 34q51 0 84.5 -36t33.5 -97t-28.5 -131t-65.5 -131.5t-70.5 -106.5t-44.5 -57zM491 1069q12 16 30.5 47t39 68t37 74.5t24.5 66.5q-29 16 -48 44t-19 69q0 57 32.5 91t88.5 34 q51 0 84.5 -36t33.5 -97t-28.5 -131t-65.5 -131.5t-70.5 -106.5t-44.5 -57z" />
<glyph unicode="&#x201e;" horiz-adv-x="948" d="M96 -252q12 16 30.5 47t39 68t37 74.5t24.5 66.5q-29 16 -48 44t-19 69q0 57 32.5 91t88.5 34q51 0 84.5 -36t33.5 -97t-28.5 -131t-65.5 -131.5t-70.5 -106.5t-44.5 -57zM491 -252q12 16 30.5 47t39 68t37 74.5t24.5 66.5q-29 16 -48 44t-19 69q0 57 32.5 91t88.5 34 q51 0 84.5 -36t33.5 -97t-28.5 -131t-65.5 -131.5t-70.5 -106.5t-44.5 -57z" />
<glyph unicode="&#x2022;" horiz-adv-x="1026" d="M156 694q0 74 27.5 139.5t75.5 113.5t113.5 76t139.5 28t139.5 -28t114.5 -76t76.5 -113.5t27.5 -139.5q0 -76 -27.5 -141.5t-76.5 -113.5t-114.5 -75.5t-139.5 -27.5t-139.5 27.5t-113.5 75.5t-75.5 113.5t-27.5 141.5z" />
<glyph unicode="&#x2026;" horiz-adv-x="2048" d="M211 111q0 59 36 98t95 39t95.5 -39t36.5 -98t-36 -98.5t-96 -39.5q-59 0 -95 39t-36 99zM893 111q0 59 36 98t95 39t95.5 -39t36.5 -98t-36 -98.5t-96 -39.5q-59 0 -95 39t-36 99zM1575 111q0 59 36 98t95 39t95.5 -39t36.5 -98t-36 -98.5t-96 -39.5q-59 0 -95 39 t-36 99z" />
<glyph unicode="&#x202f;" horiz-adv-x="379" />
<glyph unicode="&#x2039;" horiz-adv-x="614" d="M102 512l236 395h174l-227 -395l227 -395h-174z" />
<glyph unicode="&#x203a;" horiz-adv-x="614" d="M102 117l228 395l-228 395h174l236 -395l-236 -395h-174z" />
<glyph unicode="&#x205f;" horiz-adv-x="474" />
<glyph unicode="&#x20ac;" d="M70 496v139h137q-2 20 -2 40.5v43.5q0 27 1 52.5t3 51.5h-139v140h153q20 113 62.5 206t111 160.5t163.5 105.5t222 38q145 0 244.5 -46.5t165.5 -107.5l-100 -127q-14 12 -40 31.5t-63 36t-88 28.5t-119 12q-154 0 -238.5 -89t-117.5 -248h549l-41 -140h-526 q-2 -27 -2 -52.5v-51.5v-84h487l-41 -139h-432q29 -168 112.5 -262.5t253.5 -94.5q61 0 110.5 11.5t86.5 28t62.5 33.5t44.5 32l100 -129q-57 -57 -160.5 -102.5t-249.5 -45.5q-127 0 -224 36t-165.5 104.5t-110.5 167t-61 221.5h-149z" />
<glyph unicode="&#x2122;" horiz-adv-x="1839" d="M61 1305v135h711v-135h-276v-650h-156v650h-279zM915 655v785h150l248 -414l235 414h150v-785h-133v566l-207 -359h-103l-206 350v-557h-134z" />
<glyph unicode="&#x25fc;" horiz-adv-x="1024" d="M0 0v1024h1024v-1024h-1024z" />
</font>
</defs>
</svg>
