<?xml version="1.0" standalone="no"?>
<!DOCTYPE svg PUBLIC "-//W3C//DTD SVG 1.1//EN" "http://www.w3.org/Graphics/SVG/1.1/DTD/svg11.dtd" >
<svg xmlns="http://www.w3.org/2000/svg" xmlns:xlink="http://www.w3.org/1999/xlink" version="1.1">
<metadata></metadata>
<defs>
<font id="helveticaneuemedium" horiz-adv-x="1138" >
<font-face units-per-em="2048" ascent="1638" descent="-410" />
<missing-glyph horiz-adv-x="569" />
<glyph horiz-adv-x="0" />
<glyph unicode="&#xd;" horiz-adv-x="569" />
<glyph unicode=" "  horiz-adv-x="569" />
<glyph unicode="&#x09;" horiz-adv-x="569" />
<glyph unicode="&#xa0;" horiz-adv-x="569" />
<glyph unicode="!" horiz-adv-x="569" d="M147 0v256h275v-256h-275zM158 1040v422h256v-422l-68 -632h-121z" />
<glyph unicode="&#x22;" horiz-adv-x="909" d="M170 885v577h209v-577h-209zM530 885v577h209v-577h-209z" />
<glyph unicode="#" d="M70 430v154h215l37 266h-193v154h213l59 430h166l-61 -430h227l60 430h165l-61 -430h176v-154h-196l-37 -266h174v-154h-195l-61 -430h-164l59 430h-225l-61 -430h-164l59 430h-192zM449 584h227l37 266h-228z" />
<glyph unicode="$" d="M35 444h233q-4 -287 262 -294v495q-215 59 -315 137q-150 113 -149 314q0 186 141 299q131 102 323 102v160h88v-160q195 0 318 -98q131 -106 131 -301h-233q-10 215 -216 215v-432q229 -61 336 -142q150 -113 150 -313q0 -219 -141 -340q-127 -111 -345 -121v-160h-88 v160q-227 4 -362 130t-133 349zM299 1112q0 -152 231 -209v410q-231 0 -231 -201zM618 150q252 18 252 243q0 104 -77 162q-56 41 -175 72v-477z" />
<glyph unicode="%" horiz-adv-x="2048" d="M168 1055q0 178 82 286q90 121 260 121t260 -121q82 -109 82 -286q0 -182 -78 -287q-88 -121 -264 -121t-264 121q-78 104 -78 287zM352 1055q0 -274 156 -275q160 0 160 275q0 274 -160 274q-156 0 -156 -274zM532 -49l797 1532h156l-793 -1532h-160zM1196 379 q0 178 82 287q90 121 260 120q170 0 260 -120q82 -109 82 -287q0 -182 -78 -287q-88 -121 -264 -121t-264 121q-78 104 -78 287zM1380 379q0 -274 156 -275q160 0 160 275q0 274 -160 274q-156 0 -156 -274z" />
<glyph unicode="&#x26;" horiz-adv-x="1327" d="M66 406q0 252 335 423q-147 186 -147 320q0 156 103.5 252t254.5 96q152 0 254 -88q111 -96 111 -262q0 -229 -264 -371l227 -274q33 92 45 196h205q-25 -217 -115 -358l281 -340h-287l-133 164q-158 -193 -410 -193q-205 0 -332.5 116t-127.5 319zM299 401 q0 -115 65.5 -180t170.5 -65q111 0 184 59q33 24 92 104l-287 357q-137 -84 -145 -92q-80 -70 -80 -183zM463 1161q0 -61 47 -131q43 -55 86 -112q84 57 119 98q53 61 53 139q0 74 -41 121t-109 47q-66 0 -110.5 -45t-44.5 -117z" />
<glyph unicode="'" horiz-adv-x="569" d="M180 885v577h209v-577h-209z" />
<glyph unicode="(" horiz-adv-x="569" d="M100 553q0 489 295 944h191q-252 -451 -252 -944q0 -518 252 -944h-191q-295 469 -295 944z" />
<glyph unicode=")" horiz-adv-x="569" d="M-16 -391q252 446 252 942q0 518 -252 946h190q295 -471 295 -946q0 -492 -295 -942h-190z" />
<glyph unicode="*" horiz-adv-x="757" d="M39 1171l45 134l225 -88v245h140v-245l223 88l49 -134l-234 -77l144 -193l-109 -80l-145 201l-139 -201l-115 80l143 193z" />
<glyph unicode="+" horiz-adv-x="1228" d="M98 414v209h412v413h209v-413h411v-209h-411v-414h-209v414h-412z" />
<glyph unicode="," horiz-adv-x="569" d="M141 0v276h285v-276q0 -125 -77 -212t-199 -112v125q66 16 100.5 72.5t32.5 126.5h-142z" />
<glyph unicode="-" horiz-adv-x="796" d="M100 446v222h596v-222h-596z" />
<glyph unicode="." horiz-adv-x="569" d="M141 0v276h285v-276h-285z" />
<glyph unicode="/" horiz-adv-x="720" d="M-45 -35l588 1532h223l-588 -1532h-223z" />
<glyph unicode="0" d="M74 717q0 307 94 495q122 250 401 250t402 -250q94 -188 94 -495t-94 -496q-123 -250 -402 -250t-401 250q-94 188 -94 496zM307 717q0 -551 262 -551t262 551t-262 551t-262 -551z" />
<glyph unicode="1" d="M109 1012v184q160 -2 270 53q123 63 147 185h191v-1434h-256v1012h-352z" />
<glyph unicode="2" d="M80 0q2 326 315 543q98 66 195 131q111 78 166 147q70 90 71 193q2 98 -45 166q-61 88 -196 88q-236 0 -246 -359h-234q0 246 127 396q133 158 367 157q238 0 363 -151q98 -121 98 -289q0 -260 -320 -483q-119 -80 -237 -160q-117 -90 -144 -170h699v-209h-979z" />
<glyph unicode="3" d="M63 471h234q-4 -135 65 -217q72 -88 205 -88q121 0 198 68.5t77 187.5q0 260 -375 244v174q133 -6 217 45q100 57 100 180q0 90 -62.5 146.5t-160.5 56.5q-115 0 -178.5 -87t-58.5 -206h-234q10 215 133 348q131 139 342 139q182 0 309 -96q143 -106 144 -287 q0 -236 -203 -307v-4q121 -25 190.5 -122t69.5 -236q0 -197 -151 -320q-143 -119 -357 -119q-242 0 -374 138q-125 131 -130 362z" />
<glyph unicode="4" d="M49 340v231l615 863h221v-910h184v-184h-184v-340h-221v340h-615zM229 524h435v631h-5z" />
<glyph unicode="5" d="M72 408h233q10 -115 80 -178.5t184 -63.5q266 0 267 315q0 127 -66 209q-74 90 -207 90q-182 0 -231 -131h-234l154 785h741v-209h-567l-74 -365l4 -4q98 109 265 109q209 0 331 -138q117 -131 117 -342q0 -199 -115 -342q-137 -172 -381 -172q-215 0 -350 111 q-143 117 -151 326z" />
<glyph unicode="6" d="M70 721q0 299 118 500q143 242 422 241q174 0 299 -109.5t133 -281.5h-233q-8 88 -63.5 142.5t-145.5 54.5q-166 0 -238 -174q-43 -104 -59 -318l4 -4q96 170 309 170q209 0 334 -137q119 -133 119 -344t-132 -350.5t-345 -139.5q-293 0 -420 219q-102 178 -102 531z M326 465q0 -125 65 -207q72 -92 193 -92q119 0 188 92q63 84 64 207q0 123 -65.5 208t-186.5 85q-123 0 -193 -88q-66 -80 -65 -205z" />
<glyph unicode="7" d="M72 1225v209h981v-195q-485 -549 -535 -1239h-256q23 326 178 657q143 305 375 568h-743z" />
<glyph unicode="8" d="M63 422q0 133 71 226t192 124v2q-203 80 -203 297q0 184 116.5 287.5t329.5 103.5t330 -103.5t117 -287.5q0 -217 -203 -297v-2q121 -31 191.5 -124t70.5 -226q0 -207 -141.5 -329t-364.5 -122t-364.5 122t-141.5 329zM297 422q0 -123 76.5 -194.5t195.5 -71.5t196 71.5 t77 194.5q0 117 -77 184.5t-196 67.5t-195.5 -67.5t-76.5 -184.5zM344 1059q0 -98 62.5 -154.5t162.5 -56.5t163 56.5t63 154.5q0 102 -64 160.5t-162 58.5t-161.5 -58.5t-63.5 -160.5z" />
<glyph unicode="9" d="M70 973q0 215 132 352t361 137q283 0 406 -217q100 -180 100 -532q0 -299 -119 -500q-143 -242 -422 -242q-174 0 -299 109.5t-133 281.5h234q8 -88 63.5 -142t145.5 -54q166 0 237 176q43 102 60 315l-5 5q-96 -172 -309 -173q-203 0 -327.5 132.5t-124.5 351.5z M303 975q0 -127 62 -209q68 -92 188 -92q125 0 195 92q66 82 65 209q0 123 -67.5 208t-192.5 85q-121 0 -188 -88q-61 -80 -62 -205z" />
<glyph unicode=":" horiz-adv-x="569" d="M141 0v276h285v-276h-285zM141 760v276h285v-276h-285z" />
<glyph unicode=";" horiz-adv-x="569" d="M141 0v276h285v-276q0 -125 -77 -212t-199 -112v125q66 16 100.5 72.5t32.5 126.5h-142zM141 760v276h285v-276h-285z" />
<glyph unicode="&#x3c;" horiz-adv-x="1228" d="M94 444v148l1041 461v-209l-766 -326l766 -325v-209z" />
<glyph unicode="=" horiz-adv-x="1228" d="M98 207v209h1032v-209h-1032zM98 621v208h1032v-208h-1032z" />
<glyph unicode="&#x3e;" horiz-adv-x="1228" d="M94 -16v209l766 325l-766 326v209l1041 -461v-148z" />
<glyph unicode="?" d="M100 997q-2 227 132.5 363.5t359.5 136.5q195 0 320.5 -110.5t125.5 -303.5q0 -127 -57 -213q-31 -49 -123 -127q-98 -82 -129 -133q-51 -80 -51 -213h-221q0 170 39 262q33 78 120 154q96 84 117 109q49 63 49 153q0 113 -71 176q-59 51 -129 52q-248 -1 -248 -306h-234 zM426 0v256h274v-256h-274z" />
<glyph unicode="@" horiz-adv-x="1638" d="M100 758q0 307 222.5 523t529.5 216q281 0 479 -168q207 -174 207 -432q0 -279 -180 -459q-150 -152 -303 -151q-115 0 -121 119h-4q-104 -117 -230 -117q-127 0 -213 94t-86 227q0 205 123 363q133 168 326 168q158 0 229 -148l37 117h144l-148 -539q-16 -63 -16 -92 q0 -49 37 -49q98 0 180 127q86 135 86 315q0 223 -162 361q-154 131 -385 131q-258 0 -423 -177t-165 -437q0 -295 174 -476q168 -176 432 -176q285 0 461 203h144q-98 -158 -261 -247t-352 -89q-322 0 -538 221q-223 225 -224 572zM575 629q0 -82 45 -134.5t119 -52.5 q115 0 201 127q80 115 80 238q0 72 -48 126t-114 54q-119 0 -205 -121q-78 -111 -78 -237z" />
<glyph unicode="A" horiz-adv-x="1366" d="M-14 0l561 1462h272l563 -1462h-274l-137 387h-584l-137 -387h-264zM457 582h446l-219 628h-6z" />
<glyph unicode="B" horiz-adv-x="1441" d="M156 0v1462h710q203 0 318.5 -92t115.5 -270q0 -221 -208 -312v-4q274 -59 274 -376q0 -182 -127 -289q-141 -119 -412 -119h-671zM412 209h452q246 0 246 231q0 225 -246 226h-452v-457zM412 850h417q94 0 154.5 53t60.5 150q0 200 -213 200h-2h-417v-403z" />
<glyph unicode="C" horiz-adv-x="1478" d="M78 731q0 326 186 541q195 225 514 225q252 0 422 -131q176 -138 199 -369h-256q-74 291 -365 291q-219 0 -340 -174q-104 -152 -104 -383t104 -383q121 -174 340 -174q164 0 264 113q92 102 109 270h250q-16 -264 -187.5 -428t-435.5 -164q-319 0 -514 228 q-186 215 -186 538z" />
<glyph unicode="D" horiz-adv-x="1478" d="M156 0v1462h606q322 0 491 -215q154 -193 154 -516q0 -324 -154 -516q-170 -215 -491 -215h-606zM412 209h252q279 0 395 151q92 123 92 371t-92 371q-116 151 -391 151h-4h-252v-1044z" />
<glyph unicode="E" horiz-adv-x="1290" d="M156 0v1462h1052v-221h-796v-383h737v-209h-737v-428h811v-221h-1067z" />
<glyph unicode="F" horiz-adv-x="1214" d="M156 0v1462h1009v-221h-753v-383h661v-209h-661v-649h-256z" />
<glyph unicode="G" horiz-adv-x="1554" d="M88 731q0 324 186 541q195 225 514 225q250 0 418 -127q180 -133 209 -373h-250q-18 139 -129 217q-102 74 -248 74q-219 0 -339 -174q-104 -152 -105 -383q0 -231 105 -383q119 -172 339 -174h7q190 0 293 106q106 107 110 295h-389v195h623v-770h-164l-39 172 q-100 -115 -201.5 -161t-239.5 -46q-319 0 -514 228q-186 215 -186 538z" />
<glyph unicode="H" horiz-adv-x="1478" d="M150 0v1462h256v-581h665v581h256v-1462h-256v659h-665v-659h-256z" />
<glyph unicode="I" horiz-adv-x="569" d="M156 0v1462h256v-1462h-256z" />
<glyph unicode="J" horiz-adv-x="1099" d="M27 434v78h256v-76q0 -131 43 -192q47 -70 157 -70q119 0 164 74q41 61 41 209v1005h256v-991q0 -231 -84 -348q-113 -158 -397 -158q-221 0 -334 135q-102 121 -102 334z" />
<glyph unicode="K" horiz-adv-x="1402" d="M156 0v1462h256v-665l651 665h315l-583 -583l624 -879h-319l-479 698l-209 -206v-492h-256z" />
<glyph unicode="L" horiz-adv-x="1175" d="M156 0v1462h256v-1241h743v-221h-999z" />
<glyph unicode="M" horiz-adv-x="1820" d="M152 0v1462h360l403 -1145h5l393 1145h356v-1462h-244v1128h-4l-405 -1128h-211l-406 1128h-4v-1128h-243z" />
<glyph unicode="N" horiz-adv-x="1478" d="M145 0v1462h271l667 -1077h4v1077h244v-1462h-270l-666 1075h-6v-1075h-244z" />
<glyph unicode="O" horiz-adv-x="1556" d="M78 731q0 324 186 541q195 225 514 225t514 -225q186 -217 187 -541q0 -324 -187 -538q-195 -227 -514 -228q-319 0 -514 228q-186 215 -186 538zM334 731q0 -231 104 -383q121 -174 340 -174t340 174q104 152 105 383q0 231 -105 383q-121 174 -340 174t-340 -174 q-104 -152 -104 -383z" />
<glyph unicode="P" horiz-adv-x="1366" d="M156 0v1462h645q279 0 405 -157q92 -115 92 -295q0 -178 -92 -291q-127 -158 -405 -158h-389v-561h-256zM412 770h374q102 0 172 51q84 63 84 191q0 241 -249 241h-2h-379v-483z" />
<glyph unicode="Q" horiz-adv-x="1556" d="M78 731q0 324 186 541q195 225 514 225t514 -225q186 -217 187 -541q0 -362 -207 -561l188 -164l-125 -139l-213 186q-156 -88 -344 -88q-319 0 -514 228q-186 215 -186 538zM334 731q0 -231 104 -383q121 -174 340 -174q92 0 164 35l-147 129l123 141l178 -155 q127 152 127 407q0 231 -105 383q-121 174 -340 174t-340 -174q-104 -152 -104 -383z" />
<glyph unicode="R" horiz-adv-x="1441" d="M156 0v1462h698q238 0 360.5 -103.5t122.5 -291.5q0 -285 -241 -369v-4q217 -31 217 -309q0 -299 80 -385h-275q-39 63 -39 215q0 211 -57 295q-63 92 -234 92h-376v-602h-256zM412 797h419q250 0 250 233q0 223 -254 223h-415v-456z" />
<glyph unicode="S" horiz-adv-x="1327" d="M68 487h256q0 -160 108 -241q96 -72 262 -72q158 0 240 70q70 59 70 151q0 135 -121 180q-16 6 -437 121q-323 88 -323 369q0 209 168 328q150 104 366 104q240 0 396 -119q166 -129 166 -348h-256q-16 258 -316 258q-106 0 -178 -39q-90 -51 -90 -151q0 -141 174 -187.5 t422 -113.5q137 -41 215 -152q70 -100 70 -221q0 -229 -183 -352q-158 -106 -399 -107q-266 0 -428 125q-178 137 -182 397z" />
<glyph unicode="T" horiz-adv-x="1214" d="M16 1241v221h1184v-221h-465v-1241h-256v1241h-463z" />
<glyph unicode="U" horiz-adv-x="1478" d="M139 526v936h256v-852q0 -199 47 -284q76 -139 297 -140q221 0 297 140q47 86 47 284v852h256v-936q0 -274 -163 -422q-158 -139 -437 -139t-434 139q-166 148 -166 422z" />
<glyph unicode="V" horiz-adv-x="1251" d="M-10 1462h266l367 -1157h4l374 1157h261l-500 -1462h-285z" />
<glyph unicode="W" horiz-adv-x="1933" d="M12 1462h260l265 -1118h4l295 1118h262l286 -1118h5l272 1118h260l-403 -1462h-261l-292 1118h-4l-299 -1118h-265z" />
<glyph unicode="X" horiz-adv-x="1327" d="M-6 0l518 758l-483 704h305l332 -516l346 516h286l-483 -704l518 -758h-311l-365 559l-370 -559h-293z" />
<glyph unicode="Y" horiz-adv-x="1327" d="M-12 1462h297l387 -655l381 655h286l-546 -889v-573h-256v573z" />
<glyph unicode="Z" horiz-adv-x="1290" d="M47 0v209l852 1032h-786v221h1112v-194l-852 -1047h872v-221h-1198z" />
<glyph unicode="[" horiz-adv-x="606" d="M147 -391v1888h457v-184h-235v-1520h235v-184h-457z" />
<glyph unicode="\" horiz-adv-x="720" d="M-45 1497h223l588 -1532h-223z" />
<glyph unicode="]" horiz-adv-x="606" d="M2 -207h236v1520h-236v184h457v-1888h-457v184z" />
<glyph unicode="^" horiz-adv-x="1228" d="M172 686l369 748h147l369 -748h-209l-234 506l-233 -506h-209z" />
<glyph unicode="_" horiz-adv-x="1024" d="M0 -154h1024v-102h-1024v102z" />
<glyph unicode="`" horiz-adv-x="493" d="M-59 1497h274l186 -293h-170z" />
<glyph unicode="a" d="M197 535q80 47 276 75l221 33q96 29 97 117q0 143 -220 143q-219 0 -233 -168h-234q20 352 482 352q174 0 288 -69q136 -82 136 -238v-544q0 -80 55 -80q33 0 57 4v-162q-76 -27 -147 -27q-156 0 -180 129q-131 -129 -367 -129q-154 0 -252 78q-110 83 -110 229 q0 179 131 257zM299 291q0 -70 78 -107q57 -28 132 -28h5q94 0 170 45q92 55 92 155v174q-45 -29 -131 -43l-156 -20q-190 -33 -190 -176z" />
<glyph unicode="b" horiz-adv-x="1251" d="M129 0v1462h233v-540h5q47 76 135 120.5t180 44.5q240 0 373 -165q123 -152 123 -398q0 -231 -111 -383q-125 -170 -346 -170q-279 0 -367 174h-4v-145h-221zM354 528q0 -164 80 -268t217 -104q147 0 228 116q65 100 65 256q0 154 -74 260q-82 115 -219 115 q-143 0 -220 -100.5t-77 -274.5z" />
<glyph unicode="c" d="M72 518q0 252 131 406q138 163 388 163h3q195 0 321 -94q140 -102 156 -288h-233q-29 198 -240 198h-2q-117 0 -190 -72q-100 -98 -101 -313q0 -150 64 -248q75 -114 215 -114h2q102 0 168.5 64.5t83.5 176.5h233q-68 -426 -485 -426q-242 0 -381 158q-133 147 -133 389z " />
<glyph unicode="d" horiz-adv-x="1251" d="M72 537q0 270 143 419q125 131 315 131q250 0 353 -165h4v540h233v-1462h-221v143h-4q-88 -172 -328 -172q-242 0 -372 164q-123 152 -123 402zM305 518q0 -150 70 -250q79 -112 220 -112h3q145 0 227 118q70 102 70 256q0 174 -79 273.5t-214 99.5q-152 0 -231 -121 q-66 -102 -66 -264z" />
<glyph unicode="e" d="M72 528q0 233 137 394q144 165 372 165h3q223 0 366 -163q137 -154 137 -377q0 -39 -4 -78h-778q0 -133 70 -219q76 -94 215 -94q197 0 258 176h221q-37 -170 -169 -265.5t-310 -95.5q-244 0 -381 154t-137 403zM305 623h545q-6 117 -79 198.5t-187 81.5 q-119 0 -197 -79.5t-82 -200.5z" />
<glyph unicode="f" horiz-adv-x="645" d="M18 885v174h175v88q0 184 90 260q68 55 202 55q113 0 164 -14v-182q-45 12 -108 12q-115 0 -115 -111v-108h199v-174h-199v-885h-233v885h-175z" />
<glyph unicode="g" horiz-adv-x="1214" d="M199 930q132 157 349 157h3q227 0 313 -174h4v146h234v-1004q0 -475 -520 -475q-184 0 -310 72q-150 86 -163 258h233q33 -156 254 -156q272 0 272 271v161h-4q-104 -186 -317 -186q-240 0 -363 166q-112 144 -112 387q0 227 127 377zM305 535q0 -143 66 -240 q76 -111 213 -111q143 0 219 117q65 99 65 247q0 155 -65 249q-76 106 -219 106t-217 -119q-61 -98 -62 -249z" />
<glyph unicode="h" horiz-adv-x="1175" d="M123 0v1462h233v-542h4q45 74 130 120.5t188 46.5q176 0 275.5 -92t99.5 -268v-727h-234v666q0 237 -205 237h-2q-115 0 -185.5 -80t-70.5 -198v-625h-233z" />
<glyph unicode="i" horiz-adv-x="493" d="M129 0v1059h233v-1059h-233zM129 1241v221h233v-221h-233z" />
<glyph unicode="j" horiz-adv-x="493" d="M-45 -227q61 -8 80 -9q59 0 80 39q14 31 14 117v1139h233v-1149q0 -330 -303 -330q-43 0 -104 8v185zM129 1241v221h233v-221h-233z" />
<glyph unicode="k" horiz-adv-x="1099" d="M129 0v1462h233v-831l422 428h287l-405 -389l444 -670h-285l-323 514l-140 -135v-379h-233z" />
<glyph unicode="l" horiz-adv-x="493" d="M129 0v1462h233v-1462h-233z" />
<glyph unicode="m" horiz-adv-x="1781" d="M123 0v1059h221v-148h6q117 176 326 176q227 0 297 -176q127 176 332 176q354 0 354 -356v-731h-234v618q0 150 -28 205q-39 80 -164 80q-225 0 -225 -282v-621h-234v680q0 115 -42 169t-144 54q-96 0 -164 -73.5t-68 -200.5v-629h-233z" />
<glyph unicode="n" horiz-adv-x="1175" d="M123 0v1059h221v-156l4 -4q113 188 330 188q176 0 275.5 -92t99.5 -268v-727h-234v666q0 237 -205 237h-2q-115 0 -185.5 -80t-70.5 -198v-625h-233z" />
<glyph unicode="o" horiz-adv-x="1214" d="M74 530q0 248 142 402.5t392 154.5t396 -157q139 -152 139 -400q0 -250 -139 -401q-146 -158 -396 -158t-395 158q-139 152 -139 401zM307 530q0 -154 72 -256q82 -118 229 -118t230 118q71 101 71 252q0 156 -71 258q-82 119 -230 119q-147 0 -229 -119 q-72 -102 -72 -254z" />
<glyph unicode="p" horiz-adv-x="1251" d="M129 -391v1450h221v-144h4q94 172 328 172q240 0 373 -165q123 -152 123 -398q0 -231 -111 -383q-125 -170 -346 -170q-250 0 -354 166h-5v-528h-233zM354 528q0 -164 80 -268t217 -104q147 0 228 116q65 100 65 256q0 154 -74 260q-82 115 -219 115q-143 0 -220 -100.5 t-77 -274.5z" />
<glyph unicode="q" horiz-adv-x="1251" d="M195 922q132 165 369 165h3q233 0 328 -172h4v144h221v-1450h-233v528h-4q-104 -166 -355 -166q-221 0 -346 170q-110 151 -110 379q0 250 123 402zM305 528q0 -156 68 -256q77 -116 223 -116h2q147 0 225 104q72 96 72 268q0 174 -77 274.5t-220 100.5q-137 0 -219 -115 q-74 -106 -74 -260z" />
<glyph unicode="r" horiz-adv-x="720" d="M123 0v1059h219v-205h4q20 88 112.5 160.5t196.5 72.5q27 0 88 -6v-225q-82 10 -100 10q-125 0 -203 -94q-84 -98 -84 -268v-504h-233z" />
<glyph unicode="s" horiz-adv-x="1062" d="M66 340h233q16 -184 240 -184q235 0 235 131v8q-4 98 -184 141q-301 74 -326 86q-176 78 -176 262q0 158 150 238q117 65 287 65h5q178 0 293 -73q129 -86 150 -252h-244q-27 141 -215 141q-192 0 -192 -107q0 -75 108 -114q20 -8 236 -57q160 -37 235 -90 q106 -78 107 -220q0 -174 -154 -266q-129 -78 -319 -78q-209 0 -332 90q-135 99 -137 279z" />
<glyph unicode="t" horiz-adv-x="681" d="M16 885v174h177v317h233v-317h211v-174h-211v-566q0 -82 16 -108q23 -37 97 -37q66 0 98 8v-180q-154 -12 -152 -12q-172 0 -237 69q-55 57 -55 201v625h-177z" />
<glyph unicode="u" horiz-adv-x="1175" d="M123 387v672h233v-649q0 -254 203 -254q260 0 260 288v615h234v-1059h-230v147h-4q-43 -78 -128 -127t-173 -49q-395 0 -395 416z" />
<glyph unicode="v" horiz-adv-x="1062" d="M18 1059h254l269 -813h4l258 813h241l-378 -1059h-263z" />
<glyph unicode="w" horiz-adv-x="1593" d="M27 1059h247l207 -791h4l199 791h236l190 -791h4l215 791h238l-332 -1059h-240l-196 786h-4l-195 -786h-246z" />
<glyph unicode="x" horiz-adv-x="1099" d="M8 0l400 557l-367 502h283l221 -326l231 326h271l-361 -490l406 -569h-281l-268 391l-260 -391h-275z" />
<glyph unicode="y" horiz-adv-x="1062" d="M6 1059h256l277 -791h4l268 791h244l-412 -1116q-70 -188 -123 -254q-88 -109 -252 -109q-82 0 -162 12v197q86 -14 111 -14q74 0 113 41q27 29 51 106l27 82z" />
<glyph unicode="z" horiz-adv-x="1024" d="M45 0v164l586 710h-545v185h860v-164l-606 -711h637v-184h-932z" />
<glyph unicode="{" horiz-adv-x="606" d="M-8 461v184q63 0 119 31q74 41 73 119v422q0 129 99 213q80 68 163 67h187v-184h-113q-115 0 -114 -144v-399q0 -109 -82 -166q-55 -39 -131 -49v-4q213 -20 213 -227v-387q0 -143 114 -144h113v-184h-187q-84 0 -163 67q-98 84 -99 213v406q0 88 -73 133q-56 33 -119 33 z" />
<glyph unicode="|" horiz-adv-x="454" d="M123 -35v1532h209v-1532h-209z" />
<glyph unicode="}" horiz-adv-x="606" d="M-27 -207h113q115 0 115 144v399q0 109 82 166q55 39 131 49v4q-213 20 -213 227v387q0 143 -115 144h-113v184h187q84 0 164 -67q98 -84 98 -213v-406q0 -88 76 -133q53 -33 116 -33v-184q-63 0 -116 -31q-76 -41 -76 -119v-422q0 -129 -98 -213q-80 -68 -164 -67h-187 v184z" />
<glyph unicode="~" horiz-adv-x="1228" d="M141 516q92 176 256 176q78 0 228 -65q168 -74 209 -74q53 0 102 45q27 24 78 94l73 -172q-61 -86 -102 -121q-70 -55 -154 -55q-86 0 -208 68q-129 72 -236 71q-100 0 -172 -139z" />
<glyph unicode="&#xa1;" horiz-adv-x="569" d="M147 831v256h275v-256h-275zM158 43l67 637h121l68 -637v-418h-256v418z" />
<glyph unicode="&#xa2;" d="M76 518q0 256 132 412.5t341 156.5v185h88v-185q174 0 298 -104t138 -278h-233q-10 88 -66.5 143t-136.5 55v-747q184 31 211 241h233q-78 -426 -444 -426v-184h-88v184q-215 0 -348 162q-125 154 -125 385zM309 518q0 -137 56 -233q63 -111 184 -129v747 q-125 -12 -187 -135q-53 -102 -53 -250z" />
<glyph unicode="&#xa3;" d="M63 653v133h130q-96 119 -97 289q0 184 152 307q139 115 327 115q240 0 376 -129t139 -377h-234q-14 311 -276 312q-98 0 -160 -62q-68 -68 -68 -178q0 -102 94 -277h302v-133h-252q33 -61 32 -137q0 -182 -206 -336l4 -4q139 55 188 55q61 0 162.5 -35.5t154.5 -35.5 q109 0 199 78l105 -158q-133 -115 -328 -115q-39 0 -100 12q-96 18 -103 19q-135 41 -215 41q-125 0 -207 -70l-108 166q86 57 147 143q74 100 74 189q0 98 -43 188h-189z" />
<glyph unicode="&#xa4;" d="M41 299l117 125q-102 115 -103 291q0 195 103 295l-117 125l117 116l116 -114q111 94 299 94q178 0 281 -92l119 116l125 -125l-115 -118q96 -102 96 -293q0 -182 -98 -299l113 -121l-113 -113l-117 119q-106 -102 -293 -102q-190 0 -301 100l-114 -119zM276 715 q0 -127 85 -215t210 -88q123 0 205 90t82 217q0 123 -82 213t-203 90q-127 0 -212 -89t-85 -218z" />
<glyph unicode="&#xa5;" d="M-10 1462h260l319 -655l326 655h254l-385 -719h203v-133h-281v-139h281v-133h-281v-338h-233v338h-281v133h281v139h-281v133h201z" />
<glyph unicode="&#xa6;" horiz-adv-x="454" d="M123 -35v598h209v-598h-209zM123 899v598h209v-598h-209z" />
<glyph unicode="&#xa7;" d="M45 639q0 211 221 305q-88 90 -88 207q0 156 129 256q117 90 275 90q178 0 293.5 -104.5t117.5 -282.5h-221q-4 88 -55 145.5t-137 57.5q-66 0 -117 -43t-51 -111q0 -84 106 -158q41 -29 234 -127q162 -82 235 -151q109 -104 109 -236q0 -96 -62.5 -180t-154.5 -114 q113 -94 112 -263q0 -166 -123 -262q-115 -88 -282 -88q-193 0 -312 109q-125 113 -131 311h222q16 -236 215 -236q178 0 178 166q0 98 -111 181q-49 35 -241 135q-170 88 -248 157q-113 104 -113 236zM266 666q0 -96 113 -160l373 -209q123 53 122 168q0 88 -143 170 l-340 194q-55 -16 -90 -61t-35 -102z" />
<glyph unicode="&#xa8;" horiz-adv-x="493" d="M-45 1227v221h233v-221h-233zM307 1227v221h234v-221h-234z" />
<glyph unicode="&#xa9;" horiz-adv-x="1638" d="M68 731q0 338 225 555q215 211 528 211q309 0 527 -211q223 -217 223 -555t-220.5 -552t-529.5 -214q-328 0 -540.5 218t-212.5 548zM231 731q0 -268 158 -446q166 -186 432 -187q250 0 418 178.5t168 454.5t-169 454.5t-417 178.5q-252 0 -421 -178t-169 -455zM412 731 q0 190 116.5 315t313.5 125q143 0 243.5 -80.5t120.5 -228.5h-139q-16 80 -77.5 128t-147.5 48q-125 0 -196 -87t-71 -220q0 -137 75 -233.5t196 -96.5q90 0 150.5 51.5t70.5 131.5h141q-27 -143 -126 -229.5t-236 -86.5q-195 0 -314.5 131t-119.5 332z" />
<glyph unicode="&#xaa;" horiz-adv-x="778" d="M33 954q0 104 90 154q51 29 186 51q117 20 135 27q55 16 56 51q0 92 -123 92q-135 0 -144 -86h-174q20 219 328 219q119 0 199 -45q92 -51 92 -145v-309q0 -47 35 -45q10 0 32 2v-140q-45 -16 -96 -16q-111 0 -127 100q-29 -43 -101.5 -71.5t-137.5 -28.5q-102 0 -176 50 t-74 140zM211 965q0 -68 115 -68q174 0 174 109v90q-33 -16 -172 -39q-117 -18 -117 -92z" />
<glyph unicode="&#xab;" horiz-adv-x="948" d="M102 442v230l318 252v-211l-195 -156l195 -156v-211zM508 442v230l317 252v-211l-194 -156l194 -156v-211z" />
<glyph unicode="&#xac;" horiz-adv-x="1228" d="M98 621v208h1032v-608h-208v400h-824z" />
<glyph unicode="&#xad;" horiz-adv-x="796" d="M100 446v222h596v-222h-596z" />
<glyph unicode="&#xae;" horiz-adv-x="1638" d="M68 731q0 338 225 555q215 211 528 211q309 0 527 -211q223 -217 223 -555t-220.5 -552t-529.5 -214q-328 0 -540.5 218t-212.5 548zM231 731q0 -268 158 -446q166 -186 432 -187q250 0 418 178.5t168 454.5t-169 454.5t-417 178.5q-252 0 -421 -178t-169 -455zM530 293 v848h322q309 0 309 -244q0 -207 -221 -231l238 -373h-158l-219 362h-131v-362h-140zM670 774h155q96 0 138 21q59 29 59 112q0 115 -184 115h-168v-248z" />
<glyph unicode="&#xaf;" horiz-adv-x="493" d="M-47 1268v133h590v-133h-590z" />
<glyph unicode="&#xb0;" horiz-adv-x="819" d="M102 1155q0 127 90.5 217t217.5 90t217 -90t90 -217t-90 -217t-217 -90t-217.5 90t-90.5 217zM217 1155q0 -80 56.5 -136t136.5 -56t136 56t56 136t-56.5 136.5t-135.5 56.5q-80 0 -136.5 -56.5t-56.5 -136.5z" />
<glyph unicode="&#xb1;" horiz-adv-x="1228" d="M98 0v209h1032v-209h-1032zM98 571v209h412v256h209v-256h411v-209h-411v-256h-209v256h-412z" />
<glyph unicode="&#xb2;" horiz-adv-x="737" d="M43 559q2 219 205 350q182 117 186 121q94 76 96 162q2 127 -149 127q-141 0 -150 -191h-178q0 156 90 245t246 89q139 0 225 -61q94 -72 95 -205q0 -154 -209 -289q-78 -49 -155 -100t-93 -105h436v-143h-645z" />
<glyph unicode="&#xb3;" horiz-adv-x="737" d="M33 858h164q-4 -76 42 -125t130 -49q74 0 124 40t50 105q0 152 -244 144v119q86 -4 141 24q66 33 66 101q0 51 -47 79q-39 23 -94 23q-68 0 -110 -44t-40 -112h-164q6 141 90 220t226 79q127 0 208 -53q94 -63 95 -184q0 -139 -131 -185v-4q78 -14 123 -72.5t45 -142.5 q0 -131 -96.5 -205.5t-241.5 -74.5q-330 0 -336 317z" />
<glyph unicode="&#xb4;" horiz-adv-x="493" d="M92 1204l184 293h277l-291 -293h-170z" />
<glyph unicode="&#xb5;" horiz-adv-x="1175" d="M123 -391v1450h233v-649q0 -254 203 -254q260 0 260 288v615h234v-1059h-230v147h-4q-41 -78 -123 -127t-155 -49q-121 0 -185 74v-436h-233z" />
<glyph unicode="&#xb6;" horiz-adv-x="1228" d="M63 1077q0 385 478 385h530v-1790h-164v1657h-239v-1657h-164v1033q-197 0 -319 104t-122 268z" />
<glyph unicode="&#xb7;" horiz-adv-x="569" d="M131 618q0 59 47 105.5t107 46.5q61 0 107 -46t46 -106q0 -61 -46 -108t-107 -47t-107.5 47t-46.5 108z" />
<glyph unicode="&#xb8;" horiz-adv-x="493" d="M18 -410l37 82q98 -33 133 -32q125 0 125 84q0 37 -28.5 57t-65.5 20q-45 0 -80 -20l-45 39l135 180h99l-92 -119v-4q16 6 67 6q68 0 117 -37q57 -43 57 -114q0 -96 -80 -146q-66 -39 -168 -39q-137 0 -211 43z" />
<glyph unicode="&#xb9;" horiz-adv-x="737" d="M74 1182v118q248 0 282 144h144v-885h-178v623h-248z" />
<glyph unicode="&#xba;" horiz-adv-x="778" d="M31 1112q0 160 95 255t269 95t273 -96q92 -94 92 -254t-92 -252q-98 -96 -273 -96q-174 0 -269 94t-95 254zM209 1112q0 -86 45 -145q53 -70 141 -70q90 0 142 70q43 57 45 145q2 84 -45 148q-53 70 -142 69q-88 0 -141 -69q-45 -61 -45 -148z" />
<glyph unicode="&#xbb;" horiz-adv-x="948" d="M123 190v211l194 156l-194 156v211l317 -252v-230zM528 190v211l195 156l-195 156v211l318 -252v-230z" />
<glyph unicode="&#xbc;" horiz-adv-x="1708" d="M76 1182v118q248 0 282 144h144v-885h-178v623h-248zM289 -49l858 1532h160l-856 -1532h-162zM895 199v166l379 512h199v-525h96v-153h-96v-199h-179v199h-399zM1051 352h243v324h-4z" />
<glyph unicode="&#xbd;" horiz-adv-x="1708" d="M74 1182v118q248 0 282 144h144v-885h-178v623h-248zM281 -49l858 1532h159l-856 -1532h-161zM969 0q0 137 75 238q53 68 168 139q162 102 166 106q78 63 78 150q0 63 -42 100t-107 37q-141 0 -150 -201h-178q0 160 88 252t248 92q139 0 225 -67q94 -74 94 -209 q0 -156 -209 -289q-78 -49 -153 -96q-78 -55 -94 -109h436v-143h-645z" />
<glyph unicode="&#xbe;" horiz-adv-x="1708" d="M33 858h164q-4 -76 42 -125t130 -49q74 0 124 40t50 105q0 150 -244 142v119q86 -4 141 24q66 35 66 103q0 51 -47 79q-39 23 -94 23q-68 0 -110 -44t-40 -112h-164q6 141 90 220t226 79q127 0 208 -53q94 -63 95 -184q0 -139 -131 -185v-4q78 -14 123 -72.5t45 -142.5 q0 -131 -96.5 -205.5t-241.5 -74.5q-330 0 -336 317zM401 -49l859 1532h159l-856 -1532h-162zM971 199v166l375 512h202v-525h97v-153h-97v-199h-178v199h-399zM1126 352h244v324h-4z" />
<glyph unicode="&#xbf;" d="M100 -6q0 127 58 213q31 49 126 129t126 131q51 80 51 213h221q0 -170 -39 -262q-33 -78 -121 -154q-96 -84 -116 -108q-49 -63 -50 -154q0 -104 74 -168q57 -49 127 -49q123 0 185.5 80t62.5 215h233q2 -219 -132 -354.5t-359 -135.5q-193 0 -320 108.5t-127 295.5z M430 831v256h275v-256h-275z" />
<glyph unicode="&#xc0;" horiz-adv-x="1366" d="M-14 0l561 1462h272l563 -1462h-274l-137 387h-584l-137 -387h-264zM377 1900h274l186 -293h-170zM457 582h446l-219 628h-6z" />
<glyph unicode="&#xc1;" horiz-adv-x="1366" d="M-14 0l561 1462h272l563 -1462h-274l-137 387h-584l-137 -387h-264zM457 582h446l-219 628h-6zM528 1577l184 293h277l-291 -293h-170z" />
<glyph unicode="&#xc2;" horiz-adv-x="1366" d="M-14 0l561 1462h272l563 -1462h-274l-137 387h-584l-137 -387h-264zM350 1607l219 293h227l222 -293h-191l-145 185l-144 -185h-188zM457 582h446l-219 628h-6z" />
<glyph unicode="&#xc3;" horiz-adv-x="1366" d="M-14 0l561 1462h272l563 -1462h-274l-137 387h-584l-137 -387h-264zM321 1622q14 90 66 155q61 76 147 76q68 0 163 -39t130 -39q78 0 103 90h114q-37 -236 -227 -235q-47 0 -148.5 38t-144.5 38q-35 0 -60.5 -27t-25.5 -57h-117zM457 582h446l-219 628h-6z" />
<glyph unicode="&#xc4;" horiz-adv-x="1366" d="M-14 0l561 1462h272l563 -1462h-274l-137 387h-584l-137 -387h-264zM391 1630v221h233v-221h-233zM457 582h446l-219 628h-6zM743 1630v221h234v-221h-234z" />
<glyph unicode="&#xc5;" horiz-adv-x="1366" d="M-14 0l561 1462h272l563 -1462h-274l-137 387h-584l-137 -387h-264zM457 582h446l-219 628h-6zM473 1738q0 86 63.5 148.5t147.5 62.5q86 0 148.5 -62.5t62.5 -148.5q0 -84 -62.5 -147.5t-148.5 -63.5q-84 0 -147.5 63.5t-63.5 147.5zM559 1738q0 -49 38 -87t87 -38 q51 0 88 38t37 87q0 51 -37 88t-88 37q-49 0 -87 -37t-38 -88z" />
<glyph unicode="&#xc6;" horiz-adv-x="1972" d="M-14 0l727 1462h1179v-221h-712v-383h667v-209h-667v-428h725v-221h-969v375h-490l-176 -375h-284zM541 569h395v672h-74z" />
<glyph unicode="&#xc7;" horiz-adv-x="1478" d="M78 731q0 326 186 541q195 225 514 225q252 0 422 -131q176 -137 199 -369h-256q-74 291 -365 291q-219 0 -340 -174q-104 -152 -104 -383t104 -383q121 -174 340 -174q164 0 264 113q93 102 109 270h250q-16 -260 -183 -424t-425 -166l-66 -86v-4q16 6 68 6 q68 0 116 -37q57 -43 58 -114q0 -96 -80 -146q-66 -39 -168 -39q-137 0 -211 43l37 82q98 -33 133 -32q125 0 125 84q0 37 -28.5 57t-65.5 20q-45 0 -80 -20l-45 39l112 149q-285 29 -456 250q-164 211 -164 512z" />
<glyph unicode="&#xc8;" horiz-adv-x="1290" d="M156 0v1462h1052v-221h-796v-383h737v-209h-737v-428h811v-221h-1067zM340 1900h274l186 -293h-170z" />
<glyph unicode="&#xc9;" horiz-adv-x="1290" d="M156 0v1462h1052v-221h-796v-383h737v-209h-737v-428h811v-221h-1067zM491 1607l184 293h277l-291 -293h-170z" />
<glyph unicode="&#xca;" horiz-adv-x="1290" d="M156 0v1462h1052v-221h-796v-383h737v-209h-737v-428h811v-221h-1067zM313 1607l219 293h227l222 -293h-191l-145 185l-144 -185h-188z" />
<glyph unicode="&#xcb;" horiz-adv-x="1290" d="M156 0v1462h1052v-221h-796v-383h737v-209h-737v-428h811v-221h-1067zM354 1630v221h233v-221h-233zM706 1630v221h234v-221h-234z" />
<glyph unicode="&#xcc;" horiz-adv-x="569" d="M-20 1900h274l186 -293h-170zM156 0v1462h256v-1462h-256z" />
<glyph unicode="&#xcd;" horiz-adv-x="569" d="M131 1597l184 293h277l-291 -293h-170zM156 0v1462h256v-1462h-256z" />
<glyph unicode="&#xce;" horiz-adv-x="569" d="M-47 1607l219 293h227l222 -293h-191l-145 185l-144 -185h-188zM156 0v1462h256v-1462h-256z" />
<glyph unicode="&#xcf;" horiz-adv-x="569" d="M-6 1630v221h233v-221h-233zM156 0v1462h256v-1462h-256zM346 1630v221h234v-221h-234z" />
<glyph unicode="&#xd0;" horiz-adv-x="1478" d="M18 649v209h138v604h606q322 0 491 -215q154 -193 154 -516q0 -324 -154 -516q-170 -215 -491 -215h-606v649h-138zM412 209h252q279 0 395 151q92 123 92 371t-92 371q-117 152 -395 151h-252v-395h399v-209h-399v-440z" />
<glyph unicode="&#xd1;" horiz-adv-x="1478" d="M145 0v1462h271l667 -1077h4v1077h244v-1462h-270l-666 1075h-6v-1075h-244zM379 1622q14 90 66 155q61 76 147 76q68 0 163 -39t130 -39q78 0 103 90h114q-37 -236 -227 -235q-47 0 -148.5 38t-144.5 38q-35 0 -60.5 -27t-25.5 -57h-117z" />
<glyph unicode="&#xd2;" horiz-adv-x="1556" d="M78 731q0 324 186 541q195 225 514 225t514 -225q186 -217 187 -541q0 -324 -187 -538q-195 -227 -514 -228q-319 0 -514 228q-186 215 -186 538zM334 731q0 -231 104 -383q121 -174 340 -174t340 174q104 152 105 383q0 231 -105 383q-121 174 -340 174t-340 -174 q-104 -152 -104 -383zM473 1900h274l186 -293h-170z" />
<glyph unicode="&#xd3;" horiz-adv-x="1556" d="M78 731q0 324 186 541q195 225 514 225t514 -225q186 -217 187 -541q0 -324 -187 -538q-195 -227 -514 -228q-319 0 -514 228q-186 215 -186 538zM334 731q0 -231 104 -383q121 -174 340 -174t340 174q104 152 105 383q0 231 -105 383q-121 174 -340 174t-340 -174 q-104 -152 -104 -383zM624 1577l184 293h277l-291 -293h-170z" />
<glyph unicode="&#xd4;" horiz-adv-x="1556" d="M78 731q0 324 186 541q195 225 514 225t514 -225q186 -217 187 -541q0 -324 -187 -538q-195 -227 -514 -228q-319 0 -514 228q-186 215 -186 538zM334 731q0 -231 104 -383q121 -174 340 -174t340 174q104 152 105 383q0 231 -105 383q-121 174 -340 174t-340 -174 q-104 -152 -104 -383zM446 1607l219 293h227l222 -293h-191l-145 185l-144 -185h-188z" />
<glyph unicode="&#xd5;" horiz-adv-x="1556" d="M78 731q0 324 186 541q195 225 514 225t514 -225q186 -217 187 -541q0 -324 -187 -538q-195 -227 -514 -228q-319 0 -514 228q-186 215 -186 538zM334 731q0 -231 104 -383q121 -174 340 -174t340 174q104 152 105 383q0 231 -105 383q-121 174 -340 174t-340 -174 q-104 -152 -104 -383zM417 1622q14 90 66 155q61 76 147 76q68 0 163 -39t130 -39q78 0 103 90h114q-37 -236 -227 -235q-47 0 -148.5 38t-144.5 38q-35 0 -60.5 -27t-25.5 -57h-117z" />
<glyph unicode="&#xd6;" horiz-adv-x="1556" d="M78 731q0 324 186 541q195 225 514 225t514 -225q186 -217 187 -541q0 -324 -187 -538q-195 -227 -514 -228q-319 0 -514 228q-186 215 -186 538zM334 731q0 -231 104 -383q121 -174 340 -174t340 174q104 152 105 383q0 231 -105 383q-121 174 -340 174t-340 -174 q-104 -152 -104 -383zM487 1630v221h233v-221h-233zM839 1630v221h234v-221h-234z" />
<glyph unicode="&#xd7;" horiz-adv-x="1228" d="M113 162l356 356l-356 356l176 115l323 -325l328 325l176 -115l-358 -356l358 -356l-176 -115l-328 328l-323 -328z" />
<glyph unicode="&#xd8;" horiz-adv-x="1556" d="M78 731q0 324 186 541q195 225 514 225q272 0 455 -166l153 172l89 -73l-162 -183q166 -213 166 -516q0 -324 -187 -538q-195 -227 -514 -228q-274 0 -454 168l-156 -174l-86 74l162 184q-166 211 -166 514zM334 731q0 -195 74 -330l673 758q-113 129 -303 129 q-219 0 -340 -174q-104 -152 -104 -383zM475 303q119 -129 303 -129q219 0 340 174q104 152 105 383q0 193 -76 330z" />
<glyph unicode="&#xd9;" horiz-adv-x="1478" d="M139 526v936h256v-852q0 -199 47 -284q76 -139 297 -140q221 0 297 140q47 86 47 284v852h256v-936q0 -274 -163 -422q-158 -139 -437 -139t-434 139q-166 148 -166 422zM435 1900h274l186 -293h-170z" />
<glyph unicode="&#xda;" horiz-adv-x="1478" d="M139 526v936h256v-852q0 -199 47 -284q76 -139 297 -140q221 0 297 140q47 86 47 284v852h256v-936q0 -274 -163 -422q-158 -139 -437 -139t-434 139q-166 148 -166 422zM586 1577l184 293h277l-291 -293h-170z" />
<glyph unicode="&#xdb;" horiz-adv-x="1478" d="M139 526v936h256v-852q0 -199 47 -284q76 -139 297 -140q221 0 297 140q47 86 47 284v852h256v-936q0 -274 -163 -422q-158 -139 -437 -139t-434 139q-166 148 -166 422zM408 1607l219 293h227l222 -293h-191l-145 185l-144 -185h-188z" />
<glyph unicode="&#xdc;" horiz-adv-x="1478" d="M139 526v936h256v-852q0 -199 47 -284q76 -139 297 -140q221 0 297 140q47 86 47 284v852h256v-936q0 -274 -163 -422q-158 -139 -437 -139t-434 139q-166 148 -166 422zM449 1630v221h233v-221h-233zM801 1630v221h234v-221h-234z" />
<glyph unicode="&#xdd;" horiz-adv-x="1327" d="M-12 1462h297l387 -655l381 655h286l-546 -889v-573h-256v573zM510 1577l184 293h277l-291 -293h-170z" />
<glyph unicode="&#xde;" horiz-adv-x="1366" d="M156 0v1462h256v-221h389q279 0 405 -158q92 -115 92 -295q0 -178 -92 -290q-127 -158 -405 -158h-389v-340h-256zM412 549h374q102 0 172 51q84 63 84 191q0 242 -251 241h-379v-483z" />
<glyph unicode="&#xdf;" horiz-adv-x="1175" d="M129 0v1071q0 197 125 311.5t324 114.5q176 0 301 -96q135 -104 135 -273q0 -109 -51 -190q-55 -88 -158 -119v-4q125 -14 203 -121q72 -98 71 -229q0 -215 -128 -354.5t-341 -139.5q-55 0 -114 6v185q31 -6 79 -6q270 0 271 319q0 131 -113 201q-82 51 -235 51v154 q137 0 202 53q80 63 80 172q0 207 -207 207q-211 0 -211 -266v-1047h-233z" />
<glyph unicode="&#xe0;" d="M66 281q0 176 131 254q80 47 276 75l221 33q96 29 97 117q0 143 -220 143q-219 0 -233 -168h-234q20 352 482 352q174 0 288 -69q136 -82 136 -238v-544q0 -80 55 -80q33 0 57 4v-162q-76 -27 -147 -27q-156 0 -180 129q-131 -129 -367 -129q-154 0 -252 78 q-111 84 -110 232zM265 1497h274l186 -293h-170zM299 291q0 -70 78 -107q59 -29 137 -28q94 0 170 45q92 55 92 155v174q-45 -29 -131 -43l-156 -20q-190 -33 -190 -176z" />
<glyph unicode="&#xe1;" d="M66 281q0 176 131 254q80 47 276 75l221 33q96 29 97 117q0 143 -220 143q-219 0 -233 -168h-234q20 352 482 352q174 0 288 -69q136 -82 136 -238v-544q0 -80 55 -80q33 0 57 4v-162q-76 -27 -147 -27q-156 0 -180 129q-131 -129 -367 -129q-154 0 -252 78 q-111 84 -110 232zM299 291q0 -70 78 -107q59 -29 137 -28q94 0 170 45q92 55 92 155v174q-45 -29 -131 -43l-156 -20q-190 -33 -190 -176zM416 1204l184 293h277l-291 -293h-170z" />
<glyph unicode="&#xe2;" d="M66 281q0 176 131 254q80 47 276 75l221 33q96 29 97 117q0 143 -220 143q-219 0 -233 -168h-234q20 352 482 352q174 0 288 -69q136 -82 136 -238v-544q0 -80 55 -80q33 0 57 4v-162q-76 -27 -147 -27q-156 0 -180 129q-131 -129 -367 -129q-154 0 -252 78 q-111 84 -110 232zM238 1204l219 293h227l222 -293h-191l-145 185l-144 -185h-188zM299 291q0 -70 78 -107q59 -29 137 -28q94 0 170 45q92 55 92 155v174q-45 -29 -131 -43l-156 -20q-190 -33 -190 -176z" />
<glyph unicode="&#xe3;" d="M66 281q0 176 131 254q80 47 276 75l221 33q96 29 97 117q0 143 -220 143q-219 0 -233 -168h-234q20 352 482 352q174 0 288 -69q136 -82 136 -238v-544q0 -80 55 -80q33 0 57 4v-162q-76 -27 -147 -27q-156 0 -180 129q-131 -129 -367 -129q-154 0 -252 78 q-111 84 -110 232zM209 1219q14 90 66 155q61 76 147 76q68 0 163 -39t130 -39q78 0 103 90h114q-37 -236 -227 -235q-47 0 -148.5 38t-144.5 38q-35 0 -60.5 -27t-25.5 -57h-117zM299 291q0 -70 78 -107q59 -29 137 -28q94 0 170 45q92 55 92 155v174q-45 -29 -131 -43 l-156 -20q-190 -33 -190 -176z" />
<glyph unicode="&#xe4;" d="M66 281q0 176 131 254q80 47 276 75l221 33q96 29 97 117q0 143 -220 143q-219 0 -233 -168h-234q20 352 482 352q174 0 288 -69q136 -82 136 -238v-544q0 -80 55 -80q33 0 57 4v-162q-76 -27 -147 -27q-156 0 -180 129q-131 -129 -367 -129q-154 0 -252 78 q-111 84 -110 232zM279 1227v221h233v-221h-233zM299 291q0 -70 78 -107q59 -29 137 -28q94 0 170 45q92 55 92 155v174q-45 -29 -131 -43l-156 -20q-190 -33 -190 -176zM631 1227v221h234v-221h-234z" />
<glyph unicode="&#xe5;" d="M66 281q0 176 131 254q80 47 276 75l221 33q96 29 97 117q0 143 -220 143q-219 0 -233 -168h-234q20 352 482 352q174 0 288 -69q136 -82 136 -238v-544q0 -80 55 -80q33 0 57 4v-162q-76 -27 -147 -27q-156 0 -180 129q-131 -129 -367 -129q-154 0 -252 78 q-111 84 -110 232zM299 291q0 -70 78 -107q59 -29 137 -28q94 0 170 45q92 55 92 155v174q-45 -29 -131 -43l-156 -20q-190 -33 -190 -176zM361 1335q0 86 63.5 148.5t147.5 62.5q86 0 148.5 -62.5t62.5 -148.5q0 -84 -62.5 -147.5t-148.5 -63.5q-84 0 -147.5 63.5 t-63.5 147.5zM447 1335q0 -49 38 -87t87 -38q51 0 88 38t37 87q0 51 -37 88t-88 37q-49 0 -87 -37t-38 -88z" />
<glyph unicode="&#xe6;" horiz-adv-x="1820" d="M66 281q0 176 131 254q80 47 276 75q209 31 215 33q90 27 90 117q0 143 -207 143q-219 0 -233 -168h-234q12 188 158 279q121 74 318 73q262 0 358 -143q109 143 336 143q244 0 373 -155q121 -145 120 -397q0 -33 -2 -66h-768q-2 -131 66 -217q74 -96 211 -96 q187 0 250 178h233q-45 -168 -174 -265.5t-305 -97.5q-279 0 -389 195q-131 -195 -440 -195q-166 0 -271 78q-113 82 -112 232zM299 291q0 -135 213 -135q104 0 180 55q84 60 84 158v157q-31 -29 -121 -41q-82 -8 -163 -18q-193 -31 -193 -176zM997 623h535 q2 127 -69.5 203.5t-198.5 76.5q-119 0 -191 -84q-68 -75 -76 -196z" />
<glyph unicode="&#xe7;" d="M72 518q0 252 131 406q139 164 391 163q195 0 321 -94q139 -102 156 -288h-233q-29 199 -242 198q-117 0 -190 -72q-100 -98 -101 -313q0 -150 64 -248q76 -115 217 -114q102 0 169 64t83 177h233q-63 -403 -442 -422l-72 -94v-4q16 6 68 6q68 0 116 -37q57 -43 58 -114 q0 -96 -80 -146q-66 -39 -168 -39q-137 0 -211 43l37 82q98 -33 133 -32q125 0 125 84q0 37 -28.5 57t-65.5 20q-45 0 -80 -20l-45 39l116 155q-219 16 -342 170q-119 145 -118 373z" />
<glyph unicode="&#xe8;" d="M72 528q0 233 137 394q145 166 375 165q223 0 366 -163q137 -154 137 -377q0 -39 -4 -78h-778q0 -133 70 -219q76 -94 215 -94q197 0 258 176h221q-37 -170 -169 -265.5t-310 -95.5q-244 0 -381 154t-137 403zM265 1497h274l186 -293h-170zM305 623h545q-6 117 -79 198.5 t-187 81.5q-119 0 -197 -79.5t-82 -200.5z" />
<glyph unicode="&#xe9;" d="M72 528q0 233 137 394q145 166 375 165q223 0 366 -163q137 -154 137 -377q0 -39 -4 -78h-778q0 -133 70 -219q76 -94 215 -94q197 0 258 176h221q-37 -170 -169 -265.5t-310 -95.5q-244 0 -381 154t-137 403zM305 623h545q-6 117 -79 198.5t-187 81.5q-119 0 -197 -79.5 t-82 -200.5zM416 1204l184 293h277l-291 -293h-170z" />
<glyph unicode="&#xea;" d="M72 528q0 233 137 394q145 166 375 165q223 0 366 -163q137 -154 137 -377q0 -39 -4 -78h-778q0 -133 70 -219q76 -94 215 -94q197 0 258 176h221q-37 -170 -169 -265.5t-310 -95.5q-244 0 -381 154t-137 403zM238 1204l219 293h227l222 -293h-191l-145 185l-144 -185 h-188zM305 623h545q-6 117 -79 198.5t-187 81.5q-119 0 -197 -79.5t-82 -200.5z" />
<glyph unicode="&#xeb;" d="M72 528q0 233 137 394q145 166 375 165q223 0 366 -163q137 -154 137 -377q0 -39 -4 -78h-778q0 -133 70 -219q76 -94 215 -94q197 0 258 176h221q-37 -170 -169 -265.5t-310 -95.5q-244 0 -381 154t-137 403zM279 1227v221h233v-221h-233zM305 623h545q-6 117 -79 198.5 t-187 81.5q-119 0 -197 -79.5t-82 -200.5zM631 1227v221h234v-221h-234z" />
<glyph unicode="&#xec;" horiz-adv-x="493" d="M-59 1497h274l186 -293h-170zM129 0v1059h233v-1059h-233z" />
<glyph unicode="&#xed;" horiz-adv-x="493" d="M92 1204l184 293h277l-291 -293h-170zM129 0v1059h233v-1059h-233z" />
<glyph unicode="&#xee;" horiz-adv-x="493" d="M-86 1204l219 293h227l222 -293h-191l-145 185l-144 -185h-188zM129 0v1059h233v-1059h-233z" />
<glyph unicode="&#xef;" horiz-adv-x="493" d="M-45 1227v221h233v-221h-233zM129 0v1059h233v-1059h-233zM307 1227v221h234v-221h-234z" />
<glyph unicode="&#xf0;" horiz-adv-x="1214" d="M86 516q0 211 123 361q129 160 334 159q166 0 293 -90h4q-59 131 -222 268l-221 -106l-102 100l197 95q-59 27 -175 69l156 125q113 -37 213 -102l215 102l100 -100l-192 -92q317 -260 317 -672q0 -295 -125 -467q-143 -195 -426 -195q-229 0 -360 154q-129 147 -129 391 zM319 502q0 -150 66 -244q72 -102 205 -102q135 0 223 106q80 100 80 240q0 145 -66 241q-76 109 -215 109q-293 0 -293 -350z" />
<glyph unicode="&#xf1;" horiz-adv-x="1175" d="M123 0v1059h221v-156l4 -4q113 188 330 188q176 0 275.5 -92t99.5 -268v-727h-234v666q0 238 -207 237q-115 0 -185.5 -80t-70.5 -198v-625h-233zM227 1219q14 90 66 155q61 76 147 76q68 0 163 -39t130 -39q78 0 103 90h114q-37 -236 -227 -235q-47 0 -148.5 38 t-144.5 38q-35 0 -60.5 -27t-25.5 -57h-117z" />
<glyph unicode="&#xf2;" horiz-adv-x="1214" d="M74 530q0 248 142 402.5t392 154.5t396 -157q139 -152 139 -400q0 -250 -139 -401q-146 -158 -396 -158t-395 158q-139 152 -139 401zM301 1497h274l186 -293h-170zM307 530q0 -154 72 -256q82 -118 229 -118t230 118q72 102 71 256q0 152 -71 254q-82 119 -230 119 q-147 0 -229 -119q-72 -102 -72 -254z" />
<glyph unicode="&#xf3;" horiz-adv-x="1214" d="M74 530q0 248 142 402.5t392 154.5t396 -157q139 -152 139 -400q0 -250 -139 -401q-146 -158 -396 -158t-395 158q-139 152 -139 401zM307 530q0 -154 72 -256q82 -118 229 -118t230 118q72 102 71 256q0 152 -71 254q-82 119 -230 119q-147 0 -229 -119 q-72 -102 -72 -254zM452 1204l184 293h277l-291 -293h-170z" />
<glyph unicode="&#xf4;" horiz-adv-x="1214" d="M74 530q0 248 142 402.5t392 154.5t396 -157q139 -152 139 -400q0 -250 -139 -401q-146 -158 -396 -158t-395 158q-139 152 -139 401zM274 1204l219 293h227l222 -293h-191l-145 185l-144 -185h-188zM307 530q0 -154 72 -256q82 -118 229 -118t230 118q72 102 71 256 q0 152 -71 254q-82 119 -230 119q-147 0 -229 -119q-72 -102 -72 -254z" />
<glyph unicode="&#xf5;" horiz-adv-x="1214" d="M74 530q0 248 142 402.5t392 154.5t396 -157q139 -152 139 -400q0 -250 -139 -401q-146 -158 -396 -158t-395 158q-139 152 -139 401zM245 1219q14 90 66 155q61 76 147 76q68 0 163 -39t130 -39q78 0 103 90h114q-37 -236 -227 -235q-47 0 -148.5 38t-144.5 38 q-35 0 -60.5 -27t-25.5 -57h-117zM307 530q0 -154 72 -256q82 -118 229 -118t230 118q72 102 71 256q0 152 -71 254q-82 119 -230 119q-147 0 -229 -119q-72 -102 -72 -254z" />
<glyph unicode="&#xf6;" horiz-adv-x="1214" d="M74 530q0 248 142 402.5t392 154.5t396 -157q139 -152 139 -400q0 -250 -139 -401q-146 -158 -396 -158t-395 158q-139 152 -139 401zM307 530q0 -154 72 -256q82 -118 229 -118t230 118q72 102 71 256q0 152 -71 254q-82 119 -230 119q-147 0 -229 -119 q-72 -102 -72 -254zM315 1227v221h233v-221h-233zM667 1227v221h234v-221h-234z" />
<glyph unicode="&#xf7;" horiz-adv-x="1228" d="M98 414v209h1032v-209h-1032zM467 96q0 61 44 104.5t103 43.5t103.5 -44t44.5 -104q0 -55 -44.5 -101t-101.5 -46q-59 0 -104 44t-45 103zM467 940q0 61 44 104t103 43t103.5 -44t44.5 -103q0 -55 -44.5 -101t-101.5 -46q-59 0 -104 44t-45 103z" />
<glyph unicode="&#xf8;" horiz-adv-x="1214" d="M66 0l133 147q-125 150 -125 383q0 248 142 402.5t392 154.5q213 0 348 -112l129 141l66 -57l-133 -146q125 -154 125 -383q0 -250 -139 -401q-145 -158 -396 -158q-209 0 -346 115l-131 -143zM307 530q0 -121 47 -213l457 500q-80 86 -203 86q-147 0 -229 -119 q-72 -102 -72 -254zM406 242q80 -86 202 -86q147 0 230 118q72 102 71 256q0 119 -47 211z" />
<glyph unicode="&#xf9;" horiz-adv-x="1175" d="M123 387v672h233v-649q0 -254 203 -254q260 0 260 288v615h234v-1059h-230v147h-4q-43 -78 -128 -127t-173 -49q-395 0 -395 416zM283 1497h274l186 -293h-170z" />
<glyph unicode="&#xfa;" horiz-adv-x="1175" d="M123 387v672h233v-649q0 -254 203 -254q260 0 260 288v615h234v-1059h-230v147h-4q-43 -78 -128 -127t-173 -49q-395 0 -395 416zM434 1204l184 293h277l-291 -293h-170z" />
<glyph unicode="&#xfb;" horiz-adv-x="1175" d="M123 387v672h233v-649q0 -254 203 -254q260 0 260 288v615h234v-1059h-230v147h-4q-43 -78 -128 -127t-173 -49q-395 0 -395 416zM256 1204l219 293h227l222 -293h-191l-145 185l-144 -185h-188z" />
<glyph unicode="&#xfc;" horiz-adv-x="1175" d="M123 387v672h233v-649q0 -254 203 -254q260 0 260 288v615h234v-1059h-230v147h-4q-43 -78 -128 -127t-173 -49q-395 0 -395 416zM297 1227v221h233v-221h-233zM649 1227v221h234v-221h-234z" />
<glyph unicode="&#xfd;" horiz-adv-x="1062" d="M6 1059h256l277 -791h4l268 791h244l-412 -1116q-70 -188 -123 -254q-88 -109 -252 -109q-82 0 -162 12v197q86 -14 111 -14q74 0 113 41q27 29 51 106l27 82zM377 1204l184 293h277l-291 -293h-170z" />
<glyph unicode="&#xfe;" horiz-adv-x="1251" d="M129 -391v1853h233v-540h5q47 76 135 120.5t180 44.5q240 0 373 -165q123 -152 123 -398q0 -231 -111 -383q-125 -170 -346 -170q-252 0 -354 166h-5v-528h-233zM354 528q0 -164 80 -268t217 -104q147 0 228 116q65 100 65 256q0 154 -74 260q-82 115 -219 115 q-143 0 -220 -100.5t-77 -274.5z" />
<glyph unicode="&#xff;" horiz-adv-x="1062" d="M6 1059h256l277 -791h4l268 791h244l-412 -1116q-70 -188 -123 -254q-88 -109 -252 -109q-82 0 -162 12v197q86 -14 111 -14q74 0 113 41q27 29 51 106l27 82zM240 1227v221h233v-221h-233zM592 1227v221h234v-221h-234z" />
<glyph unicode="&#x152;" horiz-adv-x="2238" d="M84 725q0 324 180 541q190 231 508 231q236 0 369 -151v116h999v-221h-766v-383h703v-209h-703v-428h780v-221h-1013v131q-141 -166 -385 -166q-313 0 -498 228q-174 213 -174 532zM340 729q0 -227 104 -379q119 -176 336 -176q156 0 258 92q92 83 92 183v544 q0 123 -86 205q-96 90 -264 90q-217 0 -336 -178q-104 -154 -104 -381z" />
<glyph unicode="&#x153;" horiz-adv-x="1857" d="M72 532q0 238 131 392q139 164 375 163q270 0 370 -178q113 178 371 178t383 -186q106 -158 106 -432h-774q2 -139 68 -221q74 -92 209 -92q92 0 163.5 47t88.5 133h233q-43 -176 -170 -270.5t-311 -94.5q-279 0 -379 195q-100 -195 -377 -195q-236 0 -366 168 q-121 152 -121 393zM305 537q0 -381 270 -381t271 381q0 147 -62 247q-72 119 -209 119t-208 -119q-61 -100 -62 -247zM1034 623h541q-17 280 -275 280q-115 0 -188.5 -82t-77.5 -198z" />
<glyph unicode="&#x178;" horiz-adv-x="1327" d="M-12 1462h297l387 -655l381 655h286l-546 -889v-573h-256v573zM373 1630v221h233v-221h-233zM725 1630v221h234v-221h-234z" />
<glyph unicode="&#x2c6;" horiz-adv-x="493" d="M-86 1204l219 293h227l222 -293h-191l-145 185l-144 -185h-188z" />
<glyph unicode="&#x2dc;" horiz-adv-x="493" d="M-115 1219q14 90 66 155q61 76 147 76q68 0 163 -39t130 -39q78 0 103 90h114q-37 -236 -227 -235q-47 0 -148.5 38t-144.5 38q-35 0 -60.5 -27t-25.5 -57h-117z" />
<glyph unicode="&#x2000;" horiz-adv-x="974" />
<glyph unicode="&#x2001;" horiz-adv-x="1949" />
<glyph unicode="&#x2002;" horiz-adv-x="974" />
<glyph unicode="&#x2003;" horiz-adv-x="1949" />
<glyph unicode="&#x2004;" horiz-adv-x="649" />
<glyph unicode="&#x2005;" horiz-adv-x="487" />
<glyph unicode="&#x2006;" horiz-adv-x="324" />
<glyph unicode="&#x2007;" horiz-adv-x="324" />
<glyph unicode="&#x2008;" horiz-adv-x="243" />
<glyph unicode="&#x2009;" horiz-adv-x="389" />
<glyph unicode="&#x200a;" horiz-adv-x="108" />
<glyph unicode="&#x2010;" horiz-adv-x="796" d="M100 446v222h596v-222h-596z" />
<glyph unicode="&#x2011;" horiz-adv-x="796" d="M100 446v222h596v-222h-596z" />
<glyph unicode="&#x2012;" horiz-adv-x="796" d="M100 446v222h596v-222h-596z" />
<glyph unicode="&#x2013;" horiz-adv-x="1024" d="M0 446v222h1024v-222h-1024z" />
<glyph unicode="&#x2014;" horiz-adv-x="2048" d="M0 446v222h2048v-222h-2048z" />
<glyph unicode="&#x2018;" horiz-adv-x="569" d="M158 885v276q0 111 75 195q68 73 181 106v-119q-125 -43 -125 -182h125v-276h-256z" />
<glyph unicode="&#x2019;" horiz-adv-x="569" d="M158 885v119q125 16 125 182h-125v276h256v-276q0 -119 -69.5 -203t-186.5 -98z" />
<glyph unicode="&#x201a;" horiz-adv-x="569" d="M158 0v276h256v-276q0 -111 -76 -195q-67 -73 -180 -106v119q125 43 125 182h-125z" />
<glyph unicode="&#x201c;" horiz-adv-x="909" d="M123 885v276q0 111 76 195q67 73 180 106v-119q-125 -43 -125 -182h125v-276h-256zM530 885v276q0 111 76 195q67 73 180 106v-119q-125 -43 -124 -182h124v-276h-256z" />
<glyph unicode="&#x201d;" horiz-adv-x="909" d="M123 885v119q125 43 125 182h-125v276h256v-276q0 -111 -76 -193q-67 -75 -180 -108zM530 885v119q125 43 125 182h-125v276h256v-276q0 -111 -75 -193q-68 -75 -181 -108z" />
<glyph unicode="&#x201e;" horiz-adv-x="909" d="M123 0v276h256v-276q0 -111 -76 -195q-67 -73 -180 -106v119q125 43 125 182h-125zM530 0v276h256v-276q0 -111 -75 -195q-68 -73 -181 -106v119q125 43 125 182h-125z" />
<glyph unicode="&#x2022;" horiz-adv-x="1024" d="M147 731q0 152 106.5 258.5t258.5 106.5t259.5 -106.5t107.5 -258.5t-107.5 -259t-259.5 -107t-258.5 107t-106.5 259z" />
<glyph unicode="&#x2026;" horiz-adv-x="2048" d="M199 0v276h284v-276h-284zM881 0v276h284v-276h-284zM1563 0v276h284v-276h-284z" />
<glyph unicode="&#x202f;" horiz-adv-x="389" />
<glyph unicode="&#x2039;" horiz-adv-x="530" d="M102 442v230l318 252v-211l-195 -156l195 -156v-211z" />
<glyph unicode="&#x203a;" horiz-adv-x="530" d="M111 190v211l194 156l-194 156v211l317 -252v-230z" />
<glyph unicode="&#x205f;" horiz-adv-x="487" />
<glyph unicode="&#x2122;" horiz-adv-x="2027" d="M121 1329v133h680v-133h-258v-711h-164v711h-258zM973 618v844h237l232 -598l229 598h236v-844h-154v660h-4l-252 -660h-115l-252 660h-4v-660h-153z" />
<glyph unicode="&#x25fc;" horiz-adv-x="1054" d="M0 0v1055h1055v-1055h-1055z" />
</font>
</defs>
</svg>
