<?xml version="1.0" standalone="no"?>
<!DOCTYPE svg PUBLIC "-//W3C//DTD SVG 1.1//EN" "http://www.w3.org/Graphics/SVG/1.1/DTD/svg11.dtd" >
<svg xmlns="http://www.w3.org/2000/svg">
<metadata></metadata>
<defs>
<font id="futurabold" horiz-adv-x="1703" >
<font-face units-per-em="2048" ascent="1638" descent="-410" />
<missing-glyph horiz-adv-x="851" />
<glyph unicode="&#xfb01;" horiz-adv-x="1683" d="M10 664v423l144 -18v115q0 238 112.5 365.5t358.5 127.5q59 0 115.5 -7t115.5 -17v-420q-20 8 -36.5 13t-35.5 5q-35 0 -56 -12t-33.5 -32.5t-16.5 -47t-4 -53.5v-41l178 22v-423l-170 14v-678h-528v678zM991 1423q0 119 83 186.5t208 67.5t208 -67.5t83 -186.5 q0 -68 -24.5 -115.5t-64.5 -78.5t-92.5 -46.5t-109.5 -15.5t-109.5 15.5t-92.5 46.5t-64.5 79t-24.5 115zM1018 0v1087h528v-1087h-528z" />
<glyph unicode="&#xfb02;" horiz-adv-x="1644" d="M10 664v423l144 -18v115q0 238 112.5 365.5t358.5 127.5q59 0 115.5 -7t115.5 -17v-420q-20 8 -36.5 13t-35.5 5q-35 0 -56 -12t-33.5 -32.5t-16.5 -47t-4 -53.5v-41l178 22v-423l-170 14v-678h-528v678zM997 0v1661h529v-1661h-529z" />
<glyph horiz-adv-x="2048" />
<glyph horiz-adv-x="2048" />
<glyph unicode="&#xd;" horiz-adv-x="851" />
<glyph unicode=" "  horiz-adv-x="851" />
<glyph unicode="&#x09;" horiz-adv-x="851" />
<glyph unicode="&#xa0;" horiz-adv-x="851" />
<glyph unicode="!" horiz-adv-x="946" d="M164 229q0 61 26.5 109.5t69.5 82.5t98.5 51t110.5 17t110.5 -17t98.5 -51t69.5 -82t26.5 -110q0 -61 -26.5 -108t-69.5 -79t-98.5 -49.5t-110.5 -17.5t-110.5 17.5t-98.5 49.5t-69.5 79t-26.5 108zM199 590v1055h540v-1055h-540z" />
<glyph unicode="&#x22;" horiz-adv-x="1613" d="M229 1544h531l-82 -764h-367zM854 1544h530l-81 -764h-367z" />
<glyph unicode="#" d="M94 391v254h312l65 283h-264v254h321l109 458h291l-107 -458h279l106 458h291l-108 -458h221v-254h-271l-65 -283h258v-254h-326l-90 -391h-293l92 391h-278l-90 -391h-293l90 391h-250zM698 645h281l72 283h-287z" />
<glyph unicode="$" d="M219 188l158 406q98 -82 206.5 -139.5t237.5 -57.5q25 0 55.5 3t56 13.5t44 30t18.5 52.5q0 27 -14 44t-34.5 27.5t-45 15.5t-45.5 9l-88 14q-100 16 -190.5 46t-158 82t-106.5 131t-39 194q0 106 33 184t90.5 134.5t134 95t166.5 67.5l-10 250h350l-20 -238 q104 -8 200.5 -38.5t188.5 -79.5l-156 -390q-74 63 -167 97.5t-191 34.5q-25 0 -49.5 -5.5t-44 -16.5t-32.5 -29.5t-13 -47.5q0 -31 19.5 -47t47 -23.5t57 -10.5t50.5 -5q111 -12 212 -37.5t178 -78t122 -136.5t45 -215q0 -104 -37 -191t-100.5 -152.5t-149.5 -107.5 t-186 -55l14 -254h-332l15 252q-133 4 -256 52.5t-234 119.5z" />
<glyph unicode="%" horiz-adv-x="2344" d="M47 1147q0 109 39 188.5t105.5 132t156 77t191.5 24.5t191 -24.5t155.5 -77t105.5 -132.5t39 -188q0 -111 -41 -192t-108.5 -134t-156.5 -78.5t-185 -25.5t-185.5 25.5t-157 78.5t-108.5 134t-41 192zM440 1147q0 -45 23.5 -77t75.5 -32q51 0 74.5 32t23.5 77 q0 43 -23.5 79t-74.5 36t-75 -36t-24 -79zM510 0l1059 1589h280l-1050 -1589h-289zM1315 406q0 109 39 188.5t105.5 131.5t155.5 76.5t191 24.5t191.5 -24.5t156 -76.5t105.5 -132t39 -188q0 -111 -41 -192t-108.5 -134t-156.5 -79t-186 -26q-96 0 -185 26t-156.5 79 t-108.5 134t-41 192zM1708 406q0 -45 23.5 -77t74.5 -32t75 31.5t24 77.5q0 43 -24 78.5t-75 35.5t-74.5 -35.5t-23.5 -78.5z" />
<glyph unicode="&#x26;" horiz-adv-x="1970" d="M82 463q0 86 31.5 150.5t86 112.5t124 78t145.5 44q-66 61 -109 127.5t-43 161.5q0 115 52.5 196.5t134.5 134t183 77t200 24.5q92 0 192.5 -26.5t183.5 -80t136 -133.5t53 -188q0 -68 -23.5 -129.5t-63.5 -111.5t-95.5 -88t-118.5 -56l139 -142q72 47 128.5 108.5 t109.5 125.5l293 -332l-242 -182l356 -334h-645l-102 117q-117 -78 -231.5 -110t-256.5 -32q-115 0 -225 27t-198.5 85t-141.5 151.5t-53 224.5zM606 477q0 -59 42 -88t97 -29q43 0 77 12.5t71 28.5l-195 195q-33 -23 -62.5 -49.5t-29.5 -69.5zM823 1133q0 -33 23.5 -69 t52.5 -52q35 20 71 54t36 77q0 35 -24.5 62.5t-59.5 27.5q-43 0 -71 -29.5t-28 -70.5z" />
<glyph unicode="'" horiz-adv-x="1009" d="M240 1544h530l-82 -764h-366z" />
<glyph unicode="(" horiz-adv-x="921" d="M113 635q0 111 14 226.5t41 229t65.5 223t85.5 208.5l95 196l395 -229q-55 -84 -94 -190.5t-63.5 -221t-36 -229.5t-11.5 -213q0 -248 47 -468t158 -388l-395 -228l-95 197q-47 98 -85.5 208t-65.5 223.5t-41 229t-14 226.5z" />
<glyph unicode=")" horiz-adv-x="921" d="M113 -221q111 168 157.5 388t46.5 468q0 98 -11 213t-35.5 229.5t-63.5 221t-94 190.5l395 229l94 -196q47 -98 86 -208t65.5 -223.5t41 -229.5t14.5 -226q0 -111 -14.5 -226.5t-41 -229t-65.5 -223.5t-86 -208l-94 -197z" />
<glyph unicode="*" horiz-adv-x="1007" d="M125 1047l172 104l-172 98l108 185l158 -93v203h217v-213l166 103l109 -185l-158 -98l158 -86l-109 -195l-166 97v-189h-217v183l-158 -91z" />
<glyph unicode="+" horiz-adv-x="1638" d="M205 410v409h409v410h410v-410h410v-409h-410v-410h-410v410h-409z" />
<glyph unicode="," horiz-adv-x="851" d="M0 -340l248 764h530l-366 -764h-412z" />
<glyph unicode="-" horiz-adv-x="993" d="M131 338v450h731v-450h-731z" />
<glyph unicode="." horiz-adv-x="851" d="M121 229q0 61 26.5 109.5t69.5 82.5t98.5 51t110.5 17t110.5 -17t98.5 -51t69.5 -82t26.5 -110q0 -61 -26.5 -108t-69.5 -79t-98.5 -49.5t-110.5 -17.5t-110.5 17.5t-98.5 49.5t-69.5 79t-26.5 108z" />
<glyph unicode="/" horiz-adv-x="1490" d="M37 -307l1114 1968h303l-1112 -1968h-305z" />
<glyph unicode="0" d="M115 786q0 164 49 307.5t144 249t231.5 166t312.5 60.5q174 0 311 -60.5t232.5 -166t144.5 -249t49 -307.5q0 -174 -48 -322.5t-141 -257t-231.5 -170t-316.5 -61.5t-316.5 61.5t-231.5 170t-141 257t-48 322.5zM651 772q0 -45 9.5 -103.5t32 -110.5t61.5 -89t98 -37 t98 37t61.5 89t32 110.5t9.5 103.5q0 47 -8.5 102.5t-30 103.5t-60.5 80t-102 32t-102 -32t-60.5 -80t-30 -103.5t-8.5 -102.5z" />
<glyph unicode="1" d="M381 1032v488l795 24v-1544h-558v1049z" />
<glyph unicode="2" d="M53 0l617 547q37 33 94 86t111.5 114.5t94.5 125t40 114.5q0 53 -37 88t-90 35q-45 0 -72 -17.5t-40 -45t-18 -62.5t-8 -70h-548q14 168 61 292t132 204t212 119t301 39q121 0 240 -35t212 -103.5t151.5 -170t58.5 -236.5q0 -117 -46 -211t-123 -168t-174.5 -126 t-199.5 -83v-16l264 37l301 18v-475h-1534z" />
<glyph unicode="3" d="M127 541h565q-2 -35 9.5 -67t33 -55.5t52 -37.5t65.5 -14q57 0 104.5 41t47.5 100t-42 101t-100 42q-20 0 -38.5 -2t-37.5 -6v322l45 -4q47 -4 82 29.5t35 80.5t-30.5 75t-77.5 28t-75 -36t-24 -83h-553q12 145 68.5 243.5t146 159t205 86t248.5 25.5q98 0 210 -23.5 t207 -77t157.5 -137.5t62.5 -205q0 -96 -50 -178t-140 -121v-12q123 -31 189.5 -128t66.5 -220q0 -141 -67 -235.5t-169 -150.5t-225 -81t-238 -25q-141 0 -271 29t-230.5 95.5t-163 175t-68.5 266.5z" />
<glyph unicode="4" d="M106 293v405l633 846h664v-831l194 14v-434l-208 16l14 -309h-533l21 309zM618 698l273 15v231q0 33 7 64.5t17 62.5l-12 8q-16 -35 -38.5 -67.5t-47.5 -61.5l-199 -243v-9z" />
<glyph unicode="5" d="M205 100l61 418q43 -23 102.5 -45t123 -40.5t126 -30t109.5 -11.5q35 0 82 7.5t89 24.5t71.5 47t29.5 75q0 47 -35.5 76.5t-86 47t-102.5 23.5t-85 6q-104 0 -207.5 -16t-201.5 -51l135 913h1050v-432h-661q-8 -45 -18.5 -91t-30.5 -87h14q18 25 51 41t70 25.5t75 12.5 t66 3q106 0 201.5 -34t168.5 -97.5t116 -152.5t43 -200q0 -141 -70 -246.5t-177.5 -174t-238.5 -102.5t-254 -34q-61 0 -144 9.5t-170 27t-167 40t-135 48.5z" />
<glyph unicode="6" d="M119 629q0 170 73.5 307t188.5 254l346 354h735l-493 -434l2 -12q39 6 76.5 14t76.5 8q102 0 187.5 -44t146 -116.5t94 -166t33.5 -189.5q0 -154 -60.5 -270.5t-160.5 -196.5t-231.5 -121t-272.5 -41q-145 0 -278 44t-236.5 127t-165 205t-61.5 278zM659 606 q0 -82 53.5 -136t137.5 -54q39 0 73.5 13t61.5 36.5t42 57.5t15 75q0 84 -56 142.5t-140 58.5q-39 0 -73 -16.5t-59.5 -43t-40 -61.5t-14.5 -72z" />
<glyph unicode="7" d="M186 0l582 977q14 25 28.5 50.5t37.5 41.5v12l-226 -18l-422 -14v495h1500l-879 -1544h-621z" />
<glyph unicode="8" d="M147 442q0 63 20.5 121t57.5 102t88.5 75.5t112.5 47.5v15q-104 31 -166.5 110.5t-62.5 188.5q0 127 63.5 216t160.5 144.5t212 81t219 25.5t219 -25.5t212 -81t160.5 -144.5t63.5 -216q0 -109 -62.5 -188.5t-166.5 -110.5v-15q61 -16 112.5 -47.5t88.5 -75.5t57 -101.5 t20 -121.5q0 -135 -70.5 -225t-177 -144.5t-229.5 -76t-227 -21.5t-227 21.5t-229.5 76t-177.5 144.5t-71 225zM700 504q0 -66 44 -112t108 -46q63 0 107.5 46t44.5 112q0 63 -47.5 104t-104.5 41t-104.5 -41t-47.5 -104zM737 1059q0 -47 35 -80t80 -33t80 33t35 80 q0 51 -33 86t-82 35t-82 -35t-33 -86z" />
<glyph unicode="9" d="M117 961q0 150 59.5 263t158.5 190t227 116t265 39q150 0 287 -38t242.5 -117t168 -199.5t62.5 -286.5q0 -86 -16.5 -161t-48 -141.5t-77.5 -127t-104 -121.5l-358 -377h-745l387 342q23 20 43 39.5t49 30.5v10l-84 -4q-121 -6 -216 35t-162 115.5t-102.5 176 t-35.5 216.5zM672 936q0 -82 54 -137.5t136 -55.5q37 0 70 15.5t57.5 40t38.5 58.5t14 71q0 76 -51 132t-129 56q-76 0 -133 -51t-57 -129z" />
<glyph unicode=":" horiz-adv-x="851" d="M121 229q0 61 26.5 109.5t69.5 82.5t98.5 51t110.5 17t110.5 -17t98.5 -51t69.5 -82t26.5 -110q0 -61 -26.5 -108t-69.5 -79t-98.5 -49.5t-110.5 -17.5t-110.5 17.5t-98.5 49.5t-69.5 79t-26.5 108zM121 852q0 61 26.5 109.5t69.5 82t98.5 51t110.5 17.5t110.5 -17.5 t98.5 -51t69.5 -82t26.5 -109.5t-26.5 -108.5t-69.5 -79t-98.5 -49t-110.5 -17.5t-110.5 17.5t-98.5 49t-69.5 79t-26.5 108.5z" />
<glyph unicode=";" horiz-adv-x="851" d="M0 -340l248 764h530l-366 -764h-412zM223 852q0 61 26.5 109.5t69.5 82t98.5 51t110.5 17.5t110.5 -17.5t98.5 -51t70 -82t27 -109.5t-27 -108.5t-70 -79t-98 -49t-111 -17.5q-55 0 -110.5 17.5t-98.5 49t-69.5 79t-26.5 108.5z" />
<glyph unicode="&#x3c;" horiz-adv-x="1638" d="M205 362v500l1229 373v-434l-680 -187v-4l680 -186v-434z" />
<glyph unicode="=" horiz-adv-x="1638" d="M205 0v410h1229v-410h-1229zM205 639v410h1229v-410h-1229z" />
<glyph unicode="&#x3e;" horiz-adv-x="1638" d="M205 -10v434l680 186v4l-680 187v434l1229 -373v-500z" />
<glyph unicode="?" horiz-adv-x="1427" d="M100 1112q4 127 55.5 229.5t136.5 175t195.5 111.5t231.5 39q129 0 241.5 -37t197.5 -107.5t134 -175t49 -239.5q0 -137 -52 -236.5t-139 -163t-200.5 -94t-236.5 -30.5q-86 0 -168 18v397q27 -8 52.5 -14t51.5 -6q74 0 128 42t54 120q0 45 -25.5 73.5t-72.5 28.5 q-51 0 -77.5 -42t-28.5 -89h-527zM428 229q0 61 26.5 109.5t69.5 82.5t98.5 51t110.5 17t110.5 -17t98.5 -51t69.5 -82t26.5 -110q0 -61 -26.5 -108t-69.5 -79t-98.5 -49.5t-110.5 -17.5t-110.5 17.5t-98.5 49.5t-69.5 79t-26.5 108z" />
<glyph unicode="@" horiz-adv-x="1638" d="M74 768q0 172 60.5 318.5t167 254t248.5 168t306 60.5q135 0 257 -42t224 -134q104 -92 167 -209t63 -262q0 -127 -33 -238t-94 -190q-74 -98 -158 -140.5t-158 -38.5q-43 2 -78.5 36t-48.5 81q-41 -45 -105.5 -81t-156.5 -36q-68 0 -130 30t-109 80t-76 118.5t-29 146.5 q0 92 30 180t84 156t131 109t173 41q162 0 252 -125l20 106h195l-102 -524q-4 -18 -9.5 -42t-5.5 -44.5t8.5 -33.5t30.5 -11q27 2 58.5 32.5t59 79t47 110.5t23.5 128q6 127 -32.5 223t-111.5 160.5t-174 96.5t-218 32q-129 0 -234.5 -44t-180.5 -122t-115.5 -188.5 t-40.5 -241.5q0 -139 45 -249.5t125.5 -187.5t192.5 -117t243 -40q129 0 223 17.5t143 48.5l168 -134q-109 -55 -247 -96t-304 -41t-310 60.5t-251.5 167t-170 253t-62.5 318.5zM637 723q0 -74 40 -130t116 -56q47 0 81.5 20.5t57 52t36 71.5t17.5 77q10 88 -31 142t-116 54 q-43 0 -80 -20.5t-63.5 -53t-42 -74.5t-15.5 -83z" />
<glyph unicode="A" horiz-adv-x="1685" d="M-12 0l536 1544h621l551 -1544h-594l-51 193h-424l-45 -193h-594zM727 559h225l-65 272q-12 49 -20.5 99.5t-16.5 99.5h-21z" />
<glyph unicode="B" horiz-adv-x="1507" d="M123 0v1544h653q113 0 221.5 -16.5t193.5 -63.5t137 -131t52 -217q0 -102 -50 -190t-152 -121v-12q127 -45 200.5 -136.5t73.5 -230.5q0 -119 -50 -201t-131 -132t-182.5 -71.5t-201.5 -21.5h-764zM643 369h64q35 0 73.5 2t72.5 14t56.5 39t22.5 74q0 49 -23.5 74.5 t-59.5 37t-77 13.5t-74 2h-55v-256zM643 950h51q31 0 61.5 3t56.5 14.5t41 34t15 63.5q0 43 -17 64.5t-45 30.5t-60.5 10t-63.5 1h-39v-221z" />
<glyph unicode="C" horiz-adv-x="1343" d="M72 758q0 168 62.5 316.5t171 258t256 173t317.5 63.5q96 0 191 -16.5t185 -47.5l17 -587q-68 63 -151 109t-179 46q-63 0 -118.5 -23.5t-97.5 -64.5t-65.5 -95t-23.5 -118q0 -63 25.5 -118.5t68.5 -95.5t99.5 -63.5t119.5 -23.5q98 0 176 39t146 104l-17 -577 q-35 -16 -87 -27.5t-108 -19.5t-111.5 -11.5t-92.5 -3.5q-166 0 -308 60.5t-248.5 166t-167 248t-60.5 308.5z" />
<glyph unicode="D" horiz-adv-x="1693" d="M131 0v1544h571q195 0 362 -44t290 -140t193.5 -246.5t70.5 -363.5q0 -172 -57.5 -310.5t-161 -237t-245.5 -150.5t-312 -52h-711zM692 463h35q70 0 130.5 16.5t104.5 52t69.5 90t25.5 130.5q0 164 -88 236.5t-242 72.5h-35v-598z" />
<glyph unicode="E" horiz-adv-x="1277" d="M119 0v1544h1038v-422h-473v-147h432v-402h-432v-151h490v-422h-1055z" />
<glyph unicode="F" horiz-adv-x="1232" d="M127 0v1544h1034v-442h-469v-160h412v-401h-412v-541h-565z" />
<glyph unicode="G" horiz-adv-x="1824" d="M66 762q0 188 65.5 337.5t180 254t271 160t339.5 55.5q100 0 213.5 -24.5t220 -75t192.5 -125t131 -173.5l-524 -192q-33 59 -89 89t-124 30q-76 0 -133 -30t-97 -80t-60.5 -114.5t-20.5 -134.5q0 -63 19.5 -122.5t56 -105.5t91 -73.5t122.5 -27.5q33 0 68.5 8t67 24.5 t56.5 42t35 60.5h-254v364h866q-2 -94 -5 -181t-20.5 -169t-55.5 -158.5t-105 -150.5q-61 -68 -138 -119t-162 -86t-175 -52.5t-180 -17.5q-176 0 -332 53.5t-271.5 155t-182 246.5t-66.5 332z" />
<glyph unicode="H" horiz-adv-x="1677" d="M127 0v1544h541v-520h344v520h540v-1544h-540v537h-344v-537h-541z" />
<glyph unicode="I" horiz-adv-x="825" d="M131 0v1544h561v-1544h-561z" />
<glyph unicode="J" horiz-adv-x="1083" d="M-29 143l191 478q10 -29 22.5 -57.5t29.5 -51.5t41 -38t56 -15q33 0 53.5 17.5t29.5 42t12.5 54t3.5 54.5v917h548v-1040q0 -115 -38.5 -212t-108.5 -168t-166 -110t-213 -39q-121 0 -243.5 47.5t-217.5 120.5z" />
<glyph unicode="K" horiz-adv-x="1681" d="M131 0v1544h547l-12 -670h12q10 47 32.5 90.5t45.5 84.5l270 495h612l-483 -751l535 -793h-652l-266 467q-25 45 -54.5 89t-39.5 91h-12l12 -647h-547z" />
<glyph unicode="L" horiz-adv-x="1185" d="M127 0v1544h561v-1048h471v-496h-1032z" />
<glyph unicode="M" horiz-adv-x="2217" d="M63 0l250 1544h578l213 -811h14q8 51 16.5 103.5t22.5 101.5l174 606h572l254 -1544h-543l-76 846h-10q-8 -39 -16.5 -78t-20.5 -76l-223 -692h-328l-201 653q-12 49 -21 96.5t-13 96.5h-19q-4 -47 -7 -93t-7 -94l-66 -659h-543z" />
<glyph unicode="N" horiz-adv-x="1785" d="M119 0v1544h538l504 -856h17q-16 98 -32 196.5t-16 196.5v463h537v-1544h-537l-493 811h-16q14 -80 24 -155.5t10 -153.5v-502h-536z" />
<glyph unicode="O" horiz-adv-x="1851" d="M72 768q0 182 67.5 329.5t183 252t271.5 162t332 57.5t331.5 -57.5t271.5 -162t183.5 -252t67.5 -329.5q0 -186 -67.5 -332.5t-183.5 -249t-271.5 -157t-331.5 -54.5t-332 54.5t-271.5 157t-183 249t-67.5 332.5zM637 760q0 -133 80 -215t209 -82t208.5 82t79.5 215 q0 61 -20 115.5t-57 96.5t-90 65.5t-121 23.5t-121 -23.5t-90 -65.5t-57.5 -96.5t-20.5 -115.5z" />
<glyph unicode="P" horiz-adv-x="1490" d="M127 0v1544h711q135 0 249.5 -34.5t198.5 -105.5t131 -177.5t47 -249.5q0 -119 -35.5 -213t-101 -160.5t-161 -102.5t-212.5 -36h-286v-465h-541zM668 854h55q37 0 74 4t65.5 19.5t47 43t18.5 74.5q0 45 -19.5 71t-49.5 38t-66.5 15t-71.5 3h-53v-268z" />
<glyph unicode="Q" horiz-adv-x="1892" d="M94 768q0 184 67.5 332.5t183.5 253t270.5 160t330.5 55.5q184 0 340 -54.5t269.5 -158t178 -252t64.5 -336.5q0 -129 -32.5 -244.5t-108.5 -222.5l227 -252l-440 -184l-109 188q-98 -43 -205.5 -60.5t-214.5 -17.5q-176 0 -325.5 57.5t-260 162t-173 250t-62.5 323.5z M659 778q0 -61 19.5 -116.5t55.5 -97.5t87 -67.5t113 -25.5q16 0 31.5 1t31.5 5l-129 144l349 65q16 47 16 86q0 63 -21.5 118.5t-59.5 96.5t-91 63.5t-115 22.5q-68 0 -121 -22.5t-90 -62.5t-56.5 -93t-19.5 -117z" />
<glyph unicode="R" horiz-adv-x="1550" d="M127 0v1544h678q131 0 247.5 -28.5t205 -93t139.5 -167t51 -247.5q0 -88 -17.5 -151.5t-54.5 -111t-93 -80t-134 -59.5v-12q23 -16 47.5 -36.5t46.5 -55.5l336 -502h-647l-246 496h-10v-496h-549zM676 860h39q35 0 67.5 4t59 17.5t42 39t15.5 68.5q0 45 -14.5 70.5 t-39 40t-57 18.5t-69.5 4h-43v-262z" />
<glyph unicode="S" horiz-adv-x="1357" d="M47 117l172 436l29 -23q76 -59 164 -100t186 -41q20 0 46 4t47.5 15.5t35.5 29t14 43.5q0 27 -12 42.5t-30.5 23.5t-41 12t-41.5 8l-112 21q-82 14 -156 46t-129 83t-87 120.5t-32 159.5q0 137 57.5 244t151.5 179.5t214 110.5t247 38q266 0 490 -135l-152 -396 q-72 49 -153 83t-173 34q-18 0 -39.5 -4t-39 -13.5t-29.5 -24.5t-12 -40q0 -23 11 -35t28.5 -20t37 -12.5t35.5 -8.5l127 -28q88 -20 164 -55t130 -88.5t85 -127t31 -172.5q0 -139 -57.5 -241.5t-151.5 -172t-215 -103.5t-246 -34q-147 0 -305 38t-289 104z" />
<glyph unicode="T" horiz-adv-x="1220" d="M20 1042v502h1180v-502l-309 15v-1057h-561v1057z" />
<glyph unicode="U" horiz-adv-x="1669" d="M119 631v913h561v-860q0 -45 3 -86t17.5 -72.5t46 -50t87.5 -18.5q55 0 86.5 18.5t46 50t17.5 72.5t3 86v860h561v-913q0 -170 -51 -293t-144 -204t-225.5 -120t-293.5 -39q-162 0 -294 39t-225.5 120t-144.5 204t-51 293z" />
<glyph unicode="V" horiz-adv-x="1667" d="M-2 1544h586l204 -702q16 -57 27.5 -113.5t11.5 -116.5h13q0 59 11 115.5t28 114.5l204 702h586l-598 -1544h-475z" />
<glyph unicode="W" horiz-adv-x="2422" d="M-4 1544h582l194 -921h12q8 72 18.5 143.5t28.5 140.5l164 637h430l211 -921h13q6 68 14 137t25 135l155 649h584l-545 -1544h-489l-176 840h-19q-4 -59 -9 -117.5t-20 -116.5l-155 -606h-477z" />
<glyph unicode="X" horiz-adv-x="1701" d="M-8 0l540 821l-485 723h633l115 -219q16 -31 26 -62.5t21 -64.5h12q8 35 20.5 65.5t28.5 61.5l107 219h632l-483 -723l551 -821h-639l-176 328q-23 43 -33 94h-16q-14 -53 -43 -107l-172 -315h-639z" />
<glyph unicode="Y" horiz-adv-x="1583" d="M-16 1544h634l173 -403h16q12 37 23.5 73.5t27.5 71.5l111 258h630l-528 -878v-666h-549v666z" />
<glyph unicode="Z" horiz-adv-x="1579" d="M4 0l557 903q31 51 66 95t71 92l-8 6q-33 -8 -65.5 -13.5t-67.5 -5.5h-420v467h1438l-672 -1067l6 -8q33 4 66 6t65 2h467v-477h-1503z" />
<glyph unicode="[" horiz-adv-x="962" d="M123 -317v1978h717v-209h-269v-1561h269v-208h-717z" />
<glyph unicode="\" horiz-adv-x="1490" d="M37 1661h303l1114 -1661h-305z" />
<glyph unicode="]" horiz-adv-x="962" d="M123 -109h268v1561h-268v209h717v-1978h-717v208z" />
<glyph unicode="^" horiz-adv-x="1638" d="M205 434l364 1110h500l365 -1110h-426l-187 561h-4l-186 -561h-426z" />
<glyph unicode="_" horiz-adv-x="1024" d="M0 -154h1024v-102h-1024v102z" />
<glyph unicode="`" horiz-adv-x="860" d="M168 1440l256 170l268 -338l-186 -127z" />
<glyph unicode="a" horiz-adv-x="1474" d="M66 539q0 102 30.5 204.5t90 184.5t148.5 133t204 51q98 0 178 -37t139 -117h12l-16 129h518v-1087h-518l16 143h-12q-37 -39 -71.5 -69.5t-73.5 -52t-85 -34t-102 -12.5q-111 0 -196.5 51.5t-144 132.5t-88 181t-29.5 199zM590 549q0 -66 32.5 -113t104.5 -47 q76 0 108.5 50t32.5 114q0 63 -38.5 104t-102.5 41q-63 0 -100 -45t-37 -104z" />
<glyph unicode="b" horiz-adv-x="1474" d="M102 0v1661h529v-459l-25 -260h19q55 76 145 123t182 47q115 0 200 -52t141.5 -135t84 -186.5t27.5 -203.5q0 -98 -28.5 -197.5t-86 -179.5t-141.5 -131.5t-195 -51.5q-106 0 -197 51.5t-157 135.5h-12l10 -162h-496zM612 545q0 -61 35 -108.5t101 -47.5q31 0 56 14.5 t42.5 38t28 51t10.5 56.5q0 57 -39 103t-98 46q-66 0 -101 -47t-35 -106z" />
<glyph unicode="c" horiz-adv-x="1052" d="M61 539q0 121 42 225t117 182t177.5 122t225.5 44q84 0 167.5 -14.5t163.5 -40.5v-441q-41 35 -89 63t-105 28q-72 0 -119 -44.5t-47 -117.5q0 -66 45 -111t111 -45q61 0 109 25.5t95 58.5l-22 -446q-61 -20 -129 -36t-137 -16q-133 0 -244 37t-190.5 109t-125 176 t-45.5 242z" />
<glyph unicode="d" horiz-adv-x="1474" d="M70 535q0 100 27.5 203.5t84 186.5t141.5 135t199 52q92 0 182.5 -47t145.5 -123h18l-24 260v459h528v-1661h-495l10 162h-13q-66 -84 -156.5 -135.5t-197.5 -51.5q-111 0 -194.5 51.5t-141 131.5t-86 179t-28.5 198zM590 545q0 -61 34.5 -108.5t100.5 -47.5 q31 0 56.5 14.5t43 38t27.5 51t10 56.5q0 57 -39 103t-98 46q-66 0 -100.5 -47t-34.5 -106z" />
<glyph unicode="e" horiz-adv-x="1429" d="M70 526q0 135 49 244t133 184.5t198.5 116.5t243.5 41q145 0 271.5 -45t217.5 -130t139 -207q40 -101 40 -223q0 -25 -2 -52h-768q0 -33 4 -67t17.5 -60.5t38 -43t65.5 -16.5t69.5 25.5t36.5 64.5h514q-27 -98 -90 -169.5t-148 -120t-182.5 -71t-191.5 -22.5 q-129 0 -247 34t-209 101.5t-145 171t-54 244.5zM592 680h248q0 55 -36 98t-93 43q-59 0 -89 -42t-30 -99z" />
<glyph unicode="f" horiz-adv-x="880" d="M10 664v423l144 -18v115q0 238 112.5 365.5t358.5 127.5q59 0 115.5 -7t115.5 -17v-420q-20 8 -36.5 13t-35.5 5q-35 0 -56 -12t-33.5 -32.5t-16.5 -47t-4 -53.5v-41l178 22v-423l-170 14v-678h-528v678z" />
<glyph unicode="g" horiz-adv-x="1478" d="M68 545q0 100 30.5 201.5t91 183.5t147.5 132t200 50q104 0 184 -47t133 -133h14l-14 155h512v-1024q0 -160 -60.5 -272.5t-161 -184t-232.5 -105t-273 -33.5q-127 0 -238.5 21.5t-228.5 64.5l-53 18l117 367q76 -66 179 -100t201 -34q109 0 170.5 69t71.5 171l10 111 h-14q-20 -45 -55 -79t-78 -56.5t-91 -34t-95 -11.5q-111 0 -198 51.5t-147.5 132.5t-91 182t-30.5 204zM590 543q0 -66 40 -110t109 -44q68 0 100.5 45t32.5 107q0 61 -35.5 109t-101.5 48t-105.5 -44.5t-39.5 -110.5z" />
<glyph unicode="h" horiz-adv-x="1431" d="M102 0v1661h529v-459l-25 -301h8q37 43 75 82t80 67.5t90 45t106 16.5q100 0 170.5 -36t113.5 -96t62.5 -141t19.5 -171v-668h-516v561q0 20 -2 44t-11 42.5t-25.5 30.5t-45.5 12q-61 0 -80.5 -39t-19.5 -90v-561h-529z" />
<glyph unicode="i" horiz-adv-x="802" d="M111 1423q0 119 82.5 186.5t207.5 67.5t208 -67.5t83 -186.5q0 -68 -24.5 -115.5t-64.5 -78.5t-92 -46.5t-110 -15.5q-57 0 -109 15.5t-92 46.5t-64.5 79t-24.5 115zM137 0v1087h529v-1087h-529z" />
<glyph unicode="j" horiz-adv-x="802" d="M111 1423q0 119 82.5 186.5t207.5 67.5t208 -67.5t83 -186.5q0 -68 -24.5 -115.5t-64.5 -78.5t-92 -46.5t-110 -15.5q-57 0 -109 15.5t-92 46.5t-64.5 79t-24.5 115zM137 -449v1536h529v-1536h-529z" />
<glyph unicode="k" horiz-adv-x="1519" d="M106 0v1661h529v-977h12l43 92l164 311h616l-399 -532l420 -555h-623l-221 399h-12v-399h-529z" />
<glyph unicode="l" horiz-adv-x="763" d="M117 0v1661h528v-1661h-528z" />
<glyph unicode="m" horiz-adv-x="2070" d="M115 0v1087h499l-16 -192h16q16 49 48 90t74 68.5t91.5 43t102.5 15.5q117 0 196.5 -60.5t114.5 -170.5h12q47 115 125 173t205 58q98 0 169 -35t117 -95t67.5 -139t21.5 -167v-676h-512v539q0 25 -1 50t-8 46.5t-23.5 35t-45.5 13.5t-44 -13.5t-22.5 -35t-8.5 -47 t-1 -49.5v-539h-512v539q0 25 -1 50t-8 46.5t-23.5 35t-45.5 13.5t-44 -13.5t-22 -35t-8 -47t-1 -49.5v-539h-512z" />
<glyph unicode="n" horiz-adv-x="1439" d="M102 0v1087h516l-20 -174h12q39 45 75 81t76 62.5t88 41t112 14.5q100 0 171.5 -36t117.5 -96t66.5 -140t20.5 -170v-670h-528v530q0 25 -1 51.5t-10.5 49t-27.5 38t-51 15.5t-51.5 -15.5t-26.5 -38t-9 -49t-1 -51.5v-530h-529z" />
<glyph unicode="o" horiz-adv-x="1462" d="M72 530q0 143 52 252t142 182.5t210 110.5t255 37t255 -37t210 -110.5t142.5 -182t52.5 -252.5q0 -135 -55.5 -238.5t-147.5 -174t-211 -106.5t-246 -36t-245.5 36t-211 106.5t-147.5 174t-55 238.5zM584 539q0 -66 43 -108t104 -42t104.5 42t43.5 108t-41 112.5 t-107 46.5t-106.5 -47t-40.5 -112z" />
<glyph unicode="p" horiz-adv-x="1466" d="M104 -449v1536h504l-16 -172h16q45 94 140.5 145.5t199.5 51.5q115 0 200 -49t141.5 -128t84 -179.5t27.5 -202.5q0 -96 -30 -198.5t-87 -186.5t-143 -138.5t-197 -54.5q-45 0 -92 12.5t-91 35t-80 54.5t-58 73h-15l25 -175v-424h-529zM608 545q0 -61 35 -108.5 t100 -47.5q31 0 56.5 14.5t43 38t28 51t10.5 56.5q0 57 -39.5 103t-98.5 46q-66 0 -100.5 -47t-34.5 -106z" />
<glyph unicode="q" horiz-adv-x="1466" d="M66 553q0 102 27.5 202.5t83.5 179.5t141 128t200 49q104 0 199.5 -51t140.5 -146h16l-16 172h504v-1536h-528v424l24 175h-14q-23 -41 -58.5 -73t-79.5 -54.5t-91.5 -35t-92.5 -12.5q-111 0 -196.5 54.5t-143 138.5t-87 186.5t-29.5 198.5zM586 543q0 -61 34.5 -108.5 t100.5 -47.5q31 0 56.5 14.5t43 38t27.5 51t10 56.5q0 57 -39 103t-98 46q-66 0 -100.5 -47t-34.5 -106z" />
<glyph unicode="r" horiz-adv-x="1013" d="M100 0v1087h529l-13 -145h13q35 53 71.5 87t80.5 53q45 20 97 26q39 4 86 5q16 0 33 -1v-537q-41 25 -75.5 42.5t-85.5 17.5q-104 0 -155.5 -57.5t-51.5 -159.5v-418h-529z" />
<glyph unicode="s" horiz-adv-x="1091" d="M18 96l136 328l32 -21q55 -35 129 -67.5t142 -32.5q27 0 52.5 14.5t25.5 44.5q0 23 -10.5 35.5t-27 18.5t-35 9t-34.5 5q-66 8 -127 27.5t-108.5 55.5t-76 88t-28.5 130q0 102 46 174t120 118t164 67.5t178 21.5q102 0 217 -21.5t205 -70.5l-129 -301q-51 37 -114.5 63.5 t-129.5 26.5q-25 0 -50.5 -10.5t-25.5 -38.5q0 -41 38 -50.5t93 -19.5q70 -12 132.5 -31.5t109.5 -55.5t73.5 -91t26.5 -137q0 -106 -48 -182t-122.5 -124.5t-169 -71t-186.5 -22.5q-129 0 -254 35t-244 86z" />
<glyph unicode="t" horiz-adv-x="886" d="M43 666v415l129 -8v365h533v-365l176 8v-415l-176 10v-676h-533v676z" />
<glyph unicode="u" horiz-adv-x="1427" d="M100 473v614h525v-561q0 -25 2 -48t11 -41.5t26.5 -30t50.5 -11.5t50 11.5t26.5 30t11.5 42t2 47.5v561h524v-614q0 -129 -51 -223t-137 -154.5t-196.5 -90.5t-229.5 -30t-229.5 30t-196.5 90.5t-137.5 154.5t-51.5 223z" />
<glyph unicode="v" horiz-adv-x="1404" d="M-12 1087h567l141 -514h15l26 134l113 380h567l-473 -1087h-479z" />
<glyph unicode="w" horiz-adv-x="1943" d="M-31 1087h557l125 -604h17l26 181l105 423h346l141 -604h12l27 181l94 423h555l-446 -1087h-426l-119 483h-14l-27 -114l-100 -369h-432z" />
<glyph unicode="x" horiz-adv-x="1509" d="M0 0l457 565l-412 522h606l68 -135l35 -92h10l41 92l65 135h607l-412 -522l442 -565h-620l-86 154l-37 86h-10l-33 -86l-84 -154h-637z" />
<glyph unicode="y" horiz-adv-x="1347" d="M-45 1087h569l121 -425l31 -166h14l27 166l121 425h555l-697 -1536h-557l281 558z" />
<glyph unicode="z" horiz-adv-x="1239" d="M33 0v74l321 487l109 123v8l-121 -14h-256v409h1120v-61l-323 -479l-113 -137v-13l109 13h301v-410h-1147z" />
<glyph unicode="{" horiz-adv-x="962" d="M113 483v250q25 12 50 27.5t45.5 37t34 51.5t13.5 75v424q0 166 108.5 239.5t286.5 73.5h199v-287h-51q-35 0 -54.5 -11t-28.5 -28.5t-10 -40t-1 -43.5v-340q0 -66 -18.5 -112.5t-46.5 -81.5t-63.5 -60.5t-68.5 -46.5v-4q33 -23 68.5 -47t63.5 -59t46.5 -83t18.5 -114 v-340q0 -23 1 -44t10 -39.5t28.5 -30t54.5 -11.5h51v-287h-199q-178 0 -286.5 75t-108.5 243v422q0 45 -13.5 75.5t-34 52t-46 37t-49.5 27.5z" />
<glyph unicode="|" horiz-adv-x="1490" d="M541 -438v2048h409v-2048h-409z" />
<glyph unicode="}" horiz-adv-x="962" d="M113 -162h51q35 0 54.5 11.5t28.5 30t10 40t1 43.5v340q0 66 18.5 114t46 83t62.5 59.5t70 46.5v4q-35 20 -70 46t-62.5 61t-46 82t-18.5 112v340q0 20 -1 43t-10 40.5t-28.5 28.5t-54.5 11h-51v287h198q178 0 287 -74t109 -239v-424q0 -45 13 -75t33.5 -51.5t46 -37 t50.5 -27.5v-250q-25 -12 -50.5 -27.5t-46 -37t-33.5 -52t-13 -75.5v-422q0 -168 -109 -243t-287 -75h-198v287z" />
<glyph unicode="~" horiz-adv-x="1638" d="M205 631q14 41 49 92t85 96t109.5 76t122.5 31t134 -37t131 -74q47 -29 97 -61.5t111 -32.5q23 0 47.5 18.5t46 45t40 58t30.5 58.5l226 -262q-16 -31 -55.5 -87t-91.5 -110.5t-112.5 -95.5t-117.5 -41q-76 0 -148.5 35t-134.5 82q-55 43 -105.5 66.5t-99.5 23.5 q-18 0 -39.5 -12.5t-42 -31.5t-38 -43t-27.5 -48z" />
<glyph unicode="&#xa1;" horiz-adv-x="946" d="M164 985q0 61 26.5 109.5t69.5 82t98.5 51t110.5 17.5t110.5 -17.5t98.5 -51t69.5 -81.5t26.5 -110q0 -61 -26.5 -108.5t-69.5 -79t-98.5 -49t-110.5 -17.5t-110.5 17.5t-98.5 49t-69.5 79t-26.5 108.5zM199 -449v1055h540v-1055h-540z" />
<glyph unicode="&#xa2;" d="M412 801q0 106 35.5 200.5t100 166t154 117.5t193.5 61l-10 198h172l-10 -198l233 -43l12 -433q-47 35 -93 58.5t-105 23.5q-66 0 -111 -40t-45 -107q0 -70 43 -113t113 -43q51 0 105 24.5t93 59.5l-6 -432q-59 -16 -118.5 -30.5t-120.5 -18.5l10 -223h-174l12 223 q-111 8 -201 54t-152.5 119t-96 169t-33.5 207z" />
<glyph unicode="&#xa3;" d="M197 291q78 35 156.5 67.5t164.5 42.5l62 189l-197 -17v289l195 -16l-17 117q-8 41 -13 82.5t-5 84.5q0 109 41 191t110.5 137t160.5 83t194 28q98 0 182 -23.5t145.5 -73t97 -125t35.5 -180.5l-348 -69q0 51 -14 91t-76 40q-27 0 -45 -12.5t-30.5 -31t-17.5 -42 t-5 -43.5q0 -25 3 -48.5t7 -47.5q4 -29 9 -60t5 -59v-39l306 16v-289l-316 19l-6 -31q-8 -55 -22.5 -96t-43.5 -90l66 -19q39 -14 78 -23t80 -9q55 0 107 21.5t95 55.5l152 -280q-49 -29 -104.5 -56.5t-113.5 -49t-117.5 -34t-115.5 -12.5q-51 0 -117.5 11.5t-115.5 25.5 l-121 33q-29 8 -50.5 11t-49.5 3q-61 0 -114.5 -18.5t-108.5 -40.5l-50 -19z" />
<glyph unicode="&#xa4;" d="M219 315l141 144q-51 66 -78.5 154.5t-27.5 189.5q0 100 26.5 194.5t79.5 159.5l-141 146l133 135l146 -144q68 51 163 81t197 30q100 0 191.5 -29.5t152.5 -81.5l146 144l131 -133l-131 -138q51 -70 82.5 -164t31.5 -196q0 -100 -32.5 -192.5t-86.5 -153.5l140 -144 l-127 -137l-146 139q-66 -55 -157.5 -84.5t-194.5 -29.5q-106 0 -199.5 28.5t-162.5 88.5l-144 -140zM602 797q0 -115 73 -179.5t183 -64.5q111 0 183.5 64.5t72.5 179.5q0 113 -71.5 186.5t-184.5 73.5t-184.5 -74t-71.5 -186z" />
<glyph unicode="&#xa5;" d="M45 1544h635l172 -403h16q12 37 23.5 73.5t28.5 71.5l110 258h631l-311 -516h188v-287h-360l-45 -75v-76h405v-287h-405v-303h-549v303h-416v287h416v76l-47 75h-369v287h192z" />
<glyph unicode="&#xa6;" horiz-adv-x="1490" d="M541 -182v512h409v-512h-409zM541 842v512h409v-512h-409z" />
<glyph unicode="&#xa7;" d="M203 645q0 117 64.5 201t166.5 129q-37 45 -56.5 94t-19.5 109q0 102 46.5 175.5t120 122t163.5 71t180 22.5q104 0 196.5 -26.5t162 -81t112.5 -137.5t50 -196h-369q2 63 -37 102.5t-102 39.5q-45 0 -81 -23.5t-36 -72.5q0 -29 17.5 -49.5t42 -35t52 -24.5t50.5 -18 l245 -101q63 -27 123 -56.5t106 -71.5t73.5 -100.5t27.5 -137.5q0 -63 -14 -109.5t-41 -83.5t-66 -67.5t-88 -61.5q25 -31 43.5 -58.5t29.5 -55t17.5 -59.5t6.5 -73q0 -113 -45.5 -192.5t-119 -132t-167.5 -77t-195 -24.5q-115 0 -215 28t-174 86t-116 148.5t-38 214.5h369 q-2 -72 45 -106.5t113 -34.5q49 0 92 22.5t43 80.5q0 27 -15.5 47t-37 35.5t-46 25.5t-44.5 19l-236 98q-70 29 -140.5 61.5t-128 76.5t-94 106.5t-36.5 150.5zM567 698q0 -37 30 -53t58 -31l432 -194q16 31 27.5 56.5t11.5 45.5q0 35 -22.5 50.5t-50.5 29.5l-443 209 q-12 -25 -27.5 -54.5t-15.5 -58.5z" />
<glyph unicode="&#xa8;" horiz-adv-x="1269" d="M217 1358q0 72 49 121t121 49t121 -49t49 -121t-49 -121t-121 -49t-121 49t-49 121zM715 1358q0 72 49 121t121 49t121 -49t49 -121t-49.5 -121t-120.5 -49q-72 0 -121 49t-49 121z" />
<glyph unicode="&#xa9;" horiz-adv-x="1638" d="M18 770q0 166 62.5 311.5t171 254t254 171t313.5 62.5q166 0 312.5 -62.5t255 -171t171 -254t62.5 -311.5t-62.5 -312.5t-171 -255t-255 -171t-312.5 -62.5q-168 0 -313.5 62.5t-254 171t-171 255t-62.5 312.5zM227 770q0 -133 43 -242.5t122 -187.5t187.5 -120 t239.5 -42q129 0 237.5 42t187.5 120t123 187.5t44 242.5t-44 242.5t-123 186.5t-187.5 119t-237.5 42q-131 0 -239.5 -42t-187.5 -119t-122 -186.5t-43 -242.5zM410 776q0 100 29.5 185.5t87 146.5t138 96t183.5 35q145 0 248.5 -81t130.5 -222h-191q-12 74 -63 108.5 t-127 34.5q-59 0 -102.5 -24.5t-71 -65.5t-41 -95t-13.5 -114q0 -57 15.5 -111.5t44.5 -97.5t73 -69.5t101 -26.5q72 0 126 39t58 113h191q-8 -74 -42 -131.5t-84 -97.5t-114.5 -61.5t-134.5 -21.5q-100 0 -181 36t-139.5 98.5t-90 146.5t-31.5 180z" />
<glyph unicode="&#xaa;" horiz-adv-x="860" d="M6 1221q0 61 20.5 123.5t59.5 111.5t96.5 81t132.5 32q131 0 205 -96h8l-10 77h336v-649h-336l10 82h-8q-47 -47 -95 -73.5t-120 -26.5t-128 30.5t-94 78.5t-57.5 108.5t-19.5 120.5zM348 1227q0 -35 22.5 -62.5t63.5 -27.5t67.5 28.5t26.5 63.5q0 39 -25.5 62.5 t-66.5 23.5t-64.5 -26.5t-23.5 -61.5z" />
<glyph unicode="&#xab;" horiz-adv-x="1171" d="M98 563l330 467l197 -143l-224 -324l224 -350l-197 -133zM547 563l330 467l196 -143l-223 -324l223 -350l-196 -133z" />
<glyph unicode="&#xac;" horiz-adv-x="1638" d="M205 639v410h1229v-760h-410v350h-819z" />
<glyph unicode="&#xad;" horiz-adv-x="993" d="M131 338v450h731v-450h-731z" />
<glyph unicode="&#xae;" horiz-adv-x="1638" d="M18 770q0 166 62.5 311.5t171 254t254 171t313.5 62.5q166 0 312.5 -62.5t255 -171t171 -254t62.5 -311.5t-62.5 -312.5t-171 -255t-255 -171t-312.5 -62.5q-168 0 -313.5 62.5t-254 171t-171 255t-62.5 312.5zM227 770q0 -133 43 -242.5t122 -187.5t187.5 -120 t239.5 -42q129 0 237.5 42t187.5 120t123 187.5t44 242.5t-44 242.5t-123 186.5t-187.5 119t-237.5 42q-131 0 -239.5 -42t-187.5 -119t-122 -186.5t-43 -242.5zM487 352v838h406q135 0 210 -54.5t75 -201.5q0 -109 -54.5 -164t-134.5 -63l203 -355h-207l-186 355h-135v-355 h-177zM664 866h190q33 0 62.5 1t52 10.5t36 27t13.5 51.5q0 27 -13.5 42.5t-36 22.5t-52 8t-62.5 1h-190v-164z" />
<glyph unicode="&#xaf;" horiz-adv-x="1228" d="M252 1245v201h727v-201h-727z" />
<glyph unicode="&#xb0;" horiz-adv-x="1024" d="M160 1188q-2 74 24.5 138.5t74.5 113.5t112.5 76.5t138.5 27.5q72 0 136.5 -27.5t113.5 -76.5t77.5 -113.5t28.5 -138.5q0 -72 -28.5 -136.5t-77.5 -111.5t-113.5 -74.5t-136.5 -27.5q-74 0 -137.5 27.5t-111.5 74.5t-74.5 111.5t-26.5 136.5zM360 1192q0 -63 43 -108.5 t109 -45.5t110 45t44 109q0 61 -45 106t-111 45q-63 0 -107.5 -45t-42.5 -106z" />
<glyph unicode="&#xb1;" horiz-adv-x="1638" d="M205 0v410h1229v-410h-1229zM205 729v410h409v207h410v-207h410v-410h-410v-207h-410v207h-409z" />
<glyph unicode="&#xb2;" horiz-adv-x="1024" d="M14 627l402 329q23 18 60.5 50t73.5 69t61.5 76t25.5 70t-23.5 52t-58.5 21q-29 0 -46 -10t-26.5 -27.5t-13.5 -38t-4 -40.5h-356q20 203 125.5 297t332.5 94q78 0 155 -20.5t138.5 -62.5t99 -103.5t37.5 -141.5q0 -70 -30.5 -126t-79.5 -100t-112.5 -76t-129.5 -50v-10 l172 22l195 12v-286h-998z" />
<glyph unicode="&#xb3;" horiz-adv-x="1024" d="M47 952h367q-2 -41 27.5 -72.5t76.5 -31.5q37 0 67.5 24.5t30.5 59.5t-27.5 60.5t-64.5 25.5q-12 0 -24.5 -1t-24.5 -3v192l29 -2q31 -4 53.5 16.5t22.5 49.5t-20.5 45t-49.5 16q-31 0 -49.5 -21.5t-14.5 -49.5h-360q8 88 45 147t94.5 95t133 51.5t161.5 15.5 q63 0 136 -14.5t134.5 -46t102.5 -82t41 -123.5q0 -57 -33 -106.5t-90 -72.5v-8q78 -18 122 -76.5t44 -132.5q0 -84 -43 -141t-109.5 -91t-147.5 -48.5t-155 -14.5q-92 0 -176 17.5t-149.5 57.5t-105.5 104.5t-44 160.5z" />
<glyph unicode="&#xb4;" horiz-adv-x="860" d="M168 1272l268 338l256 -170l-338 -295z" />
<glyph unicode="&#xb6;" d="M115 942q-10 127 24.5 237.5t105 191.5t171 127t221.5 46h954v-389h-135v-1604h-389v1604h-111v-1604h-389v922q-82 8 -159.5 43t-140 94.5t-103.5 143.5t-49 188z" />
<glyph unicode="&#xb7;" horiz-adv-x="851" d="M160 614q0 55 21.5 103.5t57 84.5t84 57.5t103.5 21.5t103.5 -21.5t84 -57.5t57 -84t21.5 -104q0 -55 -21.5 -103t-57 -84t-84 -57.5t-103.5 -21.5t-103.5 21.5t-84 57.5t-57 84t-21.5 103z" />
<glyph unicode="&#xb8;" horiz-adv-x="860" d="M170 -330l326 299l196 -168l-315 -311z" />
<glyph unicode="&#xb9;" horiz-adv-x="1024" d="M254 1245v293l516 14v-925h-362v628z" />
<glyph unicode="&#xba;" horiz-adv-x="860" d="M2 1219q0 86 34 151.5t92 109.5t136 66.5t166 22.5t166 -22.5t136.5 -66.5t92 -109.5t33.5 -151.5q0 -82 -36 -144.5t-95 -105.5t-137 -64.5t-160 -21.5q-84 0 -160.5 21.5t-136 64.5t-95.5 105.5t-36 144.5zM334 1221q0 -37 27.5 -60.5t68.5 -23.5t68.5 23.5t27.5 60.5 q0 41 -26.5 67.5t-69.5 26.5t-69.5 -26.5t-26.5 -67.5z" />
<glyph unicode="&#xbb;" horiz-adv-x="1171" d="M98 213l224 350l-224 324l197 143l330 -467l-330 -483zM547 213l223 350l-223 324l196 143l330 -467l-330 -483z" />
<glyph unicode="&#xbc;" horiz-adv-x="2555" d="M205 1245v293l516 14v-925h-363v628zM584 0l1058 1544h224l-1053 -1544h-229zM1382 176v244l410 506h432v-498l127 8v-260l-137 10l10 -186h-346l14 186zM1716 420l176 8v139q0 37 17 76l-8 4q-10 -20 -24.5 -39.5t-31.5 -36.5l-129 -147v-4z" />
<glyph unicode="&#xbd;" horiz-adv-x="2555" d="M205 1245v293l516 14v-925h-363v628zM528 0l1059 1544h221l-1052 -1544h-228zM1354 0l401 330q23 18 60.5 50t73.5 68.5t61.5 75.5t25.5 70t-23.5 52.5t-58.5 21.5q-29 0 -46 -10.5t-26.5 -28t-13.5 -38t-4 -40.5h-356q20 203 125.5 297t333.5 94q78 0 154.5 -20.5 t138 -62.5t99.5 -103.5t38 -141.5q0 -70 -31 -126t-80 -100t-112.5 -75.5t-128.5 -50.5v-10l172 22l194 13v-287h-997z" />
<glyph unicode="&#xbe;" horiz-adv-x="2555" d="M205 952h366q-2 -41 28 -72.5t77 -31.5q37 0 67.5 24.5t30.5 59.5t-27.5 60.5t-64.5 25.5q-12 0 -24.5 -1t-24.5 -3v192l29 -2q31 -4 53 16.5t22 49.5t-20.5 45t-48.5 16q-31 0 -49.5 -21.5t-14.5 -49.5h-360q8 88 45 147t94 95t133 51.5t162 15.5q63 0 136 -14.5 t134.5 -46t102.5 -82t41 -123.5q0 -57 -33 -106.5t-90 -72.5v-8q78 -18 122 -76.5t44 -132.5q0 -84 -43 -141t-110 -91t-147.5 -48.5t-154.5 -14.5q-92 0 -176 17.5t-149.5 57.5t-105.5 104.5t-44 160.5zM702 0l1059 1544h224l-1053 -1544h-230zM1382 176v244l410 506h432 v-498l127 8v-260l-137 10l10 -186h-346l14 186zM1716 420l176 8v139q0 37 17 76l-8 4q-10 -20 -24.5 -39.5t-31.5 -36.5l-129 -147v-4z" />
<glyph unicode="&#xbf;" horiz-adv-x="1427" d="M86 106q0 137 52 236.5t139.5 163t201 94.5t236.5 31q84 0 168 -19v-397q-27 8 -52.5 14.5t-52.5 6.5q-74 0 -128 -42t-54 -120q0 -45 25.5 -74t72.5 -29q51 0 78 42t29 89h526q-4 -127 -55 -229t-136 -175t-196 -112t-231 -39q-129 0 -242 37t-198 107.5t-134 175 t-49 239.5zM397 985q0 61 27 109.5t70 82t98 51t110 17.5t110.5 -17.5t98.5 -51t70 -81.5t27 -110q0 -61 -27 -108.5t-70 -79t-98 -49t-111 -17.5q-55 0 -110 17.5t-98 49t-70 79t-27 108.5z" />
<glyph unicode="&#xc0;" horiz-adv-x="1685" d="M-12 0l536 1544h621l551 -1544h-594l-51 193h-424l-45 -193h-594zM582 1897l256 170l268 -338l-186 -127zM727 559h225l-65 272q-12 49 -20.5 99.5t-16.5 99.5h-21z" />
<glyph unicode="&#xc1;" horiz-adv-x="1685" d="M-12 0l536 1544h621l551 -1544h-594l-51 193h-424l-45 -193h-594zM582 1729l268 338l256 -170l-338 -295zM727 559h225l-65 272q-12 49 -20.5 99.5t-16.5 99.5h-21z" />
<glyph unicode="&#xc2;" horiz-adv-x="1685" d="M-12 0l536 1544h621l551 -1544h-594l-51 193h-424l-45 -193h-594zM438 1831l409 236l404 -236l-96 -209l-308 150l-311 -150zM727 559h225l-65 272q-12 49 -20.5 99.5t-16.5 99.5h-21z" />
<glyph unicode="&#xc3;" horiz-adv-x="1685" d="M-12 0l536 1544h621l551 -1544h-594l-51 193h-424l-45 -193h-594zM430 1764q23 39 52.5 76.5t66 67.5t78.5 48.5t92 18.5q41 0 71.5 -12.5t65.5 -32.5q25 -14 54.5 -31t59.5 -17q41 0 63.5 33t37.5 62l186 -103q-20 -39 -47 -80t-60.5 -73.5t-75.5 -53t-91 -20.5 q-33 0 -59.5 7t-55.5 20l-92 40q-14 6 -35.5 15.5t-38.5 9.5q-39 0 -61.5 -32.5t-36.5 -61.5zM727 559h225l-65 272q-12 49 -20.5 99.5t-16.5 99.5h-21z" />
<glyph unicode="&#xc4;" horiz-adv-x="1685" d="M-12 0l536 1544h621l551 -1544h-594l-51 193h-424l-45 -193h-594zM426 1815q0 72 49 121t121 49t121 -49t49 -121t-49 -121t-121 -49t-121 49t-49 121zM727 559h225l-65 272q-12 49 -20.5 99.5t-16.5 99.5h-21zM924 1815q0 72 49 121t121 49t121 -49t49 -121t-49.5 -121 t-120.5 -49q-72 0 -121 49t-49 121z" />
<glyph unicode="&#xc5;" horiz-adv-x="1685" d="M-12 0l536 1544h621l551 -1544h-594l-51 193h-424l-45 -193h-594zM528 1809q0 66 27.5 111.5t73 73.5t102 40t113.5 12t113.5 -12t101.5 -40t72.5 -74t27.5 -111q0 -68 -28.5 -112t-74 -71.5t-101.5 -39t-111 -11.5t-111.5 11.5t-102 39t-74 71.5t-28.5 112zM723 1811 q0 -49 39 -68.5t82 -19.5t81.5 19.5t38.5 68.5t-38.5 68.5t-81.5 19.5t-82 -19.5t-39 -68.5zM727 559h225l-65 272q-12 49 -20.5 99.5t-16.5 99.5h-21z" />
<glyph unicode="&#xc6;" horiz-adv-x="2170" d="M-8 0l538 1544h1086l143 -422h-461l50 -147h462l142 -402h-457l51 -151h463l148 -422h-1053l-53 197h-420l-49 -197h-590zM727 559h229l-86 315q-10 39 -14 77t-8 77h-17q-4 -47 -10 -90t-18 -88z" />
<glyph unicode="&#xc7;" horiz-adv-x="1343" d="M72 758q0 168 62.5 316.5t171 258t256 173t317.5 63.5q96 0 191 -16.5t185 -47.5l17 -587q-68 63 -151 109t-179 46q-63 0 -118.5 -23.5t-97.5 -64.5t-65.5 -95t-23.5 -118q0 -63 25.5 -118.5t68.5 -95.5t99.5 -63.5t119.5 -23.5q98 0 176 39t146 104l-17 -577 q-35 -16 -87 -27.5t-108 -19.5t-111.5 -11.5t-92.5 -3.5q-166 0 -308 60.5t-248.5 166t-167 248t-60.5 308.5zM412 -330l325 299l197 -168l-316 -311z" />
<glyph unicode="&#xc8;" horiz-adv-x="1277" d="M119 0v1544h1038v-422h-473v-147h432v-402h-432v-151h490v-422h-1055zM377 1897l256 170l268 -338l-186 -127z" />
<glyph unicode="&#xc9;" horiz-adv-x="1277" d="M119 0v1544h1038v-422h-473v-147h432v-402h-432v-151h490v-422h-1055zM377 1729l268 338l256 -170l-338 -295z" />
<glyph unicode="&#xca;" horiz-adv-x="1277" d="M119 0v1544h1038v-422h-473v-147h432v-402h-432v-151h490v-422h-1055zM234 1831l409 236l404 -236l-96 -209l-308 150l-311 -150z" />
<glyph unicode="&#xcb;" horiz-adv-x="1277" d="M119 0v1544h1038v-422h-473v-147h432v-402h-432v-151h490v-422h-1055zM221 1815q0 72 49 121t121 49t121 -49t49 -121t-49 -121t-121 -49t-121 49t-49 121zM719 1815q0 72 49 121t121 49t121 -49t49 -121t-49.5 -121t-120.5 -49q-72 0 -121 49t-49 121z" />
<glyph unicode="&#xcc;" horiz-adv-x="825" d="M123 1897l256 170l268 -338l-186 -127zM131 0v1544h561v-1544h-561z" />
<glyph unicode="&#xcd;" horiz-adv-x="825" d="M131 0v1544h561v-1544h-561zM182 1729l268 338l256 -170l-338 -295z" />
<glyph unicode="&#xce;" horiz-adv-x="825" d="M10 1831l409 236l404 -236l-96 -209l-308 150l-311 -150zM131 0v1544h561v-1544h-561z" />
<glyph unicode="&#xcf;" horiz-adv-x="825" d="M-2 1815q0 72 49 121t121 49t121 -49t49 -121t-49 -121t-121 -49t-121 49t-49 121zM131 0v1544h561v-1544h-561zM496 1815q0 72 49 121t121 49t121 -49t49 -121t-49.5 -121t-120.5 -49q-72 0 -121 49t-49 121z" />
<glyph unicode="&#xd0;" horiz-adv-x="1693" d="M8 655v219h123v670h571q195 0 362 -44t290 -140t193.5 -246.5t70.5 -363.5q0 -172 -57.5 -310.5t-161 -237t-245.5 -150.5t-312 -52h-711v655h-123zM692 463h35q70 0 130.5 16.5t104.5 52t69.5 90t25.5 130.5q0 164 -88 236.5t-242 72.5h-35v-187h144v-219h-144v-192z " />
<glyph unicode="&#xd1;" horiz-adv-x="1785" d="M119 0v1544h538l504 -856h17q-16 98 -32 196.5t-16 196.5v463h537v-1544h-537l-493 811h-16q14 -80 24 -155.5t10 -153.5v-502h-536zM479 1764q23 39 52.5 76.5t66 67.5t78.5 48.5t92 18.5q41 0 71.5 -12.5t65.5 -32.5q25 -14 54.5 -31t59.5 -17q41 0 63.5 33t37.5 62 l186 -103q-20 -39 -47 -80t-60.5 -73.5t-75.5 -53t-91 -20.5q-33 0 -59.5 7t-55.5 20l-92 40q-14 6 -35.5 15.5t-38.5 9.5q-39 0 -61.5 -32.5t-36.5 -61.5z" />
<glyph unicode="&#xd2;" horiz-adv-x="1851" d="M72 768q0 182 67.5 329.5t183 252t271.5 162t332 57.5t331.5 -57.5t271.5 -162t183.5 -252t67.5 -329.5q0 -186 -67.5 -332.5t-183.5 -249t-271.5 -157t-331.5 -54.5t-332 54.5t-271.5 157t-183 249t-67.5 332.5zM637 760q0 -133 80 -215t209 -82t208.5 82t79.5 215 q0 61 -20 115.5t-57 96.5t-90 65.5t-121 23.5t-121 -23.5t-90 -65.5t-57.5 -96.5t-20.5 -115.5zM664 1897l256 170l268 -338l-186 -127z" />
<glyph unicode="&#xd3;" horiz-adv-x="1851" d="M72 768q0 182 67.5 329.5t183 252t271.5 162t332 57.5t331.5 -57.5t271.5 -162t183.5 -252t67.5 -329.5q0 -186 -67.5 -332.5t-183.5 -249t-271.5 -157t-331.5 -54.5t-332 54.5t-271.5 157t-183 249t-67.5 332.5zM637 760q0 -133 80 -215t209 -82t208.5 82t79.5 215 q0 61 -20 115.5t-57 96.5t-90 65.5t-121 23.5t-121 -23.5t-90 -65.5t-57.5 -96.5t-20.5 -115.5zM664 1729l268 338l256 -170l-338 -295z" />
<glyph unicode="&#xd4;" horiz-adv-x="1851" d="M72 768q0 182 67.5 329.5t183 252t271.5 162t332 57.5t331.5 -57.5t271.5 -162t183.5 -252t67.5 -329.5q0 -186 -67.5 -332.5t-183.5 -249t-271.5 -157t-331.5 -54.5t-332 54.5t-271.5 157t-183 249t-67.5 332.5zM520 1831l409 236l404 -236l-96 -209l-308 150l-311 -150 zM637 760q0 -133 80 -215t209 -82t208.5 82t79.5 215q0 61 -20 115.5t-57 96.5t-90 65.5t-121 23.5t-121 -23.5t-90 -65.5t-57.5 -96.5t-20.5 -115.5z" />
<glyph unicode="&#xd5;" horiz-adv-x="1851" d="M72 768q0 182 67.5 329.5t183 252t271.5 162t332 57.5t331.5 -57.5t271.5 -162t183.5 -252t67.5 -329.5q0 -186 -67.5 -332.5t-183.5 -249t-271.5 -157t-331.5 -54.5t-332 54.5t-271.5 157t-183 249t-67.5 332.5zM512 1764q23 39 52.5 76.5t66 67.5t78.5 48.5t92 18.5 q41 0 71.5 -12.5t65.5 -32.5q25 -14 54.5 -31t59.5 -17q41 0 63.5 33t37.5 62l186 -103q-20 -39 -47 -80t-60.5 -73.5t-75.5 -53t-91 -20.5q-33 0 -59.5 7t-55.5 20l-92 40q-14 6 -35.5 15.5t-38.5 9.5q-39 0 -61.5 -32.5t-36.5 -61.5zM637 760q0 -133 80 -215t209 -82 t208.5 82t79.5 215q0 61 -20 115.5t-57 96.5t-90 65.5t-121 23.5t-121 -23.5t-90 -65.5t-57.5 -96.5t-20.5 -115.5z" />
<glyph unicode="&#xd6;" horiz-adv-x="1851" d="M72 768q0 182 67.5 329.5t183 252t271.5 162t332 57.5t331.5 -57.5t271.5 -162t183.5 -252t67.5 -329.5q0 -186 -67.5 -332.5t-183.5 -249t-271.5 -157t-331.5 -54.5t-332 54.5t-271.5 157t-183 249t-67.5 332.5zM508 1815q0 72 49 121t121 49t121 -49t49 -121t-49 -121 t-121 -49t-121 49t-49 121zM637 760q0 -133 80 -215t209 -82t208.5 82t79.5 215q0 61 -20 115.5t-57 96.5t-90 65.5t-121 23.5t-121 -23.5t-90 -65.5t-57.5 -96.5t-20.5 -115.5zM1006 1815q0 72 49 121t121 49t121 -49t49 -121t-49.5 -121t-120.5 -49q-72 0 -121 49t-49 121 z" />
<glyph unicode="&#xd7;" horiz-adv-x="1638" d="M205 289l325 325l-325 326l291 289l323 -326l326 326l289 -289l-324 -326l324 -325l-289 -289l-326 326l-323 -326z" />
<glyph unicode="&#xd8;" horiz-adv-x="1851" d="M53 -16l230 239q-98 100 -154.5 236.5t-56.5 308.5q0 182 67.5 329.5t183 252t271.5 162t332 57.5q141 0 270 -37t234 -105l241 252l127 -110l-237 -250q102 -104 160.5 -242.5t58.5 -308.5q0 -186 -67.5 -332.5t-183.5 -249t-271.5 -157t-331.5 -54.5q-291 0 -508 140 l-238 -250zM637 760q0 -72 29 -135l387 407q-53 29 -127 29q-68 0 -121 -23.5t-90 -65.5t-57.5 -96.5t-20.5 -115.5zM782 498q63 -35 144 -35q129 0 208.5 82t79.5 215q0 84 -38 153z" />
<glyph unicode="&#xd9;" horiz-adv-x="1669" d="M119 631v913h561v-860q0 -45 3 -86t17.5 -72.5t46 -50t87.5 -18.5q55 0 86.5 18.5t46 50t17.5 72.5t3 86v860h561v-913q0 -170 -51 -293t-144 -204t-225.5 -120t-293.5 -39q-162 0 -294 39t-225.5 120t-144.5 204t-51 293zM533 1897l256 170l268 -338l-186 -127z" />
<glyph unicode="&#xda;" horiz-adv-x="1669" d="M119 631v913h561v-860q0 -45 3 -86t17.5 -72.5t46 -50t87.5 -18.5q55 0 86.5 18.5t46 50t17.5 72.5t3 86v860h561v-913q0 -170 -51 -293t-144 -204t-225.5 -120t-293.5 -39q-162 0 -294 39t-225.5 120t-144.5 204t-51 293zM614 1729l268 338l256 -170l-338 -295z" />
<glyph unicode="&#xdb;" horiz-adv-x="1669" d="M119 631v913h561v-860q0 -45 3 -86t17.5 -72.5t46 -50t87.5 -18.5q55 0 86.5 18.5t46 50t17.5 72.5t3 86v860h561v-913q0 -170 -51 -293t-144 -204t-225.5 -120t-293.5 -39q-162 0 -294 39t-225.5 120t-144.5 204t-51 293zM430 1831l409 236l404 -236l-96 -209l-308 150 l-311 -150z" />
<glyph unicode="&#xdc;" horiz-adv-x="1669" d="M119 631v913h561v-860q0 -45 3 -86t17.5 -72.5t46 -50t87.5 -18.5q55 0 86.5 18.5t46 50t17.5 72.5t3 86v860h561v-913q0 -170 -51 -293t-144 -204t-225.5 -120t-293.5 -39q-162 0 -294 39t-225.5 120t-144.5 204t-51 293zM418 1815q0 72 49 121t121 49t121 -49t49 -121 t-49 -121t-121 -49t-121 49t-49 121zM916 1815q0 72 49 121t121 49t121 -49t49 -121t-49.5 -121t-120.5 -49q-72 0 -121 49t-49 121z" />
<glyph unicode="&#xdd;" horiz-adv-x="1583" d="M-16 1544h634l173 -403h16q12 37 23.5 73.5t27.5 71.5l111 258h630l-528 -878v-666h-549v666zM571 1729l268 338l256 -170l-338 -295z" />
<glyph unicode="&#xde;" horiz-adv-x="1490" d="M127 0v1544h541v-205h170q135 0 249.5 -34.5t198.5 -105.5t131 -177.5t47 -249.5q0 -119 -35.5 -213t-101 -160.5t-161 -102.5t-212.5 -36h-286v-260h-541zM668 649h55q37 0 74 4t65.5 19.5t47 43t18.5 75.5q0 45 -19.5 70.5t-49.5 37.5t-66.5 15.5t-71.5 3.5h-53v-269z " />
<glyph unicode="&#xdf;" horiz-adv-x="1574" d="M111 0v1059q0 156 32.5 272.5t106.5 193.5t194.5 114.5t298.5 37.5q102 0 206 -23.5t186 -74.5t133 -131t51 -193q0 -55 -5 -99t-22.5 -83t-47.5 -71.5t-79 -63.5q76 -25 129.5 -72t87 -106.5t48 -129t14.5 -143.5q0 -127 -45 -219t-123 -151.5t-185.5 -88t-232.5 -28.5 h-88v295q63 6 95 39t45.5 76t13.5 91v87q0 66 -38 107.5t-116 41.5v291q53 0 96 27.5t43 81.5q0 57 -32.5 79.5t-98.5 22.5q-55 0 -83.5 -24.5t-41 -61.5t-13.5 -79t-1 -79v-995h-528z" />
<glyph unicode="&#xe0;" horiz-adv-x="1474" d="M66 539q0 102 30.5 204.5t90 184.5t148.5 133t204 51q98 0 178 -37t139 -117h12l-16 129h518v-1087h-518l16 143h-12q-37 -39 -71.5 -69.5t-73.5 -52t-85 -34t-102 -12.5q-111 0 -196.5 51.5t-144 132.5t-88 181t-29.5 199zM475 1440l256 170l268 -338l-186 -127z M590 549q0 -66 32.5 -113t104.5 -47q76 0 108.5 50t32.5 114q0 63 -38.5 104t-102.5 41q-63 0 -100 -45t-37 -104z" />
<glyph unicode="&#xe1;" horiz-adv-x="1474" d="M66 539q0 102 30.5 204.5t90 184.5t148.5 133t204 51q98 0 178 -37t139 -117h12l-16 129h518v-1087h-518l16 143h-12q-37 -39 -71.5 -69.5t-73.5 -52t-85 -34t-102 -12.5q-111 0 -196.5 51.5t-144 132.5t-88 181t-29.5 199zM516 1272l268 338l256 -170l-338 -295z M590 549q0 -66 32.5 -113t104.5 -47q76 0 108.5 50t32.5 114q0 63 -38.5 104t-102.5 41q-63 0 -100 -45t-37 -104z" />
<glyph unicode="&#xe2;" horiz-adv-x="1474" d="M66 539q0 102 30.5 204.5t90 184.5t148.5 133t204 51q98 0 178 -37t139 -117h12l-16 129h518v-1087h-518l16 143h-12q-37 -39 -71.5 -69.5t-73.5 -52t-85 -34t-102 -12.5q-111 0 -196.5 51.5t-144 132.5t-88 181t-29.5 199zM352 1374l409 236l404 -236l-96 -209l-308 150 l-311 -150zM590 549q0 -66 32.5 -113t104.5 -47q76 0 108.5 50t32.5 114q0 63 -38.5 104t-102.5 41q-63 0 -100 -45t-37 -104z" />
<glyph unicode="&#xe3;" horiz-adv-x="1474" d="M66 539q0 102 30.5 204.5t90 184.5t148.5 133t204 51q98 0 178 -37t139 -117h12l-16 129h518v-1087h-518l16 143h-12q-37 -39 -71.5 -69.5t-73.5 -52t-85 -34t-102 -12.5q-111 0 -196.5 51.5t-144 132.5t-88 181t-29.5 199zM348 1307q23 39 52.5 76.5t66 67.5t78.5 48.5 t92 18.5q41 0 71.5 -12.5t65.5 -32.5q25 -14 54.5 -31t59.5 -17q41 0 63.5 33t37.5 62l186 -103q-20 -39 -47 -80t-60.5 -73.5t-75.5 -53t-91 -20.5q-33 0 -59.5 7t-55.5 20l-92 40q-14 6 -35.5 15.5t-38.5 9.5q-39 0 -61.5 -32.5t-36.5 -61.5zM590 549q0 -66 32.5 -113 t104.5 -47q76 0 108.5 50t32.5 114q0 63 -38.5 104t-102.5 41q-63 0 -100 -45t-37 -104z" />
<glyph unicode="&#xe4;" horiz-adv-x="1474" d="M66 539q0 102 30.5 204.5t90 184.5t148.5 133t204 51q98 0 178 -37t139 -117h12l-16 129h518v-1087h-518l16 143h-12q-37 -39 -71.5 -69.5t-73.5 -52t-85 -34t-102 -12.5q-111 0 -196.5 51.5t-144 132.5t-88 181t-29.5 199zM344 1358q0 72 49 121t121 49t121 -49t49 -121 t-49 -121t-121 -49t-121 49t-49 121zM590 549q0 -66 32.5 -113t104.5 -47q76 0 108.5 50t32.5 114q0 63 -38.5 104t-102.5 41q-63 0 -100 -45t-37 -104zM842 1358q0 72 49 121t121 49t121 -49t49 -121t-49.5 -121t-120.5 -49q-72 0 -121 49t-49 121z" />
<glyph unicode="&#xe5;" horiz-adv-x="1474" d="M66 539q0 102 30.5 204.5t90 184.5t148.5 133t204 51q98 0 178 -37t139 -117h12l-16 129h518v-1087h-518l16 143h-12q-37 -39 -71.5 -69.5t-73.5 -52t-85 -34t-102 -12.5q-111 0 -196.5 51.5t-144 132.5t-88 181t-29.5 199zM446 1399q0 66 27.5 111.5t73 73.5t102 40 t113.5 12t113.5 -12t101.5 -40t72.5 -74t27.5 -111q0 -68 -28.5 -112t-74 -71.5t-101.5 -39t-111 -11.5t-111.5 11.5t-102 39t-74 71.5t-28.5 112zM590 549q0 -66 32.5 -113t104.5 -47q76 0 108.5 50t32.5 114q0 63 -38.5 104t-102.5 41q-63 0 -100 -45t-37 -104zM641 1401 q0 -49 39 -68.5t82 -19.5t81.5 19.5t38.5 68.5t-38.5 68.5t-81.5 19.5t-82 -19.5t-39 -68.5z" />
<glyph unicode="&#xe6;" horiz-adv-x="2334" d="M66 350q0 106 42 178t110.5 116t156.5 62.5t180 18.5q84 0 163 -14.5t156 -38.5q4 59 -17 98t-58 62.5t-85 32.5t-98 9q-131 0 -257 -31.5t-248 -72.5v260q127 35 254 58.5t258 23.5q74 0 141 -7t128.5 -27.5t117 -57.5t104.5 -98q106 98 223 144t262 46t271.5 -45 t217.5 -130t139 -206t38 -272h-768q0 -33 4 -67t17.5 -60.5t38 -43t65.5 -16.5t69.5 26t37.5 64h514q-27 -98 -90.5 -170.5t-148.5 -120.5t-182.5 -72t-191.5 -24q-141 0 -282.5 45.5t-233.5 139.5q-113 -90 -249 -137.5t-279 -47.5q-86 0 -178.5 20.5t-168 64.5t-124.5 116 t-49 174zM551 358q0 -35 18.5 -56t47 -32.5t60 -15.5t60.5 -4t72 5t84 19.5t69.5 38t28.5 60.5q0 31 -30.5 49t-70.5 29.5t-79 14.5t-57 3q-27 0 -62 -3t-66.5 -15.5t-53 -34t-21.5 -58.5zM1497 684h248q0 53 -36 96t-93 43q-59 0 -89 -42t-30 -97z" />
<glyph unicode="&#xe7;" horiz-adv-x="1052" d="M61 539q0 121 42 225t117 182t177.5 122t225.5 44q84 0 167.5 -14.5t163.5 -40.5v-441q-41 35 -89 63t-105 28q-72 0 -119 -44.5t-47 -117.5q0 -66 45 -111t111 -45q61 0 109 25.5t95 58.5l-22 -446q-61 -20 -129 -36t-137 -16q-133 0 -244 37t-190.5 109t-125 176 t-45.5 242zM266 -330l326 299l196 -168l-315 -311z" />
<glyph unicode="&#xe8;" horiz-adv-x="1429" d="M70 526q0 135 49 244t133 184.5t198.5 116.5t243.5 41q145 0 271.5 -45t217.5 -130t139 -207t38 -275h-768q0 -33 4 -67t17.5 -60.5t38 -43t65.5 -16.5t69.5 25.5t36.5 64.5h514q-27 -98 -90 -169.5t-148 -120t-182.5 -71t-191.5 -22.5q-129 0 -247 34t-209 101.5 t-145 171t-54 244.5zM453 1440l256 170l268 -338l-186 -127zM592 680h248q0 55 -36 98t-93 43q-59 0 -89 -42t-30 -99z" />
<glyph unicode="&#xe9;" horiz-adv-x="1429" d="M70 526q0 135 49 244t133 184.5t198.5 116.5t243.5 41q145 0 271.5 -45t217.5 -130t139 -207t38 -275h-768q0 -33 4 -67t17.5 -60.5t38 -43t65.5 -16.5t69.5 25.5t36.5 64.5h514q-27 -98 -90 -169.5t-148 -120t-182.5 -71t-191.5 -22.5q-129 0 -247 34t-209 101.5 t-145 171t-54 244.5zM453 1272l268 338l256 -170l-338 -295zM592 680h248q0 55 -36 98t-93 43q-59 0 -89 -42t-30 -99z" />
<glyph unicode="&#xea;" horiz-adv-x="1429" d="M70 526q0 135 49 244t133 184.5t198.5 116.5t243.5 41q145 0 271.5 -45t217.5 -130t139 -207t38 -275h-768q0 -33 4 -67t17.5 -60.5t38 -43t65.5 -16.5t69.5 25.5t36.5 64.5h514q-27 -98 -90 -169.5t-148 -120t-182.5 -71t-191.5 -22.5q-129 0 -247 34t-209 101.5 t-145 171t-54 244.5zM309 1374l409 236l404 -236l-96 -209l-308 150l-311 -150zM592 680h248q0 55 -36 98t-93 43q-59 0 -89 -42t-30 -99z" />
<glyph unicode="&#xeb;" horiz-adv-x="1429" d="M70 526q0 135 49 244t133 184.5t198.5 116.5t243.5 41q145 0 271.5 -45t217.5 -130t139 -207t38 -275h-768q0 -33 4 -67t17.5 -60.5t38 -43t65.5 -16.5t69.5 25.5t36.5 64.5h514q-27 -98 -90 -169.5t-148 -120t-182.5 -71t-191.5 -22.5q-129 0 -247 34t-209 101.5 t-145 171t-54 244.5zM297 1358q0 72 49 121t121 49t121 -49t49 -121t-49 -121t-121 -49t-121 49t-49 121zM592 680h248q0 55 -36 98t-93 43q-59 0 -89 -42t-30 -99zM795 1358q0 72 49 121t121 49t121 -49t49 -121t-49.5 -121t-120.5 -49q-72 0 -121 49t-49 121z" />
<glyph unicode="&#xec;" horiz-adv-x="802" d="M111 1440l256 170l268 -338l-186 -127zM137 0v1087h529v-1087h-529z" />
<glyph unicode="&#xed;" horiz-adv-x="802" d="M137 0v1087h529v-1087h-529zM170 1272l268 338l256 -170l-338 -295z" />
<glyph unicode="&#xee;" horiz-adv-x="802" d="M-2 1374l409 236l404 -236l-96 -209l-308 150l-311 -150zM137 0v1087h529v-1087h-529z" />
<glyph unicode="&#xef;" horiz-adv-x="802" d="M-14 1358q0 72 49 121t121 49t121 -49t49 -121t-49 -121t-121 -49t-121 49t-49 121zM137 0v1087h529v-1087h-529zM484 1358q0 72 49 121t121 49t121 -49t49 -121t-49.5 -121t-120.5 -49q-72 0 -121 49t-49 121z" />
<glyph unicode="&#xf0;" horiz-adv-x="1462" d="M72 541q0 135 49 236.5t128 169t179 102t205 34.5q66 0 107.5 -9t66.5 -15q-53 66 -108.5 117t-90.5 79l-268 -137l-125 131l240 121q-45 33 -90.5 60.5t-94.5 56.5l330 196q35 -18 61.5 -33.5t49 -29.5t46 -30.5t54.5 -37.5l254 129l125 -131l-227 -116 q147 -125 232 -242t129 -218.5t55.5 -187.5t11.5 -149q0 -170 -58.5 -295t-152 -207t-213 -121t-242.5 -39q-106 0 -222 32t-211 99.5t-157.5 175t-62.5 259.5zM584 539q0 -66 43 -108t104 -42t104.5 42t43.5 108t-41 112.5t-107 46.5t-106.5 -47t-40.5 -112z" />
<glyph unicode="&#xf1;" horiz-adv-x="1439" d="M102 0v1087h516l-20 -174h12q39 45 75 81t76 62.5t88 41t112 14.5q100 0 171.5 -36t117.5 -96t66.5 -140t20.5 -170v-670h-528v530q0 25 -1 51.5t-10.5 49t-27.5 38t-51 15.5t-51.5 -15.5t-26.5 -38t-9 -49t-1 -51.5v-530h-529zM307 1307q23 39 52.5 76.5t66 67.5 t78.5 48.5t92 18.5q41 0 71.5 -12.5t65.5 -32.5q25 -14 54.5 -31t59.5 -17q41 0 63.5 33t37.5 62l186 -103q-20 -39 -47 -80t-60.5 -73.5t-75.5 -53t-91 -20.5q-33 0 -59.5 7t-55.5 20l-92 40q-14 6 -35.5 15.5t-38.5 9.5q-39 0 -61.5 -32.5t-36.5 -61.5z" />
<glyph unicode="&#xf2;" horiz-adv-x="1462" d="M72 530q0 143 52 252t142 182.5t210 110.5t255 37t255 -37t210 -110.5t142.5 -182t52.5 -252.5q0 -135 -55.5 -238.5t-147.5 -174t-211 -106.5t-246 -36t-245.5 36t-211 106.5t-147.5 174t-55 238.5zM438 1440l256 170l268 -338l-186 -127zM584 539q0 -66 43 -108 t104 -42t104.5 42t43.5 108t-41 112.5t-107 46.5t-106.5 -47t-40.5 -112z" />
<glyph unicode="&#xf3;" horiz-adv-x="1462" d="M72 530q0 143 52 252t142 182.5t210 110.5t255 37t255 -37t210 -110.5t142.5 -182t52.5 -252.5q0 -135 -55.5 -238.5t-147.5 -174t-211 -106.5t-246 -36t-245.5 36t-211 106.5t-147.5 174t-55 238.5zM500 1272l268 338l256 -170l-338 -295zM584 539q0 -66 43 -108 t104 -42t104.5 42t43.5 108t-41 112.5t-107 46.5t-106.5 -47t-40.5 -112z" />
<glyph unicode="&#xf4;" horiz-adv-x="1462" d="M72 530q0 143 52 252t142 182.5t210 110.5t255 37t255 -37t210 -110.5t142.5 -182t52.5 -252.5q0 -135 -55.5 -238.5t-147.5 -174t-211 -106.5t-246 -36t-245.5 36t-211 106.5t-147.5 174t-55 238.5zM326 1374l409 236l404 -236l-96 -209l-308 150l-311 -150zM584 539 q0 -66 43 -108t104 -42t104.5 42t43.5 108t-41 112.5t-107 46.5t-106.5 -47t-40.5 -112z" />
<glyph unicode="&#xf5;" horiz-adv-x="1462" d="M72 530q0 143 52 252t142 182.5t210 110.5t255 37t255 -37t210 -110.5t142.5 -182t52.5 -252.5q0 -135 -55.5 -238.5t-147.5 -174t-211 -106.5t-246 -36t-245.5 36t-211 106.5t-147.5 174t-55 238.5zM318 1307q23 39 52.5 76.5t66 67.5t78.5 48.5t92 18.5 q41 0 71.5 -12.5t65.5 -32.5q25 -14 54.5 -31t59.5 -17q41 0 63.5 33t37.5 62l186 -103q-20 -39 -47 -80t-60.5 -73.5t-75.5 -53t-91 -20.5q-33 0 -59.5 7t-55.5 20l-92 40q-14 6 -35.5 15.5t-38.5 9.5q-39 0 -61.5 -32.5t-36.5 -61.5zM584 539q0 -66 43 -108t104 -42 t104.5 42t43.5 108t-41 112.5t-107 46.5t-106.5 -47t-40.5 -112z" />
<glyph unicode="&#xf6;" horiz-adv-x="1462" d="M72 530q0 143 52 252t142 182.5t210 110.5t255 37t255 -37t210 -110.5t142.5 -182t52.5 -252.5q0 -135 -55.5 -238.5t-147.5 -174t-211 -106.5t-246 -36t-245.5 36t-211 106.5t-147.5 174t-55 238.5zM313 1358q0 72 49 121t121 49t121 -49t49 -121t-49 -121t-121 -49 t-121 49t-49 121zM584 539q0 -66 43 -108t104 -42t104.5 42t43.5 108t-41 112.5t-107 46.5t-106.5 -47t-40.5 -112zM811 1358q0 72 49 121t121 49t121 -49t49 -121t-49.5 -121t-120.5 -49q-72 0 -121 49t-49 121z" />
<glyph unicode="&#xf7;" horiz-adv-x="1638" d="M205 410v409h1229v-409h-1229zM586 76q0 55 21.5 103t57 84t84 57.5t103.5 21.5t103.5 -21.5t84 -57.5t57 -84t21.5 -103t-21.5 -103.5t-57 -84t-84 -57t-103.5 -21.5t-103.5 21.5t-84 57t-57 83.5t-21.5 104zM586 1153q0 55 21.5 103.5t57 84t84 57t103.5 21.5 t103.5 -21.5t84 -57t57 -84t21.5 -103.5t-21.5 -103.5t-57 -84t-84 -57t-103.5 -21.5t-103.5 21.5t-84 57t-57 84t-21.5 103.5z" />
<glyph unicode="&#xf8;" horiz-adv-x="1462" d="M72 530q0 143 52 252t142 182.5t210 110.5t255 37q205 0 363 -82l172 178l102 -98l-156 -162q84 -72 131.5 -177t47.5 -241q0 -135 -55.5 -238.5t-147.5 -174t-211 -106.5t-246 -36q-100 0 -194.5 21.5t-174.5 64.5l-174 -182l-104 101l158 165q-78 68 -124 165.5 t-46 219.5zM584 539q0 -66 43 -108t104 -42t104.5 42t43.5 108t-41 112.5t-107 46.5t-106.5 -47t-40.5 -112z" />
<glyph unicode="&#xf9;" horiz-adv-x="1427" d="M100 473v614h525v-561q0 -25 2 -48t11 -41.5t26.5 -30t50.5 -11.5t50 11.5t26.5 30t11.5 42t2 47.5v561h524v-614q0 -129 -51 -223t-137 -154.5t-196.5 -90.5t-229.5 -30t-229.5 30t-196.5 90.5t-137.5 154.5t-51.5 223zM412 1440l256 170l268 -338l-186 -127z" />
<glyph unicode="&#xfa;" horiz-adv-x="1427" d="M100 473v614h525v-561q0 -25 2 -48t11 -41.5t26.5 -30t50.5 -11.5t50 11.5t26.5 30t11.5 42t2 47.5v561h524v-614q0 -129 -51 -223t-137 -154.5t-196.5 -90.5t-229.5 -30t-229.5 30t-196.5 90.5t-137.5 154.5t-51.5 223zM494 1272l268 338l256 -170l-338 -295z" />
<glyph unicode="&#xfb;" horiz-adv-x="1427" d="M100 473v614h525v-561q0 -25 2 -48t11 -41.5t26.5 -30t50.5 -11.5t50 11.5t26.5 30t11.5 42t2 47.5v561h524v-614q0 -129 -51 -223t-137 -154.5t-196.5 -90.5t-229.5 -30t-229.5 30t-196.5 90.5t-137.5 154.5t-51.5 223zM309 1374l409 236l404 -236l-96 -209l-308 150 l-311 -150z" />
<glyph unicode="&#xfc;" horiz-adv-x="1427" d="M100 473v614h525v-561q0 -25 2 -48t11 -41.5t26.5 -30t50.5 -11.5t50 11.5t26.5 30t11.5 42t2 47.5v561h524v-614q0 -129 -51 -223t-137 -154.5t-196.5 -90.5t-229.5 -30t-229.5 30t-196.5 90.5t-137.5 154.5t-51.5 223zM297 1358q0 72 49 121t121 49t121 -49t49 -121 t-49 -121t-121 -49t-121 49t-49 121zM795 1358q0 72 49 121t121 49t121 -49t49 -121t-49.5 -121t-120.5 -49q-72 0 -121 49t-49 121z" />
<glyph unicode="&#xfd;" horiz-adv-x="1347" d="M-45 1087h569l121 -425l31 -166h14l27 166l121 425h555l-697 -1536h-557l281 558zM453 1272l268 338l256 -170l-338 -295z" />
<glyph unicode="&#xfe;" horiz-adv-x="1466" d="M104 -449v2110h529v-485l-29 -261h19q35 94 128 145.5t197 51.5q115 0 200 -49t141.5 -128t84 -179.5t27.5 -202.5q0 -96 -30 -198.5t-87 -186.5t-143 -138.5t-197 -54.5q-45 0 -92 12.5t-91 35t-80 54.5t-58 73h-15l25 -175v-424h-529zM608 545q0 -61 35 -108.5 t100 -47.5q31 0 56.5 14.5t43 38t28 51t10.5 56.5q0 57 -39.5 103t-98.5 46q-66 0 -100.5 -47t-34.5 -106z" />
<glyph unicode="&#xff;" horiz-adv-x="1347" d="M-45 1087h569l121 -425l31 -166h14l27 166l121 425h555l-697 -1536h-557l281 558zM287 1358q0 72 49 121t121 49t121 -49t49 -121t-49 -121t-121 -49t-121 49t-49 121zM785 1358q0 72 49 121t121 49t121 -49t49 -121t-49.5 -121t-120.5 -49q-72 0 -121 49t-49 121z" />
<glyph unicode="&#x152;" horiz-adv-x="2428" d="M76 770q0 150 50 293t143 256t224.5 181.5t290.5 68.5q68 0 137.5 -14.5t132 -44t115 -74.5t86.5 -107h5v215h1036v-422h-477v-147h436v-402h-436v-151h495v-422h-1054v195h-5q-39 -55 -93 -96.5t-116.5 -69t-131 -41t-134.5 -13.5q-160 0 -290 68t-222 179.5t-142 255 t-50 292.5zM657 764q0 -57 22.5 -108.5t60.5 -89.5t89.5 -60.5t110.5 -22.5q135 0 208 84t73 215q0 133 -74 211t-209 78q-66 0 -117 -24.5t-88 -67.5t-56.5 -98.5t-19.5 -116.5z" />
<glyph unicode="&#x153;" horiz-adv-x="2162" d="M59 530q0 131 48.5 239t132.5 183.5t195.5 117.5t240.5 42q47 0 104.5 -9t112.5 -28.5t104.5 -48.5t81.5 -65q82 78 181.5 114.5t183.5 36.5q139 0 262 -45t212 -130t137 -206t38 -272h-768q0 -33 4 -67t17.5 -60.5t38 -43t65.5 -16.5t69.5 26t36.5 64h515 q-27 -98 -90.5 -170.5t-148.5 -120.5t-182.5 -72t-191.5 -24q-109 6 -213 40t-176 110q-86 -72 -203.5 -111t-228.5 -39q-117 0 -221.5 42t-183 116t-126 175.5t-47.5 221.5zM571 539q0 -66 43 -107t105 -41q61 0 104 41t43 107t-40.5 111.5t-106.5 45.5t-107 -46t-41 -111z M1325 684h248q0 53 -36 96t-93 43q-59 0 -89 -42t-30 -97z" />
<glyph unicode="&#x178;" horiz-adv-x="1583" d="M-16 1544h634l173 -403h16q12 37 23.5 73.5t27.5 71.5l111 258h630l-528 -878v-666h-549v666zM395 1815q0 72 49 121t121 49t121 -49t49 -121t-49 -121t-121 -49t-121 49t-49 121zM893 1815q0 72 49 121t121 49t121 -49t49 -121t-49.5 -121t-120.5 -49q-72 0 -121 49 t-49 121z" />
<glyph unicode="&#x2c6;" horiz-adv-x="1228" d="M209 1374l409 236l404 -236l-96 -209l-308 150l-311 -150z" />
<glyph unicode="&#x2dc;" horiz-adv-x="1146" d="M160 1307q23 39 52.5 76.5t66 67.5t78.5 48.5t92 18.5q41 0 71.5 -12.5t65.5 -32.5q25 -14 54.5 -31t59.5 -17q41 0 63.5 33t37.5 62l186 -103q-20 -39 -47 -80t-60.5 -73.5t-75.5 -53t-91 -20.5q-33 0 -59.5 7t-55.5 20l-92 40q-14 6 -35.5 15.5t-38.5 9.5 q-39 0 -61.5 -32.5t-36.5 -61.5z" />
<glyph unicode="&#x2000;" horiz-adv-x="1033" />
<glyph unicode="&#x2001;" horiz-adv-x="2067" />
<glyph unicode="&#x2002;" horiz-adv-x="1033" />
<glyph unicode="&#x2003;" horiz-adv-x="2067" />
<glyph unicode="&#x2004;" horiz-adv-x="689" />
<glyph unicode="&#x2005;" horiz-adv-x="516" />
<glyph unicode="&#x2006;" horiz-adv-x="344" />
<glyph unicode="&#x2007;" horiz-adv-x="344" />
<glyph unicode="&#x2008;" horiz-adv-x="258" />
<glyph unicode="&#x2009;" horiz-adv-x="413" />
<glyph unicode="&#x200a;" horiz-adv-x="114" />
<glyph unicode="&#x2010;" horiz-adv-x="993" d="M131 338v450h731v-450h-731z" />
<glyph unicode="&#x2011;" horiz-adv-x="993" d="M131 338v450h731v-450h-731z" />
<glyph unicode="&#x2012;" horiz-adv-x="993" d="M131 338v450h731v-450h-731z" />
<glyph unicode="&#x2013;" horiz-adv-x="1024" d="M0 338v450h1024v-450h-1024z" />
<glyph unicode="&#x2014;" horiz-adv-x="2048" d="M266 338v450h1516v-450h-1516z" />
<glyph unicode="&#x2018;" horiz-adv-x="1009" d="M117 780l364 764h414l-248 -764h-530z" />
<glyph unicode="&#x2019;" horiz-adv-x="1009" d="M115 780l247 764h531l-367 -764h-411z" />
<glyph unicode="&#x201a;" horiz-adv-x="1009" d="M117 -340l248 764h530l-367 -764h-411z" />
<glyph unicode="&#x201c;" horiz-adv-x="1613" d="M111 780l364 764h414l-248 -764h-530zM725 780l365 764h413l-248 -764h-530z" />
<glyph unicode="&#x201d;" horiz-adv-x="1613" d="M111 780l247 764h531l-367 -764h-411zM725 780l248 764h530l-366 -764h-412z" />
<glyph unicode="&#x201e;" horiz-adv-x="1613" d="M111 -340l247 764h531l-367 -764h-411zM725 -340l248 764h530l-366 -764h-412z" />
<glyph unicode="&#x2022;" d="M467 772q0 80 29.5 150.5t81 123t122 83t154.5 30.5q82 0 152.5 -30.5t123 -83t81 -123t28.5 -150.5t-28.5 -149.5t-81 -121.5t-123 -83t-152.5 -31q-84 0 -154.5 31t-122 83t-81 121.5t-29.5 149.5z" />
<glyph unicode="&#x2026;" horiz-adv-x="2048" d="M37 229q0 61 26.5 109.5t69.5 82.5t98.5 51t110.5 17t110.5 -17t98.5 -51t69.5 -82t26.5 -110q0 -61 -26.5 -108t-69.5 -79t-98.5 -49.5t-110.5 -17.5t-110.5 17.5t-98.5 49.5t-69.5 79t-26.5 108zM719 229q0 61 26.5 109.5t69.5 82.5t98.5 51t110.5 17t110.5 -17 t98.5 -51t69.5 -82t26.5 -110q0 -61 -26.5 -108t-69.5 -79t-98.5 -49.5t-110.5 -17.5t-110.5 17.5t-98.5 49.5t-69.5 79t-26.5 108zM1401 229q0 61 26.5 109.5t69.5 82.5t98.5 51t110.5 17t110.5 -17t98.5 -51t69.5 -82t26.5 -110q0 -61 -26.5 -108t-69.5 -79t-98.5 -49.5 t-110.5 -17.5t-110.5 17.5t-98.5 49.5t-69.5 79t-26.5 108z" />
<glyph unicode="&#x202f;" horiz-adv-x="413" />
<glyph unicode="&#x2039;" horiz-adv-x="720" d="M96 563l330 467l197 -143l-224 -324l224 -350l-197 -133z" />
<glyph unicode="&#x203a;" horiz-adv-x="720" d="M98 213l224 350l-224 324l197 143l330 -467l-330 -483z" />
<glyph unicode="&#x205f;" horiz-adv-x="516" />
<glyph unicode="&#x2122;" horiz-adv-x="1945" d="M84 1343v201h702v-201h-229v-647h-246v647h-227zM866 696v848h324l172 -489h4l172 489h324v-848h-201v647h-4l-232 -647h-122l-232 647h-4v-647h-201z" />
<glyph unicode="&#x25fc;" horiz-adv-x="1085" d="M0 0v1085h1085v-1085h-1085z" />
</font>
</defs>
</svg>
