<?xml version="1.0" standalone="no"?>
<!DOCTYPE svg PUBLIC "-//W3C//DTD SVG 1.1//EN" "http://www.w3.org/Graphics/SVG/1.1/DTD/svg11.dtd" >
<svg>
<metadata>
Created by FontForge 20110222 at Thu Oct  8 13:28:48 2015
 By www-data
Copyright (c) 2004 Linotype Library GmbH, www.linotype.com. All rights reserved. This software may not be reproduced, used, displayed, modified, disclosed or transferred without the express written approval of Linotype Library GmbH. Avenir is a trademark of Heidelberger Druckmaschinen AG, exclusively licensed through Linotype Library GmbH, and may be registered in certain jurisdictions. This typeface is original artwork of Adrian Frutiger. The design may be protected in certain jurisdictions.
</metadata>
<defs>
<font id="AvenirNextLTPro-Medium" horiz-adv-x="250" >
  <font-face 
    font-family="Avenir Next LT Pro"
    font-weight="500"
    font-stretch="normal"
    units-per-em="1000"
    panose-1="2 11 6 4 2 2 2 2 2 4"
    ascent="756"
    descent="-244"
    x-height="474"
    cap-height="708"
    bbox="-210 -250 1015 951"
    underline-thickness="50"
    underline-position="-50"
    stemh="79"
    stemv="96"
    unicode-range="U+000D-FB02"
  />
<missing-glyph horiz-adv-x="512" 
d="M222 117h56v67h-56v-67zM225 234h46c0 35 2 59 6 72s18 30 43 52c51 47 63 77 63 120c0 79 -53 131 -124 131c-72 0 -126 -42 -135 -137l50 -8c8 68 41 95 82 95s76 -37 76 -85c0 -25 -7 -42 -50 -83c-22 -22 -37 -42 -46 -59s-13 -44 -13 -81zM462 50h-412v617h412v-617
zM512 718h-512v-718h512v718z" />
    <glyph glyph-name="fi" unicode="fi" horiz-adv-x="574" 
d="M304 474v-77h-110v-397h-94v397h-94v77h94v99c0 111 49 195 177 195c22 0 41 -2 59 -7l-11 -81c-14 4 -29 7 -47 7c-71 0 -84 -56 -84 -114v-99h110zM491 474v-474h-94v474h94zM507 645c0 -34 -29 -60 -63 -60s-62 27 -62 60c0 34 28 61 62 61s63 -26 63 -61z" />
    <glyph glyph-name="fl" unicode="fl" horiz-adv-x="574" 
d="M491 756v-756h-94v756h94zM304 474v-77h-110v-397h-94v397h-94v77h94v99c0 111 49 195 177 195c22 0 41 -2 59 -7l-11 -81c-14 4 -29 7 -47 7c-71 0 -84 -56 -84 -114v-99h110z" />
    <glyph glyph-name="napostrophe" unicode="&#x22;n" horiz-adv-x="602" 
d="M97 474h89c2 -24 4 -58 4 -78h3c23 51 86 91 154 91c122 0 177 -87 177 -193v-294h-94v263c0 77 -21 145 -108 145c-74 0 -127 -62 -127 -156v-252h-94v372c0 25 -1 71 -4 102zM145 708l-78 -190h-79l64 190h93z" />
    <glyph glyph-name="ij" unicode="ij" horiz-adv-x="515" 
d="M176 474v-474h-94v474h94zM192 645c0 -34 -29 -60 -63 -60s-62 27 -62 60c0 34 28 61 62 61s63 -26 63 -61zM224 -234l10 80c12 -3 27 -5 38 -5c57 0 66 44 66 101v532h94v-535c0 -95 -29 -179 -154 -179c-17 0 -39 3 -54 6zM448 645c0 -34 -29 -60 -63 -60
c-35 0 -63 27 -63 60c0 34 28 61 63 61c34 0 63 -26 63 -61z" />
    <glyph glyph-name="IJ" unicode="IJ" horiz-adv-x="758" 
d="M185 708v-708h-99v708h99zM278 132l92 26c11 -51 49 -88 102 -88c85 0 107 68 107 151v487h99v-491c0 -98 -35 -235 -201 -235c-108 0 -178 62 -199 150z" />
    <glyph glyph-name=".notdef" horiz-adv-x="512" 
d="M222 117h56v67h-56v-67zM225 234h46c0 35 2 59 6 72s18 30 43 52c51 47 63 77 63 120c0 79 -53 131 -124 131c-72 0 -126 -42 -135 -137l50 -8c8 68 41 95 82 95s76 -37 76 -85c0 -25 -7 -42 -50 -83c-22 -22 -37 -42 -46 -59s-13 -44 -13 -81zM462 50h-412v617h412v-617
zM512 718h-512v-718h512v718z" />
    <glyph glyph-name="exclam" unicode="!" horiz-adv-x="334" 
d="M216 708v-501h-99v501h99zM234 60c0 -35 -29 -66 -67 -66c-37 0 -67 30 -67 65c0 36 29 66 67 66s67 -29 67 -65z" />
    <glyph glyph-name="quotedbl" unicode="&#x22;" horiz-adv-x="423" 
d="M90 458v250h82v-250h-82zM251 458v250h82v-250h-82z" />
    <glyph glyph-name="numbersign" unicode="#" horiz-adv-x="574" 
d="M107 0l30 211h-96v73h106l19 141h-98v73h109l29 210h75l-30 -210h118l29 210h75l-30 -210h90v-73h-100l-20 -141h93v-73h-102l-30 -211h-75l30 211h-118l-30 -211h-74zM241 425l-20 -141h118l19 141h-117z" />
    <glyph glyph-name="dollar" unicode="$" horiz-adv-x="595" 
d="M264 69v254c-104 30 -201 77 -201 202c0 117 95 188 201 194v70h51v-69c69 -1 147 -26 197 -76l-68 -63c-31 39 -82 59 -129 60v-238c102 -34 208 -81 208 -213c0 -126 -95 -199 -208 -201v-72h-51v72c-89 2 -168 38 -223 99l73 62c36 -51 103 -80 150 -81zM315 309v-240
c58 3 112 41 112 120c0 63 -48 99 -112 120zM264 418v223c-58 -4 -106 -44 -106 -110c0 -63 44 -95 106 -113z" />
    <glyph glyph-name="percent" unicode="%" horiz-adv-x="870" 
d="M475 165c0 98 79 177 177 177s177 -79 177 -177s-79 -177 -177 -177s-177 79 -177 177zM746 165c0 52 -42 94 -94 94s-94 -42 -94 -94s42 -94 94 -94s94 42 94 94zM41 543c0 98 79 177 177 177s177 -79 177 -177s-79 -177 -177 -177s-177 79 -177 177zM312 543
c0 52 -42 94 -94 94s-94 -42 -94 -94s42 -94 94 -94s94 42 94 94zM686 707l-433 -739l-68 33l434 739z" />
    <glyph glyph-name="ampersand" unicode="&#x26;" horiz-adv-x="723" 
d="M686 378l-136 -211l162 -167h-131l-88 93c-53 -67 -116 -106 -215 -106c-123 0 -230 70 -230 201c0 106 78 168 159 205c-45 47 -81 99 -81 162c0 114 91 171 189 171s183 -57 183 -166c0 -92 -72 -149 -152 -187l141 -145l89 150h110zM407 558c0 51 -38 90 -91 90
c-54 0 -95 -38 -95 -94c0 -45 37 -94 70 -123c59 26 116 65 116 127zM430 156l-168 176c-69 -29 -114 -70 -114 -142c0 -75 65 -123 132 -123s111 31 150 89z" />
    <glyph glyph-name="quoteright" unicode="&#x2019;" horiz-adv-x="246" 
d="M204 708l-83 -250h-79l69 250h93z" />
    <glyph glyph-name="parenleft" unicode="(" horiz-adv-x="315" 
d="M119 288c0 -146 51 -292 129 -401l-68 -44c-88 118 -146 278 -146 445s58 327 146 445l68 -44c-78 -109 -129 -255 -129 -401z" />
    <glyph glyph-name="parenright" unicode=")" horiz-adv-x="315" 
d="M196 288c0 146 -51 292 -129 401l68 44c88 -118 146 -278 146 -445s-58 -327 -146 -445l-68 44c78 109 129 255 129 401z" />
    <glyph glyph-name="asterisk" unicode="*" horiz-adv-x="454" 
d="M262 579l127 41l27 -76l-127 -41l81 -109l-64 -48l-84 113l-84 -113l-64 48l81 109l-127 41l27 76l127 -41v129h80v-129z" />
    <glyph glyph-name="plus" unicode="+" horiz-adv-x="666" 
d="M374 566v-222h222v-82h-222v-222h-82v222h-222v82h222v222h82z" />
    <glyph glyph-name="comma" unicode="," horiz-adv-x="260" 
d="M197 117l-83 -250h-80l69 250h94z" />
    <glyph glyph-name="hyphen" unicode="-" horiz-adv-x="320" 
d="M276 284v-80h-232v80h232z" />
    <glyph glyph-name="period" unicode="." horiz-adv-x="260" 
d="M197 60c0 -35 -29 -66 -67 -66c-37 0 -67 30 -67 65c0 36 29 66 67 66s67 -29 67 -65z" />
    <glyph glyph-name="slash" unicode="/" horiz-adv-x="380" 
d="M376 716l-307 -749l-71 24l307 751z" />
    <glyph glyph-name="zero" unicode="0" horiz-adv-x="595" 
d="M298 726c168 0 241 -166 241 -372c0 -207 -73 -372 -241 -372c-169 0 -242 165 -242 372c0 206 73 372 242 372zM298 645c-117 0 -143 -172 -143 -291c0 -120 26 -290 143 -290c115 0 142 170 142 290c0 119 -27 291 -142 291z" />
    <glyph glyph-name="one" unicode="1" horiz-adv-x="595" 
d="M379 708v-708h-97v590l-134 -112l-57 67l201 163h87z" />
    <glyph glyph-name="two" unicode="2" horiz-adv-x="595" 
d="M522 87v-87h-462v93l282 280c43 44 78 90 78 150c0 74 -56 122 -126 122c-72 0 -121 -52 -133 -123l-95 16c17 108 108 188 229 188c118 0 224 -69 224 -201c0 -91 -52 -153 -114 -214l-230 -224h347z" />
    <glyph glyph-name="three" unicode="3" horiz-adv-x="595" 
d="M213 330v80h31c81 0 158 27 158 118c0 71 -58 117 -125 117c-59 0 -103 -33 -124 -87l-88 31c35 85 116 137 216 137c118 0 218 -67 218 -192c0 -79 -52 -142 -125 -161v-2c83 -17 144 -82 144 -173c0 -141 -116 -216 -237 -216c-112 0 -202 50 -241 156l90 30
c21 -61 75 -104 149 -104c71 0 142 45 142 135c0 99 -94 131 -178 131h-30z" />
    <glyph glyph-name="four" unicode="4" horiz-adv-x="595" 
d="M451 708v-466h102v-83h-102v-159h-94v159h-326v88l301 461h119zM357 242v355h-2l-224 -355h226z" />
    <glyph glyph-name="five" unicode="5" horiz-adv-x="595" 
d="M490 708v-86h-292l-6 -186c26 9 62 13 91 13c136 0 237 -86 237 -223c0 -148 -106 -244 -247 -244c-110 0 -188 56 -226 142l88 35c22 -57 75 -95 138 -95c83 0 148 61 148 152c0 107 -78 155 -166 155c-53 0 -113 -16 -157 -39l10 376h382z" />
    <glyph glyph-name="six" unicode="6" horiz-adv-x="595" 
d="M421 708l-190 -285l1 -2c20 12 58 19 88 19c124 0 221 -93 221 -222c0 -141 -105 -236 -244 -236c-141 0 -245 99 -245 233c0 77 28 136 69 201l185 292h115zM150 214c0 -83 59 -150 147 -150c87 0 146 63 146 151c0 85 -57 148 -145 148c-89 0 -148 -62 -148 -149z" />
    <glyph glyph-name="seven" unicode="7" horiz-adv-x="595" 
d="M515 708v-88l-284 -620h-111l295 622h-351v86h451z" />
    <glyph glyph-name="eight" unicode="8" horiz-adv-x="595" 
d="M401 373c76 -19 134 -89 134 -180c0 -133 -109 -211 -237 -211c-129 0 -238 78 -238 211c0 94 61 160 134 180v2c-63 22 -109 80 -109 158c0 117 96 193 213 193c116 0 212 -73 212 -191c0 -77 -45 -139 -109 -160v-2zM182 530c0 -65 49 -115 116 -115
c64 0 116 50 116 115c0 68 -53 116 -116 116c-67 0 -116 -48 -116 -116zM159 198c0 -80 57 -135 139 -135c80 0 138 55 138 135c0 77 -58 134 -138 134c-81 0 -139 -56 -139 -134z" />
    <glyph glyph-name="nine" unicode="9" horiz-adv-x="595" 
d="M175 0l190 286l-1 1c-10 -6 -25 -11 -41 -14s-33 -5 -48 -5c-124 0 -221 93 -221 222c0 141 106 236 245 236c140 0 244 -99 244 -233c0 -77 -28 -136 -68 -201l-185 -292h-115zM446 494c0 83 -59 151 -147 151c-87 0 -147 -64 -147 -152c0 -85 58 -148 146 -148
c89 0 148 62 148 149z" />
    <glyph glyph-name="colon" unicode=":" horiz-adv-x="300" 
d="M217 415c0 -36 -29 -66 -67 -66c-37 0 -67 29 -67 65c0 35 29 66 67 66s67 -30 67 -65zM217 60c0 -35 -29 -66 -67 -66c-37 0 -67 30 -67 65c0 36 29 66 67 66s67 -29 67 -65z" />
    <glyph glyph-name="semicolon" unicode=";" horiz-adv-x="300" 
d="M217 415c0 -36 -29 -66 -67 -66c-37 0 -67 29 -67 65c0 35 29 66 67 66s67 -30 67 -65zM206 117l-83 -250h-80l69 250h94z" />
    <glyph glyph-name="less" unicode="&#x3c;" horiz-adv-x="666" 
d="M589 564v-85l-385 -176l383 -176v-85l-508 231v60z" />
    <glyph glyph-name="equal" unicode="=" horiz-adv-x="666" 
d="M70 426h526v-81h-526v81zM70 261h526v-81h-526v81z" />
    <glyph glyph-name="greater" unicode="&#x3e;" horiz-adv-x="666" 
d="M79 479v85l508 -231v-60l-508 -231v85l383 176z" />
    <glyph glyph-name="question" unicode="?" horiz-adv-x="500" 
d="M301 236v-35h-94v48c0 70 27 107 73 149l37 35c29 25 51 53 51 99c0 64 -45 105 -109 105c-66 0 -109 -49 -115 -110l-96 11c17 115 104 185 217 185c111 0 203 -65 203 -185c0 -85 -39 -123 -96 -171c-54 -46 -71 -65 -71 -131zM326 60c0 -35 -29 -66 -67 -66
c-37 0 -67 30 -67 65c0 36 29 66 67 66s67 -29 67 -65z" />
    <glyph glyph-name="at" unicode="@" horiz-adv-x="800" 
d="M412 478c-71 0 -110 -87 -110 -158c0 -34 13 -89 72 -89c82 0 112 92 112 151c0 47 -16 96 -74 96zM682 155l46 -53c-78 -82 -190 -120 -313 -120c-229 0 -382 154 -382 371c0 213 171 373 382 373c182 0 354 -106 354 -321c0 -161 -93 -245 -196 -245
c-56 0 -87 32 -87 70h-5c-16 -30 -60 -70 -123 -70c-90 0 -144 67 -144 163c0 113 78 226 198 226c51 0 89 -25 101 -57h2l9 42h76l-39 -188c-4 -18 -10 -51 -10 -71c0 -23 6 -45 40 -45c59 0 100 70 100 167c0 167 -116 257 -277 257c-176 0 -294 -131 -294 -303
c0 -182 125 -297 303 -297c113 0 192 38 259 101z" />
    <glyph glyph-name="A" unicode="A" horiz-adv-x="711" 
d="M186 174l-71 -174h-110l307 708h90l304 -708h-112l-72 174h-336zM354 593l-133 -332h265z" />
    <glyph glyph-name="B" unicode="B" horiz-adv-x="642" 
d="M86 0v708h244c107 0 222 -44 222 -179c0 -78 -50 -134 -124 -154v-2c91 -11 157 -73 157 -172c0 -136 -118 -201 -266 -201h-233zM185 625v-216h129c76 0 139 33 139 110c0 76 -61 106 -155 106h-113zM185 325v-241h124c84 0 176 26 176 122c0 83 -59 119 -167 119h-133z
" />
    <glyph glyph-name="C" unicode="C" horiz-adv-x="708" 
d="M614 164l79 -54c-55 -75 -146 -128 -270 -128c-217 0 -373 155 -373 373c0 221 162 371 377 371c97 0 202 -38 254 -110l-78 -60c-34 48 -103 83 -176 83c-164 0 -269 -129 -269 -284c0 -159 103 -285 266 -285c79 0 148 33 190 94z" />
    <glyph glyph-name="D" unicode="D" horiz-adv-x="761" 
d="M86 0v708h243c181 0 382 -103 382 -354c0 -242 -201 -354 -382 -354h-243zM185 622v-535h124c171 0 296 98 296 267c0 175 -125 268 -296 268h-124z" />
    <glyph glyph-name="E" unicode="E" horiz-adv-x="601" 
d="M185 324v-236h370v-88h-469v708h454v-87h-355v-212h334v-85h-334z" />
    <glyph glyph-name="F" unicode="F" horiz-adv-x="568" 
d="M185 316v-316h-99v708h442v-87h-343v-220h321v-85h-321z" />
    <glyph glyph-name="G" unicode="G" horiz-adv-x="778" 
d="M689 634l-69 -72c-42 46 -111 77 -192 77c-166 0 -270 -129 -270 -284c0 -158 104 -284 273 -284c66 0 124 13 165 35v197h-157v84h255v-343c-74 -40 -162 -62 -266 -62c-221 0 -378 155 -378 373c0 221 162 371 377 371c112 0 204 -36 262 -92z" />
    <glyph glyph-name="H" unicode="H" horiz-adv-x="729" 
d="M86 0v708h99v-296h358v296h100v-708h-100v324h-358v-324h-99z" />
    <glyph glyph-name="I" unicode="I" horiz-adv-x="271" 
d="M185 708v-708h-99v708h99z" />
    <glyph glyph-name="J" unicode="J" horiz-adv-x="495" 
d="M15 132l92 26c11 -51 49 -88 102 -88c85 0 107 68 107 151v487h99v-491c0 -98 -35 -235 -201 -235c-108 0 -178 62 -199 150z" />
    <glyph glyph-name="K" unicode="K" horiz-adv-x="659" 
d="M185 708v-312h2l316 312h137l-344 -324l365 -384h-142l-332 366h-2v-366h-99v708h99z" />
    <glyph glyph-name="L" unicode="L" horiz-adv-x="511" 
d="M185 708v-620h316v-88h-415v708h99z" />
    <glyph glyph-name="M" unicode="M" horiz-adv-x="903" 
d="M240 708l212 -544h2l209 544h154v-708h-99v592h-2l-235 -592h-63l-234 592h-2v-592h-96v708h154z" />
    <glyph glyph-name="N" unicode="N" horiz-adv-x="772" 
d="M215 708l370 -566h2v566h99v-708h-125l-374 578h-2v-578h-99v708h129z" />
    <glyph glyph-name="O" unicode="O" horiz-adv-x="849" 
d="M800 355c0 -218 -160 -373 -376 -373c-215 0 -374 155 -374 373c0 221 159 371 374 371c216 0 376 -150 376 -371zM693 355c0 155 -104 284 -269 284c-163 0 -267 -129 -267 -284c0 -158 105 -284 267 -284c164 0 269 126 269 284z" />
    <glyph glyph-name="P" unicode="P" horiz-adv-x="595" 
d="M86 0v708h216c153 0 253 -59 253 -197c0 -142 -111 -200 -258 -200h-112v-311h-99zM185 624v-229h105c97 0 165 32 165 116c0 85 -70 113 -163 113h-107z" />
    <glyph glyph-name="Q" unicode="Q" horiz-adv-x="846" 
d="M834 83v-83h-416c-216 0 -368 143 -368 363c0 213 157 363 369 363c210 0 366 -150 366 -363c0 -126 -59 -224 -146 -278v-2h195zM157 363c0 -155 102 -276 261 -276c156 0 261 121 261 276c0 151 -100 276 -260 276c-159 0 -262 -125 -262 -276z" />
    <glyph glyph-name="R" unicode="R" horiz-adv-x="614" 
d="M185 315v-315h-99v708h227c137 0 252 -52 252 -196c0 -104 -71 -170 -172 -187l198 -325h-120l-180 315h-106zM185 624v-226h114c93 0 166 29 166 114s-73 112 -159 112h-121z" />
    <glyph glyph-name="S" unicode="S" horiz-adv-x="569" 
d="M508 645l-70 -68c-28 39 -79 66 -138 66c-64 0 -138 -35 -138 -115c0 -77 65 -98 145 -124c95 -30 208 -66 208 -207c0 -147 -119 -215 -245 -215c-89 0 -179 35 -233 103l77 65c33 -49 93 -83 158 -83c66 0 142 37 142 121c0 86 -78 109 -168 137s-184 69 -184 199
c0 141 126 202 243 202c82 0 159 -32 203 -81z" />
    <glyph glyph-name="T" unicode="T" horiz-adv-x="569" 
d="M334 621v-621h-99v621h-227v87h553v-87h-227z" />
    <glyph glyph-name="U" unicode="U" horiz-adv-x="712" 
d="M356 -18c-187 0 -275 135 -275 280v446h99v-440c0 -97 44 -197 176 -197s176 100 176 197v440h99v-446c0 -145 -88 -280 -275 -280z" />
    <glyph glyph-name="V" unicode="V" horiz-adv-x="642" 
d="M108 708l213 -580h3l213 580h107l-278 -708h-92l-276 708h110z" />
    <glyph glyph-name="W" unicode="W" horiz-adv-x="988" 
d="M117 708l156 -564h2l166 564h109l165 -564h2l156 564h105l-208 -708h-103l-172 569h-2l-172 -569h-103l-208 708h107z" />
    <glyph glyph-name="X" unicode="X" horiz-adv-x="668" 
d="M164 708l170 -264l168 264h116l-226 -335l257 -373h-125l-194 298l-190 -298h-122l253 375l-228 333h121z" />
    <glyph glyph-name="Y" unicode="Y" horiz-adv-x="624" 
d="M362 306v-306h-100v306l-265 402h122l196 -320l197 320h115z" />
    <glyph glyph-name="Z" unicode="Z" horiz-adv-x="592" 
d="M553 708v-87l-400 -533h406v-88h-526v87l399 534h-391v87h512z" />
    <glyph glyph-name="bracketleft" unicode="[" horiz-adv-x="315" 
d="M236 732v-66h-93v-756h93v-66h-177v888h177z" />
    <glyph glyph-name="backslash" unicode="\" horiz-adv-x="380" 
d="M311 -33l-307 749l70 26l308 -751z" />
    <glyph glyph-name="bracketright" unicode="]" horiz-adv-x="315" 
d="M79 -156v66h93v756h-93v66h177v-888h-177z" />
    <glyph glyph-name="asciicircum" unicode="^" horiz-adv-x="666" 
d="M74 309l226 399h66l226 -399h-91l-169 300l-167 -300h-91z" />
    <glyph glyph-name="underscore" unicode="_" horiz-adv-x="500" 
d="M0 -138v63h500v-63h-500z" />
    <glyph glyph-name="quoteleft" unicode="&#x2018;" horiz-adv-x="246" 
d="M42 458l83 250h79l-68 -250h-94z" />
    <glyph glyph-name="a" unicode="a" horiz-adv-x="542" 
d="M376 294v13c0 70 -47 104 -117 104c-53 0 -103 -23 -135 -55l-50 60c46 44 117 71 194 71c136 0 198 -81 198 -186v-207c0 -32 2 -71 7 -94h-85c-5 21 -8 46 -8 68h-3c-34 -51 -88 -80 -159 -80c-75 0 -172 37 -172 146c0 143 170 160 330 160zM376 226h-23
c-93 0 -211 -10 -211 -90c0 -56 50 -74 97 -74c88 0 137 59 137 139v25z" />
    <glyph glyph-name="b" unicode="b" horiz-adv-x="636" 
d="M176 75h-2v-75h-91v756h94v-353h3c32 46 91 84 169 84c141 0 237 -109 237 -249c0 -139 -93 -251 -239 -251c-67 0 -134 31 -171 88zM489 238c0 89 -55 171 -158 171c-96 0 -160 -81 -160 -172s64 -171 160 -171c103 0 158 83 158 172z" />
    <glyph glyph-name="c" unicode="c" horiz-adv-x="494" 
d="M481 409l-68 -55c-20 31 -64 54 -109 54c-98 0 -155 -80 -155 -171c0 -90 57 -171 156 -171c48 0 89 20 114 52l63 -57c-40 -46 -101 -74 -177 -74c-146 0 -255 99 -255 250c0 149 108 250 253 250c67 0 139 -27 178 -78z" />
    <glyph glyph-name="d" unicode="d" horiz-adv-x="635" 
d="M459 75c-36 -57 -104 -88 -171 -88c-146 0 -239 112 -239 251c0 140 96 249 238 249c77 0 136 -38 169 -84h2v353h94v-756h-91v75h-2zM147 238c0 -89 54 -172 157 -172c96 0 160 80 160 171s-64 172 -160 172c-103 0 -157 -82 -157 -171z" />
    <glyph glyph-name="e" unicode="e" horiz-adv-x="573" 
d="M146 279h282c-2 75 -46 134 -133 134c-81 0 -143 -60 -149 -134zM523 241c0 -10 0 -21 -1 -32h-376c3 -81 71 -144 154 -144c64 0 111 32 138 72l66 -53c-51 -66 -120 -97 -204 -97c-144 0 -250 100 -250 249c0 148 106 251 245 251c140 0 228 -95 228 -246z" />
    <glyph glyph-name="f" unicode="f" horiz-adv-x="310" 
d="M304 474v-77h-110v-397h-94v397h-94v77h94v99c0 111 49 195 177 195c22 0 41 -2 59 -7l-11 -81c-14 4 -29 7 -47 7c-71 0 -84 -56 -84 -114v-99h110z" />
    <glyph glyph-name="g" unicode="g" horiz-adv-x="632" 
d="M58 -154l60 73c41 -46 108 -77 173 -77c125 0 167 77 167 175v61h-2c-35 -53 -100 -82 -167 -82c-145 0 -239 108 -239 244s93 247 238 247c68 0 135 -30 171 -89h2v76h91v-450c0 -138 -65 -264 -262 -264c-82 0 -173 32 -232 86zM147 242c0 -87 58 -167 157 -167
c97 0 161 73 161 167c0 90 -65 167 -161 167c-99 0 -157 -76 -157 -167z" />
    <glyph glyph-name="h" unicode="h" horiz-adv-x="584" 
d="M177 402h2c22 47 82 85 150 85c122 0 177 -87 177 -193v-294h-94v262c0 77 -20 145 -107 145c-74 0 -128 -62 -128 -156v-251h-94v756h94v-354z" />
    <glyph glyph-name="i" unicode="i" horiz-adv-x="259" 
d="M176 474v-474h-94v474h94zM192 645c0 -34 -29 -60 -63 -60s-62 27 -62 60c0 34 28 61 62 61s63 -26 63 -61z" />
    <glyph glyph-name="j" unicode="j" horiz-adv-x="260" 
d="M-31 -234l10 80c12 -3 27 -5 38 -5c57 0 66 44 66 101v532h94v-535c0 -95 -29 -179 -154 -179c-17 0 -39 3 -54 6zM193 645c0 -34 -29 -60 -63 -60c-35 0 -63 27 -63 60c0 34 28 61 63 61c34 0 63 -26 63 -61z" />
    <glyph glyph-name="k" unicode="k" horiz-adv-x="527" 
d="M177 756v-488h3l199 206h126l-222 -215l241 -259h-130l-214 246h-3v-246h-94v756h94z" />
    <glyph glyph-name="l" unicode="l" horiz-adv-x="260" 
d="M177 756v-756h-94v756h94z" />
    <glyph glyph-name="m" unicode="m" horiz-adv-x="887" 
d="M173 396c24 50 79 91 151 91c63 0 118 -28 147 -95c32 61 94 95 161 95c122 0 177 -87 177 -193v-294h-94v263c0 77 -23 145 -105 145c-86 0 -120 -78 -120 -152v-256h-94v282c0 74 -25 126 -100 126c-69 0 -121 -62 -121 -156v-252h-94v372c0 25 -1 71 -4 102h89
c2 -24 4 -58 4 -78h3z" />
    <glyph glyph-name="n" unicode="n" horiz-adv-x="582" 
d="M77 474h89c2 -24 4 -58 4 -78h3c23 51 86 91 154 91c122 0 177 -87 177 -193v-294h-94v263c0 77 -21 145 -108 145c-74 0 -127 -62 -127 -156v-252h-94v372c0 25 -1 71 -4 102z" />
    <glyph glyph-name="o" unicode="o" horiz-adv-x="610" 
d="M561 238c0 -146 -111 -251 -256 -251s-255 105 -255 251s110 249 255 249s256 -103 256 -249zM463 238c0 90 -56 171 -158 171c-101 0 -158 -81 -158 -171s57 -172 158 -172c102 0 158 82 158 172z" />
    <glyph glyph-name="p" unicode="p" horiz-adv-x="634" 
d="M175 71v-311h-94v714h92v-74h3c31 50 93 87 171 87c141 0 237 -109 237 -249c0 -139 -93 -251 -239 -251c-67 0 -132 31 -167 84h-3zM487 238c0 89 -55 171 -158 171c-96 0 -160 -81 -160 -172s64 -171 160 -171c103 0 158 83 158 172z" />
    <glyph glyph-name="q" unicode="q" horiz-adv-x="633" 
d="M458 71h-2c-35 -53 -101 -84 -168 -84c-146 0 -239 112 -239 251c0 140 96 249 238 249c77 0 139 -37 171 -87h3v74h91v-714h-94v311zM147 238c0 -89 54 -172 157 -172c96 0 160 80 160 171s-64 172 -160 172c-103 0 -157 -82 -157 -171z" />
    <glyph glyph-name="r" unicode="r" horiz-adv-x="362" 
d="M81 372c0 25 -1 71 -4 102h89c2 -24 4 -60 4 -80h3c26 55 81 93 145 93c13 0 26 -1 37 -4l-4 -87c-12 3 -28 5 -43 5c-90 0 -133 -73 -133 -152v-249h-94v372z" />
    <glyph glyph-name="s" unicode="s" horiz-adv-x="444" 
d="M402 409l-65 -55c-21 34 -62 59 -110 59c-43 0 -88 -17 -88 -62c0 -40 36 -55 108 -71c90 -20 159 -57 159 -140c0 -112 -93 -153 -189 -153c-72 0 -146 28 -191 85l67 57c25 -37 73 -66 126 -66c47 0 94 17 94 69c0 44 -43 60 -124 79c-63 15 -138 42 -138 131
c0 102 89 145 179 145c67 0 138 -27 172 -78z" />
    <glyph glyph-name="t" unicode="t" horiz-adv-x="329" 
d="M313 474v-77h-126v-247c0 -57 20 -80 67 -80c17 0 39 4 55 12l3 -77c-22 -8 -51 -13 -80 -13c-89 0 -138 50 -138 148v257h-91v77h91v136h93v-136h126z" />
    <glyph glyph-name="u" unicode="u" horiz-adv-x="582" 
d="M504 0h-89c-2 24 -4 58 -4 78h-2c-24 -50 -86 -91 -155 -91c-122 0 -177 87 -177 193v294h94v-262c0 -78 21 -146 108 -146c75 0 127 62 127 156v252h94v-372c0 -25 1 -71 4 -102z" />
    <glyph glyph-name="v" unicode="v" horiz-adv-x="504" 
d="M494 474l-190 -474h-102l-193 474h104l139 -373h2l140 373h100z" />
    <glyph glyph-name="w" unicode="w" horiz-adv-x="773" 
d="M14 474h102l107 -362h2l113 362h99l115 -362h2l107 362h99l-157 -474h-98l-117 356h-2l-116 -356h-98z" />
    <glyph glyph-name="x" unicode="x" horiz-adv-x="511" 
d="M7 0l190 249l-173 225h116l116 -163l117 163h110l-171 -224l191 -250h-117l-132 185l-134 -185h-113z" />
    <glyph glyph-name="y" unicode="y" horiz-adv-x="504" 
d="M114 474l147 -372h2l131 372h100l-230 -586c-31 -79 -71 -128 -164 -128c-20 0 -41 2 -62 7l9 83c15 -5 32 -8 47 -8c49 0 68 28 88 79l30 79l-203 474h105z" />
    <glyph glyph-name="z" unicode="z" horiz-adv-x="462" 
d="M419 474v-77l-270 -318h281v-79h-397v77l268 320h-255v77h373z" />
    <glyph glyph-name="braceleft" unicode="{" horiz-adv-x="315" 
d="M5 251v74c40 0 74 27 74 90v188c0 92 56 129 118 129h68v-69h-51c-44 0 -51 -38 -51 -72v-183c0 -87 -66 -115 -93 -119v-2c27 -3 93 -27 93 -122v-180c0 -34 7 -72 51 -72h51v-69h-68c-62 0 -118 37 -118 129v184c0 67 -34 94 -74 94z" />
    <glyph glyph-name="bar" unicode="|" horiz-adv-x="222" 
d="M70 750h82v-1000h-82v1000z" />
    <glyph glyph-name="braceright" unicode="}" horiz-adv-x="315" 
d="M310 251c-40 0 -74 -27 -74 -94v-184c0 -92 -56 -129 -118 -129h-68v69h52c43 0 50 38 50 72v180c0 95 66 119 94 122v2c-28 4 -94 32 -94 119v183c0 34 -7 72 -50 72h-52v69h68c62 0 118 -37 118 -129v-188c0 -63 34 -90 74 -90v-74z" />
    <glyph glyph-name="asciitilde" unicode="~" horiz-adv-x="666" 
d="M340 346c52 -33 70 -39 99 -39c33 0 63 24 87 68l59 -55c-47 -78 -99 -97 -144 -97c-39 0 -69 9 -116 38c-51 32 -69 38 -98 38c-33 0 -63 -24 -87 -68l-59 55c47 78 99 98 144 98c40 0 70 -9 115 -38z" />
    <glyph glyph-name="exclamdown" unicode="&#xa1;" horiz-adv-x="334" 
d="M216 -221h-99v501h99v-501zM234 427c0 -36 -29 -65 -67 -65s-67 30 -67 66c0 35 30 65 67 65c38 0 67 -31 67 -66z" />
    <glyph glyph-name="cent" unicode="&#xa2;" horiz-adv-x="595" 
d="M299 71v332c-80 -15 -123 -83 -123 -166c0 -82 45 -150 123 -166zM350 404v-334c42 1 80 24 102 53l64 -60c-43 -49 -105 -72 -166 -75v-66h-51v67c-134 13 -216 117 -216 249c0 134 82 231 216 247v65h51v-64c62 -3 124 -25 166 -75l-66 -60c-23 29 -58 51 -100 53z" />
    <glyph glyph-name="sterling" unicode="&#xa3;" horiz-adv-x="595" 
d="M434 397v-72h-166v-241h263v-84h-461v84h100v241h-97v72h97v88c0 107 56 241 229 241c64 0 123 -20 165 -60l-59 -67c-25 28 -64 46 -108 46c-107 0 -129 -100 -129 -166v-82h166z" />
    <glyph glyph-name="fraction" unicode="&#x2044;" horiz-adv-x="100" 
d="M288 707l-432 -739l-66 33l434 739z" />
    <glyph glyph-name="yen" unicode="&#xa5;" horiz-adv-x="595" 
d="M80 228h170v91h-170v66h145l-212 323h115l174 -294l170 294h110l-208 -323h141v-66h-170v-91h170v-66h-170v-162h-95v162h-170v66z" />
    <glyph glyph-name="florin" unicode="&#x192;" horiz-adv-x="595" 
d="M472 423v-73h-129l-62 -319c-19 -100 -65 -170 -171 -170c-32 0 -65 8 -92 24l38 71c14 -9 34 -14 50 -14c57 0 72 50 83 105l58 303h-111v73h125l25 127c17 91 58 170 166 170c39 0 74 -11 106 -30l-40 -71c-17 10 -36 17 -56 17c-62 0 -77 -65 -85 -109l-20 -104h115z
" />
    <glyph glyph-name="section" unicode="&#xa7;" horiz-adv-x="595" 
d="M502 636l-71 -52c-19 35 -59 64 -111 64s-99 -27 -99 -78c0 -54 45 -80 128 -114c94 -39 166 -81 166 -173c0 -60 -38 -109 -85 -130c42 -28 61 -68 61 -120c0 -117 -102 -172 -203 -172c-86 0 -172 37 -213 114l83 46c23 -54 78 -78 130 -78c44 0 105 21 105 84
c0 57 -41 76 -144 120c-86 38 -156 71 -156 161c0 69 45 117 100 139c-36 23 -69 58 -69 117c0 110 99 162 195 162c83 0 150 -35 183 -90zM334 369l-75 33c-33 -9 -74 -32 -74 -80c0 -51 44 -70 95 -94l84 -36c30 10 59 39 59 78c0 55 -44 78 -89 99z" />
    <glyph glyph-name="currency" unicode="&#xa4;" horiz-adv-x="890" 
d="M661 465c31 -41 48 -94 48 -156c0 -63 -18 -118 -51 -161l93 -93c-18 -19 -37 -38 -56 -56c-32 30 -64 62 -96 94c-41 -30 -94 -47 -153 -47c-57 0 -108 16 -154 49c-33 -33 -66 -65 -98 -96c-19 18 -37 37 -56 56c32 32 63 64 95 96c-31 41 -49 95 -49 158
c0 60 17 112 46 154c-31 30 -61 61 -92 92c19 18 38 38 57 56c31 -30 62 -61 93 -92c43 32 97 50 158 50c60 0 114 -17 157 -49c30 31 61 61 91 91c19 -18 39 -38 57 -56zM446 478c-99 0 -163 -77 -163 -169c0 -94 64 -171 163 -171s164 77 164 171c0 92 -65 169 -164 169z
" />
    <glyph glyph-name="quotesingle" unicode="'" horiz-adv-x="262" 
d="M90 458v250h82v-250h-82z" />
    <glyph glyph-name="quotedblleft" unicode="&#x201c;" horiz-adv-x="426" 
d="M42 458l83 250h79l-68 -250h-94zM222 458l83 250h79l-68 -250h-94z" />
    <glyph glyph-name="guillemotleft" unicode="&#xab;" horiz-adv-x="500" 
d="M247 419l-115 -175l116 -175l-62 -43l-146 218l146 217zM450 419l-115 -175l115 -175l-61 -43l-146 218l146 217z" />
    <glyph glyph-name="guilsinglleft" unicode="&#x2039;" horiz-adv-x="298" 
d="M133 244l115 -175l-62 -43l-146 218l146 217l62 -42z" />
    <glyph glyph-name="guilsinglright" unicode="&#x203a;" horiz-adv-x="298" 
d="M166 243l-116 176l62 42l146 -218l-146 -217l-61 43z" />
    <glyph glyph-name="endash" unicode="&#x2013;" horiz-adv-x="400" 
d="M370 282v-75h-340v75h340z" />
    <glyph glyph-name="dagger" unicode="&#x2020;" horiz-adv-x="575" 
d="M332 708v-203h202v-79h-202v-552h-90v552h-201v79h201v203h90z" />
    <glyph glyph-name="daggerdbl" unicode="&#x2021;" horiz-adv-x="575" 
d="M332 708v-188h194v-79h-194v-300h194v-78h-194v-189h-90v189h-194v78h194v300h-194v79h194v188h90z" />
    <glyph glyph-name="periodcentered" unicode="&#xb7;" horiz-adv-x="260" 
d="M198 303c0 -35 -29 -66 -67 -66s-68 30 -68 65c0 36 29 67 68 67c37 0 67 -30 67 -66z" />
    <glyph glyph-name="paragraph" unicode="&#xb6;" horiz-adv-x="600" 
d="M523 708v-834h-78v771h-115v-771h-79v453c-126 0 -212 80 -212 184c0 132 91 197 231 197h253z" />
    <glyph glyph-name="bullet" unicode="&#x2022;" horiz-adv-x="500" 
d="M73 354c0 98 79 177 177 177s177 -79 177 -177s-79 -177 -177 -177s-177 79 -177 177z" />
    <glyph glyph-name="quotesinglbase" unicode="&#x201a;" horiz-adv-x="246" 
d="M204 117l-83 -250h-79l69 250h93z" />
    <glyph glyph-name="quotedblbase" unicode="&#x201e;" horiz-adv-x="426" 
d="M384 117l-83 -250h-79l69 250h93zM204 117l-83 -250h-79l69 250h93z" />
    <glyph glyph-name="quotedblright" unicode="&#x201d;" horiz-adv-x="426" 
d="M384 708l-83 -250h-79l69 250h93zM204 708l-83 -250h-79l69 250h93z" />
    <glyph glyph-name="guillemotright" unicode="&#xbb;" horiz-adv-x="500" 
d="M253 419l61 42l146 -217l-146 -218l-62 43l116 175zM50 419l61 42l146 -217l-146 -218l-61 43l115 175z" />
    <glyph glyph-name="ellipsis" unicode="&#x2026;" horiz-adv-x="1000" 
d="M87 70c0 43 36 78 80 78c43 0 80 -33 80 -76s-36 -78 -80 -78c-42 0 -80 33 -80 76zM420 70c0 43 36 78 80 78c43 0 80 -33 80 -76s-36 -78 -80 -78c-42 0 -80 33 -80 76zM753 70c0 43 36 78 80 78c43 0 80 -33 80 -76s-36 -78 -80 -78c-42 0 -80 33 -80 76z" />
    <glyph glyph-name="perthousand" unicode="&#x2030;" horiz-adv-x="1048" 
d="M39 563c0 88 71 159 159 159c89 0 160 -71 160 -159s-71 -159 -160 -159c-88 0 -159 71 -159 159zM283 563c0 47 -38 84 -85 84c-46 0 -84 -37 -84 -84s38 -85 84 -85c47 0 85 38 85 85zM344 148c0 88 71 159 159 159c89 0 160 -71 160 -159s-71 -159 -160 -159
c-88 0 -159 71 -159 159zM588 148c0 47 -38 84 -85 84c-46 0 -84 -37 -84 -84s38 -85 84 -85c47 0 85 38 85 85zM696 148c0 88 71 159 159 159c89 0 160 -71 160 -159s-71 -159 -160 -159c-88 0 -159 71 -159 159zM940 148c0 47 -38 84 -85 84c-46 0 -84 -37 -84 -84
s38 -85 84 -85c47 0 85 38 85 85zM612 707l-469 -739l-56 32l470 739z" />
    <glyph glyph-name="questiondown" unicode="&#xbf;" horiz-adv-x="500" 
d="M205 251v35h94v-48c0 -70 -27 -107 -73 -149l-37 -35c-29 -25 -51 -53 -51 -99c0 -64 45 -105 109 -105c66 0 109 49 115 110l96 -11c-17 -115 -104 -185 -217 -185c-111 0 -203 65 -203 185c0 85 39 123 96 171c54 46 71 65 71 131zM180 427c0 35 29 66 67 66
c37 0 67 -30 67 -65c0 -36 -29 -66 -67 -66s-67 29 -67 65z" />
    <glyph glyph-name="grave" unicode="`" 
d="M102 564l-136 144h113l100 -144h-77z" />
    <glyph glyph-name="acute" unicode="&#xb4;" 
d="M284 708l-136 -144h-77l100 144h113z" />
    <glyph glyph-name="circumflex" unicode="&#x2c6;" 
d="M179 708l112 -144h-91l-75 99l-76 -99h-90l112 144h108z" />
    <glyph glyph-name="tilde" unicode="&#x2dc;" 
d="M7 572h-55c10 58 34 116 102 116c25 0 52 -9 75 -20c26 -12 49 -22 67 -22c29 0 41 23 48 46h54c-10 -58 -34 -116 -102 -116c-25 0 -53 10 -77 21c-24 12 -46 21 -65 21c-28 0 -41 -23 -47 -46z" />
    <glyph glyph-name="macron" unicode="&#xaf;" 
d="M273 664v-67h-296v67h296z" />
    <glyph glyph-name="breve" unicode="&#x2d8;" 
d="M229 708h55c-8 -91 -71 -138 -159 -138c-89 0 -153 46 -159 138h56c9 -51 53 -72 103 -72c54 0 92 18 104 72z" />
    <glyph glyph-name="dotaccent" unicode="&#x2d9;" 
d="M188 645c0 -34 -29 -60 -63 -60s-62 27 -62 60c0 34 28 61 62 61s63 -26 63 -61z" />
    <glyph glyph-name="dieresis" unicode="&#xa8;" 
d="M-34 645c0 32 26 61 62 61c35 0 62 -27 62 -61c0 -33 -27 -60 -62 -60c-36 0 -62 29 -62 60zM160 645c0 32 26 61 62 61c35 0 62 -27 62 -61c0 -33 -27 -60 -62 -60c-36 0 -62 29 -62 60z" />
    <glyph glyph-name="ring" unicode="&#x2da;" 
d="M226 653c0 -57 -45 -99 -101 -99c-55 0 -100 42 -100 98c0 57 44 99 100 99s101 -42 101 -98zM184 653c0 32 -27 56 -59 56c-31 0 -58 -24 -58 -56s27 -57 58 -57c32 0 59 24 59 57z" />
    <glyph glyph-name="cedilla" unicode="&#xb8;" 
d="M167 0l-46 -69c9 2 17 2 27 2c45 0 94 -19 94 -78c0 -70 -70 -90 -127 -90c-34 0 -75 9 -103 23l20 42c24 -11 51 -17 77 -17c22 0 61 8 61 42c0 29 -27 38 -54 38c-12 0 -28 -3 -41 -7l-20 20l62 94h50z" />
    <glyph glyph-name="hungarumlaut" unicode="&#x2dd;" 
d="M176 708l-137 -144h-77l100 144h114zM358 708l-136 -144h-77l100 144h113z" />
    <glyph glyph-name="ogonek" unicode="&#x2db;" 
d="M184 -144l22 -45c-26 -22 -60 -37 -95 -37c-50 0 -97 33 -97 87c0 57 53 112 95 145h54c-39 -38 -80 -83 -80 -125c0 -26 22 -47 48 -47c19 0 39 9 53 22z" />
    <glyph glyph-name="caron" unicode="&#x2c7;" 
d="M290 708l-112 -144h-107l-111 144h90l76 -99l76 99h88z" />
    <glyph glyph-name="emdash" unicode="&#x2014;" horiz-adv-x="600" 
d="M570 282v-75h-540v75h540z" />
    <glyph glyph-name="AE" unicode="&#xc6;" horiz-adv-x="1015" 
d="M623 324v-236h346v-88h-445v192h-283l-121 -192h-118l457 708h495v-87h-331v-212h310v-85h-310zM293 278h231v343h-14z" />
    <glyph glyph-name="ordfeminine" unicode="&#xaa;" horiz-adv-x="380" 
d="M247 431v37h-1c-15 -25 -48 -44 -89 -44c-45 0 -106 21 -106 88c0 84 106 96 195 96v7c0 35 -29 52 -65 52c-30 0 -59 -14 -78 -32l-36 43c32 30 77 45 120 45c102 0 127 -63 127 -120v-172h-67zM246 550v10h-16c-45 0 -108 -5 -108 -47c0 -28 25 -36 50 -36
c48 0 74 28 74 73z" />
    <glyph glyph-name="Lslash" unicode="&#x141;" horiz-adv-x="511" 
d="M185 708v-323l211 184v-90l-211 -184v-207h316v-88h-415v221l-76 -66v91l76 65v397h99z" />
    <glyph glyph-name="Oslash" unicode="&#xd8;" horiz-adv-x="849" 
d="M778 703l-79 -86c64 -65 101 -155 101 -262c0 -218 -160 -371 -376 -373c-93 0 -175 28 -238 79l-81 -87l-43 39l81 88c-59 63 -93 153 -93 254c0 221 159 371 374 371c88 0 168 -25 230 -71l81 87zM211 174l381 411c-41 35 -99 55 -168 55c-167 0 -270 -128 -270 -285
c0 -71 19 -133 57 -181zM634 544l-383 -414c44 -39 102 -61 173 -61c166 0 272 127 272 286c0 72 -21 139 -62 189z" />
    <glyph glyph-name="OE" unicode="&#x152;" horiz-adv-x="1003" 
d="M432 708h510v-87h-331v-212h310v-85h-310v-236h346v-88h-525c-181 0 -382 112 -382 354c0 251 201 354 382 354zM452 621c-171 0 -296 -92 -296 -267c0 -169 125 -266 296 -266h60v533h-60z" />
    <glyph glyph-name="ordmasculine" unicode="&#xba;" horiz-adv-x="380" 
d="M342 574c0 -86 -64 -148 -152 -148s-152 62 -152 148c0 87 64 148 152 148s152 -61 152 -148zM267 574c0 44 -27 82 -77 82s-76 -38 -76 -82c0 -43 26 -82 76 -82s77 39 77 82z" />
    <glyph glyph-name="ae" unicode="&#xe6;" horiz-adv-x="877" 
d="M374 209h-24c-117 0 -208 -9 -208 -76c0 -55 48 -72 98 -72c88 0 134 48 134 123v25zM462 279h272c0 75 -45 134 -128 134c-77 0 -140 -60 -144 -134zM419 85c-38 -71 -115 -97 -201 -97c-75 0 -172 30 -172 133c0 140 134 158 330 158v11c0 89 -47 121 -117 121
c-53 0 -103 -23 -135 -55l-50 60c46 44 117 71 194 71c107 0 150 -51 166 -88c37 52 89 88 173 88c136 0 221 -95 221 -246c0 -10 0 -21 -1 -32h-364c3 -81 69 -144 149 -144c62 0 107 32 134 72l63 -53c-49 -66 -116 -97 -197 -97c-84 0 -156 36 -193 98z" />
    <glyph glyph-name="dotlessi" unicode="&#x131;" horiz-adv-x="259" 
d="M176 474v-474h-94v474h94z" />
    <glyph glyph-name="lslash" unicode="&#x142;" horiz-adv-x="260" 
d="M176 756v-276l75 76v-90l-75 -75v-391h-93v314l-75 -76v92l75 75v351h93z" />
    <glyph glyph-name="oslash" unicode="&#xf8;" horiz-adv-x="610" 
d="M568 471l-67 -70c37 -42 60 -99 60 -164c0 -146 -111 -250 -256 -250c-62 0 -117 19 -159 51l-68 -69l-36 36l66 68c-37 43 -58 99 -58 164c0 146 110 250 255 250c61 0 116 -18 158 -51l68 70zM172 136l234 241c-24 22 -62 35 -101 35c-104 0 -161 -85 -161 -175
c0 -37 9 -76 28 -101zM438 338l-235 -240c26 -22 62 -35 101 -35c106 0 163 84 163 175c0 36 -10 75 -29 100z" />
    <glyph glyph-name="oe" unicode="&#x153;" horiz-adv-x="975" 
d="M698 487c141 0 228 -95 228 -246c0 -10 0 -21 -1 -32h-377c5 -82 72 -144 155 -144c65 0 112 32 138 72l65 -53c-51 -66 -119 -97 -204 -97c-88 0 -159 40 -199 102c-41 -62 -113 -102 -201 -102c-145 0 -252 105 -252 251s107 249 252 249c88 0 161 -41 202 -103
c41 61 109 103 194 103zM463 238c0 90 -57 171 -158 171c-102 0 -159 -81 -159 -171s57 -172 159 -172c101 0 158 82 158 172zM549 279h283c-2 75 -47 134 -134 134c-81 0 -143 -60 -149 -134z" />
    <glyph glyph-name="germandbls" unicode="&#xdf;" horiz-adv-x="612" 
d="M174 521v-521h-94v525c0 121 57 243 227 243c114 0 203 -75 203 -186c0 -74 -42 -132 -111 -154v-2c101 -15 167 -95 167 -204c0 -139 -94 -234 -243 -234c-22 0 -48 3 -71 8v79c15 -4 42 -7 59 -7c95 0 158 60 158 158c0 105 -74 155 -173 155h-11v82h11
c70 0 120 38 120 110c0 65 -44 112 -113 112c-106 0 -129 -93 -129 -164z" />
    <glyph glyph-name="ydieresis.sc" horiz-adv-x="473" 
d="M284 216v-216h-96v216l-194 320h108l137 -243l137 243h103zM81 675c0 32 26 61 62 61c35 0 62 -27 62 -61c0 -33 -27 -60 -62 -60c-36 0 -62 29 -62 60zM275 675c0 32 26 61 62 61c35 0 62 -27 62 -61c0 -33 -27 -60 -62 -60c-36 0 -62 29 -62 60z" />
    <glyph glyph-name="n.sc" horiz-adv-x="618" 
d="M200 536l239 -406h2v406h93v-536h-114l-241 404h-2v-404h-93v536h116z" />
    <glyph glyph-name="multiply" unicode="&#xd7;" horiz-adv-x="666" 
d="M162 531l171 -171l170 171l57 -56l-170 -171l172 -173l-59 -58l-171 170l-170 -170l-58 58l172 170l-171 174z" />
    <glyph glyph-name="greaterequal" unicode="&#x2265;" horiz-adv-x="666" 
d="M589 309l-512 -179v88l397 134l-397 137v89l512 -183v-86zM589 8h-512v84h512v-84z" />
    <glyph glyph-name="uhungarumlaut" unicode="&#x171;" horiz-adv-x="582" 
d="M504 0h-89c-2 24 -4 58 -4 78h-2c-24 -50 -86 -91 -155 -91c-122 0 -177 87 -177 193v294h94v-262c0 -78 21 -146 108 -146c75 0 127 62 127 156v252h94v-372c0 -25 1 -71 4 -102zM368 708l-137 -144h-77l100 144h114zM550 708l-136 -144h-77l100 144h113z" />
    <glyph glyph-name="ograve" unicode="&#xf2;" horiz-adv-x="610" 
d="M561 238c0 -146 -111 -251 -256 -251s-255 105 -255 251s110 249 255 249s256 -103 256 -249zM463 238c0 90 -56 171 -158 171c-101 0 -158 -81 -158 -171s57 -172 158 -172c102 0 158 82 158 172zM283 564l-136 144h113l100 -144h-77z" />
    <glyph glyph-name="umacron.sc" horiz-adv-x="595" 
d="M297 -14c-139 0 -219 92 -219 214v336h96v-329c0 -71 33 -135 123 -135s124 64 124 135v329h96v-336c0 -122 -81 -214 -220 -214zM447 694v-67h-296v67h296z" />
    <glyph glyph-name="radical" unicode="&#x221a;" horiz-adv-x="515" 
d="M526 786l-211 -1000h-86l-158 328l-48 -23l-33 70l124 58l144 -302l178 869h90z" />
    <glyph glyph-name="notequal" unicode="&#x2260;" horiz-adv-x="666" 
d="M552 108h-286l-77 -149l-73 38l58 111h-134v84h177l63 123h-240v84h284l77 149l74 -37l-59 -112h136v-84h-179l-64 -123h243v-84z" />
    <glyph glyph-name="omacron" unicode="&#x14d;" horiz-adv-x="610" 
d="M561 238c0 -146 -111 -251 -256 -251s-255 105 -255 251s110 249 255 249s256 -103 256 -249zM463 238c0 90 -56 171 -158 171c-101 0 -158 -81 -158 -171s57 -172 158 -172c102 0 158 82 158 172zM454 664v-67h-296v67h296z" />
    <glyph glyph-name="ohungarumlaut.sc" horiz-adv-x="681" 
d="M629 269c0 -165 -124 -283 -290 -283c-163 0 -287 118 -287 283c0 168 124 281 287 281c166 0 290 -113 290 -281zM526 269c0 111 -73 196 -187 196c-113 0 -184 -85 -184 -196c0 -113 72 -198 184 -198c114 0 187 85 187 198zM418 738l-137 -144h-77l100 144h114z
M600 738l-136 -144h-77l100 144h113z" />
    <glyph glyph-name="iogonek.sc" horiz-adv-x="264" 
d="M201 -150l22 -45c-26 -22 -60 -37 -95 -37c-50 0 -97 33 -97 87c0 57 53 112 95 145h-42v536h96v-536c-39 -38 -80 -83 -80 -125c0 -26 22 -47 48 -47c19 0 39 9 53 22z" />
    <glyph glyph-name="ohungarumlaut" unicode="&#x151;" horiz-adv-x="610" 
d="M561 238c0 -146 -111 -251 -256 -251s-255 105 -255 251s110 249 255 249s256 -103 256 -249zM463 238c0 90 -56 171 -158 171c-101 0 -158 -81 -158 -171s57 -172 158 -172c102 0 158 82 158 172zM386 708l-137 -144h-77l100 144h114zM568 708l-136 -144h-77l100 144
h113z" />
    <glyph glyph-name="uniF8FF" unicode="&#xf8ff;" horiz-adv-x="512" 
d="M222 117h56v67h-56v-67zM225 234h46c0 35 2 59 6 72s18 30 43 52c51 47 63 77 63 120c0 79 -53 131 -124 131c-72 0 -126 -42 -135 -137l50 -8c8 68 41 95 82 95s76 -37 76 -85c0 -25 -7 -42 -50 -83c-22 -22 -37 -42 -46 -59s-13 -44 -13 -81zM462 50h-412v617h412v-617
zM512 718h-512v-718h512v718z" />
    <glyph glyph-name="p.sc" horiz-adv-x="505" 
d="M84 0v536h186c123 0 199 -59 199 -164c0 -109 -80 -169 -202 -169h-87v-203h-96zM180 456v-175h81c68 0 112 29 112 89c0 56 -39 86 -108 86h-85z" />
    <glyph glyph-name="macron.sc" 
d="M273 694v-67h-296v67h296z" />
    <glyph glyph-name="otilde" unicode="&#xf5;" horiz-adv-x="610" 
d="M561 238c0 -146 -111 -251 -256 -251s-255 105 -255 251s110 249 255 249s256 -103 256 -249zM463 238c0 90 -56 171 -158 171c-101 0 -158 -81 -158 -171s57 -172 158 -172c102 0 158 82 158 172zM188 572h-55c10 58 34 116 102 116c25 0 52 -9 75 -20
c26 -12 49 -22 67 -22c29 0 41 23 48 46h54c-10 -58 -34 -116 -102 -116c-25 0 -53 10 -77 21c-24 12 -46 21 -65 21c-28 0 -41 -23 -47 -46z" />
    <glyph glyph-name="ugrave.sc" horiz-adv-x="595" 
d="M297 -14c-139 0 -219 92 -219 214v336h96v-329c0 -71 33 -135 123 -135s124 64 124 135v329h96v-336c0 -122 -81 -214 -220 -214zM270 594l-136 144h113l100 -144h-77z" />
    <glyph glyph-name="ntilde" unicode="&#xf1;" horiz-adv-x="582" 
d="M77 474h89c2 -24 4 -58 4 -78h3c23 51 86 91 154 91c122 0 177 -87 177 -193v-294h-94v263c0 77 -21 145 -108 145c-74 0 -127 -62 -127 -156v-252h-94v372c0 25 -1 71 -4 102zM176 572h-55c10 58 34 116 102 116c25 0 52 -9 75 -20c26 -12 49 -22 67 -22
c29 0 41 23 48 46h54c-10 -58 -34 -116 -102 -116c-25 0 -53 10 -77 21c-24 12 -46 21 -65 21c-28 0 -41 -23 -47 -46z" />
    <glyph glyph-name="odieresis" unicode="&#xf6;" horiz-adv-x="610" 
d="M561 238c0 -146 -111 -251 -256 -251s-255 105 -255 251s110 249 255 249s256 -103 256 -249zM463 238c0 90 -56 171 -158 171c-101 0 -158 -81 -158 -171s57 -172 158 -172c102 0 158 82 158 172zM147 645c0 32 26 61 62 61c35 0 62 -27 62 -61c0 -33 -27 -60 -62 -60
c-36 0 -62 29 -62 60zM341 645c0 32 26 61 62 61c35 0 62 -27 62 -61c0 -33 -27 -60 -62 -60c-36 0 -62 29 -62 60z" />
    <glyph glyph-name="jcircumflex" unicode="&#x135;" horiz-adv-x="260" 
d="M-31 -234l10 80c12 -3 27 -5 38 -5c57 0 66 44 66 101v532h94v-535c0 -95 -29 -179 -154 -179c-17 0 -39 3 -54 6zM182 708l112 -144h-91l-75 99l-76 -99h-90l112 144h108z" />
    <glyph glyph-name="oe.sc" horiz-adv-x="808" 
d="M481 238v-157h272v-81h-399c-163 0 -293 103 -293 268c0 168 130 268 293 268h387v-80h-260v-141h246v-77h-246zM165 268c0 -112 78 -182 189 -182h31v364h-31c-112 0 -189 -72 -189 -182z" />
    <glyph glyph-name="ncaron" unicode="&#x148;" horiz-adv-x="582" 
d="M77 474h89c2 -24 4 -58 4 -78h3c23 51 86 91 154 91c122 0 177 -87 177 -193v-294h-94v263c0 77 -21 145 -108 145c-74 0 -127 -62 -127 -156v-252h-94v372c0 25 -1 71 -4 102zM457 708l-112 -144h-107l-111 144h90l76 -99l76 99h88z" />
    <glyph glyph-name="idieresis" unicode="&#xef;" horiz-adv-x="259" 
d="M176 474v-474h-94v474h94zM-29 645c0 32 26 61 62 61c35 0 62 -27 62 -61c0 -33 -27 -60 -62 -60c-36 0 -62 29 -62 60zM165 645c0 32 26 61 62 61c35 0 62 -27 62 -61c0 -33 -27 -60 -62 -60c-36 0 -62 29 -62 60z" />
    <glyph glyph-name="udieresis.sc" horiz-adv-x="595" 
d="M297 -14c-139 0 -219 92 -219 214v336h96v-329c0 -71 33 -135 123 -135s124 64 124 135v329h96v-336c0 -122 -81 -214 -220 -214zM142 675c0 32 26 61 62 61c35 0 62 -27 62 -61c0 -33 -27 -60 -62 -60c-36 0 -62 29 -62 60zM336 675c0 32 26 61 62 61
c35 0 62 -27 62 -61c0 -33 -27 -60 -62 -60c-36 0 -62 29 -62 60z" />
    <glyph glyph-name="ocircumflex" unicode="&#xf4;" horiz-adv-x="610" 
d="M561 238c0 -146 -111 -251 -256 -251s-255 105 -255 251s110 249 255 249s256 -103 256 -249zM463 238c0 90 -56 171 -158 171c-101 0 -158 -81 -158 -171s57 -172 158 -172c102 0 158 82 158 172zM360 708l112 -144h-91l-75 99l-76 -99h-90l112 144h108z" />
    <glyph glyph-name="onehalf" unicode="&#xbd;" horiz-adv-x="870" 
d="M247 708v-426h-78v332l-68 -59l-46 51l125 102h67zM811 69v-69h-283v67l164 165c21 22 40 46 40 78c0 34 -26 55 -60 55c-36 0 -62 -27 -68 -68l-74 10c10 73 68 126 142 126c73 0 138 -41 138 -123c0 -57 -34 -94 -70 -129l-114 -112h185zM677 708l-450 -743l-58 31
l451 743z" />
    <glyph glyph-name="grave.sc" 
d="M102 594l-136 144h113l100 -144h-77z" />
    <glyph glyph-name="hungarumlaut.cap" 
d="M176 908l-137 -144h-77l100 144h114zM358 908l-136 -144h-77l100 144h113z" />
    <glyph glyph-name="utilde" unicode="&#x169;" horiz-adv-x="582" 
d="M504 0h-89c-2 24 -4 58 -4 78h-2c-24 -50 -86 -91 -155 -91c-122 0 -177 87 -177 193v294h94v-262c0 -78 21 -146 108 -146c75 0 127 62 127 156v252h94v-372c0 -25 1 -71 4 -102zM171 572h-55c10 58 34 116 102 116c25 0 52 -9 75 -20c26 -12 49 -22 67 -22
c29 0 41 23 48 46h54c-10 -58 -34 -116 -102 -116c-25 0 -53 10 -77 21c-24 12 -46 21 -65 21c-28 0 -41 -23 -47 -46z" />
    <glyph glyph-name="otilde.sc" horiz-adv-x="681" 
d="M629 269c0 -165 -124 -283 -290 -283c-163 0 -287 118 -287 283c0 168 124 281 287 281c166 0 290 -113 290 -281zM526 269c0 111 -73 196 -187 196c-113 0 -184 -85 -184 -196c0 -113 72 -198 184 -198c114 0 187 85 187 198zM222 602h-55c10 58 34 116 102 116
c25 0 52 -9 75 -20c26 -12 49 -22 67 -22c29 0 41 23 48 46h54c-10 -58 -34 -116 -102 -116c-25 0 -53 10 -77 21c-24 12 -46 21 -65 21c-28 0 -41 -23 -47 -46z" />
    <glyph glyph-name="product" unicode="&#x220f;" horiz-adv-x="726" 
d="M660 -214h-90v917h-413v-917h-91v1000h594v-1000z" />
    <glyph glyph-name="twosuperior" unicode="&#xb2;" horiz-adv-x="385" 
d="M333 355v-69h-283v67l164 165c21 22 40 46 40 78c0 34 -26 55 -60 55c-36 0 -62 -27 -68 -68l-74 10c10 73 68 126 142 126c73 0 138 -41 138 -123c0 -57 -34 -94 -70 -129l-114 -112h185z" />
    <glyph glyph-name="imacron.sc" horiz-adv-x="264" 
d="M180 536v-536h-96v536h96zM280 694v-67h-296v67h296z" />
    <glyph glyph-name="lacute" unicode="&#x13a;" horiz-adv-x="260" 
d="M177 756v-756h-94v756h94zM296 936l-136 -144h-77l100 144h113z" />
    <glyph glyph-name="ocircumflex.sc" horiz-adv-x="681" 
d="M629 269c0 -165 -124 -283 -290 -283c-163 0 -287 118 -287 283c0 168 124 281 287 281c166 0 290 -113 290 -281zM526 269c0 111 -73 196 -187 196c-113 0 -184 -85 -184 -196c0 -113 72 -198 184 -198c114 0 187 85 187 198zM394 738l112 -144h-91l-75 99l-76 -99h-90
l112 144h108z" />
    <glyph glyph-name="perthousand.sc" horiz-adv-x="1020" 
d="M45 412c0 81 61 132 140 132c81 0 141 -51 141 -132c0 -79 -60 -134 -141 -134c-79 0 -140 55 -140 134zM126 412c0 -38 24 -63 59 -63c36 0 60 25 60 63c0 37 -23 62 -60 62c-35 0 -59 -25 -59 -62zM385 122c0 81 61 132 140 132c81 0 141 -51 141 -132
c0 -79 -60 -134 -141 -134c-79 0 -140 55 -140 134zM466 122c0 -38 24 -63 59 -63c36 0 60 25 60 63c0 37 -23 62 -60 62c-35 0 -59 -25 -59 -62zM700 122c0 81 61 132 140 132c81 0 141 -51 141 -132c0 -79 -60 -134 -141 -134c-79 0 -140 55 -140 134zM781 122
c0 -38 24 -63 59 -63c36 0 60 25 60 63c0 37 -23 62 -60 62c-35 0 -59 -25 -59 -62zM550 528l-327 -558l-64 36l328 559z" />
    <glyph glyph-name="napostrophe.sc" horiz-adv-x="683" 
d="M265 536l239 -406h2v406h93v-536h-114l-241 404h-2v-404h-93v536h116zM123 536l-78 -190h-79l64 190h93z" />
    <glyph glyph-name="ij.sc" horiz-adv-x="670" 
d="M180 536v-536h-96v536h96zM278 112l90 26c13 -48 39 -66 66 -66c41 0 62 30 62 99v365h96v-367c0 -91 -39 -183 -158 -183c-82 0 -139 55 -156 126z" />
    <glyph glyph-name="uni03BC" unicode="&#x3bc;" horiz-adv-x="578" 
d="M502 0h-89c-2 24 -4 58 -4 78h-2c-24 -50 -86 -91 -155 -91c-33 0 -66 12 -83 30v-257h-94v714h94v-262c0 -78 21 -146 108 -146c75 0 127 62 127 156v252h94v-372c0 -25 1 -71 4 -102z" />
    <glyph glyph-name="percent.sc" horiz-adv-x="706" 
d="M45 412c0 81 61 132 140 132c81 0 141 -51 141 -132c0 -79 -60 -134 -141 -134c-79 0 -140 55 -140 134zM126 412c0 -38 24 -63 59 -63c36 0 60 25 60 63c0 37 -23 62 -60 62c-35 0 -59 -25 -59 -62zM384 122c0 81 61 132 140 132c81 0 141 -51 141 -132
c0 -79 -60 -134 -141 -134c-79 0 -140 55 -140 134zM465 122c0 -38 24 -63 59 -63c36 0 60 25 60 63c0 37 -23 62 -60 62c-35 0 -59 -25 -59 -62zM550 528l-327 -558l-64 36l328 559z" />
    <glyph glyph-name="obreve.sc" horiz-adv-x="681" 
d="M629 269c0 -165 -124 -283 -290 -283c-163 0 -287 118 -287 283c0 168 124 281 287 281c166 0 290 -113 290 -281zM526 269c0 111 -73 196 -187 196c-113 0 -184 -85 -184 -196c0 -113 72 -198 184 -198c114 0 187 85 187 198zM444 738h55c-8 -91 -71 -138 -159 -138
c-89 0 -153 46 -159 138h56c9 -51 53 -72 103 -72c54 0 92 18 104 72z" />
    <glyph glyph-name="summation" unicode="&#x2211;" horiz-adv-x="626" 
d="M601 -214h-576v72l316 433l-303 422v73h551v-83h-432l292 -412l-311 -423h463v-82z" />
    <glyph glyph-name="racute" unicode="&#x155;" horiz-adv-x="362" 
d="M81 372c0 25 -1 71 -4 102h89c2 -24 4 -60 4 -80h3c26 55 81 93 145 93c13 0 26 -1 37 -4l-4 -87c-12 3 -28 5 -43 5c-90 0 -133 -73 -133 -152v-249h-94v372zM317 708l-136 -144h-77l100 144h113z" />
    <glyph glyph-name="two.onum" horiz-adv-x="540" 
d="M479 83v-83h-411v85l57 38c168 112 252 166 252 250c0 55 -37 95 -114 95c-57 0 -106 -31 -135 -83l-71 50c44 71 122 115 208 115c131 0 208 -65 208 -174c0 -115 -110 -185 -228 -263l-42 -27v-3h276z" />
    <glyph glyph-name="trademark" unicode="&#x2122;" horiz-adv-x="1000" 
d="M393 708v-72h-127v-340h-81v340h-129v72h337zM937 708v-412h-82v307h-2l-119 -307h-55l-120 307h-2v-307h-81v412h118l113 -292l113 292h117z" />
    <glyph glyph-name="Uacute" unicode="&#xda;" horiz-adv-x="712" 
d="M356 -18c-187 0 -275 135 -275 280v446h99v-440c0 -97 44 -197 176 -197s176 100 176 197v440h99v-446c0 -145 -88 -280 -275 -280zM508 908l-137 -144h-76l99 144h114z" />
    <glyph glyph-name="lcommaaccent" unicode="&#x13c;" horiz-adv-x="260" 
d="M177 756v-756h-94v756h94zM193 -45l-78 -190h-79l64 190h93z" />
    <glyph glyph-name="imacron" unicode="&#x12b;" horiz-adv-x="259" 
d="M176 474v-474h-94v474h94zM278 664v-67h-296v67h296z" />
    <glyph glyph-name="nine.sc" horiz-adv-x="504" 
d="M348 374c0 59 -43 96 -97 96c-55 0 -94 -39 -94 -97c0 -56 37 -98 95 -98c56 0 96 42 96 99zM285 211l-1 1c-16 -7 -37 -11 -52 -11c-97 0 -170 65 -170 169c0 109 81 180 189 180c110 0 191 -73 191 -178c0 -57 -25 -114 -60 -169l-127 -203h-112z" />
    <glyph glyph-name="uni021B" unicode="&#x21b;" horiz-adv-x="329" 
d="M313 474v-77h-126v-247c0 -57 20 -80 67 -80c17 0 39 4 55 12l3 -77c-22 -8 -51 -13 -80 -13c-89 0 -138 50 -138 148v257h-91v77h91v136h93v-136h126zM261 -45l-78 -190h-79l64 190h93z" />
    <glyph glyph-name="oacute.sc" horiz-adv-x="681" 
d="M629 269c0 -165 -124 -283 -290 -283c-163 0 -287 118 -287 283c0 168 124 281 287 281c166 0 290 -113 290 -281zM526 269c0 111 -73 196 -187 196c-113 0 -184 -85 -184 -196c0 -113 72 -198 184 -198c114 0 187 85 187 198zM501 738l-136 -144h-77l100 144h113z" />
    <glyph glyph-name="idotaccent.sc" horiz-adv-x="264" 
d="M180 536v-536h-96v536h96zM194 675c0 -34 -29 -60 -63 -60s-62 27 -62 60c0 34 28 61 62 61s63 -26 63 -61z" />
    <glyph glyph-name="Aring" unicode="&#xc5;" horiz-adv-x="711" 
d="M186 174l-71 -174h-110l307 708h90l304 -708h-112l-72 174h-336zM354 593l-133 -332h265zM459 853c0 -57 -45 -99 -101 -99c-55 0 -100 42 -100 98c0 57 44 99 100 99s101 -42 101 -98zM418 853c0 33 -27 58 -60 58s-59 -26 -59 -59c0 -32 26 -57 59 -57s60 25 60 58z
" />
    <glyph glyph-name="oacute" unicode="&#xf3;" horiz-adv-x="610" 
d="M561 238c0 -146 -111 -251 -256 -251s-255 105 -255 251s110 249 255 249s256 -103 256 -249zM463 238c0 90 -56 171 -158 171c-101 0 -158 -81 -158 -171s57 -172 158 -172c102 0 158 82 158 172zM461 708l-136 -144h-77l100 144h113z" />
    <glyph glyph-name="ncommaaccent" unicode="&#x146;" horiz-adv-x="582" 
d="M77 474h89c2 -24 4 -58 4 -78h3c23 51 86 91 154 91c122 0 177 -87 177 -193v-294h-94v263c0 77 -21 145 -108 145c-74 0 -127 -62 -127 -156v-252h-94v372c0 25 -1 71 -4 102zM355 -45l-78 -190h-79l64 190h93z" />
    <glyph glyph-name="nacute" unicode="&#x144;" horiz-adv-x="582" 
d="M77 474h89c2 -24 4 -58 4 -78h3c23 51 86 91 154 91c122 0 177 -87 177 -193v-294h-94v263c0 77 -21 145 -108 145c-74 0 -127 -62 -127 -156v-252h-94v372c0 25 -1 71 -4 102zM446 708l-136 -144h-77l100 144h113z" />
    <glyph glyph-name="ucircumflex.sc" horiz-adv-x="595" 
d="M297 -14c-139 0 -219 92 -219 214v336h96v-329c0 -71 33 -135 123 -135s124 64 124 135v329h96v-336c0 -122 -81 -214 -220 -214zM355 738l112 -144h-91l-75 99l-76 -99h-90l112 144h108z" />
    <glyph glyph-name="macron.cap" 
d="M273 864v-67h-296v67h296z" />
    <glyph glyph-name="oslash.sc" horiz-adv-x="681" 
d="M629 529l-69 -71c43 -48 69 -113 69 -189c0 -166 -124 -283 -290 -283c-70 0 -132 21 -181 58l-73 -75l-36 36l72 74c-44 48 -69 115 -69 190c0 169 124 281 287 281c71 0 134 -21 183 -58l70 72zM525 269c0 44 -12 85 -34 118l-268 -276c30 -25 70 -39 116 -39
c113 0 186 85 186 197zM156 269c0 -46 12 -87 33 -119l267 275c-30 24 -70 39 -117 39c-112 0 -183 -85 -183 -195z" />
    <glyph glyph-name="iogonek" unicode="&#x12f;" horiz-adv-x="259" 
d="M193 -144l22 -45c-26 -22 -60 -37 -95 -37c-50 0 -97 33 -97 87s47 106 87 139h-28v474h94v-474h-11c-37 -36 -73 -79 -73 -119c0 -26 22 -47 48 -47c19 0 39 9 53 22zM192 645c0 -34 -29 -60 -63 -60s-62 27 -62 60c0 34 28 61 62 61s63 -26 63 -61z" />
    <glyph glyph-name="yacute.sc" horiz-adv-x="473" 
d="M284 216v-216h-96v216l-194 320h108l137 -243l137 243h103zM397 738l-136 -144h-77l100 144h113z" />
    <glyph glyph-name="hbar" unicode="&#x127;" horiz-adv-x="584" 
d="M29 633h54v123h94v-123h164v-63h-164v-168h2c22 47 82 85 150 85c122 0 178 -87 178 -193v-294h-95v262c0 77 -20 145 -107 145c-74 0 -128 -62 -128 -156v-251h-94v570h-54v63z" />
    <glyph glyph-name="uhungarumlaut.sc" horiz-adv-x="595" 
d="M297 -14c-139 0 -219 92 -219 214v336h96v-329c0 -71 33 -135 123 -135s124 64 124 135v329h96v-336c0 -122 -81 -214 -220 -214zM364 738l-137 -144h-77l100 144h114zM546 738l-136 -144h-77l100 144h113z" />
    <glyph glyph-name="omacron.sc" horiz-adv-x="681" 
d="M629 269c0 -165 -124 -283 -290 -283c-163 0 -287 118 -287 283c0 168 124 281 287 281c166 0 290 -113 290 -281zM526 269c0 111 -73 196 -187 196c-113 0 -184 -85 -184 -196c0 -113 72 -198 184 -198c114 0 187 85 187 198zM487 694v-67h-296v67h296z" />
    <glyph glyph-name="z.sc" horiz-adv-x="496" 
d="M446 536v-80l-281 -375h285v-81h-404v79l282 377h-278v80h396z" />
    <glyph glyph-name="questiondown.sc" horiz-adv-x="440" 
d="M177 342v21h92v-26c0 -36 -11 -68 -38 -92l-24 -21c-40 -35 -55 -57 -55 -90c0 -30 19 -64 67 -64c38 0 65 23 73 71l93 -12c-14 -93 -79 -143 -172 -143c-111 0 -159 73 -159 147c0 47 21 88 70 127c43 34 53 52 53 82zM155 478c0 36 27 64 65 64c37 0 66 -27 66 -63
c0 -35 -28 -64 -66 -64c-37 0 -65 28 -65 63z" />
    <glyph glyph-name="idieresis.sc" horiz-adv-x="264" 
d="M180 536v-536h-96v536h96zM-26 675c0 32 26 61 62 61c35 0 62 -27 62 -61c0 -33 -27 -60 -62 -60c-36 0 -62 29 -62 60zM168 675c0 32 26 61 62 61c35 0 62 -27 62 -61c0 -33 -27 -60 -62 -60c-36 0 -62 29 -62 60z" />
    <glyph glyph-name="one.sc" horiz-adv-x="504" 
d="M333 536v-536h-95v417l-92 -79l-56 65l161 133h82z" />
    <glyph glyph-name="question.sc" horiz-adv-x="440" 
d="M263 194v-21h-92v26c0 36 11 68 38 92l24 21c40 35 55 57 55 90c0 30 -19 64 -67 64c-38 0 -65 -23 -73 -71l-93 12c14 93 79 143 172 143c111 0 159 -73 159 -147c0 -47 -21 -88 -70 -127c-43 -34 -53 -52 -53 -82zM285 58c0 -36 -27 -64 -65 -64c-37 0 -66 27 -66 63
c0 35 28 64 66 64c37 0 65 -28 65 -63z" />
    <glyph glyph-name="wcircumflex" unicode="&#x175;" horiz-adv-x="773" 
d="M14 474h102l107 -362h2l113 362h99l115 -362h2l107 362h99l-157 -474h-98l-117 356h-2l-116 -356h-98zM440 708l112 -144h-91l-75 99l-76 -99h-90l112 144h108z" />
    <glyph glyph-name="iacute.sc" horiz-adv-x="264" 
d="M180 536v-536h-96v536h96zM300 738l-136 -144h-77l100 144h113z" />
    <glyph glyph-name="three.sc" horiz-adv-x="504" 
d="M188 241v77h36c54 0 101 20 101 78c0 43 -36 73 -79 73c-35 0 -67 -20 -83 -64l-85 31c29 73 92 114 171 114c93 0 170 -52 170 -149c0 -55 -32 -99 -87 -119v-1c62 -16 100 -65 100 -127c0 -109 -89 -168 -184 -168c-86 0 -154 38 -188 128l88 30c19 -51 51 -76 99 -76
c46 0 91 28 91 86c0 61 -51 87 -115 87h-35z" />
    <glyph glyph-name="Ubreve" unicode="&#x16c;" horiz-adv-x="712" 
d="M356 -18c-187 0 -275 135 -275 280v446h99v-440c0 -97 44 -197 176 -197s176 100 176 197v440h99v-446c0 -145 -88 -280 -275 -280zM461 908h55c-8 -91 -71 -138 -159 -138c-89 0 -153 46 -159 138h56c9 -51 53 -72 103 -72c54 0 92 18 104 72z" />
    <glyph glyph-name="ordfeminine.sc" horiz-adv-x="380" 
d="M30 431l127 293h69l126 -293h-80l-25 62h-114l-24 -62h-79zM152 544h75l-37 96z" />
    <glyph glyph-name="Ccircumflex" unicode="&#x108;" horiz-adv-x="708" 
d="M614 164l79 -54c-55 -75 -146 -128 -270 -128c-217 0 -373 155 -373 373c0 221 162 371 377 371c97 0 202 -38 254 -110l-78 -60c-34 48 -103 83 -176 83c-164 0 -269 -129 -269 -284c0 -159 103 -285 266 -285c79 0 148 33 190 94zM477 908l112 -144h-91l-75 99l-76 -99
h-90l112 144h108z" />
    <glyph glyph-name="l.sc" horiz-adv-x="420" 
d="M180 536v-455h230v-81h-326v536h96z" />
    <glyph glyph-name="igrave" unicode="&#xec;" horiz-adv-x="259" 
d="M176 474v-474h-94v474h94zM100 564l-136 144h113l100 -144h-77z" />
    <glyph glyph-name="Cdotaccent" unicode="&#x10a;" horiz-adv-x="708" 
d="M614 164l79 -54c-55 -75 -146 -128 -270 -128c-217 0 -373 155 -373 373c0 221 162 371 377 371c97 0 202 -38 254 -110l-78 -60c-34 48 -103 83 -176 83c-164 0 -269 -129 -269 -284c0 -159 103 -285 266 -285c79 0 148 33 190 94zM486 845c0 -34 -29 -60 -63 -60
s-62 27 -62 60c0 34 28 61 62 61s63 -26 63 -61z" />
    <glyph glyph-name="pi" unicode="&#x3c0;" horiz-adv-x="578" 
d="M545 12c-25 -12 -47 -19 -74 -19c-84 0 -93 56 -93 125v275h-191v-393h-86v393h-70v81h511v-81h-78v-270c0 -29 2 -56 38 -56c15 0 30 4 43 10v-65z" />
    <glyph glyph-name="umacron" unicode="&#x16b;" horiz-adv-x="582" 
d="M504 0h-89c-2 24 -4 58 -4 78h-2c-24 -50 -86 -91 -155 -91c-122 0 -177 87 -177 193v294h94v-262c0 -78 21 -146 108 -146c75 0 127 62 127 156v252h94v-372c0 -25 1 -71 4 -102zM437 664v-67h-296v67h296z" />
    <glyph glyph-name="Utilde" unicode="&#x168;" horiz-adv-x="712" 
d="M356 -18c-187 0 -275 135 -275 280v446h99v-440c0 -97 44 -197 176 -197s176 100 176 197v440h99v-446c0 -145 -88 -280 -275 -280zM234 772h-55c10 58 34 116 102 116c25 0 52 -9 75 -20c26 -12 49 -22 67 -22c29 0 41 23 48 46h54c-10 -58 -34 -116 -102 -116
c-25 0 -53 10 -77 21c-24 12 -46 21 -65 21c-28 0 -41 -23 -47 -46z" />
    <glyph glyph-name="scommaaccent.sc" horiz-adv-x="465" 
d="M408 483l-61 -64c-23 29 -63 49 -105 49c-48 0 -87 -26 -87 -72c0 -49 36 -63 97 -83c75 -24 158 -58 158 -160c0 -114 -86 -167 -189 -167c-75 0 -146 31 -187 83l66 61c32 -43 82 -60 123 -60c50 0 93 23 93 71c0 53 -43 74 -117 97c-70 22 -139 53 -139 151
c0 110 94 161 188 161c66 0 123 -26 160 -67zM281 -45l-78 -190h-79l64 190h93z" />
    <glyph glyph-name="lessequal" unicode="&#x2264;" horiz-adv-x="666" 
d="M589 130l-512 179v86l512 183v-89l-397 -137l397 -134v-88zM589 8h-512v84h512v-84z" />
    <glyph glyph-name="uni00A0" unicode="&#xa0;" 
 />
    <glyph glyph-name="uring.sc" horiz-adv-x="595" 
d="M297 -14c-139 0 -219 92 -219 214v336h96v-329c0 -71 33 -135 123 -135s124 64 124 135v329h96v-336c0 -122 -81 -214 -220 -214zM400 683c0 -57 -45 -99 -101 -99c-55 0 -100 42 -100 98c0 57 44 99 100 99s101 -42 101 -98zM358 683c0 32 -27 56 -59 56
c-31 0 -58 -24 -58 -56s27 -57 58 -57c32 0 59 24 59 57z" />
    <glyph glyph-name="Wcircumflex" unicode="&#x174;" horiz-adv-x="988" 
d="M117 708l156 -564h2l166 564h109l165 -564h2l156 564h105l-208 -708h-103l-172 569h-2l-172 -569h-103l-208 708h107zM550 908l112 -144h-91l-75 99l-76 -99h-90l112 144h108z" />
    <glyph glyph-name="i.sc" horiz-adv-x="264" 
d="M180 536v-536h-96v536h96z" />
    <glyph glyph-name="onesuperior" unicode="&#xb9;" horiz-adv-x="385" 
d="M247 708v-426h-78v332l-68 -59l-46 51l125 102h67z" />
    <glyph glyph-name="threequarters" unicode="&#xbe;" horiz-adv-x="870" 
d="M746 426v-268h59v-67h-59v-91h-71v91h-189v64l177 271h83zM675 332h-3l-109 -174h112v174zM677 708l-450 -743l-58 31l451 743zM143 476v62h27c42 0 80 16 80 63c0 32 -28 53 -61 53c-29 0 -54 -20 -66 -51l-68 23c24 59 76 94 136 94c75 0 135 -38 135 -116
c0 -45 -28 -78 -62 -93c42 -13 73 -52 73 -101c0 -87 -72 -130 -146 -130c-68 0 -125 31 -151 105l71 22c12 -36 39 -60 78 -60c36 0 73 20 73 65c0 50 -49 64 -92 64h-27z" />
    <glyph glyph-name="uni03A9" unicode="&#x3a9;" horiz-adv-x="752" 
d="M693 0h-264v185c112 21 171 112 171 221c0 131 -97 232 -229 232c-133 0 -231 -101 -231 -233c0 -111 58 -197 169 -220v-185h-263v77h190v62c-123 36 -190 146 -190 271c0 181 147 311 324 311c178 0 323 -127 323 -309c0 -127 -64 -237 -190 -273v-62h190v-77z" />
    <glyph glyph-name="Ucircumflex" unicode="&#xdb;" horiz-adv-x="712" 
d="M356 -18c-187 0 -275 135 -275 280v446h99v-440c0 -97 44 -197 176 -197s176 100 176 197v440h99v-446c0 -145 -88 -280 -275 -280zM408 908l112 -144h-91l-75 99l-76 -99h-90l112 144h108z" />
    <glyph glyph-name="hcircumflex.sc" horiz-adv-x="607" 
d="M84 0v536h96v-220h247v220h96v-536h-96v237h-247v-237h-96zM359 738l112 -144h-91l-75 99l-76 -99h-90l112 144h108z" />
    <glyph glyph-name="zcaron" unicode="&#x17e;" horiz-adv-x="462" 
d="M419 474v-77l-270 -318h281v-79h-397v77l268 320h-255v77h373zM402 708l-112 -144h-107l-111 144h90l76 -99l76 99h88z" />
    <glyph glyph-name="ograve.sc" horiz-adv-x="681" 
d="M629 269c0 -165 -124 -283 -290 -283c-163 0 -287 118 -287 283c0 168 124 281 287 281c166 0 290 -113 290 -281zM526 269c0 111 -73 196 -187 196c-113 0 -184 -85 -184 -196c0 -113 72 -198 184 -198c114 0 187 85 187 198zM314 594l-136 144h113l100 -144h-77z" />
    <glyph glyph-name="Yacute" unicode="&#xdd;" horiz-adv-x="624" 
d="M362 306v-306h-100v306l-265 402h122l196 -320l197 320h115zM482 908l-137 -144h-76l99 144h114z" />
    <glyph glyph-name="ycircumflex.sc" horiz-adv-x="473" 
d="M284 216v-216h-96v216l-194 320h108l137 -243l137 243h103zM293 738l112 -144h-91l-75 99l-76 -99h-90l112 144h108z" />
    <glyph glyph-name="o.sc" horiz-adv-x="681" 
d="M629 269c0 -165 -124 -283 -290 -283c-163 0 -287 118 -287 283c0 168 124 281 287 281c166 0 290 -113 290 -281zM526 269c0 111 -73 196 -187 196c-113 0 -184 -85 -184 -196c0 -113 72 -198 184 -198c114 0 187 85 187 198z" />
    <glyph glyph-name="tbar" unicode="&#x167;" horiz-adv-x="329" 
d="M12 304h82v93h-91v77h91v136h93v-136h126v-77h-126v-93h112v-63h-112v-91c0 -57 20 -80 67 -80c17 0 39 4 55 12l3 -77c-22 -8 -51 -13 -80 -13c-89 0 -138 50 -138 148v101h-82v63z" />
    <glyph glyph-name="icircumflex" unicode="&#xee;" horiz-adv-x="259" 
d="M176 474v-474h-94v474h94zM184 708l112 -144h-91l-75 99l-76 -99h-90l112 144h108z" />
    <glyph glyph-name="itilde" unicode="&#x129;" horiz-adv-x="259" 
d="M176 474v-474h-94v474h94zM13 572h-55c10 58 34 116 102 116c25 0 52 -9 75 -20c26 -12 49 -22 67 -22c29 0 41 23 48 46h54c-10 -58 -34 -116 -102 -116c-25 0 -53 10 -77 21c-24 12 -46 21 -65 21c-28 0 -41 -23 -47 -46z" />
    <glyph glyph-name="scircumflex.sc" horiz-adv-x="465" 
d="M408 483l-61 -64c-23 29 -63 49 -105 49c-48 0 -87 -26 -87 -72c0 -49 36 -63 97 -83c75 -24 158 -58 158 -160c0 -114 -86 -167 -189 -167c-75 0 -146 31 -187 83l66 61c32 -43 82 -60 123 -60c50 0 93 23 93 71c0 53 -43 74 -117 97c-70 22 -139 53 -139 151
c0 110 94 161 188 161c66 0 123 -26 160 -67zM302 738l112 -144h-91l-75 99l-76 -99h-90l112 144h108z" />
    <glyph glyph-name="j.sc" horiz-adv-x="407" 
d="M15 112l90 26c13 -48 39 -66 66 -66c41 0 62 30 62 99v365h96v-367c0 -91 -39 -183 -158 -183c-82 0 -139 55 -156 126z" />
    <glyph glyph-name="scommaaccent" unicode="&#x219;" horiz-adv-x="444" 
d="M402 409l-65 -55c-21 34 -62 59 -110 59c-43 0 -88 -17 -88 -62c0 -40 36 -55 108 -71c90 -20 159 -57 159 -140c0 -112 -93 -153 -189 -153c-72 0 -146 28 -191 85l67 57c25 -37 73 -66 126 -66c47 0 94 17 94 69c0 44 -43 60 -124 79c-63 15 -138 42 -138 131
c0 102 89 145 179 145c67 0 138 -27 172 -78zM282 -45l-78 -190h-79l64 190h93z" />
    <glyph glyph-name="Atilde" unicode="&#xc3;" horiz-adv-x="711" 
d="M186 174l-71 -174h-110l307 708h90l304 -708h-112l-72 174h-336zM354 593l-133 -332h265zM240 772h-55c10 58 34 116 102 116c25 0 52 -9 75 -20c26 -12 49 -22 67 -22c29 0 41 23 48 46h54c-10 -58 -34 -116 -102 -116c-25 0 -53 10 -77 21c-24 12 -46 21 -65 21
c-28 0 -41 -23 -47 -46z" />
    <glyph glyph-name="igrave.sc" horiz-adv-x="264" 
d="M180 536v-536h-96v536h96zM103 594l-136 144h113l100 -144h-77z" />
    <glyph glyph-name="aring.sc" horiz-adv-x="550" 
d="M155 124l-51 -124h-101l228 536h89l227 -536h-104l-50 124h-238zM274 426l-90 -225h179zM376 683c0 -57 -45 -99 -101 -99c-55 0 -100 42 -100 98c0 57 44 99 100 99s101 -42 101 -98zM334 683c0 32 -27 56 -59 56c-31 0 -58 -24 -58 -56s27 -57 58 -57c32 0 59 24 59 57
z" />
    <glyph glyph-name="gdotaccent" unicode="&#x121;" horiz-adv-x="632" 
d="M58 -154l60 73c41 -46 108 -77 173 -77c125 0 167 77 167 175v61h-2c-35 -53 -100 -82 -167 -82c-145 0 -239 108 -239 244s93 247 238 247c68 0 135 -30 171 -89h2v76h91v-450c0 -138 -65 -264 -262 -264c-82 0 -173 32 -232 86zM147 242c0 -87 58 -167 157 -167
c97 0 161 73 161 167c0 90 -65 167 -161 167c-99 0 -157 -76 -157 -167zM380 645c0 -34 -29 -60 -63 -60s-62 27 -62 60c0 34 28 61 62 61s63 -26 63 -61z" />
    <glyph glyph-name="ucircumflex" unicode="&#xfb;" horiz-adv-x="582" 
d="M504 0h-89c-2 24 -4 58 -4 78h-2c-24 -50 -86 -91 -155 -91c-122 0 -177 87 -177 193v294h94v-262c0 -78 21 -146 108 -146c75 0 127 62 127 156v252h94v-372c0 -25 1 -71 4 -102zM345 708l112 -144h-91l-75 99l-76 -99h-90l112 144h108z" />
    <glyph glyph-name="ring.sc" 
d="M226 683c0 -57 -45 -99 -101 -99c-55 0 -100 42 -100 98c0 57 44 99 100 99s101 -42 101 -98zM184 683c0 32 -27 56 -59 56c-31 0 -58 -24 -58 -56s27 -57 58 -57c32 0 59 24 59 57z" />
    <glyph glyph-name="ugrave" unicode="&#xf9;" horiz-adv-x="582" 
d="M504 0h-89c-2 24 -4 58 -4 78h-2c-24 -50 -86 -91 -155 -91c-122 0 -177 87 -177 193v294h94v-262c0 -78 21 -146 108 -146c75 0 127 62 127 156v252h94v-372c0 -25 1 -71 4 -102zM267 564l-136 144h113l100 -144h-77z" />
    <glyph glyph-name="Tcommaaccent" unicode="&#x162;" horiz-adv-x="569" 
d="M334 621v-621h-99v621h-227v87h553v-87h-227zM347 -45l-78 -190h-79l64 190h93z" />
    <glyph glyph-name="Zcaron" unicode="&#x17d;" horiz-adv-x="592" 
d="M553 708v-87l-400 -533h406v-88h-526v87l399 534h-391v87h512zM463 908l-112 -144h-107l-111 144h90l76 -99l76 99h88z" />
    <glyph glyph-name="aacute" unicode="&#xe1;" horiz-adv-x="542" 
d="M376 294v13c0 70 -47 104 -117 104c-53 0 -103 -23 -135 -55l-50 60c46 44 117 71 194 71c136 0 198 -81 198 -186v-207c0 -32 2 -71 7 -94h-85c-5 21 -8 46 -8 68h-3c-34 -51 -88 -80 -159 -80c-75 0 -172 37 -172 146c0 143 170 160 330 160zM376 226h-23
c-93 0 -211 -10 -211 -90c0 -56 50 -74 97 -74c88 0 137 59 137 139v25zM440 708l-136 -144h-77l100 144h113z" />
    <glyph glyph-name="hungarumlaut.sc" 
d="M176 738l-137 -144h-77l100 144h114zM358 738l-136 -144h-77l100 144h113z" />
    <glyph glyph-name="Ocircumflex" unicode="&#xd4;" horiz-adv-x="849" 
d="M800 355c0 -218 -160 -373 -376 -373c-215 0 -374 155 -374 373c0 221 159 371 374 371c216 0 376 -150 376 -371zM693 355c0 155 -104 284 -269 284c-163 0 -267 -129 -267 -284c0 -158 105 -284 267 -284c164 0 269 126 269 284zM478 908l112 -144h-91l-75 99l-76 -99
h-90l112 144h108z" />
    <glyph glyph-name="Oacute" unicode="&#xd3;" horiz-adv-x="849" 
d="M800 355c0 -218 -160 -373 -376 -373c-215 0 -374 155 -374 373c0 221 159 371 374 371c216 0 376 -150 376 -371zM693 355c0 155 -104 284 -269 284c-163 0 -267 -129 -267 -284c0 -158 105 -284 267 -284c164 0 269 126 269 284zM584 908l-137 -144h-76l99 144h114z
" />
    <glyph glyph-name="sterling.sc" horiz-adv-x="504" 
d="M355 307v-70h-114v-156h187v-81h-347v81h65v156h-62v70h62v61c0 99 64 180 178 180c55 0 95 -17 130 -47l-57 -64c-24 25 -48 32 -75 32c-47 0 -81 -35 -81 -106v-56h114z" />
    <glyph glyph-name="nacute.sc" horiz-adv-x="618" 
d="M200 536l239 -406h2v406h93v-536h-114l-241 404h-2v-404h-93v536h116zM451 738l-136 -144h-77l100 144h113z" />
    <glyph glyph-name="uring" unicode="&#x16f;" horiz-adv-x="582" 
d="M504 0h-89c-2 24 -4 58 -4 78h-2c-24 -50 -86 -91 -155 -91c-122 0 -177 87 -177 193v294h94v-262c0 -78 21 -146 108 -146c75 0 127 62 127 156v252h94v-372c0 -25 1 -71 4 -102zM389 653c0 -57 -45 -99 -101 -99c-55 0 -100 42 -100 98c0 57 44 99 100 99
s101 -42 101 -98zM347 653c0 32 -27 56 -59 56c-31 0 -58 -24 -58 -56s27 -57 58 -57c32 0 59 24 59 57z" />
    <glyph glyph-name="uacute" unicode="&#xfa;" horiz-adv-x="582" 
d="M504 0h-89c-2 24 -4 58 -4 78h-2c-24 -50 -86 -91 -155 -91c-122 0 -177 87 -177 193v294h94v-262c0 -78 21 -146 108 -146c75 0 127 62 127 156v252h94v-372c0 -25 1 -71 4 -102zM452 708l-136 -144h-77l100 144h113z" />
    <glyph glyph-name="ubreve.sc" horiz-adv-x="595" 
d="M297 -14c-139 0 -219 92 -219 214v336h96v-329c0 -71 33 -135 123 -135s124 64 124 135v329h96v-336c0 -122 -81 -214 -220 -214zM401 738h55c-8 -91 -71 -138 -159 -138c-89 0 -153 46 -159 138h56c9 -51 53 -72 103 -72c54 0 92 18 104 72z" />
    <glyph glyph-name="seven.sc" horiz-adv-x="504" 
d="M426 536v-76l-211 -460h-109l219 451h-253v85h354z" />
    <glyph glyph-name="odieresis.sc" horiz-adv-x="681" 
d="M629 269c0 -165 -124 -283 -290 -283c-163 0 -287 118 -287 283c0 168 124 281 287 281c166 0 290 -113 290 -281zM526 269c0 111 -73 196 -187 196c-113 0 -184 -85 -184 -196c0 -113 72 -198 184 -198c114 0 187 85 187 198zM180 675c0 32 26 61 62 61
c35 0 62 -27 62 -61c0 -33 -27 -60 -62 -60c-36 0 -62 29 -62 60zM374 675c0 32 26 61 62 61c35 0 62 -27 62 -61c0 -33 -27 -60 -62 -60c-36 0 -62 29 -62 60z" />
    <glyph glyph-name="zcaron.sc" horiz-adv-x="496" 
d="M446 536v-80l-281 -375h285v-81h-404v79l282 377h-278v80h396zM414 738l-112 -144h-107l-111 144h90l76 -99l76 99h88z" />
    <glyph glyph-name="obreve" unicode="&#x14f;" horiz-adv-x="610" 
d="M561 238c0 -146 -111 -251 -256 -251s-255 105 -255 251s110 249 255 249s256 -103 256 -249zM463 238c0 90 -56 171 -158 171c-101 0 -158 -81 -158 -171s57 -172 158 -172c102 0 158 82 158 172zM410 708h55c-8 -91 -71 -138 -159 -138c-89 0 -153 46 -159 138h56
c9 -51 53 -72 103 -72c54 0 92 18 104 72z" />
    <glyph glyph-name="nine.onum" horiz-adv-x="609" 
d="M451 318c0 83 -59 150 -147 150c-87 0 -146 -63 -146 -151c0 -85 57 -148 145 -148c89 0 148 62 148 149zM236 -184l-76 53c91 67 186 163 237 252l-3 2c-25 -20 -66 -31 -113 -31c-124 0 -221 93 -221 222c0 141 105 236 244 236c141 0 245 -93 245 -246
c0 -159 -155 -365 -313 -488z" />
    <glyph glyph-name="uni02C9" unicode="&#x2c9;" 
d="M273 864v-67h-296v67h296z" />
    <glyph glyph-name="germandbls.sc" horiz-adv-x="930" 
d="M408 481l-61 -64c-23 29 -63 49 -105 49c-48 0 -87 -26 -87 -70c0 -49 36 -63 97 -83c75 -24 158 -58 158 -160c0 -114 -86 -167 -189 -167c-75 0 -146 31 -187 83l66 61c32 -43 82 -60 123 -60c50 0 93 23 93 71c0 53 -43 74 -117 97c-70 22 -139 53 -139 151
c0 109 94 159 188 159c66 0 123 -26 160 -67zM873 481l-61 -64c-23 29 -63 49 -105 49c-48 0 -87 -26 -87 -70c0 -49 36 -63 97 -83c75 -24 158 -58 158 -160c0 -114 -86 -167 -189 -167c-75 0 -146 31 -187 83l66 61c32 -43 82 -60 123 -60c50 0 93 23 93 71
c0 53 -43 74 -117 97c-70 22 -139 53 -139 151c0 109 94 159 188 159c66 0 123 -26 160 -67z" />
    <glyph glyph-name="mu" unicode="&#xb5;" horiz-adv-x="578" 
d="M502 0h-89c-2 24 -4 58 -4 78h-2c-24 -50 -86 -91 -155 -91c-33 0 -66 12 -83 30v-257h-94v714h94v-262c0 -78 21 -146 108 -146c75 0 127 62 127 156v252h94v-372c0 -25 1 -71 4 -102z" />
    <glyph glyph-name="Racute" unicode="&#x154;" horiz-adv-x="614" 
d="M185 315v-315h-99v708h227c137 0 252 -52 252 -196c0 -104 -71 -170 -172 -187l198 -325h-120l-180 315h-106zM185 624v-226h114c93 0 166 29 166 114s-73 112 -159 112h-121zM435 908l-137 -144h-76l99 144h114z" />
    <glyph glyph-name="aacute.sc" horiz-adv-x="550" 
d="M155 124l-51 -124h-101l228 536h89l227 -536h-104l-50 124h-238zM274 426l-90 -225h179zM447 738l-136 -144h-77l100 144h113z" />
    <glyph glyph-name="Dcaron" unicode="&#x10e;" horiz-adv-x="761" 
d="M86 0v708h243c181 0 382 -103 382 -354c0 -242 -201 -354 -382 -354h-243zM185 622v-535h124c171 0 296 98 296 267c0 175 -125 268 -296 268h-124zM509 908l-112 -144h-107l-111 144h90l76 -99l76 99h88z" />
    <glyph glyph-name="plusminus" unicode="&#xb1;" horiz-adv-x="666" 
d="M70 338v81h223v150h81v-150h222v-81h-222v-147h-81v147h-223zM70 40v81h526v-81h-526z" />
    <glyph glyph-name="abreve" unicode="&#x103;" horiz-adv-x="542" 
d="M376 294v13c0 70 -47 104 -117 104c-53 0 -103 -23 -135 -55l-50 60c46 44 117 71 194 71c136 0 198 -81 198 -186v-207c0 -32 2 -71 7 -94h-85c-5 21 -8 46 -8 68h-3c-34 -51 -88 -80 -159 -80c-75 0 -172 37 -172 146c0 143 170 160 330 160zM376 226h-23
c-93 0 -211 -10 -211 -90c0 -56 50 -74 97 -74c88 0 137 59 137 139v25zM373 708h55c-8 -91 -71 -138 -159 -138c-89 0 -153 46 -159 138h56c9 -51 53 -72 103 -72c54 0 92 18 104 72z" />
    <glyph glyph-name="q.sc" horiz-adv-x="687" 
d="M653 81v-81h-318c-167 0 -283 105 -283 275c0 161 121 275 283 275s282 -109 282 -271c0 -87 -37 -153 -94 -195v-3h130zM155 275c0 -112 73 -194 180 -194c108 0 181 82 181 194c0 107 -74 191 -181 191c-105 0 -180 -84 -180 -191z" />
    <glyph glyph-name="Aogonek" unicode="&#x104;" horiz-adv-x="711" 
d="M671 -144l22 -45c-26 -22 -60 -37 -95 -37c-50 0 -97 33 -97 87c0 56 50 110 91 142l-70 171h-336l-71 -174h-110l307 708h90l304 -708h-63c-37 -36 -73 -79 -73 -119c0 -26 22 -47 48 -47c19 0 39 9 53 22zM354 593l-133 -332h265z" />
    <glyph glyph-name="lozenge" unicode="&#x25ca;" horiz-adv-x="593" 
d="M511 356l-174 -391h-82l-173 391l173 391h82zM424 356l-128 305l-127 -305l127 -305z" />
    <glyph glyph-name="exclamdown.sc" horiz-adv-x="320" 
d="M208 0h-96v363h96v-363zM226 477c0 -35 -29 -64 -66 -64s-66 30 -66 65s30 64 66 64c37 0 66 -30 66 -65z" />
    <glyph glyph-name="zdotaccent" unicode="&#x17c;" horiz-adv-x="462" 
d="M419 474v-77l-270 -318h281v-79h-397v77l268 320h-255v77h373zM301 645c0 -34 -29 -60 -63 -60s-62 27 -62 60c0 34 28 61 62 61s63 -26 63 -61z" />
    <glyph glyph-name="jcircumflex.sc" horiz-adv-x="407" 
d="M15 112l90 26c13 -48 39 -66 66 -66c41 0 62 30 62 99v365h96v-367c0 -91 -39 -183 -158 -183c-82 0 -139 55 -156 126zM336 738l112 -144h-91l-75 99l-76 -99h-90l112 144h108z" />
    <glyph glyph-name="Eacute" unicode="&#xc9;" horiz-adv-x="601" 
d="M185 324v-236h370v-88h-469v708h454v-87h-355v-212h334v-85h-334zM475 908l-137 -144h-76l99 144h114z" />
    <glyph glyph-name="Ydieresis" unicode="&#x178;" horiz-adv-x="624" 
d="M362 306v-306h-100v306l-265 402h122l196 -320l197 320h115zM156 845c0 32 26 61 62 61c35 0 62 -27 62 -61c0 -33 -27 -60 -62 -60c-36 0 -62 29 -62 60zM350 845c0 32 26 61 62 61c35 0 62 -27 62 -61c0 -33 -27 -60 -62 -60c-36 0 -62 29 -62 60z" />
    <glyph glyph-name="zacute" unicode="&#x17a;" horiz-adv-x="462" 
d="M419 474v-77l-270 -318h281v-79h-397v77l268 320h-255v77h373zM377 708l-136 -144h-77l100 144h113z" />
    <glyph glyph-name="Zacute" unicode="&#x179;" horiz-adv-x="592" 
d="M553 708v-87l-400 -533h406v-88h-526v87l399 534h-391v87h512zM439 908l-137 -144h-76l99 144h114z" />
    <glyph glyph-name="minus" unicode="&#x2212;" horiz-adv-x="666" 
d="M596 344v-82h-526v82h526z" />
    <glyph glyph-name="uogonek" unicode="&#x173;" horiz-adv-x="582" 
d="M489 -144l22 -45c-26 -22 -60 -37 -95 -37c-50 0 -97 33 -97 87c0 57 53 112 95 145c-2 23 -3 53 -3 72h-2c-24 -50 -86 -91 -155 -91c-122 0 -177 87 -177 193v294h94v-262c0 -78 21 -146 108 -146c75 0 127 62 127 156v252h94v-372c0 -25 1 -71 4 -102h-43
c-37 -36 -73 -79 -73 -119c0 -26 22 -47 48 -47c19 0 39 9 53 22z" />
    <glyph glyph-name="Dcroat" unicode="&#x110;" horiz-adv-x="761" 
d="M82 0v335h-69v70h69v303h258c181 0 366 -116 366 -354c0 -239 -200 -354 -374 -354h-250zM182 335v-245h117c186 0 301 105 301 264s-106 264 -291 264h-127v-213h237v-70h-237z" />
    <glyph glyph-name="lacute.sc" horiz-adv-x="420" 
d="M180 536v-455h230v-81h-326v536h96zM305 738l-136 -144h-77l100 144h113z" />
    <glyph glyph-name="uni2215" unicode="&#x2215;" horiz-adv-x="100" 
d="M288 707l-432 -739l-66 33l434 739z" />
    <glyph glyph-name="Uogonek" unicode="&#x172;" horiz-adv-x="712" 
d="M448 -144l22 -45c-26 -22 -60 -37 -95 -37c-50 0 -97 33 -97 87c0 45 33 89 67 122c-180 5 -264 136 -264 279v446h99v-440c0 -97 44 -197 176 -197s176 100 176 197v440h99v-446c0 -131 -72 -255 -225 -276c-31 -33 -59 -70 -59 -105c0 -26 22 -47 48 -47
c19 0 39 9 53 22z" />
    <glyph glyph-name="ecaron" unicode="&#x11b;" horiz-adv-x="573" 
d="M146 279h282c-2 75 -46 134 -133 134c-81 0 -143 -60 -149 -134zM523 241c0 -10 0 -21 -1 -32h-376c3 -81 71 -144 154 -144c64 0 111 32 138 72l66 -53c-51 -66 -120 -97 -204 -97c-144 0 -250 100 -250 249c0 148 106 251 245 251c140 0 228 -95 228 -246zM461 708
l-112 -144h-107l-111 144h90l76 -99l76 99h88z" />
    <glyph glyph-name="Amacron" unicode="&#x100;" horiz-adv-x="711" 
d="M186 174l-71 -174h-110l307 708h90l304 -708h-112l-72 174h-336zM354 593l-133 -332h265zM502 864v-67h-296v67h296z" />
    <glyph glyph-name="zacute.sc" horiz-adv-x="496" 
d="M446 536v-80l-281 -375h285v-81h-404v79l282 377h-278v80h396zM380 738l-136 -144h-77l100 144h113z" />
    <glyph glyph-name="Odieresis" unicode="&#xd6;" horiz-adv-x="849" 
d="M800 355c0 -218 -160 -373 -376 -373c-215 0 -374 155 -374 373c0 221 159 371 374 371c216 0 376 -150 376 -371zM693 355c0 155 -104 284 -269 284c-163 0 -267 -129 -267 -284c0 -158 105 -284 267 -284c164 0 269 126 269 284zM265 845c0 32 26 61 62 61
c35 0 62 -27 62 -61c0 -33 -27 -60 -62 -60c-36 0 -62 29 -62 60zM459 845c0 32 26 61 62 61c35 0 62 -27 62 -61c0 -33 -27 -60 -62 -60c-36 0 -62 29 -62 60z" />
    <glyph glyph-name="six.onum" horiz-adv-x="609" 
d="M158 213c0 -83 59 -150 147 -150c87 0 146 63 146 151c0 85 -57 148 -145 148c-89 0 -148 -62 -148 -149zM373 715l76 -53c-91 -67 -186 -163 -237 -252l3 -2c25 20 66 31 113 31c124 0 221 -93 221 -222c0 -141 -105 -236 -244 -236c-141 0 -245 93 -245 246
c0 159 155 365 313 488z" />
    <glyph glyph-name="approxequal" unicode="&#x2248;" horiz-adv-x="666" 
d="M599 440c-8 -79 -46 -155 -137 -155c-41 0 -92 18 -140 36c-48 17 -93 35 -125 35c-41 0 -65 -38 -71 -74h-59c9 77 47 156 136 156c43 0 90 -17 136 -35c47 -17 93 -35 132 -35c42 0 63 34 70 72h58zM599 240c-8 -79 -46 -155 -137 -155c-41 0 -92 18 -140 36
c-48 17 -93 35 -125 35c-41 0 -65 -38 -71 -74h-59c9 77 47 156 136 156c43 0 90 -17 136 -35c47 -17 93 -35 132 -35c42 0 63 34 70 72h58z" />
    <glyph glyph-name="Uring" unicode="&#x16e;" horiz-adv-x="712" 
d="M356 -18c-187 0 -275 135 -275 280v446h99v-440c0 -97 44 -197 176 -197s176 100 176 197v440h99v-446c0 -145 -88 -280 -275 -280zM453 853c0 -57 -45 -99 -101 -99c-55 0 -100 42 -100 98c0 57 44 99 100 99s101 -42 101 -98zM412 853c0 33 -27 58 -60 58
s-59 -26 -59 -59c0 -32 26 -57 59 -57s60 25 60 58z" />
    <glyph glyph-name="k.sc" horiz-adv-x="543" 
d="M180 536v-229h2l219 229h128l-251 -247l265 -289h-131l-230 265h-2v-265h-96v536h96z" />
    <glyph glyph-name="tcommaaccent.sc" horiz-adv-x="442" 
d="M268 456v-456h-96v456h-164v80h426v-80h-166zM284 -45l-78 -190h-79l64 190h93z" />
    <glyph glyph-name="udieresis" unicode="&#xfc;" horiz-adv-x="582" 
d="M504 0h-89c-2 24 -4 58 -4 78h-2c-24 -50 -86 -91 -155 -91c-122 0 -177 87 -177 193v294h94v-262c0 -78 21 -146 108 -146c75 0 127 62 127 156v252h94v-372c0 -25 1 -71 4 -102zM131 645c0 32 26 61 62 61c35 0 62 -27 62 -61c0 -33 -27 -60 -62 -60
c-36 0 -62 29 -62 60zM325 645c0 32 26 61 62 61c35 0 62 -27 62 -61c0 -33 -27 -60 -62 -60c-36 0 -62 29 -62 60z" />
    <glyph glyph-name="scircumflex" unicode="&#x15d;" horiz-adv-x="444" 
d="M402 409l-65 -55c-21 34 -62 59 -110 59c-43 0 -88 -17 -88 -62c0 -40 36 -55 108 -71c90 -20 159 -57 159 -140c0 -112 -93 -153 -189 -153c-72 0 -146 28 -191 85l67 57c25 -37 73 -66 126 -66c47 0 94 17 94 69c0 44 -43 60 -124 79c-63 15 -138 42 -138 131
c0 102 89 145 179 145c67 0 138 -27 172 -78zM287 708l112 -144h-91l-75 99l-76 -99h-90l112 144h108z" />
    <glyph glyph-name="r.sc" horiz-adv-x="525" 
d="M180 226v-226h-96v536h191c107 0 196 -36 196 -149c0 -78 -48 -129 -117 -147l139 -240h-111l-125 226h-77zM180 456v-152h83c59 0 111 20 111 80c0 57 -49 72 -105 72h-89z" />
    <glyph glyph-name="integral" unicode="&#x222b;" horiz-adv-x="574" 
d="M442 723c0 -25 -19 -42 -44 -42c-48 0 -40 55 -63 55c-25 0 -26 -50 -26 -86c0 -34 2 -67 2 -86v-568c-1 -94 -17 -209 -132 -209c-34 0 -83 14 -83 60c0 23 19 41 42 41c47 0 39 -54 61 -54c25 0 25 65 25 89c0 26 -2 51 -2 65c0 4 1 8 1 12v499c0 22 -1 48 -1 75
c0 98 13 212 132 212c31 0 88 -18 88 -63z" />
    <glyph glyph-name="yacute" unicode="&#xfd;" horiz-adv-x="504" 
d="M114 474l147 -372h2l131 372h100l-230 -586c-31 -79 -71 -128 -164 -128c-20 0 -41 2 -62 7l9 83c15 -5 32 -8 47 -8c49 0 68 28 88 79l30 79l-203 474h105zM422 708l-136 -144h-77l100 144h113z" />
    <glyph glyph-name="lslash.sc" horiz-adv-x="420" 
d="M180 536v-146l110 92v-90l-110 -93v-218h230v-81h-326v219l-76 -64v91l76 63v227h96z" />
    <glyph glyph-name="Umacron" unicode="&#x16a;" horiz-adv-x="712" 
d="M356 -18c-187 0 -275 135 -275 280v446h99v-440c0 -97 44 -197 176 -197s176 100 176 197v440h99v-446c0 -145 -88 -280 -275 -280zM500 864v-67h-296v67h296z" />
    <glyph glyph-name="scaron.sc" horiz-adv-x="465" 
d="M408 483l-61 -64c-23 29 -63 49 -105 49c-48 0 -87 -26 -87 -72c0 -49 36 -63 97 -83c75 -24 158 -58 158 -160c0 -114 -86 -167 -189 -167c-75 0 -146 31 -187 83l66 61c32 -43 82 -60 123 -60c50 0 93 23 93 71c0 53 -43 74 -117 97c-70 22 -139 53 -139 151
c0 110 94 161 188 161c66 0 123 -26 160 -67zM413 738l-112 -144h-107l-111 144h90l76 -99l76 99h88z" />
    <glyph glyph-name="iacute" unicode="&#xed;" horiz-adv-x="259" 
d="M176 474v-474h-94v474h94zM295 708l-136 -144h-77l100 144h113z" />
    <glyph glyph-name="icircumflex.sc" horiz-adv-x="264" 
d="M180 536v-536h-96v536h96zM186 738l112 -144h-91l-75 99l-76 -99h-90l112 144h108z" />
    <glyph glyph-name="itilde.sc" horiz-adv-x="264" 
d="M180 536v-536h-96v536h96zM14 602h-55c10 58 34 116 102 116c25 0 52 -9 75 -20c26 -12 49 -22 67 -22c29 0 41 23 48 46h54c-10 -58 -34 -116 -102 -116c-25 0 -53 10 -77 21c-24 12 -46 21 -65 21c-28 0 -41 -23 -47 -46z" />
    <glyph glyph-name="Edieresis" unicode="&#xcb;" horiz-adv-x="601" 
d="M185 324v-236h370v-88h-469v708h454v-87h-355v-212h334v-85h-334zM158 845c0 32 26 61 62 61c35 0 62 -27 62 -61c0 -33 -27 -60 -62 -60c-36 0 -62 29 -62 60zM352 845c0 32 26 61 62 61c35 0 62 -27 62 -61c0 -33 -27 -60 -62 -60c-36 0 -62 29 -62 60z" />
    <glyph glyph-name="Ograve" unicode="&#xd2;" horiz-adv-x="849" 
d="M800 355c0 -218 -160 -373 -376 -373c-215 0 -374 155 -374 373c0 221 159 371 374 371c216 0 376 -150 376 -371zM693 355c0 155 -104 284 -269 284c-163 0 -267 -129 -267 -284c0 -158 105 -284 267 -284c164 0 269 126 269 284zM409 764l-137 144h114l100 -144h-77z
" />
    <glyph glyph-name="Scaron" unicode="&#x160;" horiz-adv-x="569" 
d="M508 645l-70 -68c-28 39 -79 66 -138 66c-64 0 -138 -35 -138 -115c0 -77 65 -98 145 -124c95 -30 208 -66 208 -207c0 -147 -119 -215 -245 -215c-89 0 -179 35 -233 103l77 65c33 -49 93 -83 158 -83c66 0 142 37 142 121c0 86 -78 109 -168 137s-184 69 -184 199
c0 141 126 202 243 202c82 0 159 -32 203 -81zM463 908l-112 -144h-107l-111 144h90l76 -99l76 99h88z" />
    <glyph glyph-name="s.sc" horiz-adv-x="465" 
d="M408 483l-61 -64c-23 29 -63 49 -105 49c-48 0 -87 -26 -87 -72c0 -49 36 -63 97 -83c75 -24 158 -58 158 -160c0 -114 -86 -167 -189 -167c-75 0 -146 31 -187 83l66 61c32 -43 82 -60 123 -60c50 0 93 23 93 71c0 53 -43 74 -117 97c-70 22 -139 53 -139 151
c0 110 94 161 188 161c66 0 123 -26 160 -67z" />
    <glyph glyph-name="ldot" unicode="&#x140;" horiz-adv-x="350" 
d="M177 756v-756h-94v756h94zM350 455c0 -34 -29 -60 -63 -60s-62 27 -62 60c0 34 28 61 62 61s63 -26 63 -61z" />
    <glyph glyph-name="hbar.sc" horiz-adv-x="607" 
d="M84 0v536h96v-93h247v93h96v-536h-96v237h-247v-237h-96zM180 310h247v80h-247v-80z" />
    <glyph glyph-name="y.sc" horiz-adv-x="473" 
d="M284 216v-216h-96v216l-194 320h108l137 -243l137 243h103z" />
    <glyph glyph-name="kcommaaccent.sc" horiz-adv-x="543" 
d="M180 536v-229h2l219 229h128l-251 -247l265 -289h-131l-230 265h-2v-265h-96v536h96zM348 -45l-78 -190h-79l64 190h93z" />
    <glyph glyph-name="Ugrave" unicode="&#xd9;" horiz-adv-x="712" 
d="M356 -18c-187 0 -275 135 -275 280v446h99v-440c0 -97 44 -197 176 -197s176 100 176 197v440h99v-446c0 -145 -88 -280 -275 -280zM323 764l-137 144h114l100 -144h-77z" />
    <glyph glyph-name="afii61289" unicode="&#x2113;" horiz-adv-x="500" 
d="M428 44c-44 -39 -91 -58 -143 -58c-83 0 -138 48 -138 134v91l-58 -57h-2l-33 48l92 85v253c0 111 63 181 145 181c73 0 122 -52 122 -135c0 -99 -61 -202 -177 -314v-138c0 -64 37 -81 70 -81c27 0 57 12 88 38h2zM339 580c0 47 -21 80 -49 80c-29 0 -54 -35 -54 -105
v-205c68 78 103 160 103 230z" />
    <glyph glyph-name="Egrave" unicode="&#xc8;" horiz-adv-x="601" 
d="M185 324v-236h370v-88h-469v708h454v-87h-355v-212h334v-85h-334zM313 764l-137 144h114l100 -144h-77z" />
    <glyph glyph-name="lcaron" unicode="&#x13e;" horiz-adv-x="323" 
d="M177 756v-756h-94v756h94zM369 708l-78 -190h-79l64 190h93z" />
    <glyph glyph-name="zdotaccent.sc" horiz-adv-x="496" 
d="M446 536v-80l-281 -375h285v-81h-404v79l282 377h-278v80h396zM315 675c0 -34 -29 -60 -63 -60s-62 27 -62 60c0 34 28 61 62 61s63 -26 63 -61z" />
    <glyph glyph-name="Acircumflex" unicode="&#xc2;" horiz-adv-x="711" 
d="M186 174l-71 -174h-110l307 708h90l304 -708h-112l-72 174h-336zM354 593l-133 -332h265zM413 908l112 -144h-91l-75 99l-76 -99h-90l112 144h108z" />
    <glyph glyph-name="uni00AD" unicode="&#xad;" horiz-adv-x="320" 
d="M276 284v-80h-232v80h232z" />
    <glyph glyph-name="tcaron" unicode="&#x165;" horiz-adv-x="342" 
d="M313 474v-77h-126v-247c0 -57 20 -80 67 -80c17 0 39 4 55 12l3 -77c-22 -8 -51 -13 -80 -13c-89 0 -138 50 -138 148v257h-91v77h91v136h93v-136h126zM375 731l-78 -190h-79l64 190h93z" />
    <glyph glyph-name="Tbar" unicode="&#x166;" horiz-adv-x="569" 
d="M72 525h163v96h-227v87h553v-87h-227v-96h163v-63h-163v-462h-99v462h-163v63z" />
    <glyph glyph-name="exclam.sc" horiz-adv-x="320" 
d="M208 536v-363h-96v363h96zM226 59c0 -35 -29 -65 -66 -65c-36 0 -66 29 -66 64s29 65 66 65s66 -29 66 -64z" />
    <glyph glyph-name="a.sc" horiz-adv-x="550" 
d="M155 124l-51 -124h-101l228 536h89l227 -536h-104l-50 124h-238zM274 426l-90 -225h179z" />
    <glyph glyph-name="Omacron" unicode="&#x14c;" horiz-adv-x="849" 
d="M800 355c0 -218 -160 -373 -376 -373c-215 0 -374 155 -374 373c0 221 159 371 374 371c216 0 376 -150 376 -371zM693 355c0 155 -104 284 -269 284c-163 0 -267 -129 -267 -284c0 -158 105 -284 267 -284c164 0 269 126 269 284zM573 864v-67h-296v67h296z" />
    <glyph glyph-name="Obreve" unicode="&#x14e;" horiz-adv-x="849" 
d="M800 355c0 -218 -160 -373 -376 -373c-215 0 -374 155 -374 373c0 221 159 371 374 371c216 0 376 -150 376 -371zM693 355c0 155 -104 284 -269 284c-163 0 -267 -129 -267 -284c0 -158 105 -284 267 -284c164 0 269 126 269 284zM528 908h55c-8 -91 -71 -138 -159 -138
c-89 0 -153 46 -159 138h56c9 -51 53 -72 103 -72c54 0 92 18 104 72z" />
    <glyph glyph-name="h.sc" horiz-adv-x="607" 
d="M84 0v536h96v-220h247v220h96v-536h-96v237h-247v-237h-96z" />
    <glyph glyph-name="m.sc" horiz-adv-x="737" 
d="M226 536l145 -383h2l142 383h138v-536h-94v409h-2l-157 -409h-64l-156 409h-2v-409h-94v536h142z" />
    <glyph glyph-name="kcommaaccent" unicode="&#x137;" horiz-adv-x="527" 
d="M177 756v-488h3l199 206h126l-222 -215l241 -259h-130l-214 246h-3v-246h-94v756h94zM333 -45l-78 -190h-79l64 190h93z" />
    <glyph glyph-name="tilde.sc" 
d="M7 602h-55c10 58 34 116 102 116c25 0 52 -9 75 -20c26 -12 49 -22 67 -22c29 0 41 23 48 46h54c-10 -58 -34 -116 -102 -116c-25 0 -53 10 -77 21c-24 12 -46 21 -65 21c-28 0 -41 -23 -47 -46z" />
    <glyph glyph-name="hcircumflex" unicode="&#x125;" horiz-adv-x="584" 
d="M177 402h2c22 47 82 85 150 85c122 0 177 -87 177 -193v-294h-94v262c0 77 -20 145 -107 145c-74 0 -128 -62 -128 -156v-251h-94v756h94v-354zM349 940l112 -144h-91l-75 99l-76 -99h-90l112 144h108z" />
    <glyph glyph-name="ubreve" unicode="&#x16d;" horiz-adv-x="582" 
d="M504 0h-89c-2 24 -4 58 -4 78h-2c-24 -50 -86 -91 -155 -91c-122 0 -177 87 -177 193v294h94v-262c0 -78 21 -146 108 -146c75 0 127 62 127 156v252h94v-372c0 -25 1 -71 4 -102zM394 708h55c-8 -91 -71 -138 -159 -138c-89 0 -153 46 -159 138h56c9 -51 53 -72 103 -72
c54 0 92 18 104 72z" />
    <glyph glyph-name="Rcaron" unicode="&#x158;" horiz-adv-x="614" 
d="M185 315v-315h-99v708h227c137 0 252 -52 252 -196c0 -104 -71 -170 -172 -187l198 -325h-120l-180 315h-106zM185 624v-226h114c93 0 166 29 166 114s-73 112 -159 112h-121zM459 908l-112 -144h-107l-111 144h90l76 -99l76 99h88z" />
    <glyph glyph-name="Thorn" unicode="&#xde;" horiz-adv-x="595" 
d="M86 0v708h99v-146h117c153 0 253 -64 253 -197c0 -145 -111 -200 -258 -200h-112v-165h-99zM185 477v-227h102c97 0 165 30 165 114c0 83 -70 113 -163 113h-104z" />
    <glyph glyph-name="grave.cap" 
d="M114 764l-137 144h114l100 -144h-77z" />
    <glyph glyph-name="Scedilla" unicode="&#x15e;" horiz-adv-x="569" 
d="M508 645l-70 -68c-28 39 -79 66 -138 66c-64 0 -138 -35 -138 -115c0 -77 65 -98 145 -124c95 -30 208 -66 208 -207c0 -132 -95 -200 -206 -213l-35 -53c9 2 17 2 27 2c45 0 94 -19 94 -78c0 -70 -70 -90 -127 -90c-34 0 -75 9 -103 23l20 42c24 -11 51 -17 77 -17
c22 0 61 8 61 42c0 29 -27 38 -54 38c-12 0 -28 -3 -41 -7l-20 20l50 76c-85 3 -170 38 -221 103l77 65c33 -49 93 -83 158 -83c66 0 142 37 142 121c0 86 -78 109 -168 137s-184 69 -184 199c0 141 126 202 243 202c82 0 159 -32 203 -81z" />
    <glyph glyph-name="Gbreve" unicode="&#x11e;" horiz-adv-x="778" 
d="M689 634l-69 -72c-42 46 -111 77 -192 77c-166 0 -270 -129 -270 -284c0 -158 104 -284 273 -284c66 0 124 13 165 35v197h-157v84h255v-343c-74 -40 -162 -62 -266 -62c-221 0 -378 155 -378 373c0 221 162 371 377 371c112 0 204 -36 262 -92zM531 908h55
c-8 -91 -71 -138 -159 -138c-89 0 -153 46 -159 138h56c9 -51 53 -72 103 -72c54 0 92 18 104 72z" />
    <glyph glyph-name="acircumflex" unicode="&#xe2;" horiz-adv-x="542" 
d="M376 294v13c0 70 -47 104 -117 104c-53 0 -103 -23 -135 -55l-50 60c46 44 117 71 194 71c136 0 198 -81 198 -186v-207c0 -32 2 -71 7 -94h-85c-5 21 -8 46 -8 68h-3c-34 -51 -88 -80 -159 -80c-75 0 -172 37 -172 146c0 143 170 160 330 160zM376 226h-23
c-93 0 -211 -10 -211 -90c0 -56 50 -74 97 -74c88 0 137 59 137 139v25zM322 708l112 -144h-91l-75 99l-76 -99h-90l112 144h108z" />
    <glyph glyph-name="Agrave" unicode="&#xc0;" horiz-adv-x="711" 
d="M186 174l-71 -174h-110l307 708h90l304 -708h-112l-72 174h-336zM354 593l-133 -332h265zM320 764l-137 144h114l100 -144h-77z" />
    <glyph glyph-name="Aacute" unicode="&#xc1;" horiz-adv-x="711" 
d="M186 174l-71 -174h-110l307 708h90l304 -708h-112l-72 174h-336zM354 593l-133 -332h265zM535 908l-137 -144h-76l99 144h114z" />
    <glyph glyph-name="seven.onum" horiz-adv-x="530" 
d="M480 448c-106 -211 -221 -465 -287 -631l-98 26c75 170 211 458 287 607h-338v86h436v-88z" />
    <glyph glyph-name="tbar.sc" horiz-adv-x="442" 
d="M374 290h-106v-290h-96v290h-105v63h105v103h-164v80h426v-80h-166v-103h106v-63z" />
    <glyph glyph-name="acute.cap" 
d="M273 908l-137 -144h-76l99 144h114z" />
    <glyph glyph-name="Emacron" unicode="&#x112;" horiz-adv-x="601" 
d="M185 324v-236h370v-88h-469v708h454v-87h-355v-212h334v-85h-334zM462 864v-67h-296v67h296z" />
    <glyph glyph-name="wcircumflex.sc" horiz-adv-x="796" 
d="M6 536h105l115 -409h2l118 409h104l121 -409h2l115 409h102l-165 -536h-103l-123 402h-2l-122 -402h-103zM453 738l112 -144h-91l-75 99l-76 -99h-90l112 144h108z" />
    <glyph glyph-name="ebreve.sc" horiz-adv-x="507" 
d="M179 238v-157h273v-81h-368v536h356v-80h-261v-141h247v-77h-247zM364 738h55c-8 -91 -71 -138 -159 -138c-89 0 -153 46 -159 138h56c9 -51 53 -72 103 -72c54 0 92 18 104 72z" />
    <glyph glyph-name="ncommaaccent.sc" horiz-adv-x="618" 
d="M200 536l239 -406h2v406h93v-536h-114l-241 404h-2v-404h-93v536h116zM370 -45l-78 -190h-79l64 190h93z" />
    <glyph glyph-name="logicalnot" unicode="&#xac;" horiz-adv-x="666" 
d="M596 426v-287h-81v206h-445v81h526z" />
    <glyph glyph-name="Ccedilla" unicode="&#xc7;" horiz-adv-x="708" 
d="M614 164l79 -54c-53 -72 -139 -123 -256 -127l-34 -52c9 2 17 2 27 2c45 0 94 -19 94 -78c0 -70 -70 -90 -127 -90c-34 0 -75 9 -103 23l20 42c24 -11 51 -17 77 -17c22 0 61 8 61 42c0 29 -27 38 -54 38c-12 0 -28 -3 -41 -7l-20 20l51 78c-199 16 -338 165 -338 371
c0 221 162 371 377 371c97 0 202 -38 254 -110l-78 -60c-34 48 -103 83 -176 83c-164 0 -269 -129 -269 -284c0 -159 103 -285 266 -285c79 0 148 33 190 94z" />
    <glyph glyph-name="three.onum" horiz-adv-x="550" 
d="M456 449c-48 -46 -154 -129 -218 -175v-4c8 2 17 3 32 3c125 0 214 -86 214 -197c0 -155 -119 -246 -290 -246c-37 0 -78 2 -108 9l14 84c26 -7 61 -10 91 -10c125 0 195 57 195 157c0 77 -53 133 -167 133c-35 0 -70 -7 -102 -15l-19 71c75 55 193 148 241 192v4h-263
v81h380v-87z" />
    <glyph glyph-name="Rcommaaccent" unicode="&#x156;" horiz-adv-x="614" 
d="M185 315v-315h-99v708h227c137 0 252 -52 252 -196c0 -104 -71 -170 -172 -187l198 -325h-120l-180 315h-106zM185 624v-226h114c93 0 166 29 166 114s-73 112 -159 112h-121zM379 -45l-78 -190h-79l64 190h93z" />
    <glyph glyph-name="Gcircumflex" unicode="&#x11c;" horiz-adv-x="778" 
d="M689 634l-69 -72c-42 46 -111 77 -192 77c-166 0 -270 -129 -270 -284c0 -158 104 -284 273 -284c66 0 124 13 165 35v197h-157v84h255v-343c-74 -40 -162 -62 -266 -62c-221 0 -378 155 -378 373c0 221 162 371 377 371c112 0 204 -36 262 -92zM481 908l112 -144h-91
l-75 99l-76 -99h-90l112 144h108z" />
    <glyph glyph-name="Uhungarumlaut" unicode="&#x170;" horiz-adv-x="712" 
d="M356 -18c-187 0 -275 135 -275 280v446h99v-440c0 -97 44 -197 176 -197s176 100 176 197v440h99v-446c0 -145 -88 -280 -275 -280zM428 908l-137 -144h-77l100 144h114zM610 908l-136 -144h-77l100 144h113z" />
    <glyph glyph-name="partialdiff" unicode="&#x2202;" horiz-adv-x="523" 
d="M481 360c0 -157 -38 -372 -238 -372c-129 0 -208 102 -208 225c0 121 78 216 203 216c61 0 115 -27 156 -70c0 13 1 27 1 41c0 104 -37 251 -167 251c-46 0 -81 -19 -116 -47c-16 18 -31 37 -47 55c49 39 96 62 159 62c199 0 257 -196 257 -361zM391 271
c-30 55 -82 90 -142 90c-87 0 -131 -72 -131 -152c0 -76 41 -155 127 -155c106 0 144 131 146 217z" />
    <glyph glyph-name="Delta" unicode="&#x2206;" horiz-adv-x="678" 
d="M667 0h-656l276 712h95zM540 83l-207 530l-199 -530h406z" />
    <glyph glyph-name="agrave" unicode="&#xe0;" horiz-adv-x="542" 
d="M376 294v13c0 70 -47 104 -117 104c-53 0 -103 -23 -135 -55l-50 60c46 44 117 71 194 71c136 0 198 -81 198 -186v-207c0 -32 2 -71 7 -94h-85c-5 21 -8 46 -8 68h-3c-34 -51 -88 -80 -159 -80c-75 0 -172 37 -172 146c0 143 170 160 330 160zM376 226h-23
c-93 0 -211 -10 -211 -90c0 -56 50 -74 97 -74c88 0 137 59 137 139v25zM256 564l-136 144h113l100 -144h-77z" />
    <glyph glyph-name="one.onum" horiz-adv-x="400" 
d="M280 536v-536h-95v417l-92 -79l-56 65l161 133h82z" />
    <glyph glyph-name="ntilde.sc" horiz-adv-x="618" 
d="M200 536l239 -406h2v406h93v-536h-114l-241 404h-2v-404h-93v536h116zM188 602h-55c10 58 34 116 102 116c25 0 52 -9 75 -20c26 -12 49 -22 67 -22c29 0 41 23 48 46h54c-10 -58 -34 -116 -102 -116c-25 0 -53 10 -77 21c-24 12 -46 21 -65 21c-28 0 -41 -23 -47 -46z
" />
    <glyph glyph-name="w.sc" horiz-adv-x="796" 
d="M6 536h105l115 -409h2l118 409h104l121 -409h2l115 409h102l-165 -536h-103l-123 402h-2l-122 -402h-103z" />
    <glyph glyph-name="acute.sc" 
d="M284 738l-136 -144h-77l100 144h113z" />
    <glyph glyph-name="Tcaron" unicode="&#x164;" horiz-adv-x="569" 
d="M334 621v-621h-99v621h-227v87h553v-87h-227zM448 908l-112 -144h-107l-111 144h90l76 -99l76 99h88z" />
    <glyph glyph-name="scaron" unicode="&#x161;" horiz-adv-x="444" 
d="M402 409l-65 -55c-21 34 -62 59 -110 59c-43 0 -88 -17 -88 -62c0 -40 36 -55 108 -71c90 -20 159 -57 159 -140c0 -112 -93 -153 -189 -153c-72 0 -146 28 -191 85l67 57c25 -37 73 -66 126 -66c47 0 94 17 94 69c0 44 -43 60 -124 79c-63 15 -138 42 -138 131
c0 102 89 145 179 145c67 0 138 -27 172 -78zM396 708l-112 -144h-107l-111 144h90l76 -99l76 99h88z" />
    <glyph glyph-name="CR" unicode="&#xd;" horiz-adv-x="0" 
 />
    <glyph glyph-name="Lcaron" unicode="&#x13d;" horiz-adv-x="511" 
d="M185 708v-620h316v-88h-415v708h99zM386 708l-78 -190h-79l64 190h93z" />
    <glyph glyph-name="scedilla" unicode="&#x15f;" horiz-adv-x="444" 
d="M402 409l-65 -55c-21 34 -62 59 -110 59c-43 0 -88 -17 -88 -62c0 -40 36 -55 108 -71c90 -20 159 -57 159 -140c0 -102 -78 -145 -164 -152l-38 -57c9 2 17 2 27 2c45 0 94 -19 94 -78c0 -70 -70 -90 -127 -90c-34 0 -75 9 -103 23l20 42c24 -11 51 -17 77 -17
c22 0 61 8 61 42c0 29 -27 38 -54 38c-12 0 -28 -3 -41 -7l-20 20l54 83c-64 5 -126 32 -166 83l67 57c25 -37 73 -66 126 -66c47 0 94 17 94 69c0 44 -43 60 -124 79c-63 15 -138 42 -138 131c0 102 89 145 179 145c67 0 138 -27 172 -78z" />
    <glyph glyph-name="onequarter" unicode="&#xbc;" horiz-adv-x="870" 
d="M746 426v-268h59v-67h-59v-91h-71v91h-189v64l177 271h83zM675 332h-3l-109 -174h112v174zM247 708v-426h-78v332l-68 -59l-46 51l125 102h67zM677 708l-450 -743l-58 31l451 743z" />
    <glyph glyph-name="Imacron" unicode="&#x12a;" horiz-adv-x="271" 
d="M185 708v-708h-99v708h99zM282 864v-67h-296v67h296z" />
    <glyph glyph-name="Sacute" unicode="&#x15a;" horiz-adv-x="569" 
d="M508 645l-70 -68c-28 39 -79 66 -138 66c-64 0 -138 -35 -138 -115c0 -77 65 -98 145 -124c95 -30 208 -66 208 -207c0 -147 -119 -215 -245 -215c-89 0 -179 35 -233 103l77 65c33 -49 93 -83 158 -83c66 0 142 37 142 121c0 86 -78 109 -168 137s-184 69 -184 199
c0 141 126 202 243 202c82 0 159 -32 203 -81zM443 908l-137 -144h-76l99 144h114z" />
    <glyph glyph-name="Zdotaccent" unicode="&#x17b;" horiz-adv-x="592" 
d="M553 708v-87l-400 -533h406v-88h-526v87l399 534h-391v87h512zM359 845c0 -34 -29 -60 -63 -60s-62 27 -62 60c0 34 28 61 62 61s63 -26 63 -61z" />
    <glyph glyph-name="four.sc" horiz-adv-x="504" 
d="M384 536v-342h73v-80h-73v-114h-92v114h-239v77l215 345h116zM292 194v234h-3l-136 -234h139z" />
    <glyph glyph-name="Abreve" unicode="&#x102;" horiz-adv-x="711" 
d="M186 174l-71 -174h-110l307 708h90l304 -708h-112l-72 174h-336zM354 593l-133 -332h265zM458 908h55c-8 -91 -71 -138 -159 -138c-89 0 -153 46 -159 138h56c9 -51 53 -72 103 -72c54 0 92 18 104 72z" />
    <glyph glyph-name="Euro.sc" horiz-adv-x="504" 
d="M468 521l-31 -78c-29 17 -61 25 -97 25c-63 0 -118 -37 -138 -104h211l-21 -66h-201c-2 -12 -3 -23 -3 -36c0 -9 1 -22 2 -30h184l-22 -67h-149c16 -61 71 -98 131 -98c34 0 68 9 100 30l34 -73c-39 -26 -83 -38 -136 -38c-115 0 -200 71 -222 179h-70l23 67h36
c-1 9 -1 23 -1 32c0 12 1 27 2 34h-57l23 66h44c30 116 119 186 233 186c46 0 91 -12 125 -29z" />
    <glyph glyph-name="dotaccent.cap" 
d="M188 845c0 -34 -29 -60 -63 -60s-62 27 -62 60c0 34 28 61 62 61s63 -26 63 -61z" />
    <glyph glyph-name="infinity" unicode="&#x221e;" horiz-adv-x="778" 
d="M681 260c0 49 -29 89 -82 89c-54 0 -107 -54 -143 -90c39 -38 88 -84 146 -84c50 0 79 37 79 85zM361 259c-37 35 -93 89 -147 89c-49 0 -78 -42 -78 -88c0 -50 31 -85 82 -85c52 0 109 49 143 84zM754 263c0 -97 -60 -174 -161 -174c-80 0 -135 51 -185 107
c-52 -56 -101 -106 -183 -106c-101 0 -164 74 -164 172c0 95 60 171 160 171c83 0 137 -55 187 -114c49 58 103 115 186 115c99 0 160 -76 160 -171z" />
    <glyph glyph-name="aogonek.sc" horiz-adv-x="550" 
d="M518 -150l22 -45c-26 -22 -60 -37 -95 -37c-50 0 -97 33 -97 87c0 57 53 112 95 145l-50 124h-238l-51 -124h-101l228 536h89l227 -536h-50c-39 -38 -80 -83 -80 -125c0 -26 22 -47 48 -47c19 0 39 9 53 22zM274 426l-90 -225h179z" />
    <glyph glyph-name="uni0394" unicode="&#x394;" horiz-adv-x="678" 
d="M667 0h-656l276 712h95zM540 83l-207 530l-199 -530h406z" />
    <glyph glyph-name="Ohungarumlaut" unicode="&#x150;" horiz-adv-x="849" 
d="M800 355c0 -218 -160 -373 -376 -373c-215 0 -374 155 -374 373c0 221 159 371 374 371c216 0 376 -150 376 -371zM693 355c0 155 -104 284 -269 284c-163 0 -267 -129 -267 -284c0 -158 105 -284 267 -284c164 0 269 126 269 284zM500 908l-137 -144h-77l100 144h114z
M682 908l-136 -144h-77l100 144h113z" />
    <glyph glyph-name="adieresis" unicode="&#xe4;" horiz-adv-x="542" 
d="M376 294v13c0 70 -47 104 -117 104c-53 0 -103 -23 -135 -55l-50 60c46 44 117 71 194 71c136 0 198 -81 198 -186v-207c0 -32 2 -71 7 -94h-85c-5 21 -8 46 -8 68h-3c-34 -51 -88 -80 -159 -80c-75 0 -172 37 -172 146c0 143 170 160 330 160zM376 226h-23
c-93 0 -211 -10 -211 -90c0 -56 50 -74 97 -74c88 0 137 59 137 139v25zM110 645c0 32 26 61 62 61c35 0 62 -27 62 -61c0 -33 -27 -60 -62 -60c-36 0 -62 29 -62 60zM304 645c0 32 26 61 62 61c35 0 62 -27 62 -61c0 -33 -27 -60 -62 -60c-36 0 -62 29 -62 60z" />
    <glyph glyph-name="Omega" unicode="&#x2126;" horiz-adv-x="752" 
d="M693 0h-264v185c112 21 171 112 171 221c0 131 -97 232 -229 232c-133 0 -231 -101 -231 -233c0 -111 58 -197 169 -220v-185h-263v77h190v62c-123 36 -190 146 -190 271c0 181 147 311 324 311c178 0 323 -127 323 -309c0 -127 -64 -237 -190 -273v-62h190v-77z" />
    <glyph glyph-name="Ebreve" unicode="&#x114;" horiz-adv-x="601" 
d="M185 324v-236h370v-88h-469v708h454v-87h-355v-212h334v-85h-334zM421 908h55c-8 -91 -71 -138 -159 -138c-89 0 -153 46 -159 138h56c9 -51 53 -72 103 -72c54 0 92 18 104 72z" />
    <glyph glyph-name="five.onum" horiz-adv-x="544" 
d="M208 214c-39 0 -87 -8 -121 -18l40 340h350v-86h-271l-23 -165c19 4 39 6 61 6c128 0 226 -79 226 -213c0 -162 -114 -248 -278 -248c-36 0 -82 3 -112 9l13 84c26 -7 57 -11 91 -11c126 0 190 56 190 162c0 95 -72 140 -166 140z" />
    <glyph glyph-name="Ecircumflex" unicode="&#xca;" horiz-adv-x="601" 
d="M185 324v-236h370v-88h-469v708h454v-87h-355v-212h334v-85h-334zM372 908l112 -144h-91l-75 99l-76 -99h-90l112 144h108z" />
    <glyph glyph-name="Idotaccent" unicode="&#x130;" horiz-adv-x="271" 
d="M185 708v-708h-99v708h99zM200 845c0 -34 -29 -60 -63 -60s-62 27 -62 60c0 34 28 61 62 61s63 -26 63 -61z" />
    <glyph glyph-name="florin.sc" horiz-adv-x="504" 
d="M377 340v-70h-92l-44 -224c-18 -90 -65 -132 -146 -132c-31 0 -57 9 -77 21l30 71c10 -8 28 -13 43 -13c29 0 51 17 61 68l39 209h-79v70h91l13 73c15 86 57 137 133 137c34 0 68 -9 92 -29l-41 -69c-16 12 -29 16 -46 16c-21 0 -38 -16 -45 -58l-12 -70h80z" />
    <glyph glyph-name="atilde.sc" horiz-adv-x="550" 
d="M155 124l-51 -124h-101l228 536h89l227 -536h-104l-50 124h-238zM274 426l-90 -225h179zM157 602h-55c10 58 34 116 102 116c25 0 52 -9 75 -20c26 -12 49 -22 67 -22c29 0 41 23 48 46h54c-10 -58 -34 -116 -102 -116c-25 0 -53 10 -77 21c-24 12 -46 21 -65 21
c-28 0 -41 -23 -47 -46z" />
    <glyph glyph-name="dollar.sc" horiz-adv-x="504" 
d="M229 76v166c-99 29 -153 67 -153 150s60 138 153 144v61h48v-61c56 -2 101 -22 143 -58l-60 -62c-27 29 -53 42 -83 44v-149c111 -32 157 -84 157 -160c0 -84 -60 -147 -157 -151v-63h-48v63c-66 3 -126 28 -169 77c23 20 45 40 68 60c29 -40 69 -60 101 -61zM277 229
v-153c41 4 67 30 67 71c0 37 -24 66 -67 82zM229 325v135c-39 -3 -64 -27 -64 -64c0 -39 22 -58 64 -71z" />
    <glyph glyph-name="divide" unicode="&#xf7;" horiz-adv-x="666" 
d="M596 344v-82h-526v82h526zM398 132c0 -35 -28 -65 -65 -65s-65 30 -65 65c0 34 28 65 65 65s65 -31 65 -65zM398 469c0 -35 -28 -65 -65 -65s-65 30 -65 65c0 34 28 65 65 65s65 -31 65 -65z" />
    <glyph glyph-name="Idieresis" unicode="&#xcf;" horiz-adv-x="271" 
d="M185 708v-708h-99v708h99zM-23 845c0 32 26 61 62 61c35 0 62 -27 62 -61c0 -33 -27 -60 -62 -60c-36 0 -62 29 -62 60zM171 845c0 32 26 61 62 61c35 0 62 -27 62 -61c0 -33 -27 -60 -62 -60c-36 0 -62 29 -62 60z" />
    <glyph glyph-name="Gcommaaccent" unicode="&#x122;" horiz-adv-x="778" 
d="M689 634l-69 -72c-42 46 -111 77 -192 77c-166 0 -270 -129 -270 -284c0 -158 104 -284 273 -284c66 0 124 13 165 35v197h-157v84h255v-343c-74 -40 -162 -62 -266 -62c-221 0 -378 155 -378 373c0 221 162 371 377 371c112 0 204 -36 262 -92zM490 -45l-78 -190h-79
l64 190h93z" />
    <glyph glyph-name="Udieresis" unicode="&#xdc;" horiz-adv-x="712" 
d="M356 -18c-187 0 -275 135 -275 280v446h99v-440c0 -97 44 -197 176 -197s176 100 176 197v440h99v-446c0 -145 -88 -280 -275 -280zM197 845c0 32 26 61 62 61c35 0 62 -27 62 -61c0 -33 -27 -60 -62 -60c-36 0 -62 29 -62 60zM391 845c0 32 26 61 62 61
c35 0 62 -27 62 -61c0 -33 -27 -60 -62 -60c-36 0 -62 29 -62 60z" />
    <glyph glyph-name="aogonek" unicode="&#x105;" horiz-adv-x="542" 
d="M465 -144l22 -45c-26 -22 -60 -37 -95 -37c-50 0 -97 33 -97 87c0 56 50 110 92 142c-5 20 -7 44 -7 65h-3c-34 -51 -88 -80 -159 -80c-75 0 -172 37 -172 146c0 143 170 160 330 160v13c0 70 -47 104 -117 104c-53 0 -103 -23 -135 -55l-50 60c46 44 117 71 194 71
c136 0 198 -81 198 -186v-207c0 -32 2 -71 7 -94h-36c-37 -36 -73 -79 -73 -119c0 -26 22 -47 48 -47c19 0 39 9 53 22zM376 226h-23c-93 0 -211 -10 -211 -90c0 -56 50 -74 97 -74c88 0 137 59 137 139v25z" />
    <glyph glyph-name="aring" unicode="&#xe5;" horiz-adv-x="542" 
d="M376 294v13c0 70 -47 104 -117 104c-53 0 -103 -23 -135 -55l-50 60c46 44 117 71 194 71c136 0 198 -81 198 -186v-207c0 -32 2 -71 7 -94h-85c-5 21 -8 46 -8 68h-3c-34 -51 -88 -80 -159 -80c-75 0 -172 37 -172 146c0 143 170 160 330 160zM376 226h-23
c-93 0 -211 -10 -211 -90c0 -56 50 -74 97 -74c88 0 137 59 137 139v25zM369 653c0 -57 -45 -99 -101 -99c-55 0 -100 42 -100 98c0 57 44 99 100 99s101 -42 101 -98zM327 653c0 32 -27 56 -59 56c-31 0 -58 -24 -58 -56s27 -57 58 -57c32 0 59 24 59 57z" />
    <glyph glyph-name="ccedilla.sc" horiz-adv-x="566" 
d="M472 140l76 -53c-48 -58 -104 -95 -192 -100l-37 -56c9 2 17 2 27 2c45 0 94 -19 94 -78c0 -70 -70 -90 -127 -90c-34 0 -75 9 -103 23l20 42c24 -11 51 -17 77 -17c22 0 61 8 61 42c0 29 -27 38 -54 38c-12 0 -28 -3 -41 -7l-20 20l53 82c-152 12 -254 120 -254 281
c0 168 124 281 289 281c79 0 154 -31 197 -87l-75 -59c-28 40 -75 61 -124 61c-112 0 -184 -85 -184 -196c0 -109 78 -198 180 -198c55 0 102 21 137 69z" />
    <glyph glyph-name="Edotaccent" unicode="&#x116;" horiz-adv-x="601" 
d="M185 324v-236h370v-88h-469v708h454v-87h-355v-212h334v-85h-334zM377 845c0 -34 -29 -60 -63 -60s-62 27 -62 60c0 34 28 61 62 61s63 -26 63 -61z" />
    <glyph glyph-name="gbreve.sc" horiz-adv-x="625" 
d="M544 478l-67 -69c-31 34 -80 56 -137 56c-114 0 -185 -86 -185 -196s74 -198 189 -198c43 0 78 7 108 21v132h-113v78h209v-268c-57 -30 -126 -48 -206 -48c-171 0 -290 118 -290 283c0 168 123 281 287 281c86 0 159 -29 205 -72zM446 738h55c-8 -91 -71 -138 -159 -138
c-89 0 -153 46 -159 138h56c9 -51 53 -72 103 -72c54 0 92 18 104 72z" />
    <glyph glyph-name="Scircumflex" unicode="&#x15c;" horiz-adv-x="569" 
d="M508 645l-70 -68c-28 39 -79 66 -138 66c-64 0 -138 -35 -138 -115c0 -77 65 -98 145 -124c95 -30 208 -66 208 -207c0 -147 -119 -215 -245 -215c-89 0 -179 35 -233 103l77 65c33 -49 93 -83 158 -83c66 0 142 37 142 121c0 86 -78 109 -168 137s-184 69 -184 199
c0 141 126 202 243 202c82 0 159 -32 203 -81zM357 908l112 -144h-91l-75 99l-76 -99h-90l112 144h108z" />
    <glyph glyph-name="Ycircumflex" unicode="&#x176;" horiz-adv-x="624" 
d="M362 306v-306h-100v306l-265 402h122l196 -320l197 320h115zM368 908l112 -144h-91l-75 99l-76 -99h-90l112 144h108z" />
    <glyph glyph-name="uni021A" unicode="&#x21a;" horiz-adv-x="569" 
d="M334 621v-621h-99v621h-227v87h553v-87h-227zM347 -45l-78 -190h-79l64 190h93z" />
    <glyph glyph-name="Ncaron" unicode="&#x147;" horiz-adv-x="772" 
d="M215 708l370 -566h2v566h99v-708h-125l-374 578h-2v-578h-99v708h129zM554 908l-112 -144h-107l-111 144h90l76 -99l76 99h88z" />
    <glyph glyph-name="Ntilde" unicode="&#xd1;" horiz-adv-x="772" 
d="M215 708l370 -566h2v566h99v-708h-125l-374 578h-2v-578h-99v708h129zM266 772h-55c10 58 34 116 102 116c25 0 52 -9 75 -20c26 -12 49 -22 67 -22c29 0 41 23 48 46h54c-10 -58 -34 -116 -102 -116c-25 0 -53 10 -77 21c-24 12 -46 21 -65 21c-28 0 -41 -23 -47 -46z
" />
    <glyph glyph-name="Ccaron" unicode="&#x10c;" horiz-adv-x="708" 
d="M614 164l79 -54c-55 -75 -146 -128 -270 -128c-217 0 -373 155 -373 373c0 221 162 371 377 371c97 0 202 -38 254 -110l-78 -60c-34 48 -103 83 -176 83c-164 0 -269 -129 -269 -284c0 -159 103 -285 266 -285c79 0 148 33 190 94zM588 908l-112 -144h-107l-111 144h90
l76 -99l76 99h88z" />
    <glyph glyph-name="lcaron.sc" horiz-adv-x="420" 
d="M180 536v-455h230v-81h-326v536h96zM391 536l-78 -190h-79l64 190h93z" />
    <glyph glyph-name="racute.sc" horiz-adv-x="525" 
d="M180 226v-226h-96v536h191c107 0 196 -36 196 -149c0 -78 -48 -129 -117 -147l139 -240h-111l-125 226h-77zM180 456v-152h83c59 0 111 20 111 80c0 57 -49 72 -105 72h-89zM405 738l-136 -144h-77l100 144h113z" />
    <glyph glyph-name="dcroat.sc" horiz-adv-x="619" 
d="M84 0v244h-69v70h69v222h193c144 0 290 -73 290 -267c0 -185 -148 -269 -292 -269h-191zM180 456v-142h131v-70h-131v-163h80c118 0 205 66 205 188c0 134 -90 187 -205 187h-80z" />
    <glyph glyph-name="four.onum" horiz-adv-x="586" 
d="M411 550l-276 -461h217v236h92v-236h112v-83h-112v-176h-92v176h-312v86l270 458h101z" />
    <glyph glyph-name="tilde.cap" 
d="M7 772h-55c10 58 34 116 102 116c25 0 52 -9 75 -20c26 -12 49 -22 67 -22c29 0 41 23 48 46h54c-10 -58 -34 -116 -102 -116c-25 0 -53 10 -77 21c-24 12 -46 21 -65 21c-28 0 -41 -23 -47 -46z" />
    <glyph glyph-name="utilde.sc" horiz-adv-x="595" 
d="M297 -14c-139 0 -219 92 -219 214v336h96v-329c0 -71 33 -135 123 -135s124 64 124 135v329h96v-336c0 -122 -81 -214 -220 -214zM181 602h-55c10 58 34 116 102 116c25 0 52 -9 75 -20c26 -12 49 -22 67 -22c29 0 41 23 48 46h54c-10 -58 -34 -116 -102 -116
c-25 0 -53 10 -77 21c-24 12 -46 21 -65 21c-28 0 -41 -23 -47 -46z" />
    <glyph glyph-name="acircumflex.sc" horiz-adv-x="550" 
d="M155 124l-51 -124h-101l228 536h89l227 -536h-104l-50 124h-238zM274 426l-90 -225h179zM328 738l112 -144h-91l-75 99l-76 -99h-90l112 144h108z" />
    <glyph glyph-name="Gdotaccent" unicode="&#x120;" horiz-adv-x="778" 
d="M689 634l-69 -72c-42 46 -111 77 -192 77c-166 0 -270 -129 -270 -284c0 -158 104 -284 273 -284c66 0 124 13 165 35v197h-157v84h255v-343c-74 -40 -162 -62 -266 -62c-221 0 -378 155 -378 373c0 221 162 371 377 371c112 0 204 -36 262 -92zM489 845
c0 -34 -29 -60 -63 -60s-62 27 -62 60c0 34 28 61 62 61s63 -26 63 -61z" />
    <glyph glyph-name="Ldot" unicode="&#x13f;" horiz-adv-x="511" 
d="M185 708v-620h316v-88h-415v708h99zM411 425c0 -34 -29 -60 -63 -60s-62 27 -62 60c0 34 28 61 62 61s63 -26 63 -61z" />
    <glyph glyph-name="Hbar" unicode="&#x126;" horiz-adv-x="729" 
d="M86 0v708h99v-145h358v145h100v-708h-100v324h-358v-324h-99zM185 412h358v88h-358v-88z" />
    <glyph glyph-name="edotaccent" unicode="&#x117;" horiz-adv-x="573" 
d="M146 279h282c-2 75 -46 134 -133 134c-81 0 -143 -60 -149 -134zM523 241c0 -10 0 -21 -1 -32h-376c3 -81 71 -144 154 -144c64 0 111 32 138 72l66 -53c-51 -66 -120 -97 -204 -97c-144 0 -250 100 -250 249c0 148 106 251 245 251c140 0 228 -95 228 -246zM359 645
c0 -34 -29 -60 -63 -60s-62 27 -62 60c0 34 28 61 62 61s63 -26 63 -61z" />
    <glyph glyph-name="fi.sc" horiz-adv-x="740" 
d="M180 228v-228h-96v536h347v-80h-251v-150h236v-78h-236zM656 536v-536h-96v536h96z" />
    <glyph glyph-name="ldot.sc" horiz-adv-x="420" 
d="M180 536v-455h230v-81h-326v536h96zM375 315c0 -34 -29 -60 -63 -60s-62 27 -62 60c0 34 28 61 62 61s63 -26 63 -61z" />
    <glyph glyph-name="Cacute" unicode="&#x106;" horiz-adv-x="708" 
d="M614 164l79 -54c-55 -75 -146 -128 -270 -128c-217 0 -373 155 -373 373c0 221 162 371 377 371c97 0 202 -38 254 -110l-78 -60c-34 48 -103 83 -176 83c-164 0 -269 -129 -269 -284c0 -159 103 -285 266 -285c79 0 148 33 190 94zM568 908l-137 -144h-76l99 144h114z
" />
    <glyph glyph-name="zero.sc" horiz-adv-x="504" 
d="M252 548c131 0 194 -121 194 -281s-63 -281 -194 -281c-133 0 -194 121 -194 281s61 281 194 281zM252 462c-69 0 -96 -94 -96 -195c0 -102 27 -195 96 -195s96 93 96 195c0 101 -28 195 -96 195z" />
    <glyph glyph-name="uni2219" unicode="&#x2219;" horiz-adv-x="260" 
d="M198 303c0 -35 -29 -66 -67 -66s-68 30 -68 65c0 36 29 67 68 67c37 0 67 -30 67 -66z" />
    <glyph glyph-name="b.sc" horiz-adv-x="539" 
d="M84 0v536h199c88 0 170 -37 170 -138c0 -55 -30 -95 -77 -115v-2c61 -15 101 -58 101 -126c0 -110 -97 -155 -206 -155h-187zM178 456v-141h89c52 0 90 25 90 74c0 44 -32 67 -97 67h-82zM178 238v-157h90c61 0 112 21 112 80c0 51 -34 77 -104 77h-98z" />
    <glyph glyph-name="Igrave" unicode="&#xcc;" horiz-adv-x="271" 
d="M185 708v-708h-99v708h99zM109 764l-137 144h114l100 -144h-77z" />
    <glyph glyph-name="sacute" unicode="&#x15b;" horiz-adv-x="444" 
d="M402 409l-65 -55c-21 34 -62 59 -110 59c-43 0 -88 -17 -88 -62c0 -40 36 -55 108 -71c90 -20 159 -57 159 -140c0 -112 -93 -153 -189 -153c-72 0 -146 28 -191 85l67 57c25 -37 73 -66 126 -66c47 0 94 17 94 69c0 44 -43 60 -124 79c-63 15 -138 42 -138 131
c0 102 89 145 179 145c67 0 138 -27 172 -78zM372 708l-136 -144h-77l100 144h113z" />
    <glyph glyph-name="caron.cap" 
d="M290 908l-112 -144h-107l-111 144h90l76 -99l76 99h88z" />
    <glyph glyph-name="ebreve" unicode="&#x115;" horiz-adv-x="573" 
d="M146 279h282c-2 75 -46 134 -133 134c-81 0 -143 -60 -149 -134zM523 241c0 -10 0 -21 -1 -32h-376c3 -81 71 -144 154 -144c64 0 111 32 138 72l66 -53c-51 -66 -120 -97 -204 -97c-144 0 -250 100 -250 249c0 148 106 251 245 251c140 0 228 -95 228 -246zM403 708h55
c-8 -91 -71 -138 -159 -138c-89 0 -153 46 -159 138h56c9 -51 53 -72 103 -72c54 0 92 18 104 72z" />
    <glyph glyph-name="Adieresis" unicode="&#xc4;" horiz-adv-x="711" 
d="M186 174l-71 -174h-110l307 708h90l304 -708h-112l-72 174h-336zM354 593l-133 -332h265zM198 845c0 32 26 61 62 61c35 0 62 -27 62 -61c0 -33 -27 -60 -62 -60c-36 0 -62 29 -62 60zM392 845c0 32 26 61 62 61c35 0 62 -27 62 -61c0 -33 -27 -60 -62 -60
c-36 0 -62 29 -62 60z" />
    <glyph glyph-name="Lacute" unicode="&#x139;" horiz-adv-x="511" 
d="M185 708v-620h316v-88h-415v708h99zM303 908l-137 -144h-76l99 144h114z" />
    <glyph glyph-name="two.sc" horiz-adv-x="504" 
d="M429 81v-81h-356v83l196 195c39 39 58 76 58 115c0 40 -28 75 -76 75c-45 0 -77 -30 -87 -84l-91 16c15 90 84 150 178 150c96 0 173 -52 173 -154c0 -61 -32 -117 -89 -173l-147 -142h241z" />
    <glyph glyph-name="Hcircumflex" unicode="&#x124;" horiz-adv-x="729" 
d="M86 0v708h99v-296h358v296h100v-708h-100v324h-358v-324h-99zM418 908l112 -144h-91l-75 99l-76 -99h-90l112 144h108z" />
    <glyph glyph-name="dotaccent.sc" 
d="M188 675c0 -34 -29 -60 -63 -60s-62 27 -62 60c0 34 28 61 62 61s63 -26 63 -61z" />
    <glyph glyph-name="eth" unicode="&#xf0;" horiz-adv-x="610" 
d="M481 713l-110 -54c102 -103 185 -243 185 -397c0 -142 -78 -275 -255 -275c-147 0 -255 104 -255 250s109 250 251 250c50 0 92 -15 130 -49l2 2c-35 66 -84 132 -141 180l-110 -53l-48 47l110 53c-26 25 -61 50 -89 70l77 47c35 -27 71 -57 93 -78l108 53zM142 237
c0 -90 57 -170 159 -170s158 80 158 170s-56 170 -158 170s-159 -80 -159 -170z" />
    <glyph glyph-name="cdotaccent" unicode="&#x10b;" horiz-adv-x="494" 
d="M481 409l-68 -55c-20 31 -64 54 -109 54c-98 0 -155 -80 -155 -171c0 -90 57 -171 156 -171c48 0 89 20 114 52l63 -57c-40 -46 -101 -74 -177 -74c-146 0 -255 99 -255 250c0 149 108 250 253 250c67 0 139 -27 178 -78zM363 645c0 -34 -29 -60 -63 -60s-62 27 -62 60
c0 34 28 61 62 61s63 -26 63 -61z" />
    <glyph glyph-name="yen.sc" horiz-adv-x="504" 
d="M86 168h119v60h-119v64h99l-161 244h108l124 -208l120 208h103l-157 -244h96v-64h-120v-60h120v-64h-120v-104h-93v104h-119v64z" />
    <glyph glyph-name="Otilde" unicode="&#xd5;" horiz-adv-x="849" 
d="M800 355c0 -218 -160 -373 -376 -373c-215 0 -374 155 -374 373c0 221 159 371 374 371c216 0 376 -150 376 -371zM693 355c0 155 -104 284 -269 284c-163 0 -267 -129 -267 -284c0 -158 105 -284 267 -284c164 0 269 126 269 284zM306 772h-55c10 58 34 116 102 116
c25 0 52 -9 75 -20c26 -12 49 -22 67 -22c29 0 41 23 48 46h54c-10 -58 -34 -116 -102 -116c-25 0 -53 10 -77 21c-24 12 -46 21 -65 21c-28 0 -41 -23 -47 -46z" />
    <glyph glyph-name="eogonek" unicode="&#x119;" horiz-adv-x="573" 
d="M378 -144l22 -45c-26 -22 -60 -37 -95 -37c-50 0 -97 33 -97 87c0 48 36 94 73 127c-135 8 -231 105 -231 248c0 148 106 251 245 251c140 0 228 -95 228 -246c0 -10 0 -21 -1 -32h-376c3 -81 71 -144 154 -144c64 0 111 32 138 72l66 -53c-43 -55 -98 -86 -164 -94
c-33 -34 -63 -73 -63 -109c0 -26 22 -47 48 -47c19 0 39 9 53 22zM146 279h282c-2 75 -46 134 -133 134c-81 0 -143 -60 -149 -134z" />
    <glyph glyph-name="Icircumflex" unicode="&#xce;" horiz-adv-x="271" 
d="M185 708v-708h-99v708h99zM188 908l112 -144h-91l-75 99l-76 -99h-90l112 144h108z" />
    <glyph glyph-name="scedilla.sc" horiz-adv-x="465" 
d="M408 483l-61 -64c-23 29 -63 49 -105 49c-48 0 -87 -26 -87 -72c0 -49 36 -63 97 -83c75 -24 158 -58 158 -160c0 -100 -66 -153 -152 -164l-38 -58c9 2 17 2 27 2c45 0 94 -19 94 -78c0 -70 -70 -90 -127 -90c-34 0 -75 9 -103 23l20 42c24 -11 51 -17 77 -17
c22 0 61 8 61 42c0 29 -27 38 -54 38c-12 0 -28 -3 -41 -7l-20 20l53 81c-70 3 -135 33 -173 82l66 61c32 -43 82 -60 123 -60c50 0 93 23 93 71c0 53 -43 74 -117 97c-70 22 -139 53 -139 151c0 110 94 161 188 161c66 0 123 -26 160 -67z" />
    <glyph glyph-name="cent.sc" horiz-adv-x="504" 
d="M274 71v332c-80 -15 -123 -83 -123 -166c0 -82 45 -150 123 -166zM325 404v-334c42 1 80 24 102 53l64 -60c-43 -49 -105 -72 -166 -75v-66h-51v67c-134 13 -216 117 -216 249c0 134 82 231 216 247v65h51v-64c62 -3 124 -25 166 -75l-66 -60c-23 29 -58 51 -100 53z" />
    <glyph glyph-name="gcircumflex" unicode="&#x11d;" horiz-adv-x="632" 
d="M58 -154l60 73c41 -46 108 -77 173 -77c125 0 167 77 167 175v61h-2c-35 -53 -100 -82 -167 -82c-145 0 -239 108 -239 244s93 247 238 247c68 0 135 -30 171 -89h2v76h91v-450c0 -138 -65 -264 -262 -264c-82 0 -173 32 -232 86zM147 242c0 -87 58 -167 157 -167
c97 0 161 73 161 167c0 90 -65 167 -161 167c-99 0 -157 -76 -157 -167zM364 708l112 -144h-91l-75 99l-76 -99h-90l112 144h108z" />
    <glyph glyph-name="uogonek.sc" horiz-adv-x="595" 
d="M376 -150l22 -45c-26 -22 -60 -37 -95 -37c-50 0 -97 33 -97 87c0 50 40 98 78 131c-131 6 -206 96 -206 214v336h96v-329c0 -71 33 -135 123 -135s124 64 124 135v329h96v-336c0 -108 -63 -192 -173 -210c-36 -36 -69 -77 -69 -115c0 -26 22 -47 48 -47c19 0 39 9 53 22
z" />
    <glyph glyph-name="emacron.sc" horiz-adv-x="507" 
d="M179 238v-157h273v-81h-368v536h356v-80h-261v-141h247v-77h-247zM408 694v-67h-296v67h296z" />
    <glyph glyph-name="rcaron.sc" horiz-adv-x="525" 
d="M180 226v-226h-96v536h191c107 0 196 -36 196 -149c0 -78 -48 -129 -117 -147l139 -240h-111l-125 226h-77zM180 456v-152h83c59 0 111 20 111 80c0 57 -49 72 -105 72h-89zM426 738l-112 -144h-107l-111 144h90l76 -99l76 99h88z" />
    <glyph glyph-name="registered" unicode="&#xae;" horiz-adv-x="600" 
d="M264 511h47c18 0 37 13 37 33c0 21 -22 30 -37 30h-47v-63zM427 368h-72l-55 99h-36v-99h-61v256h110c47 0 97 -19 97 -80c0 -34 -22 -58 -51 -68zM72 493c0 126 102 227 228 227s228 -101 228 -227s-102 -225 -228 -225s-228 99 -228 225zM108 493
c0 -105 86 -192 192 -192s192 87 192 192c0 106 -86 192 -192 192s-192 -86 -192 -192z" />
    <glyph glyph-name="eth.sc" horiz-adv-x="619" 
d="M84 0v244h-69v70h69v222h193c144 0 290 -73 290 -267c0 -185 -148 -269 -292 -269h-191zM180 456v-142h131v-70h-131v-163h80c118 0 205 66 205 188c0 134 -90 187 -205 187h-80z" />
    <glyph glyph-name="Ecaron" unicode="&#x11a;" horiz-adv-x="601" 
d="M185 324v-236h370v-88h-469v708h454v-87h-355v-212h334v-85h-334zM482 908l-112 -144h-107l-111 144h90l76 -99l76 99h88z" />
    <glyph glyph-name="ampersand.sc" horiz-adv-x="619" 
d="M565 284l-100 -157l125 -127h-127l-52 55c-37 -44 -88 -69 -160 -69c-94 0 -181 51 -181 156c0 75 48 125 111 156c-35 40 -53 74 -53 117c0 84 70 135 149 135s146 -48 146 -130c0 -67 -48 -110 -110 -141l91 -93l56 98h105zM334 419c0 33 -24 53 -56 53
c-34 0 -58 -25 -58 -58c0 -24 13 -50 42 -81c53 24 72 55 72 86zM352 115l-119 124c-45 -19 -67 -52 -67 -96c0 -46 35 -79 84 -79c46 0 80 20 102 51z" />
    <glyph glyph-name="rcaron" unicode="&#x159;" horiz-adv-x="362" 
d="M81 372c0 25 -1 71 -4 102h89c2 -24 4 -60 4 -80h3c26 55 81 93 145 93c13 0 26 -1 37 -4l-4 -87c-12 3 -28 5 -43 5c-90 0 -133 -73 -133 -152v-249h-94v372zM378 708l-112 -144h-107l-111 144h90l76 -99l76 99h88z" />
    <glyph glyph-name="eight.onum" horiz-adv-x="595" 
d="M401 373c76 -19 134 -89 134 -180c0 -133 -109 -211 -237 -211c-129 0 -238 78 -238 211c0 94 61 160 134 180v2c-63 22 -109 80 -109 158c0 117 96 193 213 193c116 0 212 -73 212 -191c0 -77 -45 -139 -109 -160v-2zM182 530c0 -65 49 -115 116 -115
c64 0 116 50 116 115c0 68 -53 116 -116 116c-67 0 -116 -48 -116 -116zM159 198c0 -80 57 -135 139 -135c80 0 138 55 138 135c0 77 -58 134 -138 134c-81 0 -139 -56 -139 -134z" />
    <glyph glyph-name="Jcircumflex" unicode="&#x134;" horiz-adv-x="495" 
d="M15 132l92 26c11 -51 49 -88 102 -88c85 0 107 68 107 151v487h99v-491c0 -98 -35 -235 -201 -235c-108 0 -178 62 -199 150zM419 908l112 -144h-91l-75 99l-76 -99h-90l112 144h108z" />
    <glyph glyph-name="ncaron.sc" horiz-adv-x="618" 
d="M200 536l239 -406h2v406h93v-536h-114l-241 404h-2v-404h-93v536h116zM472 738l-112 -144h-107l-111 144h90l76 -99l76 99h88z" />
    <glyph glyph-name="x.sc" horiz-adv-x="508" 
d="M137 536l118 -185l116 185h111l-171 -253l195 -283h-119l-135 210l-135 -210h-115l192 283l-172 253h115z" />
    <glyph glyph-name="Iacute" unicode="&#xcd;" horiz-adv-x="271" 
d="M185 708v-708h-99v708h99zM298 908l-137 -144h-76l99 144h114z" />
    <glyph glyph-name="Euro" unicode="&#x20ac;" horiz-adv-x="595" 
d="M527 613c-33 19 -78 29 -128 29c-98 0 -178 -62 -205 -164h294l-23 -71h-285c-3 -17 -4 -37 -4 -57c0 -14 1 -35 3 -50h256l-23 -71h-222c19 -95 102 -162 208 -162c52 0 95 11 134 36l35 -76c-42 -28 -104 -45 -175 -45c-172 0 -271 117 -298 247h-80l24 71h47
c-1 14 -2 34 -2 50c0 19 1 42 3 57h-70l25 71h56c38 154 155 248 307 248c59 0 117 -13 154 -33z" />
    <glyph glyph-name="threesuperior" unicode="&#xb3;" horiz-adv-x="385" 
d="M143 476v62h27c42 0 80 16 80 63c0 32 -28 53 -61 53c-29 0 -54 -20 -66 -51l-68 23c24 59 76 94 136 94c75 0 135 -38 135 -116c0 -45 -28 -78 -62 -93c42 -13 73 -52 73 -101c0 -87 -72 -130 -146 -130c-68 0 -125 31 -151 105l71 22c12 -36 39 -60 78 -60
c36 0 73 20 73 65c0 50 -49 64 -92 64h-27z" />
    <glyph glyph-name="breve.sc" 
d="M229 738h55c-8 -91 -71 -138 -159 -138c-89 0 -153 46 -159 138h56c9 -51 53 -72 103 -72c54 0 92 18 104 72z" />
    <glyph glyph-name="fl.sc" horiz-adv-x="896" 
d="M180 228v-228h-96v536h347v-80h-251v-150h236v-78h-236zM656 536v-455h230v-81h-326v536h96z" />
    <glyph glyph-name="dcaron.sc" horiz-adv-x="619" 
d="M84 0v536h193c144 0 290 -73 290 -267c0 -185 -148 -269 -292 -269h-191zM180 456v-375h80c118 0 205 66 205 188c0 134 -90 187 -205 187h-80zM465 738l-112 -144h-107l-111 144h90l76 -99l76 99h88z" />
    <glyph glyph-name="agrave.sc" horiz-adv-x="550" 
d="M155 124l-51 -124h-101l228 536h89l227 -536h-104l-50 124h-238zM274 426l-90 -225h179zM242 594l-136 144h113l100 -144h-77z" />
    <glyph glyph-name="rcommaaccent.sc" horiz-adv-x="525" 
d="M180 226v-226h-96v536h191c107 0 196 -36 196 -149c0 -78 -48 -129 -117 -147l139 -240h-111l-125 226h-77zM180 456v-152h83c59 0 111 20 111 80c0 57 -49 72 -105 72h-89zM332 -45l-78 -190h-79l64 190h93z" />
    <glyph glyph-name="ydieresis" unicode="&#xff;" horiz-adv-x="504" 
d="M114 474l147 -372h2l131 372h100l-230 -586c-31 -79 -71 -128 -164 -128c-20 0 -41 2 -62 7l9 83c15 -5 32 -8 47 -8c49 0 68 28 88 79l30 79l-203 474h105zM101 645c0 32 26 61 62 61c35 0 62 -27 62 -61c0 -33 -27 -60 -62 -60c-36 0 -62 29 -62 60zM295 645
c0 32 26 61 62 61c35 0 62 -27 62 -61c0 -33 -27 -60 -62 -60c-36 0 -62 29 -62 60z" />
    <glyph glyph-name="Scommaaccent" unicode="&#x218;" horiz-adv-x="569" 
d="M508 645l-70 -68c-28 39 -79 66 -138 66c-64 0 -138 -35 -138 -115c0 -77 65 -98 145 -124c95 -30 208 -66 208 -207c0 -147 -119 -215 -245 -215c-89 0 -179 35 -233 103l77 65c33 -49 93 -83 158 -83c66 0 142 37 142 121c0 86 -78 109 -168 137s-184 69 -184 199
c0 141 126 202 243 202c82 0 159 -32 203 -81zM345 -45l-78 -190h-79l64 190h93z" />
    <glyph glyph-name="ccaron" unicode="&#x10d;" horiz-adv-x="494" 
d="M481 409l-68 -55c-20 31 -64 54 -109 54c-98 0 -155 -80 -155 -171c0 -90 57 -171 156 -171c48 0 89 20 114 52l63 -57c-40 -46 -101 -74 -177 -74c-146 0 -255 99 -255 250c0 149 108 250 253 250c67 0 139 -27 178 -78zM469 708l-112 -144h-107l-111 144h90l76 -99
l76 99h88z" />
    <glyph glyph-name="Iogonek" unicode="&#x12e;" horiz-adv-x="271" 
d="M205 -144l22 -45c-26 -22 -60 -37 -95 -37c-50 0 -97 33 -97 87s47 106 87 139h-36v708h99v-708h-8c-37 -36 -73 -79 -73 -119c0 -26 22 -47 48 -47c19 0 39 9 53 22z" />
    <glyph glyph-name="u.sc" horiz-adv-x="595" 
d="M297 -14c-139 0 -219 92 -219 214v336h96v-329c0 -71 33 -135 123 -135s124 64 124 135v329h96v-336c0 -122 -81 -214 -220 -214z" />
    <glyph glyph-name="amacron" unicode="&#x101;" horiz-adv-x="542" 
d="M376 294v13c0 70 -47 104 -117 104c-53 0 -103 -23 -135 -55l-50 60c46 44 117 71 194 71c136 0 198 -81 198 -186v-207c0 -32 2 -71 7 -94h-85c-5 21 -8 46 -8 68h-3c-34 -51 -88 -80 -159 -80c-75 0 -172 37 -172 146c0 143 170 160 330 160zM376 226h-23
c-93 0 -211 -10 -211 -90c0 -56 50 -74 97 -74c88 0 137 59 137 139v25zM418 664v-67h-296v67h296z" />
    <glyph glyph-name="uacute.sc" horiz-adv-x="595" 
d="M297 -14c-139 0 -219 92 -219 214v336h96v-329c0 -71 33 -135 123 -135s124 64 124 135v329h96v-336c0 -122 -81 -214 -220 -214zM470 738l-136 -144h-77l100 144h113z" />
    <glyph glyph-name="dcroat" unicode="&#x111;" horiz-adv-x="635" 
d="M295 633h163v123h94v-123h56v-63h-56v-570h-91v75h-2c-36 -57 -104 -88 -171 -88c-146 0 -239 112 -239 251c0 140 96 249 238 249c77 0 136 -38 169 -84h2v167h-163v63zM147 238c0 -89 54 -172 157 -172c96 0 160 80 160 171s-64 172 -160 172
c-103 0 -157 -82 -157 -171z" />
    <glyph glyph-name="zero.onum" horiz-adv-x="697" 
d="M637 270c0 -165 -124 -283 -290 -283c-163 0 -287 118 -287 283c0 168 124 280 287 280c166 0 290 -112 290 -280zM534 270c0 111 -73 195 -187 195c-113 0 -184 -84 -184 -195c0 -113 72 -198 184 -198c114 0 187 85 187 198z" />
    <glyph glyph-name="eacute.sc" horiz-adv-x="507" 
d="M179 238v-157h273v-81h-368v536h356v-80h-261v-141h247v-77h-247zM428 738l-136 -144h-77l100 144h113z" />
    <glyph glyph-name="dotlessj" horiz-adv-x="260" 
d="M-31 -234l10 80c12 -3 27 -5 38 -5c57 0 66 44 66 101v532h94v-535c0 -95 -29 -179 -154 -179c-17 0 -39 3 -54 6z" />
    <glyph glyph-name="atilde" unicode="&#xe3;" horiz-adv-x="542" 
d="M376 294v13c0 70 -47 104 -117 104c-53 0 -103 -23 -135 -55l-50 60c46 44 117 71 194 71c136 0 198 -81 198 -186v-207c0 -32 2 -71 7 -94h-85c-5 21 -8 46 -8 68h-3c-34 -51 -88 -80 -159 -80c-75 0 -172 37 -172 146c0 143 170 160 330 160zM376 226h-23
c-93 0 -211 -10 -211 -90c0 -56 50 -74 97 -74c88 0 137 59 137 139v25zM150 572h-55c10 58 34 116 102 116c25 0 52 -9 75 -20c26 -12 49 -22 67 -22c29 0 41 23 48 46h54c-10 -58 -34 -116 -102 -116c-25 0 -53 10 -77 21c-24 12 -46 21 -65 21c-28 0 -41 -23 -47 -46z
" />
    <glyph glyph-name="eight.sc" horiz-adv-x="504" 
d="M419 401c0 -51 -29 -97 -80 -117v-2c62 -21 100 -68 100 -132c0 -105 -84 -164 -187 -164c-104 0 -188 59 -188 164c0 64 37 111 97 132v2c-47 19 -77 63 -77 115c0 92 75 151 168 151c92 0 167 -56 167 -149zM160 153c0 -53 38 -88 92 -88c53 0 91 35 91 88
c0 52 -39 91 -91 91c-53 0 -92 -39 -92 -91zM176 394c0 -45 34 -74 76 -74c40 0 75 29 75 74c0 46 -34 77 -75 77c-43 0 -76 -31 -76 -77z" />
    <glyph glyph-name="dieresis.sc" 
d="M-34 675c0 32 26 61 62 61c35 0 62 -27 62 -61c0 -33 -27 -60 -62 -60c-36 0 -62 29 -62 60zM160 675c0 32 26 61 62 61c35 0 62 -27 62 -61c0 -33 -27 -60 -62 -60c-36 0 -62 29 -62 60z" />
    <glyph glyph-name="edieresis.sc" horiz-adv-x="507" 
d="M179 238v-157h273v-81h-368v536h356v-80h-261v-141h247v-77h-247zM103 675c0 32 26 61 62 61c35 0 62 -27 62 -61c0 -33 -27 -60 -62 -60c-36 0 -62 29 -62 60zM297 675c0 32 26 61 62 61c35 0 62 -27 62 -61c0 -33 -27 -60 -62 -60c-36 0 -62 29 -62 60z" />
    <glyph glyph-name="caron.alt" 
d="M228 708l-78 -190h-79l64 190h93z" />
    <glyph glyph-name="Kcommaaccent" unicode="&#x136;" horiz-adv-x="659" 
d="M185 708v-312h2l316 312h137l-344 -324l365 -384h-142l-332 366h-2v-366h-99v708h99zM400 -45l-78 -190h-79l64 190h93z" />
    <glyph glyph-name="amacron.sc" horiz-adv-x="550" 
d="M155 124l-51 -124h-101l228 536h89l227 -536h-104l-50 124h-238zM274 426l-90 -225h179zM422 694v-67h-296v67h296z" />
    <glyph glyph-name="Ncommaaccent" unicode="&#x145;" horiz-adv-x="772" 
d="M215 708l370 -566h2v566h99v-708h-125l-374 578h-2v-578h-99v708h129zM455 -45l-78 -190h-79l64 190h93z" />
    <glyph glyph-name="ccedilla" unicode="&#xe7;" horiz-adv-x="494" 
d="M481 409l-68 -55c-20 31 -64 54 -109 54c-98 0 -155 -80 -155 -171c0 -90 57 -171 156 -171c48 0 89 20 114 52l63 -57c-38 -44 -94 -71 -165 -74l-37 -56c9 2 17 2 27 2c45 0 94 -19 94 -78c0 -70 -70 -90 -127 -90c-34 0 -75 9 -103 23l20 42c24 -11 51 -17 77 -17
c22 0 61 8 61 42c0 29 -27 38 -54 38c-12 0 -28 -3 -41 -7l-20 20l55 83c-128 15 -219 110 -219 248c0 149 108 250 253 250c67 0 139 -27 178 -78z" />
    <glyph glyph-name="Itilde" unicode="&#x128;" horiz-adv-x="271" 
d="M185 708v-708h-99v708h99zM17 772h-55c10 58 34 116 102 116c25 0 52 -9 75 -20c26 -12 49 -22 67 -22c29 0 41 23 48 46h54c-10 -58 -34 -116 -102 -116c-25 0 -53 10 -77 21c-24 12 -46 21 -65 21c-28 0 -41 -23 -47 -46z" />
    <glyph glyph-name="thorn" unicode="&#xfe;" horiz-adv-x="636" 
d="M175 71v-311h-93v996h93v-356h3c29 50 91 87 169 87c141 0 237 -109 237 -249c0 -139 -93 -251 -239 -251c-67 0 -132 31 -167 84h-3zM487 238c0 89 -55 171 -158 171c-96 0 -160 -81 -160 -172s64 -171 160 -171c103 0 158 83 158 172z" />
    <glyph glyph-name="brokenbar" unicode="&#xa6;" horiz-adv-x="222" 
d="M70 675h82v-350h-82v350zM70 175h82v-350h-82v350z" />
    <glyph glyph-name="ccircumflex.sc" horiz-adv-x="566" 
d="M472 140l76 -53c-51 -62 -113 -101 -213 -101c-168 0 -283 113 -283 283c0 168 124 281 289 281c79 0 154 -31 197 -87l-75 -59c-28 40 -75 61 -124 61c-112 0 -184 -85 -184 -196c0 -109 78 -198 180 -198c55 0 102 21 137 69zM394 738l112 -144h-91l-75 99l-76 -99h-90
l112 144h108z" />
    <glyph glyph-name="Eogonek" unicode="&#x118;" horiz-adv-x="601" 
d="M568 -144l22 -45c-26 -22 -60 -37 -95 -37c-50 0 -97 33 -97 87s47 106 87 139h-399v708h454v-87h-355v-212h334v-85h-334v-236h370v-88h-15c-37 -36 -73 -79 -73 -119c0 -26 22 -47 48 -47c19 0 39 9 53 22z" />
    <glyph glyph-name="eacute" unicode="&#xe9;" horiz-adv-x="573" 
d="M146 279h282c-2 75 -46 134 -133 134c-81 0 -143 -60 -149 -134zM523 241c0 -10 0 -21 -1 -32h-376c3 -81 71 -144 154 -144c64 0 111 32 138 72l66 -53c-51 -66 -120 -97 -204 -97c-144 0 -250 100 -250 249c0 148 106 251 245 251c140 0 228 -95 228 -246zM458 708
l-136 -144h-77l100 144h113z" />
    <glyph glyph-name="g.sc" horiz-adv-x="625" 
d="M544 478l-67 -69c-31 34 -80 56 -137 56c-114 0 -185 -86 -185 -196s74 -198 189 -198c43 0 78 7 108 21v132h-113v78h209v-268c-57 -30 -126 -48 -206 -48c-171 0 -290 118 -290 283c0 168 123 281 287 281c86 0 159 -29 205 -72z" />
    <glyph glyph-name="Eth" unicode="&#xd0;" horiz-adv-x="761" 
d="M82 0v335h-69v70h69v303h258c181 0 366 -116 366 -354c0 -239 -200 -354 -374 -354h-250zM182 335v-245h117c186 0 301 105 301 264s-106 264 -291 264h-127v-213h237v-70h-237z" />
    <glyph glyph-name="Lcommaaccent" unicode="&#x13b;" horiz-adv-x="511" 
d="M185 708v-620h316v-88h-415v708h99zM355 -45l-78 -190h-79l64 190h93z" />
    <glyph glyph-name="ecaron.sc" horiz-adv-x="507" 
d="M179 238v-157h273v-81h-368v536h356v-80h-261v-141h247v-77h-247zM428 738l-112 -144h-107l-111 144h90l76 -99l76 99h88z" />
    <glyph glyph-name="estimated" unicode="&#x212e;" horiz-adv-x="604" 
d="M561 259h-404v-181c39 -39 87 -59 145 -59c83 0 143 36 193 120l35 -21c-61 -95 -123 -135 -228 -135c-157 0 -258 122 -258 276c0 155 101 276 258 276c154 0 258 -114 259 -276zM157 295h291v145c-42 40 -91 60 -147 60c-57 0 -105 -21 -144 -60v-145z" />
    <glyph glyph-name="eogonek.sc" horiz-adv-x="507" 
d="M440 -150l22 -45c-26 -22 -60 -37 -95 -37c-50 0 -97 33 -97 87c0 57 53 112 95 145h-281v536h356v-80h-261v-141h247v-77h-247v-157h273v-81h-33c-39 -38 -80 -83 -80 -125c0 -26 22 -47 48 -47c19 0 39 9 53 22z" />
    <glyph glyph-name="lcommaaccent.sc" horiz-adv-x="420" 
d="M180 536v-455h230v-81h-326v536h96zM310 -45l-78 -190h-79l64 190h93z" />
    <glyph glyph-name="edieresis" unicode="&#xeb;" horiz-adv-x="573" 
d="M146 279h282c-2 75 -46 134 -133 134c-81 0 -143 -60 -149 -134zM523 241c0 -10 0 -21 -1 -32h-376c3 -81 71 -144 154 -144c64 0 111 32 138 72l66 -53c-51 -66 -120 -97 -204 -97c-144 0 -250 100 -250 249c0 148 106 251 245 251c140 0 228 -95 228 -246zM141 645
c0 32 26 61 62 61c35 0 62 -27 62 -61c0 -33 -27 -60 -62 -60c-36 0 -62 29 -62 60zM335 645c0 32 26 61 62 61c35 0 62 -27 62 -61c0 -33 -27 -60 -62 -60c-36 0 -62 29 -62 60z" />
    <glyph glyph-name="ae.sc" horiz-adv-x="840" 
d="M513 238v-157h272v-81h-368v134h-215l-83 -134h-115l345 536h424v-80h-260v-141h246v-77h-246zM407 462l-157 -251h167v251h-10z" />
    <glyph glyph-name="ccaron.sc" horiz-adv-x="566" 
d="M472 140l76 -53c-51 -62 -113 -101 -213 -101c-168 0 -283 113 -283 283c0 168 124 281 289 281c79 0 154 -31 197 -87l-75 -59c-28 40 -75 61 -124 61c-112 0 -184 -85 -184 -196c0 -109 78 -198 180 -198c55 0 102 21 137 69zM505 738l-112 -144h-107l-111 144h90
l76 -99l76 99h88z" />
    <glyph glyph-name="ecircumflex" unicode="&#xea;" horiz-adv-x="573" 
d="M146 279h282c-2 75 -46 134 -133 134c-81 0 -143 -60 -149 -134zM523 241c0 -10 0 -21 -1 -32h-376c3 -81 71 -144 154 -144c64 0 111 32 138 72l66 -53c-51 -66 -120 -97 -204 -97c-144 0 -250 100 -250 249c0 148 106 251 245 251c140 0 228 -95 228 -246zM355 708
l112 -144h-91l-75 99l-76 -99h-90l112 144h108z" />
    <glyph glyph-name="v.sc" horiz-adv-x="504" 
d="M102 536l150 -410h3l150 410h101l-212 -536h-86l-210 536h104z" />
    <glyph glyph-name="thorn.sc" horiz-adv-x="505" 
d="M84 0v536h96v-95h92c134 0 197 -54 197 -152c0 -96 -74 -158 -203 -158h-86v-131h-96zM180 361v-152h80c80 0 111 30 111 80c0 48 -28 72 -108 72h-83z" />
    <glyph glyph-name="ring.cap" 
d="M226 853c0 -57 -45 -99 -101 -99c-55 0 -100 42 -100 98c0 57 44 99 100 99s101 -42 101 -98zM185 853c0 33 -27 58 -60 58s-59 -26 -59 -59c0 -32 26 -57 59 -57s60 25 60 58z" />
    <glyph glyph-name="emacron" unicode="&#x113;" horiz-adv-x="573" 
d="M146 279h282c-2 75 -46 134 -133 134c-81 0 -143 -60 -149 -134zM523 241c0 -10 0 -21 -1 -32h-376c3 -81 71 -144 154 -144c64 0 111 32 138 72l66 -53c-51 -66 -120 -97 -204 -97c-144 0 -250 100 -250 249c0 148 106 251 245 251c140 0 228 -95 228 -246zM444 664v-67
h-296v67h296z" />
    <glyph glyph-name="e.sc" horiz-adv-x="507" 
d="M179 238v-157h273v-81h-368v536h356v-80h-261v-141h247v-77h-247z" />
    <glyph glyph-name="abreve.sc" horiz-adv-x="550" 
d="M155 124l-51 -124h-101l228 536h89l227 -536h-104l-50 124h-238zM274 426l-90 -225h179zM378 738h55c-8 -91 -71 -138 -159 -138c-89 0 -153 46 -159 138h56c9 -51 53 -72 103 -72c54 0 92 18 104 72z" />
    <glyph glyph-name="adieresis.sc" horiz-adv-x="550" 
d="M155 124l-51 -124h-101l228 536h89l227 -536h-104l-50 124h-238zM274 426l-90 -225h179zM116 675c0 32 26 61 62 61c35 0 62 -27 62 -61c0 -33 -27 -60 -62 -60c-36 0 -62 29 -62 60zM310 675c0 32 26 61 62 61c35 0 62 -27 62 -61c0 -33 -27 -60 -62 -60
c-36 0 -62 29 -62 60z" />
    <glyph glyph-name="ccircumflex" unicode="&#x109;" horiz-adv-x="494" 
d="M481 409l-68 -55c-20 31 -64 54 -109 54c-98 0 -155 -80 -155 -171c0 -90 57 -171 156 -171c48 0 89 20 114 52l63 -57c-40 -46 -101 -74 -177 -74c-146 0 -255 99 -255 250c0 149 108 250 253 250c67 0 139 -27 178 -78zM357 708l112 -144h-91l-75 99l-76 -99h-90
l112 144h108z" />
    <glyph glyph-name="five.sc" horiz-adv-x="504" 
d="M410 536v-80h-212l-4 -116c17 5 38 8 55 8c109 0 185 -66 185 -174c0 -110 -80 -188 -196 -188c-84 0 -151 40 -181 118l83 37c19 -54 58 -74 99 -74c59 0 100 41 100 102c0 72 -49 103 -108 103c-39 0 -87 -15 -130 -38l8 302h301z" />
    <glyph glyph-name="ecircumflex.sc" horiz-adv-x="507" 
d="M179 238v-157h273v-81h-368v536h356v-80h-261v-141h247v-77h-247zM316 738l112 -144h-91l-75 99l-76 -99h-90l112 144h108z" />
    <glyph glyph-name="circumflex.cap" 
d="M179 908l112 -144h-91l-75 99l-76 -99h-90l112 144h108z" />
    <glyph glyph-name="commaaccent" 
d="M202 -45l-78 -190h-79l64 190h93z" />
    <glyph glyph-name="ycircumflex" unicode="&#x177;" horiz-adv-x="504" 
d="M114 474l147 -372h2l131 372h100l-230 -586c-31 -79 -71 -128 -164 -128c-20 0 -41 2 -62 7l9 83c15 -5 32 -8 47 -8c49 0 68 28 88 79l30 79l-203 474h105zM314 708l112 -144h-91l-75 99l-76 -99h-90l112 144h108z" />
    <glyph glyph-name="Nacute" unicode="&#x143;" horiz-adv-x="772" 
d="M215 708l370 -566h2v566h99v-708h-125l-374 578h-2v-578h-99v708h129zM528 908l-137 -144h-76l99 144h114z" />
    <glyph glyph-name="rcommaaccent" unicode="&#x157;" horiz-adv-x="362" 
d="M81 372c0 25 -1 71 -4 102h89c2 -24 4 -60 4 -80h3c26 55 81 93 145 93c13 0 26 -1 37 -4l-4 -87c-12 3 -28 5 -43 5c-90 0 -133 -73 -133 -152v-249h-94v372zM192 -45l-78 -190h-79l64 190h93z" />
    <glyph glyph-name="cacute.sc" horiz-adv-x="566" 
d="M472 140l76 -53c-51 -62 -113 -101 -213 -101c-168 0 -283 113 -283 283c0 168 124 281 289 281c79 0 154 -31 197 -87l-75 -59c-28 40 -75 61 -124 61c-112 0 -184 -85 -184 -196c0 -109 78 -198 180 -198c55 0 102 21 137 69zM475 738l-136 -144h-77l100 144h113z" />
    <glyph glyph-name="egrave" unicode="&#xe8;" horiz-adv-x="573" 
d="M146 279h282c-2 75 -46 134 -133 134c-81 0 -143 -60 -149 -134zM523 241c0 -10 0 -21 -1 -32h-376c3 -81 71 -144 154 -144c64 0 111 32 138 72l66 -53c-51 -66 -120 -97 -204 -97c-144 0 -250 100 -250 249c0 148 106 251 245 251c140 0 228 -95 228 -246zM270 564
l-136 144h113l100 -144h-77z" />
    <glyph glyph-name="breve.cap" 
d="M229 908h55c-8 -91 -71 -138 -159 -138c-89 0 -153 46 -159 138h56c9 -51 53 -72 103 -72c54 0 92 18 104 72z" />
    <glyph glyph-name="tcommaaccent" unicode="&#x163;" horiz-adv-x="329" 
d="M313 474v-77h-126v-247c0 -57 20 -80 67 -80c17 0 39 4 55 12l3 -77c-22 -8 -51 -13 -80 -13c-89 0 -138 50 -138 148v257h-91v77h91v136h93v-136h126zM261 -45l-78 -190h-79l64 190h93z" />
    <glyph glyph-name="dcaron" unicode="&#x10f;" horiz-adv-x="697" 
d="M459 75c-36 -57 -104 -88 -171 -88c-146 0 -239 112 -239 251c0 140 96 249 238 249c77 0 136 -38 169 -84h2v353h94v-756h-91v75h-2zM147 238c0 -89 54 -172 157 -172c96 0 160 80 160 171s-64 172 -160 172c-103 0 -157 -82 -157 -171zM743 708l-78 -190h-79l64 190h93
z" />
    <glyph glyph-name="gbreve" unicode="&#x11f;" horiz-adv-x="632" 
d="M58 -154l60 73c41 -46 108 -77 173 -77c125 0 167 77 167 175v61h-2c-35 -53 -100 -82 -167 -82c-145 0 -239 108 -239 244s93 247 238 247c68 0 135 -30 171 -89h2v76h91v-450c0 -138 -65 -264 -262 -264c-82 0 -173 32 -232 86zM147 242c0 -87 58 -167 157 -167
c97 0 161 73 161 167c0 90 -65 167 -161 167c-99 0 -157 -76 -157 -167zM410 708h55c-8 -91 -71 -138 -159 -138c-89 0 -153 46 -159 138h56c9 -51 53 -72 103 -72c54 0 92 18 104 72z" />
    <glyph glyph-name="edotaccent.sc" horiz-adv-x="507" 
d="M179 238v-157h273v-81h-368v536h356v-80h-261v-141h247v-77h-247zM328 675c0 -34 -29 -60 -63 -60s-62 27 -62 60c0 34 28 61 62 61s63 -26 63 -61z" />
    <glyph glyph-name="six.sc" horiz-adv-x="504" 
d="M158 165c0 -59 42 -99 96 -99c55 0 95 42 95 100c0 56 -37 98 -95 98c-56 0 -96 -42 -96 -99zM221 328l1 -1c16 7 37 11 52 11c97 0 170 -65 170 -169c0 -109 -82 -183 -190 -183c-110 0 -191 73 -191 178c0 57 25 114 60 169l127 203h112z" />
    <glyph glyph-name="egrave.sc" horiz-adv-x="507" 
d="M179 238v-157h273v-81h-368v536h356v-80h-261v-141h247v-77h-247zM242 594l-136 144h113l100 -144h-77z" />
    <glyph glyph-name="c.sc" horiz-adv-x="566" 
d="M472 140l76 -53c-51 -62 -113 -101 -213 -101c-168 0 -283 113 -283 283c0 168 124 281 289 281c79 0 154 -31 197 -87l-75 -59c-28 40 -75 61 -124 61c-112 0 -184 -85 -184 -196c0 -109 78 -198 180 -198c55 0 102 21 137 69z" />
    <glyph glyph-name="circumflex.sc" 
d="M179 738l112 -144h-91l-75 99l-76 -99h-90l112 144h108z" />
    <glyph glyph-name="degree" unicode="&#xb0;" horiz-adv-x="400" 
d="M355 565c0 -87 -68 -154 -155 -154s-155 67 -155 154s68 155 155 155s155 -68 155 -155zM291 565c0 51 -41 92 -91 92s-91 -41 -91 -92c0 -50 41 -91 91 -91s91 41 91 91z" />
    <glyph glyph-name="t.sc" horiz-adv-x="442" 
d="M268 456v-456h-96v456h-164v80h426v-80h-166z" />
    <glyph glyph-name="dieresis.cap" 
d="M-34 845c0 32 26 61 62 61c35 0 62 -27 62 -61c0 -33 -27 -60 -62 -60c-36 0 -62 29 -62 60zM160 845c0 32 26 61 62 61c35 0 62 -27 62 -61c0 -33 -27 -60 -62 -60c-36 0 -62 29 -62 60z" />
    <glyph glyph-name="sacute.sc" horiz-adv-x="465" 
d="M408 483l-61 -64c-23 29 -63 49 -105 49c-48 0 -87 -26 -87 -72c0 -49 36 -63 97 -83c75 -24 158 -58 158 -160c0 -114 -86 -167 -189 -167c-75 0 -146 31 -187 83l66 61c32 -43 82 -60 123 -60c50 0 93 23 93 71c0 53 -43 74 -117 97c-70 22 -139 53 -139 151
c0 110 94 161 188 161c66 0 123 -26 160 -67zM390 738l-136 -144h-77l100 144h113z" />
    <glyph glyph-name="caron.sc" 
d="M290 738l-112 -144h-107l-111 144h90l76 -99l76 99h88z" />
    <glyph glyph-name="cacute" unicode="&#x107;" horiz-adv-x="494" 
d="M481 409l-68 -55c-20 31 -64 54 -109 54c-98 0 -155 -80 -155 -171c0 -90 57 -171 156 -171c48 0 89 20 114 52l63 -57c-40 -46 -101 -74 -177 -74c-146 0 -255 99 -255 250c0 149 108 250 253 250c67 0 139 -27 178 -78zM456 708l-136 -144h-77l100 144h113z" />
    <glyph glyph-name="copyright" unicode="&#xa9;" horiz-adv-x="800" 
d="M20 353c0 210 171 377 381 377c209 0 379 -167 379 -377c0 -209 -170 -375 -379 -375c-210 0 -381 166 -381 375zM80 353c0 -176 144 -319 321 -319c176 0 319 143 319 319c0 177 -143 321 -319 321c-177 0 -321 -144 -321 -321zM573 519l-58 -46c-23 31 -63 44 -98 44
c-89 0 -149 -68 -149 -157c0 -94 57 -159 146 -159c46 0 83 20 105 50l61 -43c-38 -48 -94 -76 -167 -76c-134 0 -230 93 -230 228c0 138 101 225 234 225c56 0 122 -21 156 -66z" />
    <glyph glyph-name="d.sc" horiz-adv-x="619" 
d="M84 0v536h193c144 0 290 -73 290 -267c0 -185 -148 -269 -292 -269h-191zM180 456v-375h80c118 0 205 66 205 188c0 134 -90 187 -205 187h-80z" />
    <glyph glyph-name="cdotaccent.sc" horiz-adv-x="566" 
d="M472 140l76 -53c-51 -62 -113 -101 -213 -101c-168 0 -283 113 -283 283c0 168 124 281 289 281c79 0 154 -31 197 -87l-75 -59c-28 40 -75 61 -124 61c-112 0 -184 -85 -184 -196c0 -109 78 -198 180 -198c55 0 102 21 137 69zM402 675c0 -34 -29 -60 -63 -60
s-62 27 -62 60c0 34 28 61 62 61s63 -26 63 -61z" />
    <glyph glyph-name="f.sc" horiz-adv-x="476" 
d="M180 228v-228h-96v536h347v-80h-251v-150h236v-78h-236z" />
    <glyph glyph-name="gcommaaccent" unicode="&#x123;" horiz-adv-x="632" 
d="M58 -154l60 73c41 -46 108 -77 173 -77c125 0 167 77 167 175v61h-2c-35 -53 -100 -82 -167 -82c-145 0 -239 108 -239 244s93 247 238 247c68 0 135 -30 171 -89h2v76h91v-450c0 -138 -65 -264 -262 -264c-82 0 -173 32 -232 86zM147 242c0 -87 58 -167 157 -167
c97 0 161 73 161 167c0 90 -65 167 -161 167c-99 0 -157 -76 -157 -167zM272 564l78 190h79l-64 -190h-93z" />
    <glyph glyph-name="commaaccent.alt" 
d="M70 564l78 190h79l-64 -190h-93z" />
    <glyph glyph-name="tcaron.sc" horiz-adv-x="442" 
d="M268 456v-456h-96v456h-164v80h426v-80h-166zM385 738l-112 -144h-107l-111 144h90l76 -99l76 99h88z" />
    <glyph glyph-name="gdotaccent.sc" horiz-adv-x="625" 
d="M544 478l-67 -69c-31 34 -80 56 -137 56c-114 0 -185 -86 -185 -196s74 -198 189 -198c43 0 78 7 108 21v132h-113v78h209v-268c-57 -30 -126 -48 -206 -48c-171 0 -290 118 -290 283c0 168 123 281 287 281c86 0 159 -29 205 -72zM403 675c0 -34 -29 -60 -63 -60
s-62 27 -62 60c0 34 28 61 62 61s63 -26 63 -61z" />
    <glyph glyph-name="gcommaaccent.sc" horiz-adv-x="625" 
d="M544 478l-67 -69c-31 34 -80 56 -137 56c-114 0 -185 -86 -185 -196s74 -198 189 -198c43 0 78 7 108 21v132h-113v78h209v-268c-57 -30 -126 -48 -206 -48c-171 0 -290 118 -290 283c0 168 123 281 287 281c86 0 159 -29 205 -72zM395 -45l-78 -190h-79l64 190h93z" />
    <glyph glyph-name="gcircumflex.sc" horiz-adv-x="625" 
d="M544 478l-67 -69c-31 34 -80 56 -137 56c-114 0 -185 -86 -185 -196s74 -198 189 -198c43 0 78 7 108 21v132h-113v78h209v-268c-57 -30 -126 -48 -206 -48c-171 0 -290 118 -290 283c0 168 123 281 287 281c86 0 159 -29 205 -72zM397 738l112 -144h-91l-75 99l-76 -99
h-90l112 144h108z" />
    <glyph glyph-name="space" unicode=" " 
 />
    <glyph glyph-name=".null" horiz-adv-x="500" 
 />
    <glyph glyph-name=".null" horiz-adv-x="500" 
 />
    </font>
</defs>
</svg>
