<?xml version="1.0" standalone="no"?>
<!DOCTYPE svg PUBLIC "-//W3C//DTD SVG 1.1//EN" "http://www.w3.org/Graphics/SVG/1.1/DTD/svg11.dtd" >
<svg xmlns="http://www.w3.org/2000/svg" xmlns:xlink="http://www.w3.org/1999/xlink" version="1.1">
<metadata>
Created by FontForge 20161003 at Tue Dec  6 05:10:28 2016
 By www-data
Designed by Paul van der Laan, Pieter van Rosmalen &#38; Mike Abbink 2013. Produced by Bold Monday. FOR EXCLUSIVE USE BY GENERAL ELECTRIC COMPANY AND ITS AFFILIATES ONLY.
</metadata>
<defs>
<font id="GEInspiraSansItalicv01" horiz-adv-x="1064" >
  <font-face 
    font-family="GEInspiraSansItalicv01"
    font-weight="400"
    font-style="italic"
    font-stretch="normal"
    units-per-em="2048"
    panose-1="2 11 5 3 6 0 0 0 0 3"
    ascent="1588"
    descent="-460"
    x-height="960"
    cap-height="1324"
    bbox="-472 -468 2184 1906"
    underline-thickness="124"
    underline-position="-352"
    slope="-9"
    unicode-range="U+0020-FB02"
  />
<missing-glyph horiz-adv-x="460" 
d="M136 -380q-20 0 -28 8t-8 28v1768q0 20 8 28t28 8h188q20 0 28 -8t8 -28v-1768q0 -20 -8 -28t-28 -8h-188z" />
    <glyph glyph-name="f_b" unicode="fb" horiz-adv-x="1586" 
d="M658 0q-36 0 -30 36l202 1272q-53 22 -126 22q-51 0 -95.5 -13.5t-80 -45t-60.5 -83.5t-38 -130l-16 -98h186q36 0 30 -36l-6 -46q-3 -20 -12.5 -28t-29.5 -8h-186l-190 -1206q-3 -20 -12.5 -28t-29.5 -8h-80q-36 0 -30 36l190 1206h-126q-36 0 -30 36l6 46q3 20 12.5 28
t29.5 8h126l14 86q19 115 58 193.5t94.5 126.5t125 69t148.5 21q44 0 80 -5.5t68 -14.5h116q36 0 30 -36l-96 -600q59 92 136.5 136t175.5 44q86 0 144 -31t93 -83.5t50 -121t15 -144.5q0 -128 -36.5 -240.5t-101 -197t-154.5 -133.5t-196 -49q-91 0 -151 32.5t-87 77.5
l-8 -54q-3 -20 -12.5 -28t-29.5 -8h-80zM1360 598q0 46 -7 92.5t-28 84t-58 60.5t-97 23q-61 0 -113 -25t-92.5 -69t-68 -103.5t-38.5 -128.5l-52 -326q26 -41 78.5 -69.5t127.5 -28.5q88 0 153 43t108.5 112t65 157t21.5 178z" />
    <glyph glyph-name="f_f" unicode="ff" horiz-adv-x="1090" 
d="M396 842l-190 -1206q-3 -20 -12.5 -28t-29.5 -8h-80q-30 0 -30 28v7t2 13l188 1194h-124q-17 0 -24.5 6.5t-7.5 23.5v6.5t2 17.5l4 28q3 20 12.5 28t29.5 8h126l14 86q19 115 58.5 193.5t95 126.5t124.5 69t146 21q75 0 136.5 -18t105.5 -48q45 36 97.5 51t108.5 15
q53 0 95.5 -10.5t72.5 -27.5q20 -10 20 -28q0 -8 -6 -20l-32 -54q-6 -11 -11 -14.5t-13 -3.5q-5 0 -12.5 2t-25.5 10q-14 6 -36.5 11t-49.5 5q-85 0 -136 -61.5t-72 -194.5l-18 -110h200q17 0 24.5 -6.5t7.5 -23.5v-6.5t-2 -17.5l-4 -28q-3 -20 -12.5 -28t-29.5 -8h-202
l-190 -1206q-3 -20 -12.5 -28t-29.5 -8h-80q-30 0 -30 28v7t2 13l188 1194h-358zM772 960l16 98q12 77 31 135.5t45 102.5q-30 15 -71 25.5t-91 10.5t-94 -13.5t-79.5 -45.5t-60.5 -84.5t-38 -130.5l-16 -98h358z" />
    <glyph glyph-name="f_h" unicode="fh" horiz-adv-x="1598" 
d="M702 1456q44 0 80 -5.5t68 -14.5h116q36 0 30 -36l-96 -596q25 37 57.5 69.5t72.5 56t87.5 37t102.5 13.5q68 0 119 -20t84.5 -57t50 -89t16.5 -116q0 -27 -2.5 -65t-7.5 -65l-84 -532q-3 -20 -12.5 -28t-29.5 -8h-80q-36 0 -30 36l84 532q6 41 8 66t2 42q0 37 -8 69.5
t-26.5 57t-49 39t-76.5 14.5q-64 0 -118.5 -28t-96.5 -76.5t-70.5 -115t-40.5 -142.5l-72 -458q-3 -20 -12.5 -28t-29.5 -8h-80q-36 0 -30 36l202 1272q-53 22 -126 22q-51 0 -95.5 -13.5t-80 -45t-60.5 -83.5t-38 -130l-16 -98h186q36 0 30 -36l-6 -46q-3 -20 -12.5 -28
t-29.5 -8h-186l-190 -1206q-3 -20 -12.5 -28t-29.5 -8h-80q-36 0 -30 36l190 1206h-126q-36 0 -30 36l6 46q3 20 12.5 28t29.5 8h126l14 86q19 115 58 193.5t94.5 126.5t125 69t148.5 21z" />
    <glyph glyph-name="f_i" unicode="fi" horiz-adv-x="1018" 
d="M754 842h-358l-190 -1206q-3 -20 -12.5 -28t-29.5 -8h-80q-30 0 -30 28v7t2 13l188 1194h-124q-17 0 -24.5 6.5t-7.5 23.5v6.5t2 17.5l4 28q3 20 12.5 28t29.5 8h126l14 86q19 115 58 193.5t93 126.5t121.5 69t143.5 21q74 0 127 -15.5t91 -42.5q18 -12 18 -26
q0 -6 -2.5 -12.5t-5.5 -11.5l-34 -54q-5 -8 -10.5 -13t-13.5 -5q-11 0 -24 8q-30 20 -66.5 31t-83.5 11q-49 0 -91 -14t-75 -45.5t-56.5 -83t-35.5 -125.5l-16 -98h476q30 0 30 -28v-7t-2 -13l-138 -876q-3 -20 -12.5 -28t-29.5 -8h-80q-30 0 -30 28v7t2 13z" />
    <glyph glyph-name="f_j" unicode="fj" horiz-adv-x="1018" 
d="M756 -114q-13 -82 -38.5 -140t-63 -95t-86 -54t-106.5 -17q-39 0 -74 7.5t-64 24.5q-20 11 -20 28q0 8 6 20l22 48q6 12 10.5 17t13.5 5t24 -6t30.5 -10t35.5 -4q37 0 64.5 15t47 42.5t32 65.5t20.5 85l144 924h-358l-190 -1206q-3 -20 -12.5 -28t-29.5 -8h-80
q-30 0 -30 28v7t2 13l188 1194h-124q-17 0 -24.5 6.5t-7.5 23.5v6.5t2 17.5l4 28q3 20 12.5 28t29.5 8h126l14 86q19 115 58 193.5t93 126.5t121.5 69t143.5 21q74 0 127 -15.5t91 -42.5q18 -12 18 -26q0 -6 -2.5 -12.5t-5.5 -11.5l-34 -54q-5 -8 -10.5 -13t-13.5 -5
q-11 0 -24 8q-30 20 -66.5 31t-83.5 11q-49 0 -91 -14t-75 -45.5t-56.5 -83t-35.5 -125.5l-16 -98h476q30 0 30 -28v-7t-2 -13z" />
    <glyph glyph-name="f_k" unicode="fk" horiz-adv-x="1470" 
d="M830 1308q-53 22 -126 22q-51 0 -95.5 -13.5t-80 -45t-60.5 -83.5t-38 -130l-16 -98h184q17 0 24.5 -6.5t7.5 -23.5v-6.5t-2 -17.5l-4 -28q-3 -20 -12.5 -28t-29.5 -8h-186l-190 -1206q-3 -20 -12.5 -28t-29.5 -8h-80q-30 0 -30 28v7t2 13l188 1194h-124q-17 0 -24.5 6.5
t-7.5 23.5v6.5t2 17.5l4 28q3 20 12.5 28t29.5 8h126l14 86q19 115 58 193.5t94.5 126.5t125 69t148.5 21q44 0 80 -5.5t68 -14.5h116q30 0 30 -28v-7t-2 -13l-132 -832q55 39 109.5 85.5t105.5 96t96.5 99.5t80.5 95q12 15 25 21.5t33 6.5h102q11 0 15.5 -5t4.5 -11
q0 -9 -14 -26q-75 -92 -161 -178.5t-189 -171.5q26 -30 56 -69t60.5 -83.5t59 -92t53 -95.5t43 -94.5t28.5 -87.5q2 -6 3 -13.5t1 -12.5q0 -20 -28 -20h-84q-20 0 -30 8t-18 28q-26 67 -50 122.5t-52.5 108t-65 104.5t-88.5 111q-30 -23 -60 -43.5t-62 -40.5l-56 -362
q-3 -20 -12.5 -28t-29.5 -8h-80q-30 0 -30 28v7t2 13z" />
    <glyph glyph-name="f_l" unicode="fl" horiz-adv-x="1018" 
d="M414 960h184q17 0 24.5 -6.5t7.5 -23.5v-6.5t-2 -17.5l-4 -28q-3 -20 -12.5 -28t-29.5 -8h-186l-190 -1206q-3 -20 -12.5 -28t-29.5 -8h-80q-30 0 -30 28v7t2 13l188 1194h-124q-17 0 -24.5 6.5t-7.5 23.5v6.5t2 17.5l4 28q3 20 12.5 28t29.5 8h126l14 86
q19 115 58 193.5t94.5 126.5t125 69t148.5 21q44 0 80 -5.5t68 -14.5h116q30 0 30 -28v-7t-2 -13l-214 -1352q-3 -20 -12.5 -28t-29.5 -8h-80q-30 0 -30 28v7t2 13l200 1260q-53 22 -126 22q-51 0 -95.5 -13.5t-80 -45t-60.5 -83.5t-38 -130z" />
    <glyph glyph-name="f_f_b" unicode="ffb" horiz-adv-x="2096" 
d="M1212 1456q44 0 80 -5.5t68 -14.5h116q36 0 30 -36l-96 -600q59 92 136.5 136t175.5 44q86 0 144 -31t93 -83.5t50 -121t15 -144.5q0 -128 -36.5 -240.5t-101 -197t-154.5 -133.5t-196 -49q-91 0 -151 32.5t-87 77.5l-8 -54q-3 -20 -12.5 -28t-29.5 -8h-80q-36 0 -30 36
l202 1272q-53 22 -126 22q-51 0 -95.5 -13.5t-80 -45t-60.5 -83.5t-38 -130l-16 -98h186q36 0 30 -36l-6 -46q-3 -20 -12.5 -28t-29.5 -8h-186l-190 -1206q-3 -20 -12.5 -28t-29.5 -8h-80q-36 0 -30 36l190 1206h-358l-190 -1206q-3 -20 -12.5 -28t-29.5 -8h-80
q-36 0 -30 36l190 1206h-126q-36 0 -30 36l6 46q3 20 12.5 28t29.5 8h126l14 86q19 115 58.5 193.5t95 126.5t125 69t147.5 21q83 0 147.5 -19.5t108.5 -54.5q54 39 118 56.5t136 17.5zM704 1332q-51 0 -95.5 -13.5t-80 -45.5t-60.5 -84.5t-38 -130.5l-16 -98h358l14 86
q14 83 35 141t51 103q-30 18 -72.5 30t-95.5 12zM1870 598q0 46 -7 92.5t-28 84t-58 60.5t-97 23q-61 0 -113 -25t-92.5 -69t-68 -103.5t-38.5 -128.5l-52 -326q26 -41 78.5 -69.5t127.5 -28.5q88 0 153 43t108.5 112t65 157t21.5 178z" />
    <glyph glyph-name="f_f_h" unicode="ffh" horiz-adv-x="2108" 
d="M1212 1456q44 0 80 -5.5t68 -14.5h116q36 0 30 -36l-96 -596q25 37 57.5 69.5t72.5 56t87.5 37t102.5 13.5q68 0 119 -20t84.5 -57t50 -89t16.5 -116q0 -27 -2.5 -65t-7.5 -65l-84 -532q-3 -20 -12.5 -28t-29.5 -8h-80q-36 0 -30 36l84 532q6 41 8 66t2 42q0 37 -8 69.5
t-26.5 57t-49 39t-76.5 14.5q-64 0 -118.5 -28t-96.5 -76.5t-70.5 -115t-40.5 -142.5l-72 -458q-3 -20 -12.5 -28t-29.5 -8h-80q-36 0 -30 36l202 1272q-53 22 -126 22q-51 0 -95.5 -13.5t-80 -45t-60.5 -83.5t-38 -130l-16 -98h186q36 0 30 -36l-6 -46q-3 -20 -12.5 -28
t-29.5 -8h-186l-190 -1206q-3 -20 -12.5 -28t-29.5 -8h-80q-36 0 -30 36l190 1206h-358l-190 -1206q-3 -20 -12.5 -28t-29.5 -8h-80q-36 0 -30 36l190 1206h-126q-36 0 -30 36l6 46q3 20 12.5 28t29.5 8h126l14 86q19 115 58.5 193.5t95 126.5t125 69t147.5 21
q83 0 147.5 -19.5t108.5 -54.5q54 39 118 56.5t136 17.5zM704 1332q-51 0 -95.5 -13.5t-80 -45.5t-60.5 -84.5t-38 -130.5l-16 -98h358l14 86q14 83 35 141t51 103q-30 18 -72.5 30t-95.5 12z" />
    <glyph glyph-name="f_f_i" unicode="ffi" horiz-adv-x="1528" 
d="M396 842l-190 -1206q-3 -20 -12.5 -28t-29.5 -8h-80q-30 0 -30 28v7t2 13l188 1194h-124q-17 0 -24.5 6.5t-7.5 23.5v6.5t2 17.5l4 28q3 20 12.5 28t29.5 8h126l14 86q19 115 58.5 193.5t95 126.5t124.5 69t146 21q83 0 148 -19.5t110 -52.5q51 38 113 55t131 17
q74 0 127 -15.5t91 -42.5q18 -12 18 -26q0 -6 -2.5 -12.5t-5.5 -11.5l-34 -54q-5 -8 -10.5 -13t-13.5 -5q-11 0 -24 8q-30 20 -66.5 31t-83.5 11q-49 0 -91 -14t-75 -45.5t-56.5 -83t-35.5 -125.5l-16 -98h476q30 0 30 -28v-7t-2 -13l-138 -876q-3 -20 -12.5 -28t-29.5 -8
h-80q-30 0 -30 28v7t2 13l124 794h-358l-190 -1206q-3 -20 -12.5 -28t-29.5 -8h-80q-30 0 -30 28v7t2 13l188 1194h-358zM772 960l14 86q12 80 34.5 141t51.5 105q-30 17 -72.5 28.5t-95.5 11.5q-51 0 -95.5 -13.5t-80 -45.5t-60.5 -84.5t-38 -130.5l-16 -98h358z" />
    <glyph glyph-name="f_f_j" unicode="ffj" horiz-adv-x="1528" 
d="M206 -364q-3 -20 -12.5 -28t-29.5 -8h-80q-30 0 -30 28v7t2 13l188 1194h-124q-17 0 -24.5 6.5t-7.5 23.5v6.5t2 17.5l4 28q3 20 12.5 28t29.5 8h126l14 86q19 115 58.5 193.5t95 126.5t124.5 69t146 21q83 0 148 -19.5t110 -52.5q51 38 113 55t131 17q74 0 127 -15.5
t91 -42.5q18 -12 18 -26q0 -6 -2.5 -12.5t-5.5 -11.5l-34 -54q-5 -8 -10.5 -13t-13.5 -5q-11 0 -24 8q-30 20 -66.5 31t-83.5 11q-49 0 -91 -14t-75 -45.5t-56.5 -83t-35.5 -125.5l-16 -98h476q30 0 30 -28v-7t-2 -13l-162 -1026q-13 -82 -38.5 -140t-63 -95t-86 -54
t-106.5 -17q-39 0 -74 7.5t-64 24.5q-20 11 -20 28q0 8 6 20l22 48q6 12 10.5 17t13.5 5t24 -6t30.5 -10t35.5 -4q37 0 64.5 15t47 42.5t32 65.5t20.5 85l144 924h-358l-190 -1206q-3 -20 -12.5 -28t-29.5 -8h-80q-30 0 -30 28v7t2 13l188 1194h-358zM414 960h358l14 86
q12 78 34 139.5t52 106.5q-30 17 -72.5 28.5t-95.5 11.5q-51 0 -95.5 -13.5t-80 -45.5t-60.5 -84.5t-38 -130.5z" />
    <glyph glyph-name="f_f_k" unicode="ffk" horiz-adv-x="1980" 
d="M396 842l-190 -1206q-3 -20 -12.5 -28t-29.5 -8h-80q-30 0 -30 28v7t2 13l188 1194h-124q-17 0 -24.5 6.5t-7.5 23.5v6.5t2 17.5l4 28q3 20 12.5 28t29.5 8h126l14 86q19 115 58.5 193.5t95 126.5t124.5 69t146 21q89 0 151 -20.5t107 -53.5q53 39 117.5 56.5t136.5 17.5
q44 0 80 -5.5t68 -14.5h116q30 0 30 -28v-7t-2 -13l-132 -832q55 39 109.5 85.5t105.5 96t96.5 99.5t80.5 95q12 15 25 21.5t33 6.5h102q11 0 15.5 -5t4.5 -11q0 -9 -14 -26q-75 -92 -161 -178.5t-189 -171.5q26 -30 56 -69t60.5 -83.5t59 -92t53 -95.5t43 -94.5t28.5 -87.5
q2 -6 3 -13.5t1 -12.5q0 -20 -28 -20h-84q-20 0 -30 8t-18 28q-26 67 -50 122.5t-52.5 108t-65 104.5t-88.5 111q-30 -23 -60 -43.5t-62 -40.5l-56 -362q-3 -20 -12.5 -28t-29.5 -8h-80q-30 0 -30 28v7t2 13l200 1260q-53 22 -126 22q-51 0 -95.5 -13.5t-80 -45t-60.5 -83.5
t-38 -130l-16 -98h184q17 0 24.5 -6.5t7.5 -23.5v-6.5t-2 -17.5l-4 -28q-3 -20 -12.5 -28t-29.5 -8h-186l-190 -1206q-3 -20 -12.5 -28t-29.5 -8h-80q-30 0 -30 28v7t2 13l188 1194h-358zM772 960l14 86q12 77 34 137t52 107q-30 17 -71 29.5t-97 12.5q-51 0 -95.5 -13.5
t-80 -45.5t-60.5 -84.5t-38 -130.5l-16 -98h358z" />
    <glyph glyph-name="f_f_l" unicode="ffl" horiz-adv-x="1528" 
d="M396 842l-190 -1206q-3 -20 -12.5 -28t-29.5 -8h-80q-30 0 -30 28v7t2 13l188 1194h-124q-17 0 -24.5 6.5t-7.5 23.5v6.5t2 17.5l4 28q3 20 12.5 28t29.5 8h126l14 86q19 115 58.5 193.5t95 126.5t124.5 69t146 21q89 0 151 -20.5t107 -53.5q53 39 117.5 56.5t136.5 17.5
q44 0 80 -5.5t68 -14.5h116q30 0 30 -28v-7t-2 -13l-214 -1352q-3 -20 -12.5 -28t-29.5 -8h-80q-30 0 -30 28v7t2 13l200 1260q-53 22 -126 22q-51 0 -95.5 -13.5t-80 -45t-60.5 -83.5t-38 -130l-16 -98h184q17 0 24.5 -6.5t7.5 -23.5v-6.5t-2 -17.5l-4 -28
q-3 -20 -12.5 -28t-29.5 -8h-186l-190 -1206q-3 -20 -12.5 -28t-29.5 -8h-80q-30 0 -30 28v7t2 13l188 1194h-358zM772 960l14 86q12 77 34 137t52 107q-30 17 -71 29.5t-97 12.5q-51 0 -95.5 -13.5t-80 -45.5t-60.5 -84.5t-38 -130.5l-16 -98h358z" />
    <glyph glyph-name=".notdef" horiz-adv-x="460" 
d="M136 -380q-20 0 -28 8t-8 28v1768q0 20 8 28t28 8h188q20 0 28 -8t8 -28v-1768q0 -20 -8 -28t-28 -8h-188z" />
    <glyph glyph-name=".null" horiz-adv-x="0" 
 />
    <glyph glyph-name="nonmarkingreturn" horiz-adv-x="460" 
 />
    <glyph glyph-name="space" unicode=" " horiz-adv-x="460" 
 />
    <glyph glyph-name="exclam" unicode="!" horiz-adv-x="604" 
d="M288 356q-38 0 -32 34l76 898q3 20 11.5 28t28.5 8h142q37 0 28 -36l-208 -898q-5 -18 -14.5 -26t-27.5 -8h-4zM364 116q0 -28 -9.5 -52t-26 -42t-39.5 -28t-51 -10q-50 0 -76 29.5t-26 74.5q0 28 9.5 52t26 42t39.5 28t51 10q50 0 76 -29.5t26 -74.5z" />
    <glyph glyph-name="quotedbl" unicode="&#x22;" horiz-adv-x="632" 
d="M242 980q-31 0 -28 30l20 390q2 20 10 28t28 8h96q28 0 28 -20q0 -3 -0.5 -8t-3.5 -16l-108 -384q-5 -15 -13 -21.5t-25 -6.5h-4zM522 980q-31 0 -28 30l20 390q2 20 10 28t28 8h96q28 0 28 -20q0 -3 -0.5 -8t-3.5 -16l-108 -384q-5 -15 -13 -21.5t-25 -6.5h-4z" />
    <glyph glyph-name="numbersign" unicode="#" horiz-adv-x="1036" 
d="M744 848h-274l-118 -372h274zM476 1290q6 18 16 26t30 8h62q35 0 26 -34l-106 -330h274l106 330q6 18 16 26t30 8h62q35 0 26 -34l-106 -330h140q17 0 24.5 -6.5t7.5 -23.5v-6t-2 -14l-4 -26q-3 -20 -12.5 -28t-29.5 -8h-158l-118 -372h140q17 0 24.5 -6.5t7.5 -23.5v-6
t-2 -14l-4 -26q-3 -20 -12.5 -28t-29.5 -8h-160l-106 -330q-6 -18 -16 -26t-30 -8h-62q-18 0 -23.5 8.5t-0.5 25.5l104 330h-274l-106 -330q-6 -18 -16 -26t-30 -8h-62q-35 0 -26 34l106 330h-138q-17 0 -24.5 6.5t-7.5 23.5v6t2 14l4 26q3 20 12.5 28t29.5 8h158l118 372
h-140q-17 0 -24.5 6.5t-7.5 23.5v6t2 14l4 26q3 20 12.5 28t29.5 8h158z" />
    <glyph glyph-name="dollar" unicode="$" 
d="M416 -128q-36 0 -30 36l18 114q-109 9 -192.5 43.5t-133.5 78.5q-26 26 -2 50l50 56q14 15 25.5 15.5t26.5 -11.5q48 -39 108.5 -66t137.5 -32l72 452q-58 19 -113.5 44.5t-99 62.5t-70.5 88.5t-27 122.5q0 78 30.5 143.5t86 114t133 78.5t170.5 38l18 116q3 20 12.5 28
t29.5 8h40q36 0 30 -36l-18 -114q98 -6 177 -33t127 -63q29 -22 4 -50l-50 -58q-12 -15 -23.5 -16.5t-28.5 10.5q-41 29 -97 49t-131 25l-72 -450q70 -24 129 -49.5t102.5 -60.5t68 -83t24.5 -117q0 -80 -30 -148t-86 -118.5t-136 -81t-180 -36.5l-18 -114q-3 -20 -12.5 -28
t-29.5 -8h-40zM538 156q57 8 103.5 29t79.5 52t51 70.5t18 84.5q0 37 -13 65t-37 49t-59 37.5t-79 32.5zM584 1166q-61 -10 -106.5 -32.5t-75.5 -53.5t-45 -68t-15 -76q0 -38 13 -66.5t36 -50.5t55.5 -38.5t71.5 -30.5z" />
    <glyph glyph-name="percent" unicode="%" horiz-adv-x="1502" 
d="M234 922q0 -86 35 -137t113 -51q57 0 100 28.5t72 73.5t43.5 102t14.5 114q0 86 -35 137t-113 51q-57 0 -100 -28.5t-72 -73.5t-43.5 -102t-14.5 -114zM188 0q-15 0 -19 8t7 20l1074 1268q14 15 27 21.5t33 6.5h74q15 0 19 -8t-7 -20l-1074 -1268q-14 -15 -27 -21.5
t-33 -6.5h-74zM738 1054q0 -47 -9.5 -96.5t-29 -97t-49.5 -89t-70 -73t-91 -50t-113 -18.5q-70 0 -120.5 22t-83.5 61t-48.5 92t-15.5 115q0 47 9.5 96.5t29 97t49.5 89t70 73t91 50t113 18.5q70 0 120.5 -22.5t83.5 -61.5t48.5 -92t15.5 -114zM960 272q0 -86 35 -137
t113 -51q57 0 100 28.5t72 73.5t43.5 102t14.5 114q0 86 -35 137t-113 51q-57 0 -100 -28.5t-72 -73.5t-43.5 -102t-14.5 -114zM1464 404q0 -47 -9.5 -96.5t-29 -97t-49.5 -89t-70 -73t-91 -50t-113 -18.5q-70 0 -120.5 22t-83.5 61t-48.5 92t-15.5 115q0 47 9.5 96.5t29 97
t49.5 89t70 73t91 50t113 18.5q70 0 120.5 -22.5t83.5 -61.5t48.5 -92t15.5 -114z" />
    <glyph glyph-name="ampersand" unicode="&#x26;" horiz-adv-x="1290" 
d="M1154 6q-23 -26 -50 -2l-184 176q-38 -43 -86.5 -79.5t-106.5 -63.5t-124.5 -42t-140.5 -15q-100 0 -175 27t-125 73t-75 107.5t-25 130.5q0 64 21 123t60 110t96 93.5t129 73.5q-54 60 -83 120.5t-29 135.5t30.5 142t87.5 118t139.5 80.5t186.5 29.5q56 0 105.5 -8.5
t90.5 -23t74 -33t56 -37.5q28 -25 4 -52l-44 -50q-12 -15 -23.5 -15.5t-28.5 11.5q-44 35 -103 56.5t-133 21.5q-67 0 -120 -19t-90 -51.5t-56.5 -75.5t-19.5 -92q0 -38 12.5 -73t35 -69t55 -69t73.5 -73l330 -316q48 72 77.5 162t44.5 182q3 20 12.5 28t29.5 8h70
q36 0 30 -36q-20 -113 -58 -222.5t-110 -213.5l186 -176q26 -23 2 -50zM218 330q0 -50 17.5 -91t51.5 -70.5t83 -46t112 -16.5q55 0 104 12.5t92 34.5t80 52t68 65l-380 368q-49 -23 -90.5 -55.5t-72 -72t-48 -85.5t-17.5 -95z" />
    <glyph glyph-name="quotesingle" unicode="'" horiz-adv-x="352" 
d="M242 980q-31 0 -28 30l20 390q2 20 10 28t28 8h96q28 0 28 -20q0 -3 -0.5 -8t-3.5 -16l-108 -384q-5 -15 -13 -21.5t-25 -6.5h-4z" />
    <glyph glyph-name="parenleft" unicode="(" horiz-adv-x="532" 
d="M302 -198q-6 -2 -14 -3t-14 -1q-11 0 -18 5t-12 19q-17 43 -31 99t-24.5 122t-16.5 138.5t-6 148.5q0 123 15 239.5t40.5 224.5t59.5 205.5t72 182.5t77 156.5t76 127.5q12 18 28 18q6 0 11 -1.5t13 -4.5l26 -12q12 -6 16 -11.5t4 -14.5q0 -10 -6 -22
q-78 -143 -134.5 -287t-93.5 -287t-54.5 -283.5t-17.5 -274.5q0 -107 11.5 -211.5t32.5 -208.5l4 -16t2 -16q0 -11 -6.5 -17t-23.5 -11z" />
    <glyph glyph-name="parenright" unicode=")" horiz-adv-x="532" 
d="M280 1480q6 2 14 3t14 1q11 0 18 -5t12 -19q16 -43 30.5 -99t25 -122t16.5 -138.5t6 -148.5q0 -123 -15 -239.5t-40.5 -224.5t-59.5 -205.5t-72 -182.5t-77.5 -157t-75.5 -127q-12 -18 -28 -18q-6 0 -11 1.5t-13 4.5l-26 12q-12 6 -16 11.5t-4 14.5q0 10 6 22
q78 142 134.5 286.5t93.5 287.5t54.5 283.5t17.5 274.5q0 107 -11.5 211.5t-32.5 208.5l-4 16t-2 16q0 11 6.5 17t23.5 11z" />
    <glyph glyph-name="asterisk" unicode="*" horiz-adv-x="792" 
d="M652 760q-30 -21 -48 12l-120 214l-174 -218q-12 -15 -23.5 -17t-28.5 9l-42 32q-29 20 -6 46l192 212l-232 82q-12 5 -18 10t-6 14q0 8 6 20l22 46q9 17 20.5 21.5t29.5 -3.5l226 -94l22 254q3 20 11.5 28t28.5 8h60q36 0 30 -36l-46 -254l246 92q37 12 46 -20l10 -34
q3 -9 3.5 -14t0.5 -8q0 -25 -30 -34l-256 -82l132 -210q20 -29 -10 -50z" />
    <glyph glyph-name="plus" unicode="+" 
d="M606 538h334q32 0 32 -28v-7t-2 -13l-6 -34q-3 -20 -12.5 -27t-29.5 -7h-334l-54 -342q-3 -20 -12.5 -28t-29.5 -8h-58q-30 0 -30 28q0 2 0.5 9t3.5 25l50 316h-334q-32 0 -32 28v7t2 13l6 34q3 20 12.5 27t29.5 7h334l54 342q3 20 12.5 28t29.5 8h58q30 0 30 -28
q0 -2 -0.5 -9t-3.5 -25z" />
    <glyph glyph-name="comma" unicode="," horiz-adv-x="386" 
d="M250 114q0 -34 -14 -80.5t-39.5 -98t-61.5 -105t-81 -100.5q-8 -8 -14 -10t-12 -2q-13 0 -26 8l-6 4q-18 12 -18 26q0 9 10 22q44 57 61 95.5t17 68.5q0 22 -7 39.5t-15 35t-15 36t-7 41.5q0 25 9 47.5t25.5 40t39.5 28t52 10.5q45 0 73.5 -27.5t28.5 -78.5z" />
    <glyph glyph-name="hyphen" unicode="-" horiz-adv-x="662" 
d="M564 644q17 0 24.5 -6.5t7.5 -23.5v-6.5t-2 -17.5l-6 -42q-3 -20 -12.5 -28t-29.5 -8h-400q-17 0 -24.5 6.5t-7.5 23.5v6.5t2 17.5l6 42q3 20 12.5 28t29.5 8h400z" />
    <glyph glyph-name="period" unicode="." horiz-adv-x="386" 
d="M250 116q0 -28 -9.5 -52t-26 -42t-39.5 -28t-51 -10q-50 0 -76 29.5t-26 74.5q0 28 9.5 52t26 42t39.5 28t51 10q50 0 76 -29.5t26 -74.5z" />
    <glyph glyph-name="slash" unicode="/" horiz-adv-x="584" 
d="M44 -148q-8 -18 -19 -25t-31 -7h-54q-24 0 -24 20q0 7 6 22l696 1610q8 18 19 25t31 7h54q24 0 24 -20q0 -7 -6 -22z" />
    <glyph glyph-name="zero" unicode="0" 
d="M240 474q0 -85 12.5 -152t39.5 -113.5t70 -71.5t104 -25q70 0 128 32t104 87t80 128t57 155t34 168t11 168q0 85 -12.5 152t-39.5 113.5t-70 71.5t-104 25q-70 0 -128 -32t-104 -87t-80 -128t-57 -155t-34 -168.5t-11 -167.5zM1036 848q0 -91 -12.5 -191t-41 -196.5
t-73 -183.5t-109 -153t-150 -105t-194.5 -39q-106 0 -177 37t-114.5 103t-62 157t-18.5 199q0 91 12.5 191t41 196.5t73 183.5t109 153t150 105t194.5 39q106 0 177 -37t114.5 -103t62 -157t18.5 -199z" />
    <glyph glyph-name="one" unicode="1" 
d="M458 132l162 1016l-262 -156q-13 -8 -24 -8q-18 0 -28 20l-18 40q-6 12 -6 24q0 8 3.5 15t14.5 13l334 208q15 9 31.5 14.5t34.5 5.5h64q30 0 30 -26v-8t-2 -16l-180 -1142h238q17 0 24.5 -6.5t7.5 -23.5v-6.5t-2 -17.5l-6 -42q-3 -20 -12.5 -28t-29.5 -8h-652
q-17 0 -24.5 6.5t-7.5 23.5v6.5t2 17.5l6 42q3 20 12.5 28t29.5 8h260z" />
    <glyph glyph-name="two" unicode="2" 
d="M92 98q15 104 54 185.5t98 149t135.5 125.5t166.5 116q52 33 104.5 68.5t94.5 77.5t68.5 93.5t26.5 116.5q0 85 -51 133.5t-161 48.5q-81 0 -148.5 -24t-121.5 -62q-31 -20 -48 12l-30 54q-17 32 12 52q62 41 151.5 70.5t202.5 29.5q94 0 160.5 -22t109 -61.5t62.5 -94.5
t20 -122q0 -87 -30 -154.5t-81.5 -124t-120 -105.5t-144.5 -98q-53 -34 -112 -75t-111.5 -93t-92 -116.5t-52.5 -145.5h574q36 0 30 -36l-10 -60q-3 -20 -12.5 -28t-29.5 -8h-690q-17 0 -24.5 6.5t-7.5 23.5v6.5t2 17.5z" />
    <glyph glyph-name="three" unicode="3" 
d="M932 446q0 -88 -33.5 -171.5t-98 -149t-159 -105.5t-215.5 -40q-113 0 -196.5 32.5t-133.5 77.5q-28 25 -4 52l42 50q12 15 23.5 15.5t28.5 -11.5q44 -35 106 -59.5t140 -24.5q79 0 142.5 27t108.5 73t69 107t24 129q0 50 -14 91t-44.5 70t-79 45t-116.5 16h-36
q-18 0 -28.5 6t-21.5 20l-14 20q-11 17 -10.5 29.5t14.5 26.5l380 420h-478q-36 0 -30 36l10 60q3 20 12.5 28t29.5 8h632q36 0 30 -36l-4 -34q-3 -20 -10.5 -34t-19.5 -28l-230 -258q-13 -14 -31.5 -33t-39.5 -39.5t-44 -41t-45 -38.5q80 0 144 -24.5t108.5 -69t68 -106.5
t23.5 -136z" />
    <glyph glyph-name="four" unicode="4" 
d="M90 296q-30 0 -30 26v7t2 15l4 24q6 38 26 66l568 860q11 17 23.5 23.5t32.5 6.5h86q28 0 28 -16q0 -5 -3.5 -11.5t-12.5 -20.5l-566 -852h430l80 510q3 20 12.5 28t29.5 8h80q30 0 30 -26q0 -3 -1 -15t-3 -21l-76 -484h148q20 0 25 -8t5 -20v-8t-2 -14l-6 -42
q-3 -20 -12.5 -28t-29.5 -8h-148l-42 -260q-3 -20 -12.5 -28t-29.5 -8h-80q-30 0 -30 26v7t2 15l40 248h-568z" />
    <glyph glyph-name="five" unicode="5" 
d="M928 466q0 -93 -31 -180.5t-93.5 -155.5t-157.5 -109t-222 -41q-115 0 -199.5 31.5t-134.5 76.5q-28 25 -4 52l44 52q12 15 23.5 15.5t26.5 -11.5q45 -36 108 -60t140 -24q78 0 141.5 27.5t108.5 74t69.5 109t24.5 133.5q0 108 -60 170t-184 62q-59 0 -114.5 -14
t-103.5 -38q-20 -11 -33 -9.5t-31 13.5l-22 14q-17 11 -22 23.5t0 30.5l150 582q5 18 14.5 26t29.5 8h580q36 0 30 -36l-10 -60q-3 -20 -12.5 -28t-29.5 -8h-484l-110 -420q45 18 100.5 29t115.5 11q85 0 150.5 -23.5t110.5 -68.5t68 -109t23 -145z" />
    <glyph glyph-name="six" unicode="6" 
d="M960 488q0 -94 -29.5 -185t-88.5 -163t-147 -116t-205 -44q-87 0 -158 27.5t-122 86t-78.5 149.5t-27.5 219q0 94 16 196t51 200t88.5 186t129.5 155t174 106t221 39q72 0 129 -12.5t95 -29.5q17 -6 21 -18.5t-5 -27.5l-28 -56q-8 -18 -19 -22t-29 4q-38 15 -76 22.5
t-82 7.5q-90 0 -169 -31.5t-143.5 -93.5t-111.5 -154.5t-72 -214.5q66 57 147 90.5t179 33.5q81 0 144 -24t106.5 -69.5t66.5 -111.5t23 -149zM804 486q0 112 -54 171t-170 59q-46 0 -89.5 -9t-83 -25t-74 -37.5t-61.5 -46.5q-9 -53 -12.5 -95t-3.5 -77q0 -162 63.5 -241
t176.5 -79q79 0 137 34.5t96 89.5t56.5 122.5t18.5 133.5z" />
    <glyph glyph-name="seven" unicode="7" 
d="M1046 1184q-95 -101 -185.5 -228.5t-172.5 -274.5t-152.5 -310.5t-123.5 -336.5q-6 -20 -16 -27t-30 -7h-98q-15 0 -20.5 5.5t-5.5 16.5q0 12 6 30q58 176 131.5 341t155.5 311.5t168.5 270t172.5 217.5h-582q-30 0 -30 26v8.5t2 17.5l6 44q3 20 12.5 28t29.5 8h738
q30 0 30 -26v-8t-2 -16l-4 -28q-6 -35 -30 -62z" />
    <glyph glyph-name="eight" unicode="8" 
d="M944 330q0 -76 -34 -140t-96 -110.5t-150 -73t-196 -26.5q-96 0 -171.5 21.5t-127.5 60.5t-79.5 94.5t-27.5 123.5q0 75 31.5 136t82.5 110t116.5 87.5t133.5 68.5q-104 56 -160 132t-56 174q0 68 28 132.5t82.5 114t135 79.5t186.5 30q78 0 146 -17.5t118 -53.5
t79 -89.5t29 -125.5q0 -68 -25 -125t-68.5 -105t-102.5 -86t-126 -66q46 -24 91.5 -57.5t81 -76.5t57.5 -96t22 -116zM216 294q0 -84 65 -136t191 -52q73 0 131.5 18t100 50.5t64 76.5t22.5 97q0 47 -18 86t-49.5 71.5t-75 58.5t-95.5 48q-68 -27 -128.5 -59.5t-107 -71.5
t-73.5 -85.5t-27 -101.5zM864 1048q0 43 -16 75t-44.5 53t-68.5 31.5t-87 10.5q-57 0 -109 -15t-92 -44t-63.5 -72.5t-23.5 -100.5q0 -83 51.5 -142.5t148.5 -103.5q64 25 120 56.5t96.5 70.5t64 84t23.5 97z" />
    <glyph glyph-name="nine" unicode="9" 
d="M1014 862q0 -94 -15 -196t-47.5 -200t-84 -186t-126 -155t-172.5 -106t-223 -39q-74 0 -132 12.5t-96 29.5q-17 6 -21 18.5t5 27.5l28 56q8 18 19 22t29 -4q38 -15 76 -22.5t82 -7.5q92 0 171 31.5t142 94.5t108 159t71 225q-65 -57 -145 -90.5t-177 -33.5q-77 0 -141 23
t-109.5 67.5t-70.5 110t-25 151.5q0 97 33.5 186.5t96 158t151.5 109t201 40.5q83 0 151.5 -25.5t117.5 -82.5t76 -149t27 -225zM314 852q0 -52 13.5 -94t41 -72t70 -46t101.5 -16q45 0 88.5 9.5t83.5 25.5t75 37.5t63 45.5q12 93 12 164q0 160 -59 236t-169 76
q-75 0 -134.5 -31.5t-100.5 -83t-63 -117.5t-22 -134z" />
    <glyph glyph-name="colon" unicode=":" horiz-adv-x="422" 
d="M274 116q0 -28 -9.5 -52t-26 -42t-39.5 -28t-51 -10q-50 0 -76 29.5t-26 74.5q0 28 9.5 52t26 42t39.5 28t51 10q50 0 76 -29.5t26 -74.5zM394 870q0 -28 -9.5 -52t-26 -42t-39.5 -28t-51 -10q-50 0 -76 29.5t-26 74.5q0 28 9.5 52t26 42t39.5 28t51 10q50 0 76 -29.5
t26 -74.5z" />
    <glyph glyph-name="semicolon" unicode=";" horiz-adv-x="422" 
d="M394 870q0 -28 -9.5 -52t-26 -42t-39.5 -28t-51 -10q-50 0 -76 29.5t-26 74.5q0 28 9.5 52t26 42t39.5 28t51 10q50 0 76 -29.5t26 -74.5zM278 114q0 -34 -14 -80.5t-39.5 -98t-61.5 -105t-81 -100.5q-8 -8 -14 -10t-12 -2q-13 0 -26 8l-6 4q-18 12 -18 26q0 9 10 22
q44 57 61 95.5t17 68.5q0 22 -7 39.5t-15 35t-15 36t-7 41.5q0 25 9 47.5t25.5 40t39.5 28t52 10.5q45 0 73.5 -27.5t28.5 -78.5z" />
    <glyph glyph-name="less" unicode="&#x3c;" 
d="M266 476l552 -324q18 -9 18 -26q0 -5 -2 -10.5t-8 -13.5l-26 -36q-6 -9 -11 -13.5t-13 -4.5q-6 0 -12.5 2.5t-11.5 5.5l-590 348q-14 8 -19 18t-5 24v11t2 19l4 28q3 20 11.5 32.5t26.5 21.5l710 352q12 6 20 6q17 0 26 -22l16 -36q6 -15 6 -22q0 -19 -22 -30z" />
    <glyph glyph-name="equal" unicode="=" 
d="M952 718q17 0 24.5 -6.5t7.5 -23.5v-6.5t-2 -17.5l-4 -26q-3 -20 -12.5 -28t-29.5 -8h-764q-17 0 -24.5 6.5t-7.5 23.5v6.5t2 17.5l4 26q3 20 12.5 28t29.5 8h764zM894 358q17 0 24.5 -6.5t7.5 -23.5v-6.5t-2 -17.5l-4 -26q-3 -20 -12.5 -28t-29.5 -8h-764
q-17 0 -24.5 6.5t-7.5 23.5v6.5t2 17.5l4 26q3 20 12.5 28t29.5 8h764z" />
    <glyph glyph-name="greater" unicode="&#x3e;" 
d="M798 488l-552 324q-18 9 -18 26q0 11 10 24l26 36q6 9 11 13.5t13 4.5q6 0 12.5 -2.5t11.5 -5.5l590 -348q14 -8 19 -18t5 -24v-11t-2 -19l-4 -28q-3 -20 -11.5 -32.5t-26.5 -21.5l-710 -352q-12 -6 -20 -6q-17 0 -26 22l-16 36q-6 15 -6 22q0 19 22 30z" />
    <glyph glyph-name="question" unicode="?" horiz-adv-x="852" 
d="M448 116q0 -28 -9.5 -52t-26 -42t-39.5 -28t-51 -10q-50 0 -76 29.5t-26 74.5q0 28 9.5 52t26 42t39.5 28t51 10q50 0 76 -29.5t26 -74.5zM358 358q-18 0 -25.5 7t-10.5 25q-2 9 -2 18v18q0 67 17.5 118t49 92.5t76 78t99.5 75.5q37 26 71 53t60.5 58t42.5 68.5t16 84.5
q0 72 -44 116t-146 44q-83 0 -152 -27.5t-128 -74.5q-28 -22 -48 6l-28 44q-20 29 6 52q65 54 157.5 92t210.5 38q87 0 149.5 -22.5t103 -61.5t60 -90t19.5 -108q0 -69 -25.5 -124t-67 -101t-93.5 -85t-104 -76q-44 -31 -77 -60t-58.5 -62t-44 -72t-32.5 -90
q-5 -18 -14.5 -26t-29.5 -8h-8z" />
    <glyph glyph-name="at" unicode="@" horiz-adv-x="1618" 
d="M1054 -140q-65 -33 -158.5 -60.5t-209.5 -27.5q-133 0 -241.5 42t-185.5 120t-119 190.5t-42 253.5q0 115 28 222t80.5 199.5t127 168.5t167 130.5t201.5 84t230 29.5q145 0 255.5 -42t185.5 -116.5t113 -177.5t38 -224q0 -102 -26.5 -202t-76 -179t-120.5 -128t-159 -49
q-38 0 -70.5 10t-56 30.5t-36.5 50.5t-13 71v15.5t2 16.5q-20 -41 -50 -73t-67 -54.5t-79.5 -34.5t-87.5 -12q-111 0 -175.5 75.5t-64.5 222.5q0 101 30 186.5t81.5 147t119.5 96t145 34.5q38 0 70 -8t57 -21.5t42.5 -30.5t28.5 -34l6 44q3 20 12.5 28t29.5 8h58
q36 0 30 -36l-74 -468q-6 -42 -6 -70q0 -51 19.5 -74.5t58.5 -23.5q47 0 95 33t87 93t63.5 143.5t24.5 184.5q0 115 -34.5 203.5t-97.5 148.5t-153 91t-201 31q-98 0 -190 -23.5t-172.5 -68.5t-147.5 -109t-115 -145.5t-74.5 -178.5t-26.5 -207q0 -125 34.5 -222t98 -163
t152.5 -100.5t199 -34.5q97 0 177.5 23t142.5 55q18 9 28.5 5.5t19.5 -21.5l8 -18q17 -32 -16 -50zM576 418q0 -56 10.5 -94.5t30 -62.5t45.5 -34.5t58 -10.5q38 0 78 15.5t74.5 48.5t60.5 83t37 119l30 190q-27 54 -71.5 79t-92.5 25q-50 0 -97 -25.5t-83 -72.5t-58 -113
t-22 -147z" />
    <glyph glyph-name="A" unicode="A" horiz-adv-x="1208" 
d="M16 0q-24 0 -24 18q0 3 0.5 8t5.5 16q149 349 312.5 666t337.5 586q11 17 23.5 23.5t32.5 6.5h72q37 0 48 -34q85 -269 147.5 -579t106.5 -657q2 -12 2 -15.5v-8.5q0 -30 -32 -30h-86q-20 0 -29 8t-11 28q-9 85 -19 166.5t-21 161.5h-580q-38 -81 -73 -163.5t-71 -168.5
q-8 -18 -19 -25t-31 -7h-92zM862 492q-13 88 -29 176t-34.5 173.5t-39 167t-41.5 155.5q-89 -143 -180 -314.5t-176 -357.5h500z" />
    <glyph glyph-name="B" unicode="B" horiz-adv-x="1142" 
d="M136 0q-36 0 -30 36l198 1252q3 20 12.5 28t29.5 8h350q104 0 179 -22.5t123 -63t71 -96t23 -122.5q0 -57 -16 -109.5t-46 -96.5t-74 -77.5t-100 -52.5q106 -38 153 -109.5t47 -172.5q0 -83 -30.5 -156t-93 -127.5t-158.5 -86.5t-226 -32h-412zM280 132h292
q84 0 144.5 23t99.5 61.5t57.5 88.5t18.5 105q0 43 -12 79t-40.5 62.5t-74.5 41.5t-113 15h-296zM376 736h236q82 0 142 22.5t98.5 60t57 86t18.5 99.5q0 43 -13 77.5t-42 59t-75 38t-112 13.5h-238z" />
    <glyph glyph-name="C" unicode="C" horiz-adv-x="1162" 
d="M1032 122q-95 -74 -203.5 -108t-226.5 -34q-138 0 -233 42t-154 115.5t-85 173t-26 213.5q0 95 17.5 193t54 189t92.5 171t133.5 139.5t176.5 93.5t222 34q118 0 214.5 -33t167.5 -99q12 -12 13 -25t-13 -25l-50 -54q-14 -15 -25.5 -15.5t-26.5 11.5q-53 47 -126 74.5
t-164 27.5q-88 0 -161.5 -27.5t-131.5 -76t-101 -114t-71.5 -141t-42.5 -157t-14 -162.5q0 -98 20.5 -174t62.5 -128.5t106.5 -80t152.5 -27.5q104 0 190.5 35t157.5 89q28 23 48 -8l36 -60q9 -17 7 -29t-17 -23z" />
    <glyph glyph-name="D" unicode="D" horiz-adv-x="1294" 
d="M136 0q-36 0 -30 36l198 1252q3 20 12.5 28t29.5 8h358q145 0 247.5 -42.5t168 -114.5t96 -166.5t30.5 -198.5q0 -102 -18.5 -201.5t-57.5 -188.5t-99 -164.5t-143.5 -130.5t-191.5 -86t-242 -31h-358zM280 132h228q145 0 253 54t179.5 145.5t106.5 211.5t35 253
q0 89 -23 162t-72 125t-126 80.5t-185 28.5h-228z" />
    <glyph glyph-name="E" unicode="E" horiz-adv-x="1018" 
d="M1044 1228q-3 -20 -12.5 -28t-29.5 -8h-556l-68 -438h492q30 0 30 -26v-6.5t-2 -15.5l-8 -48q-3 -20 -12.5 -28t-29.5 -8h-492l-76 -490h556q30 0 30 -26v-6.5t-2 -15.5l-8 -48q-3 -20 -12.5 -28t-29.5 -8h-678q-30 0 -30 26v6.5t2 15.5l196 1240q3 20 12.5 28t29.5 8
h678q30 0 30 -26v-6.5t-2 -15.5z" />
    <glyph glyph-name="F" unicode="F" horiz-adv-x="1000" 
d="M304 1288q3 20 12.5 28t29.5 8h692q30 0 30 -26v-6.5t-2 -15.5l-8 -48q-3 -20 -12.5 -28t-29.5 -8h-568l-76 -472h494q30 0 30 -26v-6.5t-2 -15.5l-8 -48q-3 -20 -12.5 -28t-29.5 -8h-492l-88 -552q-3 -20 -12.5 -28t-29.5 -8h-86q-30 0 -30 26v8t2 14z" />
    <glyph glyph-name="G" unicode="G" horiz-adv-x="1270" 
d="M1074 88q-198 -108 -426 -108q-135 0 -237 37.5t-170 108.5t-102.5 174t-34.5 234q0 95 18 192t55.5 187t94.5 168.5t134.5 137t176 92t219.5 33.5q57 0 113 -8t108 -25.5t98 -44.5t83 -64q26 -26 2 -54l-50 -54q-14 -15 -25 -15.5t-25 13.5q-54 50 -135.5 82t-184.5 32
q-91 0 -165 -27.5t-132 -75.5t-99.5 -113t-68.5 -139t-40 -154.5t-13 -158.5q0 -101 21.5 -180t67.5 -133.5t118 -83.5t173 -29q46 0 92 6t86.5 16t75 23.5t58.5 28.5l62 386h-280q-36 0 -30 36l8 60q3 20 12.5 28t29.5 8h402q36 0 30 -36l-82 -528q-6 -34 -38 -52z" />
    <glyph glyph-name="H" unicode="H" horiz-adv-x="1306" 
d="M1010 602h-658l-88 -566q-3 -20 -12.5 -28t-29.5 -8h-86q-30 0 -30 28v7t2 13l196 1240q3 20 12.5 28t29.5 8h86q30 0 30 -28v-7t-2 -13l-86 -542h656l88 554q3 20 12.5 28t29.5 8h86q30 0 30 -28v-7t-2 -13l-196 -1240q-3 -20 -12.5 -28t-29.5 -8h-86q-30 0 -30 28v7
t2 13z" />
    <glyph glyph-name="I" unicode="I" horiz-adv-x="492" 
d="M304 1288q3 20 12.5 28t29.5 8h86q30 0 30 -28v-7t-2 -13l-196 -1240q-3 -20 -12.5 -28t-29.5 -8h-86q-30 0 -30 28v7t2 13z" />
    <glyph glyph-name="J" unicode="J" horiz-adv-x="904" 
d="M728 1288q3 20 12.5 28t29.5 8h86q30 0 30 -28v-7t-2 -13l-132 -836q-36 -224 -148.5 -342t-307.5 -118q-52 0 -94.5 8t-77 21.5t-61 31t-45.5 37.5q-14 14 -14 26q0 14 12 26l40 48q13 16 28 16t32 -14q27 -24 73.5 -44t108.5 -20q119 0 194.5 81.5t101.5 244.5l134 846
v0z" />
    <glyph glyph-name="K" unicode="K" horiz-adv-x="1164" 
d="M304 1288q3 20 12.5 28t29.5 8h86q30 0 30 -28v-7t-2 -13l-96 -608q86 58 177.5 136t178.5 163.5t163.5 171t132.5 159.5q12 15 24 20.5t32 5.5h110q20 0 20 -16q0 -5 -2 -9.5t-8 -12.5q-58 -75 -116.5 -144.5t-121.5 -135.5t-131.5 -131t-146.5 -131q60 -72 117 -161
t105.5 -183t86 -186.5t59.5 -171.5q3 -11 3.5 -15t0.5 -7q0 -20 -28 -20h-98q-20 0 -30 8t-16 26q-23 75 -57 157t-76 163t-91 158t-102 142q-51 -39 -106.5 -76.5t-105.5 -69.5l-74 -472q-3 -20 -12.5 -28t-29.5 -8h-86q-30 0 -30 28v7t2 13z" />
    <glyph glyph-name="L" unicode="L" horiz-adv-x="936" 
d="M136 0q-30 0 -30 28v7t2 13l196 1240q3 20 12.5 28t29.5 8h86q30 0 30 -28v-7t-2 -13l-182 -1144h548q30 0 30 -26v-6.5t-2 -15.5l-8 -48q-3 -20 -12.5 -28t-29.5 -8h-668z" />
    <glyph glyph-name="M" unicode="M" horiz-adv-x="1556" 
d="M1496 1324q30 0 30 -28v-7t-2 -13l-196 -1240q-3 -20 -12.5 -28t-29.5 -8h-74q-36 0 -30 36l174 1100l-512 -702q-12 -17 -25 -23.5t-33 -6.5h-22q-20 0 -31 8t-19 26l-288 698l-174 -1100q-3 -20 -12.5 -28t-29.5 -8h-74q-30 0 -30 28v7t2 13l196 1240q3 20 12.5 28
t29.5 8h114q20 0 31 -8t19 -26l292 -704l518 708q12 17 25 23.5t33 6.5h118z" />
    <glyph glyph-name="N" unicode="N" horiz-adv-x="1342" 
d="M1282 1324q30 0 30 -28v-7t-2 -13l-196 -1240q-3 -20 -12.5 -28t-29.5 -8h-106q-20 0 -31 7t-19 25l-490 1102l-174 -1098q-3 -20 -12.5 -28t-29.5 -8h-74q-30 0 -30 28v7t2 13l196 1240q3 20 12.5 28t29.5 8h106q20 0 31 -7t19 -25l490 -1102l174 1098q3 20 12.5 28
t29.5 8h74z" />
    <glyph glyph-name="O" unicode="O" horiz-adv-x="1376" 
d="M268 538q0 -96 22.5 -174.5t67.5 -134.5t112 -86.5t156 -30.5q84 0 157 27t132.5 74.5t106 112.5t78 139.5t48 156.5t16.5 164q0 96 -22.5 174.5t-67.5 134.5t-112 86.5t-156 30.5q-85 0 -157.5 -27t-132 -74.5t-106 -112.5t-78 -139.5t-48 -156.5t-16.5 -164zM1328 780
q0 -106 -21.5 -206.5t-63.5 -189.5t-103 -163t-140 -127.5t-174.5 -83.5t-205.5 -30q-122 0 -218 37.5t-162 109.5t-101 177t-35 240q0 106 21.5 206.5t63.5 189.5t103 163t140 127.5t174 83.5t206 30q122 0 218 -37.5t162 -109.5t101 -177t35 -240z" />
    <glyph glyph-name="P" unicode="P" horiz-adv-x="1096" 
d="M136 0q-36 0 -30 36l198 1252q3 20 12.5 28t29.5 8h364q109 0 185.5 -29t124.5 -79t70 -117.5t22 -144.5q0 -95 -32 -179.5t-98 -147.5t-166 -100t-236 -37h-244l-72 -454q-3 -20 -12.5 -28t-29.5 -8h-86zM356 622h234q97 0 165 28.5t111 76t62.5 108t19.5 125.5
q0 51 -13 93.5t-44.5 73.5t-83 48t-127.5 17h-234z" />
    <glyph glyph-name="Q" unicode="Q" horiz-adv-x="1376" 
d="M1026 -306q-35 -15 -70.5 -23.5t-79.5 -8.5q-67 0 -120.5 18t-93.5 56.5t-66 99t-36 146.5q-109 9 -193.5 50.5t-143 113t-89 171.5t-30.5 227q0 106 21.5 206.5t63.5 189.5t103 163t140 127.5t174 83.5t206 30q122 0 218 -37.5t162 -109.5t101 -177t35 -240
q0 -149 -42.5 -285t-122 -243.5t-195 -178t-260.5 -87.5q15 -101 58 -151.5t130 -50.5q26 0 48 5t40 11q18 8 28 3t18 -23l16 -38q12 -33 -20 -48zM268 538q0 -96 22.5 -174.5t67.5 -134.5t112 -86.5t156 -30.5q84 0 157 27t132.5 74.5t106 112.5t78 139.5t48 156.5
t16.5 164q0 96 -22.5 174.5t-67.5 134.5t-112 86.5t-156 30.5q-85 0 -157.5 -27t-132 -74.5t-106 -112.5t-78 -139.5t-48 -156.5t-16.5 -164z" />
    <glyph glyph-name="R" unicode="R" horiz-adv-x="1128" 
d="M136 0q-36 0 -30 36l198 1252q3 20 12.5 28t29.5 8h364q112 0 187 -28.5t120.5 -75t65 -106.5t19.5 -124q0 -83 -25.5 -155.5t-74.5 -129t-121 -93.5t-165 -50q59 -54 105.5 -119t82 -134t60.5 -139t42 -134q9 -36 -28 -36h-94q-20 0 -29.5 8t-14.5 26q-15 55 -39 120
t-59 132.5t-82 133.5t-108 124h-208l-80 -508q-3 -20 -12.5 -28t-29.5 -8h-86zM366 676h234q92 0 156.5 25t105 67.5t58.5 99.5t18 122q0 43 -12.5 80t-42.5 64t-78.5 42.5t-120.5 15.5h-238z" />
    <glyph glyph-name="S" unicode="S" horiz-adv-x="1050" 
d="M936 390q0 -90 -33 -165.5t-95 -129.5t-150.5 -84.5t-199.5 -30.5q-67 0 -126.5 11t-110.5 29t-92 42t-69 50q-26 26 -2 50l56 60q14 15 25.5 15.5t26.5 -13.5q53 -48 122.5 -77t161.5 -29q73 0 133 19t102.5 53t65.5 81t23 103q0 47 -16.5 79.5t-48.5 56.5t-78.5 43.5
t-106.5 40.5t-120.5 46t-108.5 63.5t-78.5 95.5t-30.5 143q0 91 36 165t100.5 126.5t153 81.5t194.5 29q58 0 111 -8.5t98.5 -22.5t83 -33t63.5 -40q29 -25 4 -50l-52 -62q-14 -15 -25.5 -15.5t-26.5 11.5q-45 36 -109.5 59t-150.5 23q-80 0 -140 -21t-99.5 -55.5t-59 -80.5
t-19.5 -95q0 -51 19.5 -85.5t53 -59.5t79 -43.5t98.5 -37.5q73 -26 135 -52t107 -63t70.5 -90t25.5 -133z" />
    <glyph glyph-name="T" unicode="T" horiz-adv-x="976" 
d="M170 1192q-30 0 -30 26v6.5t2 15.5l8 48q3 20 12.5 28t29.5 8h866q30 0 30 -26v-6.5t-2 -15.5l-8 -48q-3 -20 -12.5 -28t-29.5 -8h-354l-184 -1156q-3 -20 -12.5 -28t-29.5 -8h-86q-30 0 -30 28v7t2 13l182 1144h-354z" />
    <glyph glyph-name="U" unicode="U" horiz-adv-x="1290" 
d="M1144 504q-21 -133 -67.5 -231.5t-116 -163.5t-161 -97t-201.5 -32q-104 0 -185 27t-136.5 79.5t-85 129t-29.5 174.5q0 23 2 50.5t8 69.5l122 778q3 20 12.5 28t29.5 8h86q36 0 30 -36l-122 -772q-5 -29 -6.5 -60t-1.5 -52q0 -74 19 -128t54.5 -89.5t86 -53t112.5 -17.5
q72 0 136.5 23.5t116 71.5t87.5 121t52 172l124 784q3 20 12.5 28t29.5 8h86q36 0 30 -36l-124 -784v0z" />
    <glyph glyph-name="V" unicode="V" horiz-adv-x="1180" 
d="M484 0q-20 0 -31 8t-19 26q-52 124 -90.5 271t-65.5 308t-44.5 332t-27.5 343q-3 36 34 36h88q20 0 28 -8t10 -28q8 -158 21 -309.5t33 -294t48.5 -274.5t69.5 -250q73 111 145.5 242t140 275.5t128 299.5t110.5 313q6 18 16 26t30 8h92q26 0 26 -20q0 -3 -0.5 -8.5
t-5.5 -19.5q-115 -344 -268.5 -661.5t-339.5 -584.5q-11 -17 -23.5 -23.5t-32.5 -6.5h-72z" />
    <glyph glyph-name="W" unicode="W" horiz-adv-x="1890" 
d="M408 0q-38 0 -46 34q-22 75 -40 167.5t-32.5 196.5t-25.5 216t-19 226.5t-13.5 227.5t-7.5 220q0 20 8 28t28 8h86q20 0 28 -8t8 -28q1 -140 5.5 -293t15 -303.5t27 -291t40.5 -254.5q47 72 95.5 159t96 183t92 198t85.5 205t76.5 204t64.5 195q6 18 16 26t30 8h94
q20 0 28 -8t8 -28q0 -95 4 -196.5t12 -204t19.5 -204.5t27 -198t34 -184t41.5 -163q62 113 127 252.5t125.5 290.5t114 306t93.5 301q6 18 16 27t30 9h94q26 0 26 -22q0 -5 -0.5 -10t-5.5 -20q-31 -102 -70.5 -213.5t-83.5 -224.5t-91.5 -224.5t-96.5 -215.5t-97.5 -196.5
t-94.5 -167.5q-9 -17 -21.5 -23.5t-32.5 -6.5h-86q-37 0 -48 34q-41 122 -69.5 251.5t-46.5 261.5t-27.5 264t-10.5 259q-42 -128 -94.5 -262t-114.5 -267.5t-133 -263t-150 -247.5q-11 -17 -23.5 -23.5t-32.5 -6.5h-82z" />
    <glyph glyph-name="X" unicode="X" horiz-adv-x="1172" 
d="M46 0q-26 0 -26 20q0 3 0.5 7t3.5 13q31 82 85 168t122 171t146 166t157 155q-54 77 -98.5 151.5t-77 147.5t-51.5 145t-23 144q-3 36 34 36h74q21 0 30 -8t12 -28q14 -112 67 -238.5t139 -257.5q127 134 221.5 258.5t142.5 239.5q9 20 20 27t32 7h80q26 0 26 -20
q0 -3 -0.5 -7t-3.5 -13q-26 -71 -70.5 -146.5t-102.5 -152t-126 -152.5t-139 -147q56 -74 107.5 -156t92 -166.5t66.5 -168t32 -159.5q3 -36 -32 -36h-78q-21 0 -30 8t-12 28q-20 119 -83.5 260t-166.5 298q-161 -146 -272 -283.5t-168 -276.5q-8 -20 -18.5 -27t-31.5 -7
h-80z" />
    <glyph glyph-name="Y" unicode="Y" horiz-adv-x="1052" 
d="M410 0q-36 0 -30 36l66 434q-46 80 -87.5 176t-77 200t-63.5 213.5t-46 216.5q-2 9 -2 14v8q0 26 30 26h86q20 0 29.5 -8t12.5 -28q16 -96 38.5 -193t50 -188.5t59 -173.5t66.5 -147q54 62 112.5 142t117 171.5t114.5 190.5t104 200q9 18 20.5 26t31.5 8h86q14 0 19 -4
t5 -12q0 -5 -1 -9.5t-7 -18.5q-48 -107 -112 -218.5t-136 -218.5t-147 -204.5t-145 -174.5l-66 -428q-3 -20 -12.5 -28t-29.5 -8h-86z" />
    <glyph glyph-name="Z" unicode="Z" horiz-adv-x="1020" 
d="M1036 1324q30 0 30 -28v-8.5t-2 -15.5l-6 -40q-2 -14 -8 -31t-14 -31q-26 -41 -72 -101t-104.5 -132t-125 -152t-134.5 -160.5t-132.5 -157t-118.5 -142t-93 -115t-56 -76.5h680q36 0 30 -36l-8 -62q-3 -20 -12.5 -28t-29.5 -8h-820q-30 0 -30 28v8.5t2 15.5l6 40
q2 15 8 31.5t14 30.5q26 40 72.5 100.5t104.5 133t125 152.5t134.5 160.5t132 157t118.5 142t93 115t56 75.5h-614q-36 0 -30 36l10 62q3 20 12.5 28t29.5 8h752z" />
    <glyph glyph-name="bracketleft" unicode="[" horiz-adv-x="532" 
d="M112 -196q-30 0 -30 26v7.5t2 14.5l252 1592q3 20 12.5 28t29.5 8h242q30 0 30 -26v-7.5t-2 -12.5l-2 -10q-3 -20 -12.5 -28t-29.5 -8h-144l-236 -1492h146q30 0 30 -26v-7t-2 -13l-2 -10q-3 -20 -12.5 -28t-29.5 -8h-242z" />
    <glyph glyph-name="backslash" unicode="\" horiz-adv-x="584" 
d="M174 1434q-2 11 -3 23.5t-1 18.5q0 12 7 20t25 8h46q20 0 28.5 -8t11.5 -28l188 -1578q2 -11 3 -23.5t1 -18.5q0 -12 -7 -20t-25 -8h-46q-20 0 -28.5 8t-11.5 28z" />
    <glyph glyph-name="bracketright" unicode="]" horiz-adv-x="532" 
d="M490 1480q30 0 30 -26v-7.5t-2 -14.5l-252 -1592q-3 -20 -12.5 -28t-29.5 -8h-242q-30 0 -30 26v7.5t2 12.5l2 10q3 20 12.5 28t29.5 8h144l236 1492h-146q-30 0 -30 26v7t2 13l2 10q3 20 12.5 28t29.5 8h242z" />
    <glyph glyph-name="asciicircum" unicode="^" horiz-adv-x="980" 
d="M918 710q-33 -18 -50 14l-264 478l-424 -488q-22 -28 -52 -4l-28 26q-16 13 -16 26q0 11 12 26l440 508q14 15 27 21.5t33 6.5h40q20 0 31.5 -7t22.5 -25l276 -506q6 -11 8 -18t2 -12q0 -15 -20 -26z" />
    <glyph glyph-name="underscore" unicode="_" horiz-adv-x="818" 
d="M634 0q17 0 24.5 -6.5t7.5 -23.5v-6.5t-2 -17.5l-4 -26q-3 -20 -12.5 -28t-29.5 -8h-596q-17 0 -24.5 6.5t-7.5 23.5v6.5t2 17.5l4 26q3 20 12.5 28t29.5 8h596z" />
    <glyph glyph-name="grave" unicode="`" horiz-adv-x="582" 
d="M266 1376q11 16 26 16q13 0 28 -12l244 -202q16 -13 16 -28q0 -11 -10 -24l-14 -18q-6 -8 -13.5 -13t-16.5 -5q-11 0 -22 8l-266 184q-16 11 -16 26q0 11 10 24z" />
    <glyph glyph-name="a" unicode="a" horiz-adv-x="1050" 
d="M922 960q36 0 30 -36l-140 -888q-3 -20 -12.5 -28t-29.5 -8h-74q-36 0 -30 36l20 128q-59 -94 -136 -139t-178 -45q-86 0 -143 31t-91 83t-48 120.5t-14 143.5q0 129 35.5 242.5t99 197.5t152 133t195.5 49q90 0 148.5 -32.5t85.5 -77.5l8 54q3 20 12.5 28t29.5 8h80z
M230 358q0 -46 6.5 -91.5t26 -82t56 -59.5t95.5 -23q61 0 112.5 25t91 69t66.5 103.5t38 128.5l52 326q-26 41 -76.5 69.5t-125.5 28.5q-88 0 -152.5 -42.5t-106.5 -112t-62.5 -158.5t-20.5 -181z" />
    <glyph glyph-name="b" unicode="b" horiz-adv-x="1056" 
d="M128 0q-36 0 -30 36l216 1364q3 20 12.5 28t29.5 8h80q36 0 30 -36l-96 -600q59 92 136.5 136t175.5 44q86 0 144 -31t93 -83.5t50 -121t15 -144.5q0 -128 -36.5 -240.5t-101 -197t-154.5 -133.5t-196 -49q-91 0 -151 32.5t-87 77.5l-8 -54q-3 -20 -12.5 -28t-29.5 -8
h-80zM830 598q0 46 -7 92.5t-28 84t-58 60.5t-97 23q-61 0 -113 -25t-92.5 -69t-68 -103.5t-38.5 -128.5l-52 -326q26 -41 78.5 -69.5t127.5 -28.5q88 0 153 43t108.5 112t65 157t21.5 178z" />
    <glyph glyph-name="c" unicode="c" horiz-adv-x="872" 
d="M730 74q-65 -48 -144.5 -71t-157.5 -23q-92 0 -159.5 31t-111.5 85.5t-65.5 129t-21.5 160.5q0 70 14 141t42 137t70.5 123.5t100.5 100.5t131 67.5t162 24.5q78 0 146 -20.5t118 -65.5q26 -26 2 -52l-44 -52q-23 -29 -48 -4q-36 33 -84 49.5t-102 16.5q-89 0 -155.5 -42
t-110.5 -108t-66 -148.5t-22 -163.5q0 -62 13 -114t40 -89.5t69 -58t100 -20.5q56 0 110.5 18.5t107.5 53.5q17 12 28 9.5t22 -19.5l26 -44q9 -17 7 -29t-17 -23z" />
    <glyph glyph-name="d" unicode="d" horiz-adv-x="1060" 
d="M1008 1436q36 0 30 -36l-216 -1364q-3 -20 -12.5 -28t-29.5 -8h-74q-36 0 -30 36l20 128q-116 -184 -318 -184q-86 0 -144 31t-93 83.5t-50 121t-15 144.5q0 127 36.5 240t101 197.5t154 133.5t196.5 49q91 0 151 -32.5t87 -77.5l84 530q3 20 12.5 28t29.5 8h80zM230 362
q0 -47 7 -93t28 -83.5t58 -60.5t97 -23q61 0 113 25t92.5 69t68 103.5t38.5 128.5l52 326q-26 41 -78.5 69.5t-127.5 28.5q-88 0 -153 -43t-108.5 -112t-65 -157t-21.5 -178z" />
    <glyph glyph-name="e" unicode="e" horiz-adv-x="914" 
d="M760 70q-69 -45 -148 -67.5t-162 -22.5q-101 0 -173 31t-118 85t-67.5 128.5t-21.5 161.5q0 71 14 143t41 138t68.5 123t95.5 99.5t122 66.5t149 24q71 0 128 -19t97 -54.5t61.5 -85.5t21.5 -111q0 -23 -4 -49t-14.5 -53t-30.5 -54t-51 -50q-71 -51 -188.5 -75.5
t-289.5 -24.5h-70v-6q0 -68 12.5 -122.5t40.5 -92t73.5 -57.5t111.5 -20q63 0 126 17.5t114 52.5q15 11 26 9t22 -19l26 -44q9 -17 7 -29t-19 -23zM728 708q0 77 -47.5 115.5t-124.5 38.5q-65 0 -118.5 -27t-95.5 -73.5t-70.5 -110.5t-41.5 -137h70q128 0 211 14.5t131 40.5
t67 61.5t19 77.5z" />
    <glyph glyph-name="f" unicode="f" horiz-adv-x="580" 
d="M262 960l16 98q19 118 54.5 195t83 122t104 63t118.5 18q53 0 95.5 -10.5t72.5 -27.5q20 -10 20 -28q0 -8 -6 -20l-32 -54q-6 -11 -11 -14.5t-13 -3.5q-5 0 -12.5 2t-25.5 10q-14 6 -36.5 11t-49.5 5q-85 0 -136 -61.5t-72 -194.5l-18 -110h200q17 0 24.5 -6.5t7.5 -23.5
v-6.5t-2 -17.5l-4 -28q-3 -20 -12.5 -28t-29.5 -8h-202l-190 -1206q-3 -20 -12.5 -28t-29.5 -8h-80q-30 0 -30 28v7t2 13l188 1194h-124q-17 0 -24.5 6.5t-7.5 23.5v6.5t2 17.5l4 28q3 20 12.5 28t29.5 8h126z" />
    <glyph glyph-name="g" unicode="g" horiz-adv-x="1060" 
d="M932 960q36 0 30 -36l-144 -910q-19 -117 -55.5 -199.5t-92.5 -134.5t-131.5 -76t-172.5 -24q-61 0 -109.5 8t-86 20.5t-64.5 28t-46 29.5q-30 21 -8 52l40 58q12 15 22.5 16.5t25.5 -10.5q16 -13 37 -25.5t48 -22.5t61 -16t76 -6q86 0 141.5 27t89.5 72.5t51 105.5
t28 127l18 116q-59 -92 -136.5 -136t-175.5 -44q-86 0 -144 31t-93 83.5t-50 121t-15 144.5q0 127 36.5 240t101 197.5t154 133.5t196.5 49q91 0 151 -32.5t87 -77.5l8 54q3 20 12.5 28t29.5 8h80zM230 362q0 -47 7 -93t28 -83.5t58 -60.5t97 -23q61 0 113 25t92.5 69
t68 103.5t38.5 128.5l52 326q-26 41 -78.5 69.5t-127.5 28.5q-88 0 -153 -43t-108.5 -112t-65 -157t-21.5 -178z" />
    <glyph glyph-name="h" unicode="h" horiz-adv-x="1068" 
d="M314 1400q3 20 12.5 28t29.5 8h80q36 0 30 -36l-96 -596q25 37 57.5 69.5t72.5 56t87.5 37t102.5 13.5q68 0 119 -20t84.5 -57t50 -89t16.5 -116q0 -27 -2.5 -65t-7.5 -65l-84 -532q-3 -20 -12.5 -28t-29.5 -8h-80q-36 0 -30 36l84 532q6 41 8 66t2 42q0 37 -8 69.5
t-26.5 57t-49 39t-76.5 14.5q-64 0 -118.5 -28t-96.5 -76.5t-70.5 -115t-40.5 -142.5l-72 -458q-3 -20 -12.5 -28t-29.5 -8h-80q-36 0 -30 36z" />
    <glyph glyph-name="i" unicode="i" horiz-adv-x="488" 
d="M482 1320q0 -26 -9.5 -48.5t-26 -39t-38 -25.5t-46.5 -9q-44 0 -69 26.5t-25 67.5q0 26 9.5 48.5t26 39t38 25.5t46.5 9q44 0 69 -26.5t25 -67.5zM128 0q-36 0 -30 36l140 888q3 20 12.5 28t29.5 8h80q36 0 30 -36l-140 -888q-3 -20 -12.5 -28t-29.5 -8h-80z" />
    <glyph glyph-name="j" unicode="j" horiz-adv-x="488" 
d="M226 -114q-13 -82 -38.5 -140t-63 -95t-86 -54t-106.5 -17q-79 0 -136 30q-30 18 -16 50l22 46q8 18 18 22t30 -4q14 -6 31 -10t35 -4q37 0 64.5 15t47 42.5t32 65.5t20.5 85l158 1006q3 20 12.5 28t29.5 8h80q36 0 30 -36zM482 1320q0 -26 -9.5 -48.5t-26 -39t-38 -25.5
t-46.5 -9q-44 0 -69 26.5t-25 67.5q0 26 9.5 48.5t26 39t38 25.5t46.5 9q44 0 69 -26.5t25 -67.5z" />
    <glyph glyph-name="k" unicode="k" horiz-adv-x="940" 
d="M314 1400q3 20 12.5 28t29.5 8h80q30 0 30 -28v-7t-2 -13l-132 -832q55 39 109.5 85.5t105.5 96t96.5 99.5t80.5 95q12 15 25 21.5t33 6.5h102q11 0 15.5 -5t4.5 -11q0 -9 -14 -26q-75 -92 -161 -178.5t-189 -171.5q26 -30 56 -69t60.5 -83.5t59 -92t53 -95.5t43 -94.5
t28.5 -87.5q2 -6 3 -13.5t1 -12.5q0 -20 -28 -20h-84q-20 0 -30 8t-18 28q-26 67 -50 122.5t-52.5 108t-65 104.5t-88.5 111q-30 -23 -60 -43.5t-62 -40.5l-56 -362q-3 -20 -12.5 -28t-29.5 -8h-80q-30 0 -30 28v7t2 13z" />
    <glyph glyph-name="l" unicode="l" horiz-adv-x="488" 
d="M314 1400q3 20 12.5 28t29.5 8h80q30 0 30 -28v-7t-2 -13l-214 -1352q-3 -20 -12.5 -28t-29.5 -8h-80q-30 0 -30 28v7t2 13z" />
    <glyph glyph-name="m" unicode="m" horiz-adv-x="1644" 
d="M1320 0q-36 0 -30 36l84 532q6 41 8 65.5t2 44.5q0 35 -6.5 67.5t-23 57t-45.5 39t-75 14.5q-64 0 -116.5 -28t-93 -76.5t-67.5 -115t-39 -142.5l-72 -458q-3 -20 -12.5 -28t-29.5 -8h-80q-36 0 -30 36l84 532q6 41 8 65.5t2 44.5q0 35 -6.5 67.5t-23 57t-45.5 39
t-75 14.5q-64 0 -116.5 -28t-93 -76.5t-67.5 -115t-39 -142.5l-72 -458q-3 -20 -12.5 -28t-29.5 -8h-80q-36 0 -30 36l140 888q3 20 12.5 28t29.5 8h72q36 0 30 -36l-20 -128q24 39 55.5 72.5t70.5 58.5t86.5 39t103.5 14q58 0 100 -15t71.5 -41.5t47.5 -63.5t27 -80
q28 43 64.5 79.5t80 63.5t95.5 42t112 15q68 0 117.5 -20t81 -57t46.5 -88.5t15 -114.5q0 -14 -0.5 -31.5t-2 -35.5t-3.5 -35t-4 -30l-84 -532q-3 -20 -12.5 -28t-29.5 -8h-80z" />
    <glyph glyph-name="n" unicode="n" horiz-adv-x="1068" 
d="M128 0q-36 0 -30 36l140 888q3 20 12.5 28t29.5 8h72q36 0 30 -36l-20 -128q24 39 57 72.5t74 58.5t90.5 39t106.5 14q68 0 119 -20t84.5 -57t50 -89t16.5 -116q0 -27 -2.5 -65t-7.5 -65l-84 -532q-3 -20 -12.5 -28t-29.5 -8h-80q-36 0 -30 36l84 532q6 41 8 66t2 42
q0 37 -8 69.5t-26.5 57t-49 39t-76.5 14.5q-64 0 -118.5 -28t-96.5 -76.5t-70.5 -115t-40.5 -142.5l-72 -458q-3 -20 -12.5 -28t-29.5 -8h-80z" />
    <glyph glyph-name="o" unicode="o" horiz-adv-x="1006" 
d="M222 382q0 -64 12.5 -115.5t39.5 -88t68 -56.5t98 -20t104.5 19.5t86 53.5t67 79.5t48 98.5t29 110.5t9.5 114.5q0 64 -12.5 115.5t-39.5 88t-68 56.5t-98 20q-86 0 -150 -42.5t-107.5 -110t-65 -153t-21.5 -170.5zM938 574q0 -69 -13 -140t-40 -137t-68 -123.5
t-97 -100.5t-127 -68t-157 -25q-97 0 -166.5 31t-114.5 85.5t-66 129t-21 160.5q0 69 13 140t40 137t68 123.5t97 100.5t126.5 68t157.5 25q97 0 166.5 -31t114.5 -85.5t66 -129t21 -160.5z" />
    <glyph glyph-name="p" unicode="p" horiz-adv-x="1056" 
d="M64 -400q-36 0 -30 36l204 1288q3 20 12.5 28t29.5 8h74q36 0 30 -36l-20 -128q116 184 318 184q86 0 144 -31t93 -83.5t50 -121t15 -144.5q0 -128 -36.5 -240.5t-101 -197t-154.5 -133.5t-196 -49q-91 0 -151 32.5t-87 77.5l-72 -454q-3 -20 -12.5 -28t-29.5 -8h-80z
M830 598q0 46 -7 92.5t-28 84t-58 60.5t-97 23q-61 0 -113 -25t-92.5 -69t-68 -103.5t-38.5 -128.5l-52 -326q26 -41 78.5 -69.5t127.5 -28.5q88 0 153 43t108.5 112t65 157t21.5 178z" />
    <glyph glyph-name="q" unicode="q" horiz-adv-x="1044" 
d="M932 960q36 0 30 -36l-204 -1288q-3 -20 -12.5 -28t-29.5 -8h-80q-36 0 -30 36l84 524q-59 -92 -136.5 -136t-175.5 -44q-86 0 -144 31t-93 83.5t-50 121t-15 144.5q0 127 36.5 240t101 197.5t154 133.5t196.5 49q91 0 151 -32.5t87 -77.5l8 54q3 20 12.5 28t29.5 8h80z
M230 362q0 -47 7 -93t28 -83.5t58 -60.5t97 -23q61 0 113 25t92.5 69t68 103.5t38.5 128.5l52 326q-26 41 -78.5 69.5t-127.5 28.5q-88 0 -153 -43t-108.5 -112t-65 -157t-21.5 -178z" />
    <glyph glyph-name="r" unicode="r" horiz-adv-x="704" 
d="M250 36q-3 -20 -12.5 -28t-29.5 -8h-80q-30 0 -30 28v7t2 13l138 876q3 20 12.5 28t29.5 8h68q30 0 30 -28v-7t-2 -13l-20 -130q20 41 49 77t65.5 63t79.5 42.5t92 15.5q20 0 44 -3t42 -11q11 -5 17.5 -11t6.5 -15q0 -5 -1 -9t-3 -9l-32 -78q-5 -12 -11.5 -17t-14.5 -5
q-5 0 -12.5 1.5t-19.5 6.5q-5 2 -20 5t-36 3q-59 0 -106.5 -28.5t-82.5 -77.5t-58.5 -113.5t-34.5 -136.5z" />
    <glyph glyph-name="s" unicode="s" horiz-adv-x="864" 
d="M752 282q0 -74 -28.5 -130t-81 -94.5t-128.5 -58t-170 -19.5q-100 0 -173.5 22.5t-118.5 55.5q-30 21 -8 50l38 50q14 15 24.5 17.5t27.5 -9.5q41 -26 99 -44t129 -18q38 0 80.5 7t78.5 24.5t59.5 47.5t23.5 77q0 38 -16.5 64t-45 44.5t-66 31.5t-80.5 26
q-68 20 -118.5 43.5t-83.5 54t-49.5 70.5t-16.5 94q0 73 28 127.5t78.5 91t121 55t156.5 18.5q97 0 163 -19t105 -43q31 -18 10 -48l-34 -50q-12 -17 -23 -20t-29 6q-38 20 -90.5 35t-117.5 15q-32 0 -69.5 -5.5t-70 -22t-54.5 -47t-22 -79.5q0 -39 14.5 -63t42 -40.5
t66.5 -30t89 -30.5q61 -22 109.5 -44.5t82 -51.5t51 -67.5t17.5 -92.5z" />
    <glyph glyph-name="t" unicode="t" horiz-adv-x="666" 
d="M112 842q-36 0 -30 36l6 46q3 20 12.5 28t29.5 8h126l36 224q3 20 12.5 28t29.5 8h80q36 0 30 -36l-36 -224h254q36 0 30 -36l-6 -46q-3 -20 -12.5 -28t-29.5 -8h-254l-88 -554q-3 -20 -5.5 -41t-2.5 -39q0 -45 22.5 -71.5t81.5 -26.5q56 0 108 26q31 20 46 -14l22 -48
q14 -32 -16 -50q-41 -24 -89.5 -34t-96.5 -10q-53 0 -95.5 12.5t-72.5 39t-46 68t-16 100.5q0 18 1.5 41.5t6.5 50.5l88 550h-126z" />
    <glyph glyph-name="u" unicode="u" horiz-adv-x="1068" 
d="M940 960q36 0 30 -36l-140 -888q-3 -20 -12.5 -28t-29.5 -8h-72q-36 0 -30 36l20 128q-24 -39 -55.5 -72.5t-71.5 -58.5t-88 -39t-105 -14q-68 0 -117.5 20t-81.5 57t-47.5 89t-15.5 116q0 27 2.5 65t7.5 65l84 532q3 20 12.5 28t29.5 8h80q36 0 30 -36l-84 -532
q-6 -41 -8 -66t-2 -42q0 -37 6.5 -69.5t23.5 -57t46.5 -39t75.5 -14.5q64 0 117 28t93.5 76.5t68 114.5t39.5 143l72 458q3 20 12.5 28t29.5 8h80z" />
    <glyph glyph-name="v" unicode="v" horiz-adv-x="888" 
d="M344 0q-35 0 -50 32q-41 82 -72 188t-52.5 223.5t-33.5 240.5t-16 240q0 18 8 27t28 9h74q20 0 28 -8t8 -28q4 -98 13 -205t24.5 -211t38 -199.5t54.5 -168.5q53 73 105 168t99 199.5t88.5 211.5t73.5 205q8 18 18 27t30 9h78q26 0 26 -20q0 -3 -0.5 -8.5t-5.5 -19.5
q-38 -113 -87 -234.5t-106 -238.5t-120 -223t-129 -188q-22 -28 -58 -28h-64z" />
    <glyph glyph-name="w" unicode="w" horiz-adv-x="1456" 
d="M302 0q-37 0 -48 34q-31 84 -54 189t-39 221.5t-24 238.5t-9 241q0 20 8 28t28 8h74q20 0 28 -8t8 -28q1 -101 5 -209t13.5 -212t25 -199t38.5 -170q49 72 100.5 166.5t100 199.5t92 214.5t75.5 211.5q6 18 16 26t30 8h72q20 0 28 -8t8 -28q1 -107 8.5 -215t20.5 -210
t31.5 -194t41.5 -167q49 70 97.5 164t92.5 199t82.5 214.5t69.5 210.5q6 18 16 26t30 8h78q28 0 28 -20q0 -8 -3.5 -19t-8.5 -25q-38 -113 -84.5 -232t-99 -232.5t-109 -216.5t-113.5 -185q-11 -17 -23.5 -23.5t-32.5 -6.5h-74q-38 0 -46 34q-57 193 -80.5 368t-25.5 330
q-51 -159 -131 -331.5t-203 -370.5q-11 -17 -23.5 -23.5t-32.5 -6.5h-82z" />
    <glyph glyph-name="x" unicode="x" horiz-adv-x="972" 
d="M58 0q-26 0 -26 18q0 3 1 7t3 9q23 52 60 111t84.5 118.5t103.5 117.5t118 109q-89 109 -144.5 222.5t-73.5 211.5q-6 36 28 36h76q21 0 30 -8t14 -28q27 -158 174 -356q110 98 182.5 189t111.5 171q9 20 20 26t32 6h74q26 0 26 -16q0 -7 -8 -26q-21 -49 -55.5 -105
t-81 -113.5t-103 -114.5t-120.5 -107q46 -53 84 -110t67 -114t47.5 -113t25.5 -105q6 -36 -30 -36h-72q-21 0 -30 8t-12 28q-15 83 -58.5 173.5t-123.5 188.5q-113 -98 -183 -188.5t-111 -175.5q-9 -18 -21 -26t-33 -8h-76z" />
    <glyph glyph-name="y" unicode="y" horiz-adv-x="1068" 
d="M940 960q36 0 30 -36l-144 -910q-19 -117 -55.5 -199.5t-92.5 -134.5t-131.5 -76t-172.5 -24q-61 0 -109.5 8t-86 20.5t-64.5 28t-46 29.5q-30 21 -8 52l40 58q12 15 22.5 16.5t25.5 -10.5q16 -13 37 -25.5t48 -22.5t61 -16t76 -6q86 0 141.5 27t89.5 72.5t51 105.5
t28 127l18 116q-59 -92 -136.5 -136t-175.5 -44q-68 0 -117.5 20t-81.5 57t-47.5 89t-15.5 116q0 27 2.5 65t7.5 65l84 532q3 20 12.5 28t29.5 8h80q36 0 30 -36l-84 -532q-6 -41 -8 -66t-2 -42q0 -37 6.5 -69.5t23.5 -57t46.5 -39t75.5 -14.5q64 0 117 28t93.5 76.5
t68 114.5t39.5 143l72 458q3 20 12.5 28t29.5 8h80z" />
    <glyph glyph-name="z" unicode="z" horiz-adv-x="868" 
d="M814 960q30 0 30 -26v-6.5t-2 -15.5l-4 -26q-2 -14 -8.5 -30.5t-15.5 -27.5q-27 -38 -77.5 -98.5t-113 -131.5t-129 -145.5t-125 -140.5t-102.5 -116.5t-59 -73.5h498q36 0 30 -36l-8 -50q-3 -20 -12.5 -28t-29.5 -8h-640q-30 0 -30 26v6.5t2 15.5l4 26q2 12 8 28.5
t14 27.5q21 29 55.5 71t77.5 92t91.5 105t97.5 109.5t95.5 106.5t85 96t66 77t39.5 51h-452q-36 0 -30 36l10 50q3 20 12.5 28t29.5 8h592z" />
    <glyph glyph-name="braceleft" unicode="{" horiz-adv-x="532" 
d="M90 596q-15 2 -22.5 7.5t-7.5 22.5v6.5t2 17.5q3 21 12.5 28.5t29.5 9.5q74 5 115.5 75t64.5 213l30 190q15 97 44 161t68 99q22 19 45.5 30t49 16.5t51.5 6.5t52 1h6q17 0 24.5 -6.5t7.5 -23.5v-6.5t-2 -17.5q-3 -21 -12.5 -29.5t-29.5 -8.5h-2q-38 0 -63 -12t-43 -32
q-8 -8 -16 -20.5t-16 -32.5t-15.5 -49t-14.5 -70l-30 -186q-14 -84 -32.5 -148.5t-51.5 -115.5q-40 -58 -92 -90q44 -36 62 -85.5t18 -112.5q0 -33 -4 -72t-12 -84l-24 -152q-5 -27 -7.5 -59t-2.5 -53q0 -27 5.5 -49t18 -37t33 -23.5t51.5 -8.5q17 0 24.5 -6.5t7.5 -23.5
v-6.5t-2 -17.5q-3 -21 -12.5 -29.5t-29.5 -8.5h-10q-104 0 -160 49.5t-56 160.5q0 52 12 130l24 164q6 39 9 74t3 64q0 69 -20 106.5t-80 43.5z" />
    <glyph glyph-name="bar" unicode="|" horiz-adv-x="584" 
d="M388 1446q3 20 12.5 28t29.5 8h48q30 0 30 -28v-7t-2 -13l-254 -1594q-3 -20 -12.5 -28t-29.5 -8h-48q-30 0 -30 28v7t2 13z" />
    <glyph glyph-name="braceright" unicode="}" horiz-adv-x="532" 
d="M492 688q15 -2 22.5 -7.5t7.5 -22.5v-6.5t-2 -17.5q-3 -21 -12.5 -28.5t-29.5 -9.5q-74 -5 -115.5 -75t-64.5 -213l-30 -190q-15 -97 -44 -161t-68 -99q-22 -20 -45.5 -30.5t-49 -16t-51.5 -6.5t-52 -1h-6q-17 0 -24.5 6.5t-7.5 23.5v6.5t2 17.5q3 21 12.5 29.5t29.5 8.5
h2q38 0 63 12t43 32q7 8 15.5 20.5t16.5 32.5t15.5 49t14.5 70l30 186q13 84 32 148.5t52 115.5q40 58 92 90q-44 36 -62 85.5t-18 112.5q0 33 4 72t12 84l24 152q5 27 7.5 59t2.5 53q0 54 -23.5 86t-84.5 32q-17 0 -24.5 6.5t-7.5 23.5v6.5t2 17.5q3 21 12.5 29.5t29.5 8.5
h10q103 0 159.5 -49.5t56.5 -160.5q0 -52 -12 -130l-24 -164q-6 -39 -9 -74t-3 -64q0 -69 20 -106.5t80 -43.5z" />
    <glyph glyph-name="asciitilde" unicode="~" 
d="M684 460q31 0 56 11.5t45.5 29.5t36.5 39.5t30 41.5q8 11 14 14.5t14 3.5q11 0 24 -8l32 -18q11 -6 14.5 -13t3.5 -15q0 -10 -6 -22q-12 -26 -37.5 -58.5t-61.5 -61t-82 -48.5t-99 -20q-42 0 -73.5 12.5t-57.5 30.5t-48.5 40t-45 40t-47 30.5t-54.5 12.5q-31 0 -56 -12
t-45.5 -30t-37 -39.5t-29.5 -40.5q-8 -11 -14 -14.5t-14 -3.5q-11 0 -24 8l-32 18q-11 6 -14.5 13t-3.5 15q0 10 6 22q12 25 37.5 58t61.5 61.5t82 48.5t99 20q41 0 73 -12.5t58 -30.5t48.5 -40t45 -40t46.5 -30.5t55 -12.5z" />
    <glyph glyph-name="uni00A0" unicode="&#xa0;" horiz-adv-x="460" 
 />
    <glyph glyph-name="exclamdown" unicode="&#xa1;" horiz-adv-x="524" 
d="M68 -360q-37 0 -28 36l208 898q5 18 14.5 26t29.5 8h4q36 0 30 -34l-76 -898q-3 -20 -11.5 -28t-28.5 -8h-142zM446 876q0 -28 -9.5 -52t-26 -42t-39.5 -28t-51 -10q-50 0 -76 29.5t-26 74.5q0 28 9.5 52t26 42t39.5 28t51 10q50 0 76 -29.5t26 -74.5z" />
    <glyph glyph-name="cent" unicode="&#xa2;" 
d="M480 -128q-36 0 -30 36l18 112q-81 10 -140 44.5t-98 87.5t-57.5 122t-18.5 148q0 65 12.5 131.5t38 129t64 118.5t91 100t119 73t147.5 38l18 116q3 20 12.5 28t29.5 8h40q36 0 30 -36l-18 -114q71 -5 132 -27.5t108 -64.5q26 -26 2 -52l-44 -52q-23 -29 -48 -4
q-69 63 -170 72l-118 -742q48 6 95.5 25t92.5 49q17 11 28 8t22 -20l26 -44q9 -17 7 -29t-17 -23q-60 -41 -132 -63.5t-144 -28.5l-16 -110q-3 -20 -12.5 -28t-29.5 -8h-40zM604 884q-75 -17 -130.5 -63.5t-92.5 -110t-55 -138t-18 -146.5q0 -54 10.5 -101t33 -84t56 -61.5
t80.5 -33.5z" />
    <glyph glyph-name="sterling" unicode="&#xa3;" 
d="M178 600q-36 0 -30 36l8 52q3 20 12.5 28t29.5 8h128q-9 54 -17.5 110.5t-8.5 109.5q0 79 25 151t76 127.5t130 88.5t187 33q55 0 105 -8.5t92.5 -22.5t77 -32t59.5 -37q16 -11 16 -28q0 -13 -8 -24l-36 -54q-11 -17 -21 -18t-27 10q-45 32 -111 56t-147 24
q-71 0 -122 -20.5t-84 -58t-48.5 -89t-15.5 -112.5q0 -50 8.5 -101l17.5 -105h342q36 0 30 -36l-8 -52q-3 -20 -12.5 -28t-29.5 -8h-302q2 -17 2 -33v-31q0 -60 -12 -117t-38 -109.5t-68 -98.5t-102 -83h584q36 0 30 -36l-10 -56q-3 -20 -12.5 -28t-29.5 -8h-728
q-30 0 -30 26v7t2 15l8 50q3 21 11.5 32t26.5 22q49 28 90.5 67.5t71.5 86.5t47 99.5t17 108.5q0 17 -1.5 39.5t-6.5 46.5h-168z" />
    <glyph glyph-name="currency" unicode="&#xa4;" 
d="M378 1016q47 24 102 37t120 13q71 0 130 -15.5t104 -44.5l136 118q15 12 27.5 11.5t24.5 -15.5l36 -44q26 -28 -4 -52l-128 -110q27 -44 41.5 -96t14.5 -114q0 -94 -30.5 -175t-89.5 -141l94 -112q14 -15 12.5 -26.5t-16.5 -25.5l-48 -40q-28 -26 -52 4l-100 118
q-47 -23 -103 -35.5t-119 -12.5q-143 0 -236 60l-134 -118q-30 -24 -52 4l-36 44q-26 28 4 52l126 110q-27 42 -40.5 95t-13.5 115q0 92 30.5 174t89.5 142l-94 112q-14 15 -12.5 26.5t16.5 25.5l48 40q15 12 26.5 11.5t25.5 -15.5zM296 628q0 -55 14.5 -100t43.5 -77.5
t73 -50.5t103 -18q73 0 130 25t95.5 67.5t58.5 99.5t20 122q0 55 -14.5 100t-43.5 77.5t-73 50.5t-103 18q-74 0 -130.5 -25t-95 -67.5t-58.5 -100t-20 -121.5z" />
    <glyph glyph-name="yen" unicode="&#xa5;" 
d="M64 312q3 20 12.5 28t29.5 8h330l26 166h-330q-36 0 -30 36l6 46q3 20 12.5 28t29.5 8h256q-66 145 -119 312t-89 344q-6 36 30 36h84q20 0 29.5 -8t12.5 -28q38 -190 87 -357.5t111 -298.5q101 125 203 293t203 367q9 18 20.5 25t31.5 7h86q24 0 24 -18q0 -11 -10 -28
q-42 -86 -89.5 -171.5t-98.5 -168t-104.5 -159.5t-107.5 -147h248q36 0 30 -36l-6 -46q-3 -20 -12.5 -28t-29.5 -8h-324l-26 -166h324q36 0 30 -36l-8 -46q-3 -20 -12.5 -28t-29.5 -8h-324l-30 -194q-3 -20 -12.5 -28t-29.5 -8h-82q-36 0 -30 36l30 194h-326
q-17 0 -24.5 6.5t-7.5 23.5v6.5t2 17.5z" />
    <glyph glyph-name="brokenbar" unicode="&#xa6;" horiz-adv-x="616" 
d="M222 408q3 20 12.5 28t29.5 8h48q30 0 30 -28v-7t-2 -13l-88 -556q-3 -20 -12.5 -28t-29.5 -8h-48q-30 0 -30 28v7t2 13zM388 1446q3 20 12.5 28t29.5 8h48q30 0 30 -28v-7t-2 -13l-88 -556q-3 -20 -12.5 -28t-29.5 -8h-48q-30 0 -30 28v7t2 13z" />
    <glyph glyph-name="section" unicode="&#xa7;" horiz-adv-x="984" 
d="M740 0q0 -77 -30.5 -138t-85.5 -104.5t-131 -66.5t-167 -23q-52 0 -99.5 7.5t-88.5 19.5t-74.5 28t-57.5 33q-31 19 -8 48l38 48q12 17 23.5 18.5t28.5 -10.5q44 -27 107 -44.5t135 -17.5q67 0 116 15t81.5 41t48.5 60.5t16 73.5q0 42 -16.5 71.5t-46 52t-69.5 40.5
t-86 36q-48 19 -100 43t-95 59.5t-71 86t-28 121.5q0 52 16.5 99.5t47 88t73 72t95.5 52.5q-41 35 -65.5 83.5t-24.5 120.5q0 76 30 137t84 104t129 66t165 23q52 0 97.5 -7.5t84.5 -19.5t70 -27.5t54 -31.5q30 -21 8 -50l-38 -48q-12 -15 -23.5 -17t-28.5 9
q-41 27 -99.5 44.5t-130.5 17.5q-65 0 -113 -15t-79.5 -41t-46.5 -60.5t-15 -73.5q0 -43 17 -73t47 -52.5t69.5 -40t84.5 -34.5q48 -19 100 -43t95 -59.5t71 -86t28 -121.5q0 -53 -16.5 -100t-47 -87.5t-73.5 -72t-95 -52.5q41 -35 65.5 -83t24.5 -119zM736 490
q0 72 -53 123.5t-159 90.5q-30 11 -60.5 22.5t-59.5 25.5q-38 -13 -70.5 -36.5t-56.5 -54.5t-37.5 -66.5t-13.5 -72.5q0 -74 54 -124.5t158 -89.5q30 -12 59.5 -24t58.5 -26q38 13 71 37t57 55t38 66.5t14 73.5z" />
    <glyph glyph-name="dieresis" unicode="&#xa8;" horiz-adv-x="734" 
d="M404 1244q0 -47 -29.5 -78.5t-76.5 -31.5q-44 0 -66 26t-22 64q0 47 29.5 78.5t76.5 31.5q44 0 66 -26t22 -64zM744 1244q0 -47 -29.5 -78.5t-76.5 -31.5q-44 0 -66 26t-22 64q0 47 29.5 78.5t76.5 31.5q44 0 66 -26t22 -64z" />
    <glyph glyph-name="copyright" unicode="&#xa9;" horiz-adv-x="1584" 
d="M1012 328q-53 -36 -117 -54t-127 -18q-77 0 -133 25t-93.5 70t-55.5 106.5t-18 134.5q0 59 11.5 117.5t35.5 112t59.5 100t83 80t107.5 53t133 19.5q131 0 214 -68q28 -22 6 -50l-26 -34q-12 -15 -23.5 -16.5t-28.5 10.5q-32 24 -66.5 34t-73.5 10q-74 0 -128.5 -30.5
t-90 -81.5t-52.5 -116.5t-17 -135.5q0 -53 9.5 -94.5t30.5 -71t53.5 -45t78.5 -15.5q45 0 88.5 14.5t85.5 41.5q31 20 48 -12l18 -34q17 -32 -12 -52zM252 574q0 -122 38.5 -214.5t106 -154t158.5 -92.5t195 -31q95 0 180 24.5t156.5 69t129 106t97.5 136t61.5 158.5
t21.5 174q0 122 -38.5 214.5t-106 154t-158.5 92.5t-195 31q-95 0 -180 -24.5t-156.5 -69t-129 -106t-97.5 -136t-61.5 -159t-21.5 -173.5zM1508 752q0 -104 -25 -202t-72 -184t-114.5 -157t-152 -122t-185 -79t-213.5 -28q-129 0 -240 38.5t-192 113.5t-127.5 185.5
t-46.5 254.5q0 104 25 202t72 184t114.5 157t152 122t185 79t213.5 28q129 0 240 -38.5t192 -113.5t127.5 -185.5t46.5 -254.5z" />
    <glyph glyph-name="ordfeminine" unicode="&#xaa;" horiz-adv-x="710" 
d="M738 1442q36 0 30 -36l-96 -614q-3 -20 -12.5 -28t-29.5 -8h-44q-36 0 -30 36l12 74q-78 -126 -214 -126q-62 0 -103.5 22.5t-67 61t-36.5 88.5t-11 106q0 91 25.5 171t71.5 139.5t109 93.5t138 34q66 0 105 -23t59 -55l4 28q3 20 12.5 28t29.5 8h48zM262 1020
q0 -36 5.5 -70t19.5 -60t38.5 -42t62.5 -16q37 0 71 16.5t61 46.5t46.5 72t27.5 93l36 230q-18 27 -51.5 46.5t-84.5 19.5q-59 0 -103 -29t-72.5 -76t-42.5 -107.5t-14 -123.5z" />
    <glyph glyph-name="guillemotleft" unicode="&#xab;" horiz-adv-x="906" 
d="M342 154q-11 -6 -17.5 -8t-12.5 -2q-8 0 -14 3.5t-12 14.5l-192 326q-10 17 -10 30q0 9 4 16t12 16l302 336q12 12 26 12q6 0 12 -2t14 -8l24 -22q6 -5 11 -12t5 -16q0 -11 -10 -24l-238 -300l136 -294q6 -12 6 -22q0 -17 -22 -30zM712 154q-11 -6 -17.5 -8t-12.5 -2
q-8 0 -14 3.5t-12 14.5l-192 326q-10 17 -10 30q0 9 4 16t12 16l302 336q12 12 26 12q6 0 12 -2t14 -8l24 -22q6 -5 11 -12t5 -16q0 -11 -10 -24l-238 -300l136 -294q6 -12 6 -22q0 -17 -22 -30z" />
    <glyph glyph-name="logicalnot" unicode="&#xac;" 
d="M126 422q-17 0 -24.5 6.5t-7.5 23.5v6.5t2 17.5l4 26q3 20 12.5 28t29.5 8h796q17 0 24.5 -6.5t7.5 -23.5q0 -3 -1 -13t-3 -19l-70 -440q-3 -20 -12.5 -28t-29.5 -8h-58q-36 0 -30 36l60 386h-700z" />
    <glyph glyph-name="uni00AD" unicode="&#xad;" horiz-adv-x="662" 
d="M564 644q17 0 24.5 -6.5t7.5 -23.5v-6.5t-2 -17.5l-6 -42q-3 -20 -12.5 -28t-29.5 -8h-400q-17 0 -24.5 6.5t-7.5 23.5v6.5t2 17.5l6 42q3 20 12.5 28t29.5 8h400z" />
    <glyph glyph-name="registered" unicode="&#xae;" horiz-adv-x="1208" 
d="M452 602q-36 0 -30 36l86 542q3 20 12.5 28t29.5 8h156q57 0 96.5 -13t64.5 -35.5t36 -53.5t11 -66q0 -77 -45.5 -123t-120.5 -67q44 -44 72.5 -104t43.5 -116q9 -36 -28 -36h-36q-21 0 -30.5 7.5t-15.5 28.5q-14 45 -41 99t-69 99h-82l-32 -198q-3 -20 -12.5 -28
t-29.5 -8h-36zM574 918h84q31 0 57 8.5t45.5 24.5t30.5 39t11 52q0 41 -23.5 65.5t-82.5 24.5h-88zM206 838q0 -98 31 -172.5t85 -124t128.5 -74.5t161.5 -25q115 0 209.5 43.5t162 117t105 171t37.5 204.5q0 98 -31 172.5t-85 124t-128.5 74.5t-161.5 25
q-115 0 -209.5 -43.5t-162 -117t-105 -171t-37.5 -204.5zM1216 978q0 -125 -44.5 -237t-125.5 -196.5t-193.5 -134.5t-248.5 -50q-104 0 -193.5 31t-155 91t-102.5 149.5t-37 206.5q0 124 44.5 236.5t125.5 197t193.5 134.5t248.5 50q104 0 193.5 -31t155 -91t102.5 -149.5
t37 -206.5z" />
    <glyph glyph-name="macron" unicode="&#xaf;" horiz-adv-x="672" 
d="M644 1262q17 0 24.5 -6.5t7.5 -23.5v-6.5t-2 -17.5l-2 -18q-3 -21 -12.5 -28.5t-29.5 -7.5h-382q-17 0 -24.5 6.5t-7.5 23.5v6.5t2 17.5l2 18q3 21 12.5 28.5t29.5 7.5h382v0z" />
    <glyph glyph-name="degree" unicode="&#xb0;" horiz-adv-x="680" 
d="M278 1040q0 -69 37 -106.5t97 -37.5q40 0 73.5 16t57 43.5t36.5 63.5t13 77q0 69 -37 106.5t-97 37.5q-41 0 -74 -16t-56.5 -43.5t-36.5 -64t-13 -76.5zM706 1100q0 -62 -22 -117.5t-61 -98t-94 -67.5t-121 -25q-56 0 -101 18t-76.5 50t-49 77t-17.5 99q0 61 22 117
t61 98.5t94 67.5t121 25q55 0 100.5 -18t77 -50t49 -77t17.5 -99z" />
    <glyph glyph-name="plusminus" unicode="&#xb1;" 
d="M624 718h334q32 0 32 -28v-7t-2 -13l-6 -34q-3 -20 -12.5 -27t-29.5 -7h-334l-48 -302q-3 -20 -12.5 -28t-29.5 -8h-58q-30 0 -30 28q0 2 0.5 9t3.5 25l44 276h-334q-32 0 -32 28v7t2 13l6 34q3 20 12.5 27t29.5 7h334l48 302q3 20 12.5 28t29.5 8h58q30 0 30 -28
q0 -2 -0.5 -9t-3.5 -25zM860 116q17 0 24.5 -6.5t7.5 -23.5v-6.5t-2 -17.5l-4 -26q-3 -20 -12.5 -28t-29.5 -8h-796q-17 0 -24.5 6.5t-7.5 23.5v6.5t2 17.5l4 26q3 20 12.5 28t29.5 8h796z" />
    <glyph glyph-name="twosuperior" unicode="&#xb2;" horiz-adv-x="700" 
d="M130 624q10 58 33.5 104t58 84t79 71t97.5 65q28 17 57 35.5t53 41t39 50.5t15 63q0 44 -27 69t-87 25q-39 0 -76.5 -11t-67.5 -31q-17 -9 -28 -6.5t-20 20.5l-12 24q-14 31 16 52q36 23 88.5 39.5t117.5 16.5q58 0 100 -14.5t69 -40t40 -60.5t13 -75q0 -53 -19.5 -94
t-52 -74.5t-74.5 -61.5t-86 -56q-28 -17 -59 -37.5t-58.5 -45.5t-48 -55t-26.5 -66h320q36 0 30 -36l-4 -28q-3 -20 -12.5 -28t-29.5 -8h-410q-17 0 -24.5 6.5t-7.5 23.5v10t2 16z" />
    <glyph glyph-name="threesuperior" unicode="&#xb3;" horiz-adv-x="700" 
d="M644 818q0 -53 -19.5 -102t-58 -87.5t-95.5 -61.5t-133 -23q-71 0 -119.5 18t-78.5 44q-27 24 -6 52l22 26q12 15 23.5 16.5t28.5 -10.5q24 -18 56.5 -30t73.5 -12q43 0 76.5 13.5t56.5 37t35 54t12 65.5q0 53 -32 84.5t-106 31.5h-20q-11 0 -16.5 3t-11.5 11l-14 16
q-21 29 4 54l194 206h-240q-36 0 -30 36l4 28q3 20 12.5 28t29.5 8h360q36 0 30 -36l-2 -12q-3 -20 -9.5 -31t-18.5 -25l-94 -104q-24 -27 -55 -53t-57 -43q49 -2 86.5 -18.5t62 -43.5t37 -63t12.5 -77z" />
    <glyph glyph-name="acute" unicode="&#xb4;" horiz-adv-x="582" 
d="M570 1334q10 -13 10 -24q0 -15 -16 -26l-268 -184q-11 -8 -22 -8q-9 0 -16.5 5t-13.5 13l-12 16q-10 13 -10 24q0 15 16 28l248 202q15 12 28 12q15 0 26 -16z" />
    <glyph glyph-name="mu" unicode="&#xb5;" horiz-adv-x="1088" 
d="M238 924q3 20 12.5 28t29.5 8h80q36 0 30 -36l-84 -532q-6 -41 -8 -66t-2 -42q0 -37 6.5 -69.5t23.5 -57t46.5 -39t75.5 -14.5q64 0 117 28t93.5 76.5t68 114.5t39.5 143l72 458q3 20 12.5 28t29.5 8h80q30 0 30 -28v-7t-2 -13l-138 -876q-3 -20 -12.5 -28t-29.5 -8h-72
q-36 0 -30 36l20 128q-24 -39 -55.5 -72.5t-71.5 -58.5t-88 -39t-105 -14q-50 0 -96.5 17.5t-73.5 62.5q3 -32 -0.5 -82t-15.5 -124l-34 -218q-3 -20 -12.5 -28t-29.5 -8h-80q-30 0 -30 28v7t2 13z" />
    <glyph glyph-name="paragraph" unicode="&#xb6;" horiz-adv-x="1080" 
d="M626 -240q-36 0 -30 36l222 1418h-178l-222 -1418q-3 -20 -12.5 -28t-29.5 -8h-64q-36 0 -30 36l138 878q-73 9 -124 33t-83.5 59t-47.5 80t-15 96q0 82 27 152t84 121t145.5 80t211.5 29h472q30 0 30 -26v-6.5t-2 -17.5l-4 -24q-3 -20 -12.5 -28t-29.5 -8h-118
l-222 -1418q-3 -20 -12.5 -28t-29.5 -8h-64z" />
    <glyph glyph-name="periodcentered" unicode="&#xb7;" horiz-adv-x="400" 
d="M322 588q0 -28 -9.5 -52t-26 -42t-39.5 -28t-51 -10q-50 0 -76 29.5t-26 74.5q0 28 9.5 52t26 42t39.5 28t51 10q50 0 76 -29.5t26 -74.5z" />
    <glyph glyph-name="cedilla" unicode="&#xb8;" horiz-adv-x="548" 
d="M242 0l-70 -104q11 3 23.5 4.5t24.5 1.5q56 0 87 -31.5t31 -84.5q0 -34 -13 -63t-37.5 -50.5t-60 -34t-81.5 -12.5q-36 0 -71 8.5t-59 25.5q-14 9 -15.5 23.5t7.5 26.5l6 8q12 18 22 20t30 -10q30 -18 74 -18q47 0 73.5 19t26.5 51q0 23 -16 37.5t-60 14.5
q-12 0 -24.5 -1t-23.5 -3q-14 -2 -20 -0.5t-14 10.5l-2 2q-13 13 -2 30l86 130h78z" />
    <glyph glyph-name="onesuperior" unicode="&#xb9;" horiz-adv-x="700" 
d="M206 556q-30 0 -30 26v8t2 16l2 14q3 20 12.5 28t29.5 8h130l86 536l-120 -68q-11 -6 -17 -8t-11 -2q-19 0 -28 20l-8 20q-2 5 -3 9t-1 9q0 22 24 34l180 100q33 18 68 18h26q30 0 30 -26v-8t-2 -16l-98 -618h120q30 0 30 -26v-8t-2 -16l-2 -14q-3 -20 -12.5 -28
t-29.5 -8h-376z" />
    <glyph glyph-name="ordmasculine" unicode="&#xba;" horiz-adv-x="696" 
d="M262 1028q0 -88 32.5 -138t107.5 -50q58 0 100.5 29.5t71 76t42.5 105t14 117.5q0 88 -32.5 138t-107.5 50q-58 0 -100.5 -29.5t-71 -76t-42.5 -105.5t-14 -117zM756 1166q0 -74 -21.5 -150t-66 -137.5t-112.5 -100t-160 -38.5q-69 0 -118.5 22t-81 61t-46 92t-14.5 115
q0 74 21.5 150t66 137.5t112.5 100t160 38.5q69 0 118 -22.5t80.5 -61.5t46.5 -92t15 -114z" />
    <glyph glyph-name="guillemotright" unicode="&#xbb;" horiz-adv-x="906" 
d="M194 888q11 6 17.5 8t12.5 2q8 0 14 -3.5t12 -14.5l192 -326q10 -17 10 -30q0 -9 -4 -16t-12 -16l-302 -336q-12 -12 -26 -12q-6 0 -12 2t-14 8l-24 22q-6 5 -11 12t-5 16q0 11 10 24l238 300l-136 294q-6 12 -6 22q0 17 22 30zM564 888q11 6 17.5 8t12.5 2q8 0 14 -3.5
t12 -14.5l192 -326q10 -17 10 -30q0 -9 -4 -16t-12 -16l-302 -336q-12 -12 -26 -12q-6 0 -12 2t-14 8l-24 22q-6 5 -11 12t-5 16q0 11 10 24l238 300l-136 294q-6 12 -6 22q0 17 22 30z" />
    <glyph glyph-name="onequarter" unicode="&#xbc;" horiz-adv-x="1676" 
d="M206 556q-30 0 -30 26v8t2 16l2 14q3 20 12.5 28t29.5 8h130l86 536l-120 -68q-11 -6 -17 -8t-11 -2q-19 0 -28 20l-8 20q-2 5 -3 9t-1 9q0 22 24 34l180 100q33 18 68 18h26q30 0 30 -26v-8t-2 -16l-98 -618h120q30 0 30 -26v-8t-2 -16l-2 -14q-3 -20 -12.5 -28
t-29.5 -8h-376zM372 28q-14 -15 -27 -21.5t-33 -6.5h-58q-26 0 -26 16q0 5 2 9.5t8 12.5l1066 1258q14 15 27 21.5t33 6.5h58q26 0 26 -16q0 -5 -2 -9.5t-8 -12.5zM1022 164q-17 0 -23.5 7t-6.5 19v8t2 14q6 38 26 66l308 460q11 17 23.5 23.5t32.5 6.5h56q22 0 22 -16
q0 -9 -10 -22l-316 -468h226l40 250q3 20 12.5 28t29.5 8h46q30 0 30 -26v-8t-2 -14l-38 -238h68q30 0 30 -26v-9t-2 -15l-2 -12q-3 -20 -12.5 -28t-29.5 -8h-68l-20 -128q-3 -20 -12.5 -28t-29.5 -8h-46q-30 0 -30 28v6.5t2 15.5l18 114h-324z" />
    <glyph glyph-name="onehalf" unicode="&#xbd;" horiz-adv-x="1676" 
d="M206 556q-30 0 -30 26v8t2 16l2 14q3 20 12.5 28t29.5 8h130l86 536l-120 -68q-11 -6 -17 -8t-11 -2q-19 0 -28 20l-8 20q-2 5 -3 9t-1 9q0 22 24 34l180 100q33 18 68 18h26q30 0 30 -26v-8t-2 -16l-98 -618h120q30 0 30 -26v-8t-2 -16l-2 -14q-3 -20 -12.5 -28
t-29.5 -8h-376zM372 28q-14 -15 -27 -21.5t-33 -6.5h-58q-26 0 -26 16q0 5 2 9.5t8 12.5l1066 1258q14 15 27 21.5t33 6.5h58q26 0 26 -16q0 -5 -2 -9.5t-8 -12.5zM1010 68q10 58 33.5 104t58 84t79 71t97.5 65q28 17 57 35.5t53 41t39 50.5t15 63q0 44 -27 69t-87 25
q-39 0 -76.5 -11t-67.5 -31q-17 -9 -28 -6.5t-20 20.5l-12 24q-14 31 16 52q36 23 88.5 39.5t117.5 16.5q58 0 100 -14.5t69 -40t40 -60.5t13 -75q0 -53 -19.5 -94t-52 -74.5t-74.5 -61.5t-86 -56q-28 -17 -59 -37.5t-58.5 -45.5t-48 -55t-26.5 -66h320q36 0 30 -36l-4 -28
q-3 -20 -12.5 -28t-29.5 -8h-410q-17 0 -24.5 6.5t-7.5 23.5v10t2 16z" />
    <glyph glyph-name="threequarters" unicode="&#xbe;" horiz-adv-x="1676" 
d="M644 818q0 -53 -19.5 -102t-58 -87.5t-95.5 -61.5t-133 -23q-71 0 -119.5 18t-78.5 44q-27 24 -6 52l22 26q12 15 23.5 16.5t28.5 -10.5q24 -18 56.5 -30t73.5 -12q43 0 76.5 13.5t56.5 37t35 54t12 65.5q0 53 -32 84.5t-106 31.5h-20q-11 0 -16.5 3t-11.5 11l-14 16
q-21 29 4 54l194 206h-240q-36 0 -30 36l4 28q3 20 12.5 28t29.5 8h360q36 0 30 -36l-2 -12q-3 -20 -9.5 -31t-18.5 -25l-94 -104q-24 -27 -55 -53t-57 -43q49 -2 86.5 -18.5t62 -43.5t37 -63t12.5 -77zM372 28q-14 -15 -27 -21.5t-33 -6.5h-58q-26 0 -26 16q0 5 2 9.5
t8 12.5l1066 1258q14 15 27 21.5t33 6.5h58q26 0 26 -16q0 -5 -2 -9.5t-8 -12.5zM1022 164q-17 0 -23.5 7t-6.5 19v8t2 14q6 38 26 66l308 460q11 17 23.5 23.5t32.5 6.5h56q22 0 22 -16q0 -9 -10 -22l-316 -468h226l40 250q3 20 12.5 28t29.5 8h46q30 0 30 -26v-8t-2 -14
l-38 -238h68q30 0 30 -26v-9t-2 -15l-2 -12q-3 -20 -12.5 -28t-29.5 -8h-68l-20 -128q-3 -20 -12.5 -28t-29.5 -8h-46q-30 0 -30 28v6.5t2 15.5l18 114h-324z" />
    <glyph glyph-name="questiondown" unicode="&#xbf;" horiz-adv-x="752" 
d="M650 876q0 -28 -9.5 -52t-26 -42t-39.5 -28t-51 -10q-50 0 -76 29.5t-26 74.5q0 28 9.5 52t26 42t39.5 28t51 10q50 0 76 -29.5t26 -74.5zM290 -380q-87 0 -150 22.5t-103.5 61.5t-59.5 90t-19 108q0 69 25.5 124t67 101t93 85t104.5 76q43 31 76.5 60t59 62t44 72
t32.5 90q5 18 14.5 26t29.5 8h8q18 0 25.5 -7t10.5 -25q2 -9 2 -18v-18q0 -68 -17.5 -118.5t-49 -92t-76 -78t-99.5 -75.5q-37 -26 -71 -53t-60.5 -58t-42.5 -68.5t-16 -84.5q0 -72 44 -116t146 -44q83 0 152 27.5t128 74.5q15 12 26 10.5t22 -16.5l28 -44q20 -29 -6 -52
q-65 -54 -157.5 -92t-210.5 -38z" />
    <glyph glyph-name="Agrave" unicode="&#xc0;" horiz-adv-x="1208" 
d="M16 0q-24 0 -24 18q0 3 0.5 8t5.5 16q149 349 312.5 666t337.5 586q11 17 23.5 23.5t32.5 6.5h72q37 0 48 -34q85 -269 147.5 -579t106.5 -657q2 -12 2 -15.5v-8.5q0 -30 -32 -30h-86q-20 0 -29 8t-11 28q-9 85 -19 166.5t-21 161.5h-580q-38 -81 -73 -163.5t-71 -168.5
q-8 -18 -19 -25t-31 -7h-92zM862 492q-13 88 -29 176t-34.5 173.5t-39 167t-41.5 155.5q-89 -143 -180 -314.5t-176 -357.5h500zM584 1706q11 16 26 16q13 0 28 -12l244 -202q16 -13 16 -28q0 -11 -10 -24l-14 -18q-6 -8 -13.5 -13t-16.5 -5q-11 0 -22 8l-266 184
q-16 11 -16 26q0 11 10 24z" />
    <glyph glyph-name="Aacute" unicode="&#xc1;" horiz-adv-x="1208" 
d="M16 0q-24 0 -24 18q0 3 0.5 8t5.5 16q149 349 312.5 666t337.5 586q11 17 23.5 23.5t32.5 6.5h72q37 0 48 -34q85 -269 147.5 -579t106.5 -657q2 -12 2 -15.5v-8.5q0 -30 -32 -30h-86q-20 0 -29 8t-11 28q-9 85 -19 166.5t-21 161.5h-580q-38 -81 -73 -163.5t-71 -168.5
q-8 -18 -19 -25t-31 -7h-92zM862 492q-13 88 -29 176t-34.5 173.5t-39 167t-41.5 155.5q-89 -143 -180 -314.5t-176 -357.5h500zM954 1664q10 -13 10 -24q0 -15 -16 -26l-268 -184q-11 -8 -22 -8q-9 0 -16.5 5t-13.5 13l-12 16q-10 13 -10 24q0 15 16 28l248 202
q15 12 28 12q15 0 26 -16z" />
    <glyph glyph-name="Acircumflex" unicode="&#xc2;" horiz-adv-x="1208" 
d="M16 0q-24 0 -24 18q0 3 0.5 8t5.5 16q149 349 312.5 666t337.5 586q11 17 23.5 23.5t32.5 6.5h72q37 0 48 -34q85 -269 147.5 -579t106.5 -657q2 -12 2 -15.5v-8.5q0 -30 -32 -30h-86q-20 0 -29 8t-11 28q-9 85 -19 166.5t-21 161.5h-580q-38 -81 -73 -163.5t-71 -168.5
q-8 -18 -19 -25t-31 -7h-92zM862 492q-13 88 -29 176t-34.5 173.5t-39 167t-41.5 155.5q-89 -143 -180 -314.5t-176 -357.5h500zM576 1438q-13 -8 -22 -8q-16 0 -28 18l-10 16q-10 17 -10 28q0 16 18 28l250 166q8 5 15.5 7.5t16.5 2.5q16 0 30 -14l186 -166q8 -6 11 -13
t3 -13q0 -14 -12 -26l-16 -18q-8 -8 -14 -12t-14 -4q-11 0 -26 12l-164 118z" />
    <glyph glyph-name="Atilde" unicode="&#xc3;" horiz-adv-x="1208" 
d="M16 0q-24 0 -24 18q0 3 0.5 8t5.5 16q149 349 312.5 666t337.5 586q11 17 23.5 23.5t32.5 6.5h72q37 0 48 -34q85 -269 147.5 -579t106.5 -657q2 -12 2 -15.5v-8.5q0 -30 -32 -30h-86q-20 0 -29 8t-11 28q-9 85 -19 166.5t-21 161.5h-580q-38 -81 -73 -163.5t-71 -168.5
q-8 -18 -19 -25t-31 -7h-92zM862 492q-13 88 -29 176t-34.5 173.5t-39 167t-41.5 155.5q-89 -143 -180 -314.5t-176 -357.5h500zM900 1576q27 0 52.5 13t45.5 31q15 12 28 12q12 0 26 -14l8 -8q14 -14 14 -26q0 -13 -10 -26q-14 -19 -33 -36.5t-41.5 -31t-48 -22t-53.5 -8.5
q-33 0 -60.5 10.5t-52.5 23.5t-48.5 23.5t-48.5 10.5q-27 0 -52.5 -13t-45.5 -31q-15 -12 -28 -12q-12 0 -26 14l-8 8q-14 14 -14 26q0 13 10 26q14 19 33 36.5t41.5 31t48 22t53.5 8.5q33 0 60.5 -10.5t52.5 -23.5t48.5 -23.5t48.5 -10.5z" />
    <glyph glyph-name="Adieresis" unicode="&#xc4;" horiz-adv-x="1208" 
d="M16 0q-24 0 -24 18q0 3 0.5 8t5.5 16q149 349 312.5 666t337.5 586q11 17 23.5 23.5t32.5 6.5h72q37 0 48 -34q85 -269 147.5 -579t106.5 -657q2 -12 2 -15.5v-8.5q0 -30 -32 -30h-86q-20 0 -29 8t-11 28q-9 85 -19 166.5t-21 161.5h-580q-38 -81 -73 -163.5t-71 -168.5
q-8 -18 -19 -25t-31 -7h-92zM862 492q-13 88 -29 176t-34.5 173.5t-39 167t-41.5 155.5q-89 -143 -180 -314.5t-176 -357.5h500zM710 1574q0 -47 -29.5 -78.5t-76.5 -31.5q-44 0 -66 26t-22 64q0 47 29.5 78.5t76.5 31.5q44 0 66 -26t22 -64zM1050 1574q0 -47 -29.5 -78.5
t-76.5 -31.5q-44 0 -66 26t-22 64q0 47 29.5 78.5t76.5 31.5q44 0 66 -26t22 -64z" />
    <glyph glyph-name="Aring" unicode="&#xc5;" horiz-adv-x="1208" 
d="M16 0q-34 0 -22 34q149 346 310 658.5t330 579.5q-38 23 -59 62.5t-21 93.5q0 47 17.5 88.5t48.5 72.5t73.5 49t92.5 18q43 0 78 -13t60 -37t38.5 -58t13.5 -76q0 -36 -10.5 -69t-29.5 -61t-45.5 -49t-58.5 -33q83 -267 144.5 -574t103.5 -650q3 -36 -32 -36h-86
q-20 0 -29 8t-11 28q-9 85 -19 166.5t-21 161.5h-580q-38 -81 -73 -162.5t-71 -167.5q-8 -18 -19 -26t-31 -8h-92zM862 492q-13 88 -29 176t-34.5 173.5t-39 167t-41.5 155.5q-89 -143 -180 -314.5t-176 -357.5h500zM646 1430q0 -53 29 -79.5t73 -26.5q30 0 55 11.5t43 31
t28 46t10 57.5q0 53 -29 79.5t-73 26.5q-30 0 -55 -11.5t-43 -31t-28 -46t-10 -57.5z" />
    <glyph glyph-name="AE" unicode="&#xc6;" horiz-adv-x="1722" 
d="M840 0q-36 0 -30 36l52 328h-516q-60 -80 -120 -164t-120 -170q-11 -17 -23.5 -23.5t-32.5 -6.5h-104q-17 0 -21 8t5 22q124 175 248 345t247 330.5t245 309.5t244 283q14 14 27 20t33 6h754q36 0 30 -36l-10 -60q-3 -20 -12.5 -28t-29.5 -8h-556l-68 -438h492
q36 0 30 -36l-10 -60q-3 -20 -12.5 -28t-29.5 -8h-492l-76 -490h556q36 0 30 -36l-10 -60q-3 -20 -12.5 -28t-29.5 -8h-678zM994 1198q-66 -76 -139.5 -164t-147 -180.5t-145 -185t-132.5 -176.5h452z" />
    <glyph glyph-name="Ccedilla" unicode="&#xc7;" horiz-adv-x="1162" 
d="M550 -18q-123 8 -208 53t-138 117.5t-76.5 167.5t-23.5 204q0 95 17.5 193t54 189t92.5 171t133.5 139.5t176.5 93.5t222 34q118 0 214.5 -33t167.5 -99q12 -12 13 -25t-13 -25l-50 -54q-14 -15 -25.5 -15.5t-26.5 11.5q-53 47 -126 74.5t-164 27.5q-88 0 -161.5 -27.5
t-131.5 -76t-101 -114t-71.5 -141t-42.5 -157t-14 -162.5q0 -98 20.5 -174t62.5 -128.5t106.5 -80t152.5 -27.5q104 0 190.5 35t157.5 89q28 23 48 -8l36 -60q9 -17 7 -29t-17 -23q-91 -71 -192.5 -104t-213.5 -38l-56 -84q11 3 23.5 4.5t24.5 1.5q56 0 87 -31.5t31 -84.5
q0 -34 -13 -63t-37.5 -50.5t-60 -34t-81.5 -12.5q-36 0 -71 8.5t-59 25.5q-14 9 -15.5 23.5t7.5 26.5l6 8q12 18 22 20t30 -10q30 -18 74 -18q47 0 73.5 19t26.5 51q0 23 -16 37.5t-60 14.5q-12 0 -24.5 -1t-23.5 -3q-14 -2 -20 -0.5t-14 10.5l-2 2q-13 13 -2 30z" />
    <glyph glyph-name="Egrave" unicode="&#xc8;" horiz-adv-x="1018" 
d="M1044 1228q-3 -20 -12.5 -28t-29.5 -8h-556l-68 -438h492q30 0 30 -26v-6.5t-2 -15.5l-8 -48q-3 -20 -12.5 -28t-29.5 -8h-492l-76 -490h556q30 0 30 -26v-6.5t-2 -15.5l-8 -48q-3 -20 -12.5 -28t-29.5 -8h-678q-30 0 -30 26v6.5t2 15.5l196 1240q3 20 12.5 28t29.5 8
h678q30 0 30 -26v-6.5t-2 -15.5zM526 1706q11 16 26 16q13 0 28 -12l244 -202q16 -13 16 -28q0 -11 -10 -24l-14 -18q-6 -8 -13.5 -13t-16.5 -5q-11 0 -22 8l-266 184q-16 11 -16 26q0 11 10 24z" />
    <glyph glyph-name="Eacute" unicode="&#xc9;" horiz-adv-x="1018" 
d="M1044 1228q-3 -20 -12.5 -28t-29.5 -8h-556l-68 -438h492q30 0 30 -26v-6.5t-2 -15.5l-8 -48q-3 -20 -12.5 -28t-29.5 -8h-492l-76 -490h556q30 0 30 -26v-6.5t-2 -15.5l-8 -48q-3 -20 -12.5 -28t-29.5 -8h-678q-30 0 -30 26v6.5t2 15.5l196 1240q3 20 12.5 28t29.5 8
h678q30 0 30 -26v-6.5t-2 -15.5zM896 1664q10 -13 10 -24q0 -15 -16 -26l-268 -184q-11 -8 -22 -8q-9 0 -16.5 5t-13.5 13l-12 16q-10 13 -10 24q0 15 16 28l248 202q15 12 28 12q15 0 26 -16z" />
    <glyph glyph-name="Ecircumflex" unicode="&#xca;" horiz-adv-x="1018" 
d="M1044 1228q-3 -20 -12.5 -28t-29.5 -8h-556l-68 -438h492q30 0 30 -26v-6.5t-2 -15.5l-8 -48q-3 -20 -12.5 -28t-29.5 -8h-492l-76 -490h556q30 0 30 -26v-6.5t-2 -15.5l-8 -48q-3 -20 -12.5 -28t-29.5 -8h-678q-30 0 -30 26v6.5t2 15.5l196 1240q3 20 12.5 28t29.5 8
h678q30 0 30 -26v-6.5t-2 -15.5zM518 1438q-13 -8 -22 -8q-16 0 -28 18l-10 16q-10 17 -10 28q0 16 18 28l250 166q8 5 15.5 7.5t16.5 2.5q16 0 30 -14l186 -166q8 -6 11 -13t3 -13q0 -14 -12 -26l-16 -18q-8 -8 -14 -12t-14 -4q-11 0 -26 12l-164 118z" />
    <glyph glyph-name="Edieresis" unicode="&#xcb;" horiz-adv-x="1018" 
d="M1044 1228q-3 -20 -12.5 -28t-29.5 -8h-556l-68 -438h492q30 0 30 -26v-6.5t-2 -15.5l-8 -48q-3 -20 -12.5 -28t-29.5 -8h-492l-76 -490h556q30 0 30 -26v-6.5t-2 -15.5l-8 -48q-3 -20 -12.5 -28t-29.5 -8h-678q-30 0 -30 26v6.5t2 15.5l196 1240q3 20 12.5 28t29.5 8
h678q30 0 30 -26v-6.5t-2 -15.5zM652 1574q0 -47 -29.5 -78.5t-76.5 -31.5q-44 0 -66 26t-22 64q0 47 29.5 78.5t76.5 31.5q44 0 66 -26t22 -64zM992 1574q0 -47 -29.5 -78.5t-76.5 -31.5q-44 0 -66 26t-22 64q0 47 29.5 78.5t76.5 31.5q44 0 66 -26t22 -64z" />
    <glyph glyph-name="Igrave" unicode="&#xcc;" horiz-adv-x="492" 
d="M304 1288q3 20 12.5 28t29.5 8h86q30 0 30 -28v-7t-2 -13l-196 -1240q-3 -20 -12.5 -28t-29.5 -8h-86q-30 0 -30 28v7t2 13zM229 1706q11 16 26 16q13 0 28 -12l244 -202q16 -13 16 -28q0 -11 -10 -24l-14 -18q-6 -8 -13.5 -13t-16.5 -5q-11 0 -22 8l-266 184
q-16 11 -16 26q0 11 10 24z" />
    <glyph glyph-name="Iacute" unicode="&#xcd;" horiz-adv-x="492" 
d="M304 1288q3 20 12.5 28t29.5 8h86q30 0 30 -28v-7t-2 -13l-196 -1240q-3 -20 -12.5 -28t-29.5 -8h-86q-30 0 -30 28v7t2 13zM599 1664q10 -13 10 -24q0 -15 -16 -26l-268 -184q-11 -8 -22 -8q-9 0 -16.5 5t-13.5 13l-12 16q-10 13 -10 24q0 15 16 28l248 202q15 12 28 12
q15 0 26 -16z" />
    <glyph glyph-name="Icircumflex" unicode="&#xce;" horiz-adv-x="492" 
d="M304 1288q3 20 12.5 28t29.5 8h86q30 0 30 -28v-7t-2 -13l-196 -1240q-3 -20 -12.5 -28t-29.5 -8h-86q-30 0 -30 28v7t2 13zM221 1438q-13 -8 -22 -8q-16 0 -28 18l-10 16q-10 17 -10 28q0 16 18 28l250 166q8 5 15.5 7.5t16.5 2.5q16 0 30 -14l186 -166q8 -6 11 -13
t3 -13q0 -14 -12 -26l-16 -18q-8 -8 -14 -12t-14 -4q-11 0 -26 12l-164 118z" />
    <glyph glyph-name="Idieresis" unicode="&#xcf;" horiz-adv-x="492" 
d="M304 1288q3 20 12.5 28t29.5 8h86q30 0 30 -28v-7t-2 -13l-196 -1240q-3 -20 -12.5 -28t-29.5 -8h-86q-30 0 -30 28v7t2 13zM355 1574q0 -47 -29.5 -78.5t-76.5 -31.5q-44 0 -66 26t-22 64q0 47 29.5 78.5t76.5 31.5q44 0 66 -26t22 -64zM695 1574q0 -47 -29.5 -78.5
t-76.5 -31.5q-44 0 -66 26t-22 64q0 47 29.5 78.5t76.5 31.5q44 0 66 -26t22 -64z" />
    <glyph glyph-name="Eth" unicode="&#xd0;" horiz-adv-x="1310" 
d="M106 602q-36 0 -30 36l10 50q3 20 12.5 28t29.5 8h102l90 564q3 20 12.5 28t29.5 8h358q145 0 247.5 -42.5t168 -114.5t96 -166.5t30.5 -198.5q0 -102 -18.5 -201.5t-57.5 -188.5t-99 -164.5t-143.5 -130.5t-191.5 -86t-242 -31h-358q-36 0 -30 36l90 566h-106zM296 132
h228q145 0 253 54t179.5 145.5t106.5 211.5t35 253q0 89 -23 162t-72 125t-126 80.5t-185 28.5h-228l-74 -468h302q36 0 30 -36l-10 -50q-3 -20 -12.5 -28t-29.5 -8h-300z" />
    <glyph glyph-name="Ntilde" unicode="&#xd1;" horiz-adv-x="1342" 
d="M1282 1324q30 0 30 -28v-7t-2 -13l-196 -1240q-3 -20 -12.5 -28t-29.5 -8h-106q-20 0 -31 7t-19 25l-490 1102l-174 -1098q-3 -20 -12.5 -28t-29.5 -8h-74q-30 0 -30 28v7t2 13l196 1240q3 20 12.5 28t29.5 8h106q20 0 31 -7t19 -25l490 -1102l174 1098q3 20 12.5 28
t29.5 8h74zM958 1576q27 0 52.5 13t45.5 31q15 12 28 12q12 0 26 -14l8 -8q14 -14 14 -26q0 -13 -10 -26q-14 -19 -33 -36.5t-41.5 -31t-48 -22t-53.5 -8.5q-33 0 -60.5 10.5t-52.5 23.5t-48.5 23.5t-48.5 10.5q-27 0 -52.5 -13t-45.5 -31q-15 -12 -28 -12q-12 0 -26 14
l-8 8q-14 14 -14 26q0 13 10 26q14 19 33 36.5t41.5 31t48 22t53.5 8.5q33 0 60.5 -10.5t52.5 -23.5t48.5 -23.5t48.5 -10.5z" />
    <glyph glyph-name="Ograve" unicode="&#xd2;" horiz-adv-x="1376" 
d="M268 538q0 -96 22.5 -174.5t67.5 -134.5t112 -86.5t156 -30.5q84 0 157 27t132.5 74.5t106 112.5t78 139.5t48 156.5t16.5 164q0 96 -22.5 174.5t-67.5 134.5t-112 86.5t-156 30.5q-85 0 -157.5 -27t-132 -74.5t-106 -112.5t-78 -139.5t-48 -156.5t-16.5 -164zM1328 780
q0 -106 -21.5 -206.5t-63.5 -189.5t-103 -163t-140 -127.5t-174.5 -83.5t-205.5 -30q-122 0 -218 37.5t-162 109.5t-101 177t-35 240q0 106 21.5 206.5t63.5 189.5t103 163t140 127.5t174 83.5t206 30q122 0 218 -37.5t162 -109.5t101 -177t35 -240zM664 1706q11 16 26 16
q13 0 28 -12l244 -202q16 -13 16 -28q0 -11 -10 -24l-14 -18q-6 -8 -13.5 -13t-16.5 -5q-11 0 -22 8l-266 184q-16 11 -16 26q0 11 10 24z" />
    <glyph glyph-name="Oacute" unicode="&#xd3;" horiz-adv-x="1376" 
d="M268 538q0 -96 22.5 -174.5t67.5 -134.5t112 -86.5t156 -30.5q84 0 157 27t132.5 74.5t106 112.5t78 139.5t48 156.5t16.5 164q0 96 -22.5 174.5t-67.5 134.5t-112 86.5t-156 30.5q-85 0 -157.5 -27t-132 -74.5t-106 -112.5t-78 -139.5t-48 -156.5t-16.5 -164zM1328 780
q0 -106 -21.5 -206.5t-63.5 -189.5t-103 -163t-140 -127.5t-174.5 -83.5t-205.5 -30q-122 0 -218 37.5t-162 109.5t-101 177t-35 240q0 106 21.5 206.5t63.5 189.5t103 163t140 127.5t174 83.5t206 30q122 0 218 -37.5t162 -109.5t101 -177t35 -240zM1034 1664
q10 -13 10 -24q0 -15 -16 -26l-268 -184q-11 -8 -22 -8q-9 0 -16.5 5t-13.5 13l-12 16q-10 13 -10 24q0 15 16 28l248 202q15 12 28 12q15 0 26 -16z" />
    <glyph glyph-name="Ocircumflex" unicode="&#xd4;" horiz-adv-x="1376" 
d="M268 538q0 -96 22.5 -174.5t67.5 -134.5t112 -86.5t156 -30.5q84 0 157 27t132.5 74.5t106 112.5t78 139.5t48 156.5t16.5 164q0 96 -22.5 174.5t-67.5 134.5t-112 86.5t-156 30.5q-85 0 -157.5 -27t-132 -74.5t-106 -112.5t-78 -139.5t-48 -156.5t-16.5 -164zM1328 780
q0 -106 -21.5 -206.5t-63.5 -189.5t-103 -163t-140 -127.5t-174.5 -83.5t-205.5 -30q-122 0 -218 37.5t-162 109.5t-101 177t-35 240q0 106 21.5 206.5t63.5 189.5t103 163t140 127.5t174 83.5t206 30q122 0 218 -37.5t162 -109.5t101 -177t35 -240zM656 1438q-13 -8 -22 -8
q-16 0 -28 18l-10 16q-10 17 -10 28q0 16 18 28l250 166q8 5 15.5 7.5t16.5 2.5q16 0 30 -14l186 -166q8 -6 11 -13t3 -13q0 -14 -12 -26l-16 -18q-8 -8 -14 -12t-14 -4q-11 0 -26 12l-164 118z" />
    <glyph glyph-name="Otilde" unicode="&#xd5;" horiz-adv-x="1376" 
d="M268 538q0 -96 22.5 -174.5t67.5 -134.5t112 -86.5t156 -30.5q84 0 157 27t132.5 74.5t106 112.5t78 139.5t48 156.5t16.5 164q0 96 -22.5 174.5t-67.5 134.5t-112 86.5t-156 30.5q-85 0 -157.5 -27t-132 -74.5t-106 -112.5t-78 -139.5t-48 -156.5t-16.5 -164zM1328 780
q0 -106 -21.5 -206.5t-63.5 -189.5t-103 -163t-140 -127.5t-174.5 -83.5t-205.5 -30q-122 0 -218 37.5t-162 109.5t-101 177t-35 240q0 106 21.5 206.5t63.5 189.5t103 163t140 127.5t174 83.5t206 30q122 0 218 -37.5t162 -109.5t101 -177t35 -240zM980 1576q27 0 52.5 13
t45.5 31q15 12 28 12q12 0 26 -14l8 -8q14 -14 14 -26q0 -13 -10 -26q-14 -19 -33 -36.5t-41.5 -31t-48 -22t-53.5 -8.5q-33 0 -60.5 10.5t-52.5 23.5t-48.5 23.5t-48.5 10.5q-27 0 -52.5 -13t-45.5 -31q-15 -12 -28 -12q-12 0 -26 14l-8 8q-14 14 -14 26q0 13 10 26
q14 19 33 36.5t41.5 31t48 22t53.5 8.5q33 0 60.5 -10.5t52.5 -23.5t48.5 -23.5t48.5 -10.5z" />
    <glyph glyph-name="Odieresis" unicode="&#xd6;" horiz-adv-x="1376" 
d="M268 538q0 -96 22.5 -174.5t67.5 -134.5t112 -86.5t156 -30.5q84 0 157 27t132.5 74.5t106 112.5t78 139.5t48 156.5t16.5 164q0 96 -22.5 174.5t-67.5 134.5t-112 86.5t-156 30.5q-85 0 -157.5 -27t-132 -74.5t-106 -112.5t-78 -139.5t-48 -156.5t-16.5 -164zM1328 780
q0 -106 -21.5 -206.5t-63.5 -189.5t-103 -163t-140 -127.5t-174.5 -83.5t-205.5 -30q-122 0 -218 37.5t-162 109.5t-101 177t-35 240q0 106 21.5 206.5t63.5 189.5t103 163t140 127.5t174 83.5t206 30q122 0 218 -37.5t162 -109.5t101 -177t35 -240zM790 1574
q0 -47 -29.5 -78.5t-76.5 -31.5q-44 0 -66 26t-22 64q0 47 29.5 78.5t76.5 31.5q44 0 66 -26t22 -64zM1130 1574q0 -47 -29.5 -78.5t-76.5 -31.5q-44 0 -66 26t-22 64q0 47 29.5 78.5t76.5 31.5q44 0 66 -26t22 -64z" />
    <glyph glyph-name="multiply" unicode="&#xd7;" 
d="M894 864q8 6 14 8t12 2q13 0 24 -14l32 -38q10 -13 10 -24q0 -6 -3.5 -12t-12.5 -14l-352 -298l248 -292q12 -15 12 -26q0 -13 -16 -26l-38 -32q-15 -12 -26 -12q-13 0 -26 16l-248 292l-354 -298q-13 -10 -26 -10t-24 14l-32 38q-6 8 -8 13t-2 11q0 13 16 26l352 298
l-246 292q-12 15 -12 26q0 13 16 26l38 32q15 12 26 12q13 0 26 -16l246 -292z" />
    <glyph glyph-name="Oslash" unicode="&#xd8;" horiz-adv-x="1384" 
d="M20 -92q-15 0 -19 8t7 20l202 232q-51 69 -76.5 163.5t-25.5 212.5q0 106 21.5 206.5t63.5 189.5t103 163t140 127.5t174 83.5t206 30q101 0 184 -26t146 -76l126 146q14 15 27 21.5t33 6.5h88q15 0 19 -8t-7 -20l-202 -234q50 -69 76 -163.5t26 -210.5
q0 -106 -22 -206.5t-63.5 -189.5t-102.5 -163t-140 -127.5t-174.5 -83.5t-205.5 -30q-203 0 -330 100l-126 -144q-14 -15 -27 -21.5t-33 -6.5h-88zM394 194q44 -39 102.5 -60.5t133.5 -21.5q84 0 157 27t132.5 74.5t106 112.5t78 139.5t48 156.5t16.5 164q0 143 -48 242z
M810 1212q-84 0 -157 -27t-132.5 -74.5t-106 -112.5t-78 -139.5t-48 -156.5t-16.5 -164q0 -142 48 -244l726 834q-44 41 -103 62.5t-133 21.5z" />
    <glyph glyph-name="Ugrave" unicode="&#xd9;" horiz-adv-x="1290" 
d="M1144 504q-21 -133 -67.5 -231.5t-116 -163.5t-161 -97t-201.5 -32q-104 0 -185 27t-136.5 79.5t-85 129t-29.5 174.5q0 23 2 50.5t8 69.5l122 778q3 20 12.5 28t29.5 8h86q36 0 30 -36l-122 -772q-5 -29 -6.5 -60t-1.5 -52q0 -74 19 -128t54.5 -89.5t86 -53t112.5 -17.5
q72 0 136.5 23.5t116 71.5t87.5 121t52 172l124 784q3 20 12.5 28t29.5 8h86q36 0 30 -36l-124 -784v0zM634 1706q11 16 26 16q13 0 28 -12l244 -202q16 -13 16 -28q0 -11 -10 -24l-14 -18q-6 -8 -13.5 -13t-16.5 -5q-11 0 -22 8l-266 184q-16 11 -16 26q0 11 10 24z" />
    <glyph glyph-name="Uacute" unicode="&#xda;" horiz-adv-x="1290" 
d="M1144 504q-21 -133 -67.5 -231.5t-116 -163.5t-161 -97t-201.5 -32q-104 0 -185 27t-136.5 79.5t-85 129t-29.5 174.5q0 23 2 50.5t8 69.5l122 778q3 20 12.5 28t29.5 8h86q36 0 30 -36l-122 -772q-5 -29 -6.5 -60t-1.5 -52q0 -74 19 -128t54.5 -89.5t86 -53t112.5 -17.5
q72 0 136.5 23.5t116 71.5t87.5 121t52 172l124 784q3 20 12.5 28t29.5 8h86q36 0 30 -36l-124 -784v0zM1004 1664q10 -13 10 -24q0 -15 -16 -26l-268 -184q-11 -8 -22 -8q-9 0 -16.5 5t-13.5 13l-12 16q-10 13 -10 24q0 15 16 28l248 202q15 12 28 12q15 0 26 -16z" />
    <glyph glyph-name="Ucircumflex" unicode="&#xdb;" horiz-adv-x="1290" 
d="M1144 504q-21 -133 -67.5 -231.5t-116 -163.5t-161 -97t-201.5 -32q-104 0 -185 27t-136.5 79.5t-85 129t-29.5 174.5q0 23 2 50.5t8 69.5l122 778q3 20 12.5 28t29.5 8h86q36 0 30 -36l-122 -772q-5 -29 -6.5 -60t-1.5 -52q0 -74 19 -128t54.5 -89.5t86 -53t112.5 -17.5
q72 0 136.5 23.5t116 71.5t87.5 121t52 172l124 784q3 20 12.5 28t29.5 8h86q36 0 30 -36l-124 -784v0zM626 1438q-13 -8 -22 -8q-16 0 -28 18l-10 16q-10 17 -10 28q0 16 18 28l250 166q8 5 15.5 7.5t16.5 2.5q16 0 30 -14l186 -166q8 -6 11 -13t3 -13q0 -14 -12 -26
l-16 -18q-8 -8 -14 -12t-14 -4q-11 0 -26 12l-164 118z" />
    <glyph glyph-name="Udieresis" unicode="&#xdc;" horiz-adv-x="1290" 
d="M1144 504q-21 -133 -67.5 -231.5t-116 -163.5t-161 -97t-201.5 -32q-104 0 -185 27t-136.5 79.5t-85 129t-29.5 174.5q0 23 2 50.5t8 69.5l122 778q3 20 12.5 28t29.5 8h86q36 0 30 -36l-122 -772q-5 -29 -6.5 -60t-1.5 -52q0 -74 19 -128t54.5 -89.5t86 -53t112.5 -17.5
q72 0 136.5 23.5t116 71.5t87.5 121t52 172l124 784q3 20 12.5 28t29.5 8h86q36 0 30 -36l-124 -784v0zM760 1574q0 -47 -29.5 -78.5t-76.5 -31.5q-44 0 -66 26t-22 64q0 47 29.5 78.5t76.5 31.5q44 0 66 -26t22 -64zM1100 1574q0 -47 -29.5 -78.5t-76.5 -31.5q-44 0 -66 26
t-22 64q0 47 29.5 78.5t76.5 31.5q44 0 66 -26t22 -64z" />
    <glyph glyph-name="Yacute" unicode="&#xdd;" horiz-adv-x="1052" 
d="M410 0q-36 0 -30 36l66 434q-46 80 -87.5 176t-77 200t-63.5 213.5t-46 216.5q-2 9 -2 14v8q0 26 30 26h86q20 0 29.5 -8t12.5 -28q16 -96 38.5 -193t50 -188.5t59 -173.5t66.5 -147q54 62 112.5 142t117 171.5t114.5 190.5t104 200q9 18 20.5 26t31.5 8h86q14 0 19 -4
t5 -12q0 -5 -1 -9.5t-7 -18.5q-48 -107 -112 -218.5t-136 -218.5t-147 -204.5t-145 -174.5l-66 -428q-3 -20 -12.5 -28t-29.5 -8h-86zM882 1664q10 -13 10 -24q0 -15 -16 -26l-268 -184q-11 -8 -22 -8q-9 0 -16.5 5t-13.5 13l-12 16q-10 13 -10 24q0 15 16 28l248 202
q15 12 28 12q15 0 26 -16z" />
    <glyph glyph-name="Thorn" unicode="&#xde;" horiz-adv-x="1096" 
d="M304 1288q3 20 12.5 28t29.5 8h84q36 0 30 -36l-32 -200h246q109 0 185.5 -29t124.5 -79t70 -117.5t22 -144.5q0 -95 -32 -179.5t-98 -147.5t-166 -100t-236 -37h-246l-34 -218q-3 -20 -12.5 -28t-29.5 -8h-86q-36 0 -30 36zM912 724q0 51 -13 93.5t-44.5 73.5t-83 48
t-127.5 17h-236l-90 -570h236q97 0 165 28.5t111 76t62.5 108t19.5 125.5z" />
    <glyph glyph-name="germandbls" unicode="&#xdf;" horiz-adv-x="1146" 
d="M250 36q-3 -20 -12.5 -28t-29.5 -8h-80q-36 0 -30 36l156 988q19 118 59 200.5t98.5 134t133 74.5t161.5 23q77 0 142 -17t112 -50.5t73.5 -84.5t26.5 -118q0 -54 -16.5 -100t-46 -87t-70 -78.5t-87.5 -74.5q-35 -27 -67.5 -52t-58 -49t-41 -49t-15.5 -52q0 -23 11 -39
t30.5 -28t45.5 -21.5t55 -19.5q49 -17 96.5 -34t85 -43.5t61 -67t23.5 -103.5q0 -74 -32 -131t-86 -96.5t-125.5 -60t-150.5 -20.5q-100 0 -173 29t-117 71q-12 12 -13 25t11 25l36 42q14 15 25.5 15.5t26.5 -11.5q87 -72 210 -72q58 0 102.5 14.5t74.5 38.5t45.5 55
t15.5 64q0 34 -14.5 56.5t-39 38.5t-57 27t-67.5 22q-45 13 -86 28t-72 37.5t-49.5 56t-18.5 84.5q0 43 13.5 77.5t41 67.5t68.5 67.5t97 77.5q35 27 66.5 53.5t55.5 55.5t38 62.5t14 74.5q0 33 -10.5 64.5t-34.5 55.5t-63.5 39t-97.5 15q-129 0 -199.5 -77.5t-94.5 -230.5z
" />
    <glyph glyph-name="agrave" unicode="&#xe0;" horiz-adv-x="1050" 
d="M922 960q36 0 30 -36l-140 -888q-3 -20 -12.5 -28t-29.5 -8h-74q-36 0 -30 36l20 128q-59 -94 -136 -139t-178 -45q-86 0 -143 31t-91 83t-48 120.5t-14 143.5q0 129 35.5 242.5t99 197.5t152 133t195.5 49q90 0 148.5 -32.5t85.5 -77.5l8 54q3 20 12.5 28t29.5 8h80z
M230 358q0 -46 6.5 -91.5t26 -82t56 -59.5t95.5 -23q61 0 112.5 25t91 69t66.5 103.5t38 128.5l52 326q-26 41 -76.5 69.5t-125.5 28.5q-88 0 -152.5 -42.5t-106.5 -112t-62.5 -158.5t-20.5 -181zM422 1376q11 16 26 16q13 0 28 -12l244 -202q16 -13 16 -28q0 -11 -10 -24
l-14 -18q-6 -8 -13.5 -13t-16.5 -5q-11 0 -22 8l-266 184q-16 11 -16 26q0 11 10 24z" />
    <glyph glyph-name="aacute" unicode="&#xe1;" horiz-adv-x="1050" 
d="M922 960q36 0 30 -36l-140 -888q-3 -20 -12.5 -28t-29.5 -8h-74q-36 0 -30 36l20 128q-59 -94 -136 -139t-178 -45q-86 0 -143 31t-91 83t-48 120.5t-14 143.5q0 129 35.5 242.5t99 197.5t152 133t195.5 49q90 0 148.5 -32.5t85.5 -77.5l8 54q3 20 12.5 28t29.5 8h80z
M230 358q0 -46 6.5 -91.5t26 -82t56 -59.5t95.5 -23q61 0 112.5 25t91 69t66.5 103.5t38 128.5l52 326q-26 41 -76.5 69.5t-125.5 28.5q-88 0 -152.5 -42.5t-106.5 -112t-62.5 -158.5t-20.5 -181zM792 1334q10 -13 10 -24q0 -15 -16 -26l-268 -184q-11 -8 -22 -8
q-9 0 -16.5 5t-13.5 13l-12 16q-10 13 -10 24q0 15 16 28l248 202q15 12 28 12q15 0 26 -16z" />
    <glyph glyph-name="acircumflex" unicode="&#xe2;" horiz-adv-x="1050" 
d="M922 960q36 0 30 -36l-140 -888q-3 -20 -12.5 -28t-29.5 -8h-74q-36 0 -30 36l20 128q-59 -94 -136 -139t-178 -45q-86 0 -143 31t-91 83t-48 120.5t-14 143.5q0 129 35.5 242.5t99 197.5t152 133t195.5 49q90 0 148.5 -32.5t85.5 -77.5l8 54q3 20 12.5 28t29.5 8h80z
M230 358q0 -46 6.5 -91.5t26 -82t56 -59.5t95.5 -23q61 0 112.5 25t91 69t66.5 103.5t38 128.5l52 326q-26 41 -76.5 69.5t-125.5 28.5q-88 0 -152.5 -42.5t-106.5 -112t-62.5 -158.5t-20.5 -181zM414 1108q-13 -8 -22 -8q-16 0 -28 18l-10 16q-10 17 -10 28q0 16 18 28
l250 166q8 5 15.5 7.5t16.5 2.5q16 0 30 -14l186 -166q8 -6 11 -13t3 -13q0 -14 -12 -26l-16 -18q-8 -8 -14 -12t-14 -4q-11 0 -26 12l-164 118z" />
    <glyph glyph-name="atilde" unicode="&#xe3;" horiz-adv-x="1050" 
d="M922 960q36 0 30 -36l-140 -888q-3 -20 -12.5 -28t-29.5 -8h-74q-36 0 -30 36l20 128q-59 -94 -136 -139t-178 -45q-86 0 -143 31t-91 83t-48 120.5t-14 143.5q0 129 35.5 242.5t99 197.5t152 133t195.5 49q90 0 148.5 -32.5t85.5 -77.5l8 54q3 20 12.5 28t29.5 8h80z
M230 358q0 -46 6.5 -91.5t26 -82t56 -59.5t95.5 -23q61 0 112.5 25t91 69t66.5 103.5t38 128.5l52 326q-26 41 -76.5 69.5t-125.5 28.5q-88 0 -152.5 -42.5t-106.5 -112t-62.5 -158.5t-20.5 -181zM732 1246q27 0 52.5 13t45.5 31q15 12 28 12q12 0 26 -14l8 -8
q14 -14 14 -26q0 -13 -10 -26q-14 -19 -33 -36.5t-41.5 -31t-48 -22t-53.5 -8.5q-33 0 -60.5 10.5t-52.5 23.5t-48.5 23.5t-48.5 10.5q-27 0 -52.5 -13t-45.5 -31q-15 -12 -28 -12q-12 0 -26 14l-8 8q-14 14 -14 26q0 13 10 26q14 19 33 36.5t41.5 31t48 22t53.5 8.5
q33 0 60.5 -10.5t52.5 -23.5t48.5 -23.5t48.5 -10.5z" />
    <glyph glyph-name="adieresis" unicode="&#xe4;" horiz-adv-x="1050" 
d="M922 960q36 0 30 -36l-140 -888q-3 -20 -12.5 -28t-29.5 -8h-74q-36 0 -30 36l20 128q-59 -94 -136 -139t-178 -45q-86 0 -143 31t-91 83t-48 120.5t-14 143.5q0 129 35.5 242.5t99 197.5t152 133t195.5 49q90 0 148.5 -32.5t85.5 -77.5l8 54q3 20 12.5 28t29.5 8h80z
M230 358q0 -46 6.5 -91.5t26 -82t56 -59.5t95.5 -23q61 0 112.5 25t91 69t66.5 103.5t38 128.5l52 326q-26 41 -76.5 69.5t-125.5 28.5q-88 0 -152.5 -42.5t-106.5 -112t-62.5 -158.5t-20.5 -181zM550 1244q0 -47 -29.5 -78.5t-76.5 -31.5q-44 0 -66 26t-22 64
q0 47 29.5 78.5t76.5 31.5q44 0 66 -26t22 -64zM890 1244q0 -47 -29.5 -78.5t-76.5 -31.5q-44 0 -66 26t-22 64q0 47 29.5 78.5t76.5 31.5q44 0 66 -26t22 -64z" />
    <glyph glyph-name="aring" unicode="&#xe5;" horiz-adv-x="1050" 
d="M922 960q36 0 30 -36l-140 -888q-3 -20 -12.5 -28t-29.5 -8h-74q-36 0 -30 36l20 128q-59 -94 -136 -139t-178 -45q-86 0 -143 31t-91 83t-48 120.5t-14 143.5q0 129 35.5 242.5t99 197.5t152 133t195.5 49q90 0 148.5 -32.5t85.5 -77.5l8 54q3 20 12.5 28t29.5 8h80z
M230 358q0 -46 6.5 -91.5t26 -82t56 -59.5t95.5 -23q61 0 112.5 25t91 69t66.5 103.5t38 128.5l52 326q-26 41 -76.5 69.5t-125.5 28.5q-88 0 -152.5 -42.5t-106.5 -112t-62.5 -158.5t-20.5 -181zM506 1226q0 -53 29 -79.5t73 -26.5q30 0 55 11.5t43 31t28 46t10 57.5
q0 53 -29 79.5t-73 26.5q-30 0 -55 -11.5t-43 -31t-28 -46t-10 -57.5zM836 1268q0 -47 -17.5 -88.5t-48.5 -72.5t-73.5 -49t-92.5 -18q-43 0 -78 13t-60 37t-38.5 58t-13.5 76q0 47 17.5 88.5t48.5 72.5t73.5 49t92.5 18q43 0 78 -13t60 -37t38.5 -58t13.5 -76z" />
    <glyph glyph-name="ae" unicode="&#xe6;" horiz-adv-x="1512" 
d="M1358 70q-69 -45 -148.5 -67.5t-159.5 -22.5q-70 0 -125 16t-96.5 45.5t-70.5 71t-46 93.5q-29 -50 -67.5 -91.5t-86 -71.5t-104 -46.5t-122.5 -16.5q-69 0 -125 18.5t-95 52.5t-60.5 81.5t-21.5 105.5q0 22 4 49t14.5 55.5t30 56t51.5 49.5q34 24 83 40.5t110 26.5
t133 14.5t152 4.5h76q12 69 12 122q0 93 -46 146.5t-152 53.5q-66 0 -135.5 -21.5t-128.5 -66.5q-28 -23 -48 8l-28 42q-18 30 10 52q34 27 76.5 47.5t88 34.5t92 21t89.5 7q64 0 113 -15t84 -41.5t57.5 -62t35.5 -75.5q29 43 66 78.5t82 61t98 40t114 14.5q69 0 125 -18.5
t95 -52.5t60.5 -81.5t21.5 -105.5q0 -22 -4 -49.5t-14.5 -56t-30.5 -55.5t-51 -49q-35 -24 -83.5 -40.5t-109.5 -26.5t-133 -14.5t-152 -4.5h-70v-34q0 -66 12.5 -119t40.5 -90t73.5 -57t111.5 -20q63 0 126 17.5t114 52.5q15 11 26 9t22 -19l26 -44q9 -17 7 -29t-19 -23z
M170 244q0 -72 47.5 -109t124.5 -37q64 0 118 25t96 68.5t70 103.5t42 131h-70q-128 0 -211 -13.5t-131 -37.5t-67 -57.5t-19 -73.5zM1326 716q0 72 -47.5 109t-124.5 37q-65 0 -118.5 -25t-95.5 -68.5t-70.5 -104t-41.5 -130.5h70q128 0 211 13t131 37t67 57.5t19 74.5z
" />
    <glyph glyph-name="ccedilla" unicode="&#xe7;" horiz-adv-x="872" 
d="M730 74q-59 -44 -131 -66.5t-143 -25.5l-58 -86q11 3 23.5 4.5t24.5 1.5q56 0 87 -31.5t31 -84.5q0 -34 -13 -63t-37.5 -50.5t-60 -34t-81.5 -12.5q-36 0 -71 8.5t-59 25.5q-14 9 -15.5 23.5t7.5 26.5l6 8q12 18 22 20t30 -10q30 -18 74 -18q47 0 73.5 19t26.5 51
q0 23 -16 37.5t-60 14.5q-12 0 -24.5 -1t-23.5 -3q-14 -2 -20 -0.5t-14 10.5l-2 2q-13 13 -2 30l74 114q-80 8 -138 42t-95.5 87t-56 123t-18.5 150q0 70 14 141t42 137t70.5 123.5t100.5 100.5t131 67.5t162 24.5q78 0 146 -20.5t118 -65.5q26 -26 2 -52l-44 -52
q-23 -29 -48 -4q-36 33 -84 49.5t-102 16.5q-89 0 -155.5 -42t-110.5 -108t-66 -148.5t-22 -163.5q0 -62 13 -114t40 -89.5t69 -58t100 -20.5q56 0 110.5 18.5t107.5 53.5q17 12 28 9.5t22 -19.5l26 -44q9 -17 7 -29t-17 -23z" />
    <glyph glyph-name="egrave" unicode="&#xe8;" horiz-adv-x="914" 
d="M760 70q-69 -45 -148 -67.5t-162 -22.5q-101 0 -173 31t-118 85t-67.5 128.5t-21.5 161.5q0 71 14 143t41 138t68.5 123t95.5 99.5t122 66.5t149 24q71 0 128 -19t97 -54.5t61.5 -85.5t21.5 -111q0 -23 -4 -49t-14.5 -53t-30.5 -54t-51 -50q-71 -51 -188.5 -75.5
t-289.5 -24.5h-70v-6q0 -68 12.5 -122.5t40.5 -92t73.5 -57.5t111.5 -20q63 0 126 17.5t114 52.5q15 11 26 9t22 -19l26 -44q9 -17 7 -29t-19 -23zM728 708q0 77 -47.5 115.5t-124.5 38.5q-65 0 -118.5 -27t-95.5 -73.5t-70.5 -110.5t-41.5 -137h70q128 0 211 14.5t131 40.5
t67 61.5t19 77.5zM402 1376q11 16 26 16q13 0 28 -12l244 -202q16 -13 16 -28q0 -11 -10 -24l-14 -18q-6 -8 -13.5 -13t-16.5 -5q-11 0 -22 8l-266 184q-16 11 -16 26q0 11 10 24z" />
    <glyph glyph-name="eacute" unicode="&#xe9;" horiz-adv-x="914" 
d="M760 70q-69 -45 -148 -67.5t-162 -22.5q-101 0 -173 31t-118 85t-67.5 128.5t-21.5 161.5q0 71 14 143t41 138t68.5 123t95.5 99.5t122 66.5t149 24q71 0 128 -19t97 -54.5t61.5 -85.5t21.5 -111q0 -23 -4 -49t-14.5 -53t-30.5 -54t-51 -50q-71 -51 -188.5 -75.5
t-289.5 -24.5h-70v-6q0 -68 12.5 -122.5t40.5 -92t73.5 -57.5t111.5 -20q63 0 126 17.5t114 52.5q15 11 26 9t22 -19l26 -44q9 -17 7 -29t-19 -23zM728 708q0 77 -47.5 115.5t-124.5 38.5q-65 0 -118.5 -27t-95.5 -73.5t-70.5 -110.5t-41.5 -137h70q128 0 211 14.5t131 40.5
t67 61.5t19 77.5zM772 1334q10 -13 10 -24q0 -15 -16 -26l-268 -184q-11 -8 -22 -8q-9 0 -16.5 5t-13.5 13l-12 16q-10 13 -10 24q0 15 16 28l248 202q15 12 28 12q15 0 26 -16z" />
    <glyph glyph-name="ecircumflex" unicode="&#xea;" horiz-adv-x="914" 
d="M760 70q-69 -45 -148 -67.5t-162 -22.5q-101 0 -173 31t-118 85t-67.5 128.5t-21.5 161.5q0 71 14 143t41 138t68.5 123t95.5 99.5t122 66.5t149 24q71 0 128 -19t97 -54.5t61.5 -85.5t21.5 -111q0 -23 -4 -49t-14.5 -53t-30.5 -54t-51 -50q-71 -51 -188.5 -75.5
t-289.5 -24.5h-70v-6q0 -68 12.5 -122.5t40.5 -92t73.5 -57.5t111.5 -20q63 0 126 17.5t114 52.5q15 11 26 9t22 -19l26 -44q9 -17 7 -29t-19 -23zM728 708q0 77 -47.5 115.5t-124.5 38.5q-65 0 -118.5 -27t-95.5 -73.5t-70.5 -110.5t-41.5 -137h70q128 0 211 14.5t131 40.5
t67 61.5t19 77.5zM394 1108q-13 -8 -22 -8q-16 0 -28 18l-10 16q-10 17 -10 28q0 16 18 28l250 166q8 5 15.5 7.5t16.5 2.5q16 0 30 -14l186 -166q8 -6 11 -13t3 -13q0 -14 -12 -26l-16 -18q-8 -8 -14 -12t-14 -4q-11 0 -26 12l-164 118z" />
    <glyph glyph-name="edieresis" unicode="&#xeb;" horiz-adv-x="914" 
d="M760 70q-69 -45 -148 -67.5t-162 -22.5q-101 0 -173 31t-118 85t-67.5 128.5t-21.5 161.5q0 71 14 143t41 138t68.5 123t95.5 99.5t122 66.5t149 24q71 0 128 -19t97 -54.5t61.5 -85.5t21.5 -111q0 -23 -4 -49t-14.5 -53t-30.5 -54t-51 -50q-71 -51 -188.5 -75.5
t-289.5 -24.5h-70v-6q0 -68 12.5 -122.5t40.5 -92t73.5 -57.5t111.5 -20q63 0 126 17.5t114 52.5q15 11 26 9t22 -19l26 -44q9 -17 7 -29t-19 -23zM728 708q0 77 -47.5 115.5t-124.5 38.5q-65 0 -118.5 -27t-95.5 -73.5t-70.5 -110.5t-41.5 -137h70q128 0 211 14.5t131 40.5
t67 61.5t19 77.5zM530 1244q0 -47 -29.5 -78.5t-76.5 -31.5q-44 0 -66 26t-22 64q0 47 29.5 78.5t76.5 31.5q44 0 66 -26t22 -64zM870 1244q0 -47 -29.5 -78.5t-76.5 -31.5q-44 0 -66 26t-22 64q0 47 29.5 78.5t76.5 31.5q44 0 66 -26t22 -64z" />
    <glyph glyph-name="igrave" unicode="&#xec;" horiz-adv-x="488" 
d="M238 924q3 20 12.5 28t29.5 8h80q30 0 30 -28v-7t-2 -13l-138 -876q-3 -20 -12.5 -28t-29.5 -8h-80q-30 0 -30 28v7t2 13zM167 1376q11 16 26 16q13 0 28 -12l244 -202q16 -13 16 -28q0 -11 -10 -24l-14 -18q-6 -8 -13.5 -13t-16.5 -5q-11 0 -22 8l-266 184
q-16 11 -16 26q0 11 10 24z" />
    <glyph glyph-name="iacute" unicode="&#xed;" horiz-adv-x="488" 
d="M238 924q3 20 12.5 28t29.5 8h80q30 0 30 -28v-7t-2 -13l-138 -876q-3 -20 -12.5 -28t-29.5 -8h-80q-30 0 -30 28v7t2 13zM537 1334q10 -13 10 -24q0 -15 -16 -26l-268 -184q-11 -8 -22 -8q-9 0 -16.5 5t-13.5 13l-12 16q-10 13 -10 24q0 15 16 28l248 202q15 12 28 12
q15 0 26 -16z" />
    <glyph glyph-name="icircumflex" unicode="&#xee;" horiz-adv-x="488" 
d="M238 924q3 20 12.5 28t29.5 8h80q30 0 30 -28v-7t-2 -13l-138 -876q-3 -20 -12.5 -28t-29.5 -8h-80q-30 0 -30 28v7t2 13zM159 1108q-13 -8 -22 -8q-16 0 -28 18l-10 16q-10 17 -10 28q0 16 18 28l250 166q8 5 15.5 7.5t16.5 2.5q16 0 30 -14l186 -166q8 -6 11 -13t3 -13
q0 -14 -12 -26l-16 -18q-8 -8 -14 -12t-14 -4q-11 0 -26 12l-164 118z" />
    <glyph glyph-name="idieresis" unicode="&#xef;" horiz-adv-x="488" 
d="M238 924q3 20 12.5 28t29.5 8h80q30 0 30 -28v-7t-2 -13l-138 -876q-3 -20 -12.5 -28t-29.5 -8h-80q-30 0 -30 28v7t2 13zM295 1244q0 -47 -29.5 -78.5t-76.5 -31.5q-44 0 -66 26t-22 64q0 47 29.5 78.5t76.5 31.5q44 0 66 -26t22 -64zM635 1244q0 -47 -29.5 -78.5
t-76.5 -31.5q-44 0 -66 26t-22 64q0 47 29.5 78.5t76.5 31.5q44 0 66 -26t22 -64z" />
    <glyph glyph-name="eth" unicode="&#xf0;" horiz-adv-x="1006" 
d="M420 1068q-30 -18 -48 14l-16 28q-17 32 12 52l142 88q-42 30 -86.5 53.5t-91.5 38.5q-18 8 -23 18t1 28l10 28q5 14 13 20t17 6q11 0 22 -3.5t22 -6.5q60 -18 117 -48t107 -66l176 108q12 8 18 10t12 2t13 -3.5t13 -14.5l18 -30q18 -32 -12 -50l-152 -94
q109 -110 171.5 -268t62.5 -354q0 -125 -29 -241.5t-90 -206t-155.5 -143t-225.5 -53.5q-98 0 -168 31t-115 85.5t-66 128t-21 159.5q0 70 13.5 141.5t41 137.5t68 124t95 101t122 67.5t148.5 24.5q78 0 132 -25.5t92 -84.5q-27 95 -73 171.5t-109 138.5zM222 382
q0 -64 12.5 -115.5t39.5 -88t68 -56.5t98 -20t104.5 19.5t86 53.5t67 79.5t48 98.5t29 110.5t9.5 114.5q0 64 -12.5 115.5t-39.5 88t-68 56.5t-98 20q-86 0 -150 -42.5t-107.5 -110t-65 -153t-21.5 -170.5z" />
    <glyph glyph-name="ntilde" unicode="&#xf1;" horiz-adv-x="1068" 
d="M128 0q-36 0 -30 36l140 888q3 20 12.5 28t29.5 8h72q36 0 30 -36l-20 -128q24 39 57 72.5t74 58.5t90.5 39t106.5 14q68 0 119 -20t84.5 -57t50 -89t16.5 -116q0 -27 -2.5 -65t-7.5 -65l-84 -532q-3 -20 -12.5 -28t-29.5 -8h-80q-36 0 -30 36l84 532q6 41 8 66t2 42
q0 37 -8 69.5t-26.5 57t-49 39t-76.5 14.5q-64 0 -118.5 -28t-96.5 -76.5t-70.5 -115t-40.5 -142.5l-72 -458q-3 -20 -12.5 -28t-29.5 -8h-80zM796 1246q27 0 52.5 13t45.5 31q15 12 28 12q12 0 26 -14l8 -8q14 -14 14 -26q0 -13 -10 -26q-14 -19 -33 -36.5t-41.5 -31
t-48 -22t-53.5 -8.5q-33 0 -60.5 10.5t-52.5 23.5t-48.5 23.5t-48.5 10.5q-27 0 -52.5 -13t-45.5 -31q-15 -12 -28 -12q-12 0 -26 14l-8 8q-14 14 -14 26q0 13 10 26q14 19 33 36.5t41.5 31t48 22t53.5 8.5q33 0 60.5 -10.5t52.5 -23.5t48.5 -23.5t48.5 -10.5z" />
    <glyph glyph-name="ograve" unicode="&#xf2;" horiz-adv-x="1006" 
d="M222 382q0 -64 12.5 -115.5t39.5 -88t68 -56.5t98 -20t104.5 19.5t86 53.5t67 79.5t48 98.5t29 110.5t9.5 114.5q0 64 -12.5 115.5t-39.5 88t-68 56.5t-98 20q-86 0 -150 -42.5t-107.5 -110t-65 -153t-21.5 -170.5zM938 574q0 -69 -13 -140t-40 -137t-68 -123.5
t-97 -100.5t-127 -68t-157 -25q-97 0 -166.5 31t-114.5 85.5t-66 129t-21 160.5q0 69 13 140t40 137t68 123.5t97 100.5t126.5 68t157.5 25q97 0 166.5 -31t114.5 -85.5t66 -129t21 -160.5zM424 1376q11 16 26 16q13 0 28 -12l244 -202q16 -13 16 -28q0 -11 -10 -24l-14 -18
q-6 -8 -13.5 -13t-16.5 -5q-11 0 -22 8l-266 184q-16 11 -16 26q0 11 10 24z" />
    <glyph glyph-name="oacute" unicode="&#xf3;" horiz-adv-x="1006" 
d="M222 382q0 -64 12.5 -115.5t39.5 -88t68 -56.5t98 -20t104.5 19.5t86 53.5t67 79.5t48 98.5t29 110.5t9.5 114.5q0 64 -12.5 115.5t-39.5 88t-68 56.5t-98 20q-86 0 -150 -42.5t-107.5 -110t-65 -153t-21.5 -170.5zM938 574q0 -69 -13 -140t-40 -137t-68 -123.5
t-97 -100.5t-127 -68t-157 -25q-97 0 -166.5 31t-114.5 85.5t-66 129t-21 160.5q0 69 13 140t40 137t68 123.5t97 100.5t126.5 68t157.5 25q97 0 166.5 -31t114.5 -85.5t66 -129t21 -160.5zM794 1334q10 -13 10 -24q0 -15 -16 -26l-268 -184q-11 -8 -22 -8q-9 0 -16.5 5
t-13.5 13l-12 16q-10 13 -10 24q0 15 16 28l248 202q15 12 28 12q15 0 26 -16z" />
    <glyph glyph-name="ocircumflex" unicode="&#xf4;" horiz-adv-x="1006" 
d="M222 382q0 -64 12.5 -115.5t39.5 -88t68 -56.5t98 -20t104.5 19.5t86 53.5t67 79.5t48 98.5t29 110.5t9.5 114.5q0 64 -12.5 115.5t-39.5 88t-68 56.5t-98 20q-86 0 -150 -42.5t-107.5 -110t-65 -153t-21.5 -170.5zM938 574q0 -69 -13 -140t-40 -137t-68 -123.5
t-97 -100.5t-127 -68t-157 -25q-97 0 -166.5 31t-114.5 85.5t-66 129t-21 160.5q0 69 13 140t40 137t68 123.5t97 100.5t126.5 68t157.5 25q97 0 166.5 -31t114.5 -85.5t66 -129t21 -160.5zM416 1108q-13 -8 -22 -8q-16 0 -28 18l-10 16q-10 17 -10 28q0 16 18 28l250 166
q8 5 15.5 7.5t16.5 2.5q16 0 30 -14l186 -166q8 -6 11 -13t3 -13q0 -14 -12 -26l-16 -18q-8 -8 -14 -12t-14 -4q-11 0 -26 12l-164 118z" />
    <glyph glyph-name="otilde" unicode="&#xf5;" horiz-adv-x="1006" 
d="M222 382q0 -64 12.5 -115.5t39.5 -88t68 -56.5t98 -20t104.5 19.5t86 53.5t67 79.5t48 98.5t29 110.5t9.5 114.5q0 64 -12.5 115.5t-39.5 88t-68 56.5t-98 20q-86 0 -150 -42.5t-107.5 -110t-65 -153t-21.5 -170.5zM938 574q0 -69 -13 -140t-40 -137t-68 -123.5
t-97 -100.5t-127 -68t-157 -25q-97 0 -166.5 31t-114.5 85.5t-66 129t-21 160.5q0 69 13 140t40 137t68 123.5t97 100.5t126.5 68t157.5 25q97 0 166.5 -31t114.5 -85.5t66 -129t21 -160.5zM734 1246q27 0 52.5 13t45.5 31q15 12 28 12q12 0 26 -14l8 -8q14 -14 14 -26
q0 -13 -10 -26q-14 -19 -33 -36.5t-41.5 -31t-48 -22t-53.5 -8.5q-33 0 -60.5 10.5t-52.5 23.5t-48.5 23.5t-48.5 10.5q-27 0 -52.5 -13t-45.5 -31q-15 -12 -28 -12q-12 0 -26 14l-8 8q-14 14 -14 26q0 13 10 26q14 19 33 36.5t41.5 31t48 22t53.5 8.5q33 0 60.5 -10.5
t52.5 -23.5t48.5 -23.5t48.5 -10.5z" />
    <glyph glyph-name="odieresis" unicode="&#xf6;" horiz-adv-x="1006" 
d="M222 382q0 -64 12.5 -115.5t39.5 -88t68 -56.5t98 -20t104.5 19.5t86 53.5t67 79.5t48 98.5t29 110.5t9.5 114.5q0 64 -12.5 115.5t-39.5 88t-68 56.5t-98 20q-86 0 -150 -42.5t-107.5 -110t-65 -153t-21.5 -170.5zM938 574q0 -69 -13 -140t-40 -137t-68 -123.5
t-97 -100.5t-127 -68t-157 -25q-97 0 -166.5 31t-114.5 85.5t-66 129t-21 160.5q0 69 13 140t40 137t68 123.5t97 100.5t126.5 68t157.5 25q97 0 166.5 -31t114.5 -85.5t66 -129t21 -160.5zM552 1244q0 -47 -29.5 -78.5t-76.5 -31.5q-44 0 -66 26t-22 64q0 47 29.5 78.5
t76.5 31.5q44 0 66 -26t22 -64zM892 1244q0 -47 -29.5 -78.5t-76.5 -31.5q-44 0 -66 26t-22 64q0 47 29.5 78.5t76.5 31.5q44 0 66 -26t22 -64z" />
    <glyph glyph-name="divide" unicode="&#xf7;" 
d="M704 872q0 -28 -9.5 -52t-26 -42t-39.5 -28t-51 -10q-50 0 -76 29.5t-26 74.5q0 28 9.5 52t26 42t39.5 28t51 10q50 0 76 -29.5t26 -74.5zM122 422q-36 0 -30 36l8 44q3 20 12.5 28t29.5 8h800q36 0 30 -36l-8 -44q-3 -20 -12.5 -28t-29.5 -8h-800zM586 116
q0 -28 -9.5 -52t-26 -42t-39.5 -28t-51 -10q-50 0 -76 29.5t-26 74.5q0 28 9.5 52t26 42t39.5 28t51 10q50 0 76 -29.5t26 -74.5z" />
    <glyph glyph-name="oslash" unicode="&#xf8;" horiz-adv-x="1006" 
d="M-2 -80q-15 0 -19 8t7 20l148 176q-35 53 -50.5 119t-15.5 143q0 69 13 140t40 137t68 123.5t97 100.5t126.5 68t157.5 25q72 0 129 -18t101 -50l84 100q14 15 27 21.5t33 6.5h64q15 0 19 -8t-7 -20l-150 -176q35 -53 51.5 -120t16.5 -142q0 -69 -13 -140t-40 -137
t-68 -123.5t-97 -100.5t-127 -68t-157 -25q-74 0 -131 17.5t-99 50.5l-84 -100q-14 -15 -27 -21.5t-33 -6.5h-64zM294 154q55 -52 146 -52q57 0 104.5 19.5t86 53.5t67 79.5t48 98.5t29 110.5t9.5 114.5q0 74 -18 134zM566 858q-86 0 -150 -42.5t-107.5 -110t-65 -153
t-21.5 -170.5q0 -77 18 -134l470 558q-26 24 -61.5 38t-82.5 14z" />
    <glyph glyph-name="ugrave" unicode="&#xf9;" horiz-adv-x="1068" 
d="M940 960q36 0 30 -36l-140 -888q-3 -20 -12.5 -28t-29.5 -8h-72q-36 0 -30 36l20 128q-24 -39 -55.5 -72.5t-71.5 -58.5t-88 -39t-105 -14q-68 0 -117.5 20t-81.5 57t-47.5 89t-15.5 116q0 27 2.5 65t7.5 65l84 532q3 20 12.5 28t29.5 8h80q36 0 30 -36l-84 -532
q-6 -41 -8 -66t-2 -42q0 -37 6.5 -69.5t23.5 -57t46.5 -39t75.5 -14.5q64 0 117 28t93.5 76.5t68 114.5t39.5 143l72 458q3 20 12.5 28t29.5 8h80zM446 1376q11 16 26 16q13 0 28 -12l244 -202q16 -13 16 -28q0 -11 -10 -24l-14 -18q-6 -8 -13.5 -13t-16.5 -5q-11 0 -22 8
l-266 184q-16 11 -16 26q0 11 10 24z" />
    <glyph glyph-name="uacute" unicode="&#xfa;" horiz-adv-x="1068" 
d="M940 960q36 0 30 -36l-140 -888q-3 -20 -12.5 -28t-29.5 -8h-72q-36 0 -30 36l20 128q-24 -39 -55.5 -72.5t-71.5 -58.5t-88 -39t-105 -14q-68 0 -117.5 20t-81.5 57t-47.5 89t-15.5 116q0 27 2.5 65t7.5 65l84 532q3 20 12.5 28t29.5 8h80q36 0 30 -36l-84 -532
q-6 -41 -8 -66t-2 -42q0 -37 6.5 -69.5t23.5 -57t46.5 -39t75.5 -14.5q64 0 117 28t93.5 76.5t68 114.5t39.5 143l72 458q3 20 12.5 28t29.5 8h80zM816 1334q10 -13 10 -24q0 -15 -16 -26l-268 -184q-11 -8 -22 -8q-9 0 -16.5 5t-13.5 13l-12 16q-10 13 -10 24q0 15 16 28
l248 202q15 12 28 12q15 0 26 -16z" />
    <glyph glyph-name="ucircumflex" unicode="&#xfb;" horiz-adv-x="1068" 
d="M940 960q36 0 30 -36l-140 -888q-3 -20 -12.5 -28t-29.5 -8h-72q-36 0 -30 36l20 128q-24 -39 -55.5 -72.5t-71.5 -58.5t-88 -39t-105 -14q-68 0 -117.5 20t-81.5 57t-47.5 89t-15.5 116q0 27 2.5 65t7.5 65l84 532q3 20 12.5 28t29.5 8h80q36 0 30 -36l-84 -532
q-6 -41 -8 -66t-2 -42q0 -37 6.5 -69.5t23.5 -57t46.5 -39t75.5 -14.5q64 0 117 28t93.5 76.5t68 114.5t39.5 143l72 458q3 20 12.5 28t29.5 8h80zM438 1108q-13 -8 -22 -8q-16 0 -28 18l-10 16q-10 17 -10 28q0 16 18 28l250 166q8 5 15.5 7.5t16.5 2.5q16 0 30 -14
l186 -166q8 -6 11 -13t3 -13q0 -14 -12 -26l-16 -18q-8 -8 -14 -12t-14 -4q-11 0 -26 12l-164 118z" />
    <glyph glyph-name="udieresis" unicode="&#xfc;" horiz-adv-x="1068" 
d="M940 960q36 0 30 -36l-140 -888q-3 -20 -12.5 -28t-29.5 -8h-72q-36 0 -30 36l20 128q-24 -39 -55.5 -72.5t-71.5 -58.5t-88 -39t-105 -14q-68 0 -117.5 20t-81.5 57t-47.5 89t-15.5 116q0 27 2.5 65t7.5 65l84 532q3 20 12.5 28t29.5 8h80q36 0 30 -36l-84 -532
q-6 -41 -8 -66t-2 -42q0 -37 6.5 -69.5t23.5 -57t46.5 -39t75.5 -14.5q64 0 117 28t93.5 76.5t68 114.5t39.5 143l72 458q3 20 12.5 28t29.5 8h80zM574 1244q0 -47 -29.5 -78.5t-76.5 -31.5q-44 0 -66 26t-22 64q0 47 29.5 78.5t76.5 31.5q44 0 66 -26t22 -64zM914 1244
q0 -47 -29.5 -78.5t-76.5 -31.5q-44 0 -66 26t-22 64q0 47 29.5 78.5t76.5 31.5q44 0 66 -26t22 -64z" />
    <glyph glyph-name="yacute" unicode="&#xfd;" horiz-adv-x="1068" 
d="M940 960q36 0 30 -36l-144 -910q-19 -117 -55.5 -199.5t-92.5 -134.5t-131.5 -76t-172.5 -24q-61 0 -109.5 8t-86 20.5t-64.5 28t-46 29.5q-30 21 -8 52l40 58q12 15 22.5 16.5t25.5 -10.5q16 -13 37 -25.5t48 -22.5t61 -16t76 -6q86 0 141.5 27t89.5 72.5t51 105.5
t28 127l18 116q-59 -92 -136.5 -136t-175.5 -44q-68 0 -117.5 20t-81.5 57t-47.5 89t-15.5 116q0 27 2.5 65t7.5 65l84 532q3 20 12.5 28t29.5 8h80q36 0 30 -36l-84 -532q-6 -41 -8 -66t-2 -42q0 -37 6.5 -69.5t23.5 -57t46.5 -39t75.5 -14.5q64 0 117 28t93.5 76.5
t68 114.5t39.5 143l72 458q3 20 12.5 28t29.5 8h80zM816 1334q10 -13 10 -24q0 -15 -16 -26l-268 -184q-11 -8 -22 -8q-9 0 -16.5 5t-13.5 13l-12 16q-10 13 -10 24q0 15 16 28l248 202q15 12 28 12q15 0 26 -16z" />
    <glyph glyph-name="thorn" unicode="&#xfe;" horiz-adv-x="1056" 
d="M64 -400q-36 0 -30 36l280 1764q3 20 12.5 28t29.5 8h80q36 0 30 -36l-96 -600q59 92 136.5 136t175.5 44q86 0 144 -31t93 -83.5t50 -121t15 -144.5q0 -128 -36.5 -240.5t-101 -197t-154.5 -133.5t-196 -49q-91 0 -151 32.5t-87 77.5l-72 -454q-3 -20 -12.5 -28
t-29.5 -8h-80zM830 598q0 46 -7 92.5t-28 84t-58 60.5t-97 23q-61 0 -113 -25t-92.5 -69t-68 -103.5t-38.5 -128.5l-52 -326q26 -41 78.5 -69.5t127.5 -28.5q88 0 153 43t108.5 112t65 157t21.5 178z" />
    <glyph glyph-name="ydieresis" unicode="&#xff;" horiz-adv-x="1068" 
d="M940 960q36 0 30 -36l-144 -910q-19 -117 -55.5 -199.5t-92.5 -134.5t-131.5 -76t-172.5 -24q-61 0 -109.5 8t-86 20.5t-64.5 28t-46 29.5q-30 21 -8 52l40 58q12 15 22.5 16.5t25.5 -10.5q16 -13 37 -25.5t48 -22.5t61 -16t76 -6q86 0 141.5 27t89.5 72.5t51 105.5
t28 127l18 116q-59 -92 -136.5 -136t-175.5 -44q-68 0 -117.5 20t-81.5 57t-47.5 89t-15.5 116q0 27 2.5 65t7.5 65l84 532q3 20 12.5 28t29.5 8h80q36 0 30 -36l-84 -532q-6 -41 -8 -66t-2 -42q0 -37 6.5 -69.5t23.5 -57t46.5 -39t75.5 -14.5q64 0 117 28t93.5 76.5
t68 114.5t39.5 143l72 458q3 20 12.5 28t29.5 8h80zM574 1244q0 -47 -29.5 -78.5t-76.5 -31.5q-44 0 -66 26t-22 64q0 47 29.5 78.5t76.5 31.5q44 0 66 -26t22 -64zM914 1244q0 -47 -29.5 -78.5t-76.5 -31.5q-44 0 -66 26t-22 64q0 47 29.5 78.5t76.5 31.5q44 0 66 -26
t22 -64z" />
    <glyph glyph-name="Amacron" unicode="&#x100;" horiz-adv-x="1208" 
d="M16 0q-24 0 -24 18q0 3 0.5 8t5.5 16q149 349 312.5 666t337.5 586q11 17 23.5 23.5t32.5 6.5h72q37 0 48 -34q85 -269 147.5 -579t106.5 -657q2 -12 2 -15.5v-8.5q0 -30 -32 -30h-86q-20 0 -29 8t-11 28q-9 85 -19 166.5t-21 161.5h-580q-38 -81 -73 -163.5t-71 -168.5
q-8 -18 -19 -25t-31 -7h-92zM862 492q-13 88 -29 176t-34.5 173.5t-39 167t-41.5 155.5q-89 -143 -180 -314.5t-176 -357.5h500zM978 1592q17 0 24.5 -6.5t7.5 -23.5v-6.5t-2 -17.5l-2 -18q-3 -21 -12.5 -28.5t-29.5 -7.5h-382q-17 0 -24.5 6.5t-7.5 23.5v6.5t2 17.5l2 18
q3 21 12.5 28.5t29.5 7.5h382v0z" />
    <glyph glyph-name="amacron" unicode="&#x101;" horiz-adv-x="1050" 
d="M922 960q36 0 30 -36l-140 -888q-3 -20 -12.5 -28t-29.5 -8h-74q-36 0 -30 36l20 128q-59 -94 -136 -139t-178 -45q-86 0 -143 31t-91 83t-48 120.5t-14 143.5q0 129 35.5 242.5t99 197.5t152 133t195.5 49q90 0 148.5 -32.5t85.5 -77.5l8 54q3 20 12.5 28t29.5 8h80z
M230 358q0 -46 6.5 -91.5t26 -82t56 -59.5t95.5 -23q61 0 112.5 25t91 69t66.5 103.5t38 128.5l52 326q-26 41 -76.5 69.5t-125.5 28.5q-88 0 -152.5 -42.5t-106.5 -112t-62.5 -158.5t-20.5 -181zM818 1262q17 0 24.5 -6.5t7.5 -23.5v-6.5t-2 -17.5l-2 -18
q-3 -21 -12.5 -28.5t-29.5 -7.5h-382q-17 0 -24.5 6.5t-7.5 23.5v6.5t2 17.5l2 18q3 21 12.5 28.5t29.5 7.5h382v0z" />
    <glyph glyph-name="Abreve" unicode="&#x102;" horiz-adv-x="1208" 
d="M16 0q-24 0 -24 18q0 3 0.5 8t5.5 16q149 349 312.5 666t337.5 586q11 17 23.5 23.5t32.5 6.5h72q37 0 48 -34q85 -269 147.5 -579t106.5 -657q2 -12 2 -15.5v-8.5q0 -30 -32 -30h-86q-20 0 -29 8t-11 28q-9 85 -19 166.5t-21 161.5h-580q-38 -81 -73 -163.5t-71 -168.5
q-8 -18 -19 -25t-31 -7h-92zM862 492q-13 88 -29 176t-34.5 173.5t-39 167t-41.5 155.5q-89 -143 -180 -314.5t-176 -357.5h500zM632 1642q18 -50 53.5 -76t94.5 -26q60 0 104 27t74 77q6 11 12.5 17.5t17.5 6.5q7 0 22 -6l26 -10q24 -9 24 -26q0 -11 -6 -23t-12 -23
q-18 -32 -45 -60t-61 -49t-74.5 -33t-85.5 -12q-47 0 -85 13t-67 34.5t-49 50t-31 60.5q-3 8 -5.5 19t-2.5 17q0 11 4 17.5t18 12.5l26 10q15 6 24 6t14 -6t10 -18z" />
    <glyph glyph-name="abreve" unicode="&#x103;" horiz-adv-x="1050" 
d="M922 960q36 0 30 -36l-140 -888q-3 -20 -12.5 -28t-29.5 -8h-74q-36 0 -30 36l20 128q-59 -94 -136 -139t-178 -45q-86 0 -143 31t-91 83t-48 120.5t-14 143.5q0 129 35.5 242.5t99 197.5t152 133t195.5 49q90 0 148.5 -32.5t85.5 -77.5l8 54q3 20 12.5 28t29.5 8h80z
M230 358q0 -46 6.5 -91.5t26 -82t56 -59.5t95.5 -23q61 0 112.5 25t91 69t66.5 103.5t38 128.5l52 326q-26 41 -76.5 69.5t-125.5 28.5q-88 0 -152.5 -42.5t-106.5 -112t-62.5 -158.5t-20.5 -181zM470 1312q18 -50 53.5 -76t94.5 -26q60 0 104 27t74 77q6 11 12.5 17.5
t17.5 6.5q7 0 22 -6l26 -10q24 -9 24 -26q0 -11 -6 -23t-12 -23q-18 -32 -45 -60t-61 -49t-74.5 -33t-85.5 -12q-47 0 -85 13t-67 34.5t-49 50t-31 60.5q-3 8 -5.5 19t-2.5 17q0 11 4 17.5t18 12.5l26 10q15 6 24 6t14 -6t10 -18z" />
    <glyph glyph-name="Aogonek" unicode="&#x104;" horiz-adv-x="1208" 
d="M768 -248q0 34 13.5 68t36 65.5t51 60.5t57.5 54q-11 95 -21.5 185t-22.5 179h-580q-38 -81 -73 -162.5t-71 -167.5q-8 -18 -19 -26t-31 -8h-92q-34 0 -22 34q152 355 316 673t338 587q11 17 23.5 23.5t32.5 6.5h72q37 0 48 -34q86 -272 150 -587t106 -667q3 -36 -32 -36
h-34q-28 -31 -52 -57.5t-42 -52t-28 -50t-10 -50.5q0 -38 21 -53t53 -15q17 0 35.5 3.5t36.5 12.5t29.5 6.5t20.5 -20.5l4 -8q16 -32 -12 -50q-32 -18 -69.5 -29t-78.5 -11q-72 0 -113 33.5t-41 92.5zM862 492q-13 88 -29 176t-34.5 173.5t-39 167t-41.5 155.5
q-89 -143 -180 -314.5t-176 -357.5h500z" />
    <glyph glyph-name="aogonek" unicode="&#x105;" horiz-adv-x="1050" 
d="M502 -248q0 34 13.5 68t36 65.5t51 60.5t57.5 54l26 164q-59 -94 -136 -139t-178 -45q-86 0 -143 31t-91 83t-48 120.5t-14 143.5q0 129 35.5 242.5t99 197.5t152 133t195.5 49q90 0 148.5 -32.5t85.5 -77.5l8 54q3 20 12.5 28t29.5 8h80q36 0 30 -36l-140 -888
q-3 -20 -12.5 -28t-29.5 -8h-22q-28 -31 -52 -57.5t-42 -52t-28 -50t-10 -50.5q0 -38 21 -53t53 -15q17 0 35.5 3.5t36.5 12.5t29.5 6.5t20.5 -20.5l4 -8q16 -32 -12 -50q-32 -18 -69.5 -29t-78.5 -11q-72 0 -113 33.5t-41 92.5zM230 358q0 -46 6.5 -91.5t26 -82t56 -59.5
t95.5 -23q61 0 112.5 25t91 69t66.5 103.5t38 128.5l52 326q-26 41 -76.5 69.5t-125.5 28.5q-88 0 -152.5 -42.5t-106.5 -112t-62.5 -158.5t-20.5 -181z" />
    <glyph glyph-name="Cacute" unicode="&#x106;" horiz-adv-x="1162" 
d="M1032 122q-95 -74 -203.5 -108t-226.5 -34q-138 0 -233 42t-154 115.5t-85 173t-26 213.5q0 95 17.5 193t54 189t92.5 171t133.5 139.5t176.5 93.5t222 34q118 0 214.5 -33t167.5 -99q12 -12 13 -25t-13 -25l-50 -54q-14 -15 -25.5 -15.5t-26.5 11.5q-53 47 -126 74.5
t-164 27.5q-88 0 -161.5 -27.5t-131.5 -76t-101 -114t-71.5 -141t-42.5 -157t-14 -162.5q0 -98 20.5 -174t62.5 -128.5t106.5 -80t152.5 -27.5q104 0 190.5 35t157.5 89q28 23 48 -8l36 -60q9 -17 7 -29t-17 -23zM1008 1664q10 -13 10 -24q0 -15 -16 -26l-268 -184
q-11 -8 -22 -8q-9 0 -16.5 5t-13.5 13l-12 16q-10 13 -10 24q0 15 16 28l248 202q15 12 28 12q15 0 26 -16z" />
    <glyph glyph-name="cacute" unicode="&#x107;" horiz-adv-x="872" 
d="M730 74q-65 -48 -144.5 -71t-157.5 -23q-92 0 -159.5 31t-111.5 85.5t-65.5 129t-21.5 160.5q0 70 14 141t42 137t70.5 123.5t100.5 100.5t131 67.5t162 24.5q78 0 146 -20.5t118 -65.5q26 -26 2 -52l-44 -52q-23 -29 -48 -4q-36 33 -84 49.5t-102 16.5q-89 0 -155.5 -42
t-110.5 -108t-66 -148.5t-22 -163.5q0 -62 13 -114t40 -89.5t69 -58t100 -20.5q56 0 110.5 18.5t107.5 53.5q17 12 28 9.5t22 -19.5l26 -44q9 -17 7 -29t-17 -23zM804 1334q10 -13 10 -24q0 -15 -16 -26l-268 -184q-11 -8 -22 -8q-9 0 -16.5 5t-13.5 13l-12 16
q-10 13 -10 24q0 15 16 28l248 202q15 12 28 12q15 0 26 -16z" />
    <glyph glyph-name="Ccircumflex" unicode="&#x108;" horiz-adv-x="1162" 
d="M1032 122q-95 -74 -203.5 -108t-226.5 -34q-138 0 -233 42t-154 115.5t-85 173t-26 213.5q0 95 17.5 193t54 189t92.5 171t133.5 139.5t176.5 93.5t222 34q118 0 214.5 -33t167.5 -99q12 -12 13 -25t-13 -25l-50 -54q-14 -15 -25.5 -15.5t-26.5 11.5q-53 47 -126 74.5
t-164 27.5q-88 0 -161.5 -27.5t-131.5 -76t-101 -114t-71.5 -141t-42.5 -157t-14 -162.5q0 -98 20.5 -174t62.5 -128.5t106.5 -80t152.5 -27.5q104 0 190.5 35t157.5 89q28 23 48 -8l36 -60q9 -17 7 -29t-17 -23zM630 1438q-13 -8 -22 -8q-16 0 -28 18l-10 16q-10 17 -10 28
q0 16 18 28l250 166q8 5 15.5 7.5t16.5 2.5q16 0 30 -14l186 -166q8 -6 11 -13t3 -13q0 -14 -12 -26l-16 -18q-8 -8 -14 -12t-14 -4q-11 0 -26 12l-164 118z" />
    <glyph glyph-name="ccircumflex" unicode="&#x109;" horiz-adv-x="872" 
d="M730 74q-65 -48 -144.5 -71t-157.5 -23q-92 0 -159.5 31t-111.5 85.5t-65.5 129t-21.5 160.5q0 70 14 141t42 137t70.5 123.5t100.5 100.5t131 67.5t162 24.5q78 0 146 -20.5t118 -65.5q26 -26 2 -52l-44 -52q-23 -29 -48 -4q-36 33 -84 49.5t-102 16.5q-89 0 -155.5 -42
t-110.5 -108t-66 -148.5t-22 -163.5q0 -62 13 -114t40 -89.5t69 -58t100 -20.5q56 0 110.5 18.5t107.5 53.5q17 12 28 9.5t22 -19.5l26 -44q9 -17 7 -29t-17 -23zM426 1108q-13 -8 -22 -8q-16 0 -28 18l-10 16q-10 17 -10 28q0 16 18 28l250 166q8 5 15.5 7.5t16.5 2.5
q16 0 30 -14l186 -166q8 -6 11 -13t3 -13q0 -14 -12 -26l-16 -18q-8 -8 -14 -12t-14 -4q-11 0 -26 12l-164 118z" />
    <glyph glyph-name="Cdotaccent" unicode="&#x10a;" horiz-adv-x="1162" 
d="M1032 122q-95 -74 -203.5 -108t-226.5 -34q-138 0 -233 42t-154 115.5t-85 173t-26 213.5q0 95 17.5 193t54 189t92.5 171t133.5 139.5t176.5 93.5t222 34q118 0 214.5 -33t167.5 -99q12 -12 13 -25t-13 -25l-50 -54q-14 -15 -25.5 -15.5t-26.5 11.5q-53 47 -126 74.5
t-164 27.5q-88 0 -161.5 -27.5t-131.5 -76t-101 -114t-71.5 -141t-42.5 -157t-14 -162.5q0 -98 20.5 -174t62.5 -128.5t106.5 -80t152.5 -27.5q104 0 190.5 35t157.5 89q28 23 48 -8l36 -60q9 -17 7 -29t-17 -23zM936 1574q0 -47 -29.5 -78.5t-76.5 -31.5q-44 0 -66 26
t-22 64q0 47 29.5 78.5t76.5 31.5q44 0 66 -26t22 -64z" />
    <glyph glyph-name="cdotaccent" unicode="&#x10b;" horiz-adv-x="872" 
d="M730 74q-65 -48 -144.5 -71t-157.5 -23q-92 0 -159.5 31t-111.5 85.5t-65.5 129t-21.5 160.5q0 70 14 141t42 137t70.5 123.5t100.5 100.5t131 67.5t162 24.5q78 0 146 -20.5t118 -65.5q26 -26 2 -52l-44 -52q-23 -29 -48 -4q-36 33 -84 49.5t-102 16.5q-89 0 -155.5 -42
t-110.5 -108t-66 -148.5t-22 -163.5q0 -62 13 -114t40 -89.5t69 -58t100 -20.5q56 0 110.5 18.5t107.5 53.5q17 12 28 9.5t22 -19.5l26 -44q9 -17 7 -29t-17 -23zM732 1244q0 -47 -29.5 -78.5t-76.5 -31.5q-44 0 -66 26t-22 64q0 47 29.5 78.5t76.5 31.5q44 0 66 -26t22 -64
z" />
    <glyph glyph-name="Ccaron" unicode="&#x10c;" horiz-adv-x="1162" 
d="M1032 122q-95 -74 -203.5 -108t-226.5 -34q-138 0 -233 42t-154 115.5t-85 173t-26 213.5q0 95 17.5 193t54 189t92.5 171t133.5 139.5t176.5 93.5t222 34q118 0 214.5 -33t167.5 -99q12 -12 13 -25t-13 -25l-50 -54q-14 -15 -25.5 -15.5t-26.5 11.5q-53 47 -126 74.5
t-164 27.5q-88 0 -161.5 -27.5t-131.5 -76t-101 -114t-71.5 -141t-42.5 -157t-14 -162.5q0 -98 20.5 -174t62.5 -128.5t106.5 -80t152.5 -27.5q104 0 190.5 35t157.5 89q28 23 48 -8l36 -60q9 -17 7 -29t-17 -23zM1046 1678q13 8 22 8q16 0 28 -18l10 -16q10 -17 10 -28
q0 -16 -18 -28l-250 -166q-8 -5 -15.5 -7.5t-16.5 -2.5q-16 0 -30 14l-186 166q-8 6 -11 13t-3 13q0 14 12 26l16 18q8 8 14 12t14 4q11 0 26 -12l164 -118z" />
    <glyph glyph-name="ccaron" unicode="&#x10d;" horiz-adv-x="872" 
d="M730 74q-65 -48 -144.5 -71t-157.5 -23q-92 0 -159.5 31t-111.5 85.5t-65.5 129t-21.5 160.5q0 70 14 141t42 137t70.5 123.5t100.5 100.5t131 67.5t162 24.5q78 0 146 -20.5t118 -65.5q26 -26 2 -52l-44 -52q-23 -29 -48 -4q-36 33 -84 49.5t-102 16.5q-89 0 -155.5 -42
t-110.5 -108t-66 -148.5t-22 -163.5q0 -62 13 -114t40 -89.5t69 -58t100 -20.5q56 0 110.5 18.5t107.5 53.5q17 12 28 9.5t22 -19.5l26 -44q9 -17 7 -29t-17 -23zM844 1360q13 8 22 8q16 0 28 -18l10 -16q10 -17 10 -28q0 -16 -18 -28l-250 -166q-8 -5 -15.5 -7.5
t-16.5 -2.5q-16 0 -30 14l-186 166q-8 6 -11 13t-3 13q0 14 12 26l16 18q8 8 14 12t14 4q11 0 26 -12l164 -118z" />
    <glyph glyph-name="Dcaron" unicode="&#x10e;" horiz-adv-x="1294" 
d="M136 0q-36 0 -30 36l198 1252q3 20 12.5 28t29.5 8h358q145 0 247.5 -42.5t168 -114.5t96 -166.5t30.5 -198.5q0 -102 -18.5 -201.5t-57.5 -188.5t-99 -164.5t-143.5 -130.5t-191.5 -86t-242 -31h-358zM280 132h228q145 0 253 54t179.5 145.5t106.5 211.5t35 253
q0 89 -23 162t-72 125t-126 80.5t-185 28.5h-228zM968 1678q13 8 22 8q16 0 28 -18l10 -16q10 -17 10 -28q0 -16 -18 -28l-250 -166q-8 -5 -15.5 -7.5t-16.5 -2.5q-16 0 -30 14l-186 166q-8 6 -11 13t-3 13q0 14 12 26l16 18q8 8 14 12t14 4q11 0 26 -12l164 -118z" />
    <glyph glyph-name="dcaron" unicode="&#x10f;" horiz-adv-x="1060" 
d="M1008 1436q36 0 30 -36l-216 -1364q-3 -20 -12.5 -28t-29.5 -8h-74q-36 0 -30 36l20 128q-116 -184 -318 -184q-86 0 -144 31t-93 83.5t-50 121t-15 144.5q0 127 36.5 240t101 197.5t154 133.5t196.5 49q91 0 151 -32.5t87 -77.5l84 530q3 20 12.5 28t29.5 8h80zM230 362
q0 -47 7 -93t28 -83.5t58 -60.5t97 -23q61 0 113 25t92.5 69t68 103.5t38.5 128.5l52 326q-26 41 -78.5 69.5t-127.5 28.5q-88 0 -153 -43t-108.5 -112t-65 -157t-21.5 -178zM1160 1090q-5 0 -12.5 1.5t-14 5t-11 9.5t-4.5 14q0 3 1 10t3 12l70 274q6 28 28 28q5 0 12 -1
t12 -3l62 -20q24 -9 24 -26q0 -10 -8 -26l-132 -256q-11 -22 -30 -22z" />
    <glyph glyph-name="Dcroat" unicode="&#x110;" horiz-adv-x="1310" 
d="M106 602q-36 0 -30 36l10 50q3 20 12.5 28t29.5 8h102l90 564q3 20 12.5 28t29.5 8h358q145 0 247.5 -42.5t168 -114.5t96 -166.5t30.5 -198.5q0 -102 -18.5 -201.5t-57.5 -188.5t-99 -164.5t-143.5 -130.5t-191.5 -86t-242 -31h-358q-36 0 -30 36l90 566h-106zM296 132
h228q145 0 253 54t179.5 145.5t106.5 211.5t35 253q0 89 -23 162t-72 125t-126 80.5t-185 28.5h-228l-74 -468h302q36 0 30 -36l-10 -50q-3 -20 -12.5 -28t-29.5 -8h-300z" />
    <glyph glyph-name="dcroat" unicode="&#x111;" horiz-adv-x="1060" 
d="M628 1126q-36 0 -30 36l4 30q3 20 12.5 28t29.5 8h214l28 172q3 20 12.5 28t29.5 8h80q36 0 30 -36l-28 -172h100q36 0 30 -36l-4 -30q-3 -20 -12.5 -28t-29.5 -8h-100l-172 -1090q-3 -20 -12.5 -28t-29.5 -8h-74q-36 0 -30 36l20 128q-116 -184 -318 -184q-86 0 -144 31
t-93 83.5t-50 121t-15 144.5q0 127 36.5 240t101 197.5t154 133.5t196.5 49q91 0 151 -32.5t87 -77.5l40 256h-214zM230 362q0 -47 7 -93t28 -83.5t58 -60.5t97 -23q61 0 113 25t92.5 69t68 103.5t38.5 128.5l52 326q-26 41 -78.5 69.5t-127.5 28.5q-88 0 -153 -43
t-108.5 -112t-65 -157t-21.5 -178z" />
    <glyph glyph-name="Emacron" unicode="&#x112;" horiz-adv-x="1018" 
d="M1044 1228q-3 -20 -12.5 -28t-29.5 -8h-556l-68 -438h492q30 0 30 -26v-6.5t-2 -15.5l-8 -48q-3 -20 -12.5 -28t-29.5 -8h-492l-76 -490h556q30 0 30 -26v-6.5t-2 -15.5l-8 -48q-3 -20 -12.5 -28t-29.5 -8h-678q-30 0 -30 26v6.5t2 15.5l196 1240q3 20 12.5 28t29.5 8
h678q30 0 30 -26v-6.5t-2 -15.5zM920 1592q17 0 24.5 -6.5t7.5 -23.5v-6.5t-2 -17.5l-2 -18q-3 -21 -12.5 -28.5t-29.5 -7.5h-382q-17 0 -24.5 6.5t-7.5 23.5v6.5t2 17.5l2 18q3 21 12.5 28.5t29.5 7.5h382v0z" />
    <glyph glyph-name="emacron" unicode="&#x113;" horiz-adv-x="914" 
d="M760 70q-69 -45 -148 -67.5t-162 -22.5q-101 0 -173 31t-118 85t-67.5 128.5t-21.5 161.5q0 71 14 143t41 138t68.5 123t95.5 99.5t122 66.5t149 24q71 0 128 -19t97 -54.5t61.5 -85.5t21.5 -111q0 -23 -4 -49t-14.5 -53t-30.5 -54t-51 -50q-71 -51 -188.5 -75.5
t-289.5 -24.5h-70v-6q0 -68 12.5 -122.5t40.5 -92t73.5 -57.5t111.5 -20q63 0 126 17.5t114 52.5q15 11 26 9t22 -19l26 -44q9 -17 7 -29t-19 -23zM728 708q0 77 -47.5 115.5t-124.5 38.5q-65 0 -118.5 -27t-95.5 -73.5t-70.5 -110.5t-41.5 -137h70q128 0 211 14.5t131 40.5
t67 61.5t19 77.5zM798 1262q17 0 24.5 -6.5t7.5 -23.5v-6.5t-2 -17.5l-2 -18q-3 -21 -12.5 -28.5t-29.5 -7.5h-382q-17 0 -24.5 6.5t-7.5 23.5v6.5t2 17.5l2 18q3 21 12.5 28.5t29.5 7.5h382v0z" />
    <glyph glyph-name="Ebreve" unicode="&#x114;" horiz-adv-x="1018" 
d="M1044 1228q-3 -20 -12.5 -28t-29.5 -8h-556l-68 -438h492q30 0 30 -26v-6.5t-2 -15.5l-8 -48q-3 -20 -12.5 -28t-29.5 -8h-492l-76 -490h556q30 0 30 -26v-6.5t-2 -15.5l-8 -48q-3 -20 -12.5 -28t-29.5 -8h-678q-30 0 -30 26v6.5t2 15.5l196 1240q3 20 12.5 28t29.5 8
h678q30 0 30 -26v-6.5t-2 -15.5zM574 1642q18 -50 53.5 -76t94.5 -26q60 0 104 27t74 77q6 11 12.5 17.5t17.5 6.5q7 0 22 -6l26 -10q24 -9 24 -26q0 -11 -6 -23t-12 -23q-18 -32 -45 -60t-61 -49t-74.5 -33t-85.5 -12q-47 0 -85 13t-67 34.5t-49 50t-31 60.5q-3 8 -5.5 19
t-2.5 17q0 11 4 17.5t18 12.5l26 10q15 6 24 6t14 -6t10 -18z" />
    <glyph glyph-name="ebreve" unicode="&#x115;" horiz-adv-x="914" 
d="M760 70q-69 -45 -148 -67.5t-162 -22.5q-101 0 -173 31t-118 85t-67.5 128.5t-21.5 161.5q0 71 14 143t41 138t68.5 123t95.5 99.5t122 66.5t149 24q71 0 128 -19t97 -54.5t61.5 -85.5t21.5 -111q0 -23 -4 -49t-14.5 -53t-30.5 -54t-51 -50q-71 -51 -188.5 -75.5
t-289.5 -24.5h-70v-6q0 -68 12.5 -122.5t40.5 -92t73.5 -57.5t111.5 -20q63 0 126 17.5t114 52.5q15 11 26 9t22 -19l26 -44q9 -17 7 -29t-19 -23zM728 708q0 77 -47.5 115.5t-124.5 38.5q-65 0 -118.5 -27t-95.5 -73.5t-70.5 -110.5t-41.5 -137h70q128 0 211 14.5t131 40.5
t67 61.5t19 77.5zM450 1312q18 -50 53.5 -76t94.5 -26q60 0 104 27t74 77q6 11 12.5 17.5t17.5 6.5q7 0 22 -6l26 -10q24 -9 24 -26q0 -11 -6 -23t-12 -23q-18 -32 -45 -60t-61 -49t-74.5 -33t-85.5 -12q-47 0 -85 13t-67 34.5t-49 50t-31 60.5q-3 8 -5.5 19t-2.5 17
q0 11 4 17.5t18 12.5l26 10q15 6 24 6t14 -6t10 -18z" />
    <glyph glyph-name="Edotaccent" unicode="&#x116;" horiz-adv-x="1018" 
d="M1044 1228q-3 -20 -12.5 -28t-29.5 -8h-556l-68 -438h492q30 0 30 -26v-6.5t-2 -15.5l-8 -48q-3 -20 -12.5 -28t-29.5 -8h-492l-76 -490h556q30 0 30 -26v-6.5t-2 -15.5l-8 -48q-3 -20 -12.5 -28t-29.5 -8h-678q-30 0 -30 26v6.5t2 15.5l196 1240q3 20 12.5 28t29.5 8
h678q30 0 30 -26v-6.5t-2 -15.5zM824 1574q0 -47 -29.5 -78.5t-76.5 -31.5q-44 0 -66 26t-22 64q0 47 29.5 78.5t76.5 31.5q44 0 66 -26t22 -64z" />
    <glyph glyph-name="edotaccent" unicode="&#x117;" horiz-adv-x="914" 
d="M760 70q-69 -45 -148 -67.5t-162 -22.5q-101 0 -173 31t-118 85t-67.5 128.5t-21.5 161.5q0 71 14 143t41 138t68.5 123t95.5 99.5t122 66.5t149 24q71 0 128 -19t97 -54.5t61.5 -85.5t21.5 -111q0 -23 -4 -49t-14.5 -53t-30.5 -54t-51 -50q-71 -51 -188.5 -75.5
t-289.5 -24.5h-70v-6q0 -68 12.5 -122.5t40.5 -92t73.5 -57.5t111.5 -20q63 0 126 17.5t114 52.5q15 11 26 9t22 -19l26 -44q9 -17 7 -29t-19 -23zM728 708q0 77 -47.5 115.5t-124.5 38.5q-65 0 -118.5 -27t-95.5 -73.5t-70.5 -110.5t-41.5 -137h70q128 0 211 14.5t131 40.5
t67 61.5t19 77.5zM700 1244q0 -47 -29.5 -78.5t-76.5 -31.5q-44 0 -66 26t-22 64q0 47 29.5 78.5t76.5 31.5q44 0 66 -26t22 -64z" />
    <glyph glyph-name="Eogonek" unicode="&#x118;" horiz-adv-x="1018" 
d="M136 0q-36 0 -30 36l198 1252q3 20 12.5 28t29.5 8h678q36 0 30 -36l-10 -60q-3 -20 -12.5 -28t-29.5 -8h-556l-68 -438h492q36 0 30 -36l-10 -60q-3 -20 -12.5 -28t-29.5 -8h-492l-76 -490h556q36 0 30 -36l-10 -60q-3 -20 -12.5 -28t-29.5 -8h-96q-28 -31 -52 -57.5
t-42 -52t-28 -50t-10 -50.5q0 -38 21 -53t53 -15q17 0 35.5 3.5t36.5 12.5t29.5 6.5t20.5 -20.5l4 -8q16 -32 -12 -50q-32 -18 -69.5 -29t-78.5 -11q-72 0 -113 33.5t-41 92.5q0 34 13.5 68t36 65.5t51 60.5t57.5 54h-494z" />
    <glyph glyph-name="eogonek" unicode="&#x119;" horiz-adv-x="914" 
d="M550 -374q-72 0 -113 33.5t-41 90.5q0 34 14 66.5t36.5 62.5t52 58t61.5 53q-27 -6 -54.5 -8t-53.5 -2q-102 0 -174.5 31t-118.5 85t-67.5 128.5t-21.5 161.5q0 71 14 143t41 138t68.5 123t95.5 99.5t122 66.5t149 24q71 0 128 -19t97 -54.5t61.5 -85.5t21.5 -111
q0 -23 -4 -49t-14.5 -53t-30.5 -54t-51 -50q-71 -51 -188.5 -75.5t-289.5 -24.5h-70v-6q0 -68 12.5 -122.5t40.5 -92t73.5 -57.5t111.5 -20q63 0 126 17.5t114 52.5q15 11 26 9t22 -19l26 -44q9 -17 7 -28.5t-17 -23.5l-100 -70q-74 -53 -113 -106.5t-39 -103.5
q0 -38 21 -53t53 -15q17 0 35.5 3.5t36.5 12.5t29.5 6.5t20.5 -20.5l4 -8q16 -32 -12 -50q-32 -18 -69.5 -29t-78.5 -11zM728 708q0 77 -47.5 115.5t-124.5 38.5q-65 0 -118.5 -27t-95.5 -73.5t-70.5 -110.5t-41.5 -137h70q128 0 211 14.5t131 40.5t67 61.5t19 77.5z" />
    <glyph glyph-name="Ecaron" unicode="&#x11a;" horiz-adv-x="1018" 
d="M1044 1228q-3 -20 -12.5 -28t-29.5 -8h-556l-68 -438h492q30 0 30 -26v-6.5t-2 -15.5l-8 -48q-3 -20 -12.5 -28t-29.5 -8h-492l-76 -490h556q30 0 30 -26v-6.5t-2 -15.5l-8 -48q-3 -20 -12.5 -28t-29.5 -8h-678q-30 0 -30 26v6.5t2 15.5l196 1240q3 20 12.5 28t29.5 8
h678q30 0 30 -26v-6.5t-2 -15.5zM934 1678q13 8 22 8q16 0 28 -18l10 -16q10 -17 10 -28q0 -16 -18 -28l-250 -166q-8 -5 -15.5 -7.5t-16.5 -2.5q-16 0 -30 14l-186 166q-8 6 -11 13t-3 13q0 14 12 26l16 18q8 8 14 12t14 4q11 0 26 -12l164 -118z" />
    <glyph glyph-name="ecaron" unicode="&#x11b;" horiz-adv-x="914" 
d="M760 70q-69 -45 -148 -67.5t-162 -22.5q-101 0 -173 31t-118 85t-67.5 128.5t-21.5 161.5q0 71 14 143t41 138t68.5 123t95.5 99.5t122 66.5t149 24q71 0 128 -19t97 -54.5t61.5 -85.5t21.5 -111q0 -23 -4 -49t-14.5 -53t-30.5 -54t-51 -50q-71 -51 -188.5 -75.5
t-289.5 -24.5h-70v-6q0 -68 12.5 -122.5t40.5 -92t73.5 -57.5t111.5 -20q63 0 126 17.5t114 52.5q15 11 26 9t22 -19l26 -44q9 -17 7 -29t-19 -23zM728 708q0 77 -47.5 115.5t-124.5 38.5q-65 0 -118.5 -27t-95.5 -73.5t-70.5 -110.5t-41.5 -137h70q128 0 211 14.5t131 40.5
t67 61.5t19 77.5zM812 1360q13 8 22 8q16 0 28 -18l10 -16q10 -17 10 -28q0 -16 -18 -28l-250 -166q-8 -5 -15.5 -7.5t-16.5 -2.5q-16 0 -30 14l-186 166q-8 6 -11 13t-3 13q0 14 12 26l16 18q8 8 14 12t14 4q11 0 26 -12l164 -118z" />
    <glyph glyph-name="Gcircumflex" unicode="&#x11c;" horiz-adv-x="1270" 
d="M1074 88q-198 -108 -426 -108q-135 0 -237 37.5t-170 108.5t-102.5 174t-34.5 234q0 95 18 192t55.5 187t94.5 168.5t134.5 137t176 92t219.5 33.5q57 0 113 -8t108 -25.5t98 -44.5t83 -64q26 -26 2 -54l-50 -54q-14 -15 -25 -15.5t-25 13.5q-54 50 -135.5 82t-184.5 32
q-91 0 -165 -27.5t-132 -75.5t-99.5 -113t-68.5 -139t-40 -154.5t-13 -158.5q0 -101 21.5 -180t67.5 -133.5t118 -83.5t173 -29q46 0 92 6t86.5 16t75 23.5t58.5 28.5l62 386h-280q-36 0 -30 36l8 60q3 20 12.5 28t29.5 8h402q36 0 30 -36l-82 -528q-6 -34 -38 -52z
M630 1438q-13 -8 -22 -8q-16 0 -28 18l-10 16q-10 17 -10 28q0 16 18 28l250 166q8 5 15.5 7.5t16.5 2.5q16 0 30 -14l186 -166q8 -6 11 -13t3 -13q0 -14 -12 -26l-16 -18q-8 -8 -14 -12t-14 -4q-11 0 -26 12l-164 118z" />
    <glyph glyph-name="gcircumflex" unicode="&#x11d;" horiz-adv-x="1060" 
d="M932 960q36 0 30 -36l-144 -910q-19 -117 -55.5 -199.5t-92.5 -134.5t-131.5 -76t-172.5 -24q-61 0 -109.5 8t-86 20.5t-64.5 28t-46 29.5q-30 21 -8 52l40 58q12 15 22.5 16.5t25.5 -10.5q16 -13 37 -25.5t48 -22.5t61 -16t76 -6q86 0 141.5 27t89.5 72.5t51 105.5
t28 127l18 116q-59 -92 -136.5 -136t-175.5 -44q-86 0 -144 31t-93 83.5t-50 121t-15 144.5q0 127 36.5 240t101 197.5t154 133.5t196.5 49q91 0 151 -32.5t87 -77.5l8 54q3 20 12.5 28t29.5 8h80zM230 362q0 -47 7 -93t28 -83.5t58 -60.5t97 -23q61 0 113 25t92.5 69
t68 103.5t38.5 128.5l52 326q-26 41 -78.5 69.5t-127.5 28.5q-88 0 -153 -43t-108.5 -112t-65 -157t-21.5 -178zM424 1108q-13 -8 -22 -8q-16 0 -28 18l-10 16q-10 17 -10 28q0 16 18 28l250 166q8 5 15.5 7.5t16.5 2.5q16 0 30 -14l186 -166q8 -6 11 -13t3 -13
q0 -14 -12 -26l-16 -18q-8 -8 -14 -12t-14 -4q-11 0 -26 12l-164 118z" />
    <glyph glyph-name="Gbreve" unicode="&#x11e;" horiz-adv-x="1270" 
d="M1074 88q-198 -108 -426 -108q-135 0 -237 37.5t-170 108.5t-102.5 174t-34.5 234q0 95 18 192t55.5 187t94.5 168.5t134.5 137t176 92t219.5 33.5q57 0 113 -8t108 -25.5t98 -44.5t83 -64q26 -26 2 -54l-50 -54q-14 -15 -25 -15.5t-25 13.5q-54 50 -135.5 82t-184.5 32
q-91 0 -165 -27.5t-132 -75.5t-99.5 -113t-68.5 -139t-40 -154.5t-13 -158.5q0 -101 21.5 -180t67.5 -133.5t118 -83.5t173 -29q46 0 92 6t86.5 16t75 23.5t58.5 28.5l62 386h-280q-36 0 -30 36l8 60q3 20 12.5 28t29.5 8h402q36 0 30 -36l-82 -528q-6 -34 -38 -52z
M686 1642q18 -50 53.5 -76t94.5 -26q60 0 104 27t74 77q6 11 12.5 17.5t17.5 6.5q7 0 22 -6l26 -10q24 -9 24 -26q0 -11 -6 -23t-12 -23q-18 -32 -45 -60t-61 -49t-74.5 -33t-85.5 -12q-47 0 -85 13t-67 34.5t-49 50t-31 60.5q-3 8 -5.5 19t-2.5 17q0 11 4 17.5t18 12.5
l26 10q15 6 24 6t14 -6t10 -18z" />
    <glyph glyph-name="gbreve" unicode="&#x11f;" horiz-adv-x="1060" 
d="M932 960q36 0 30 -36l-144 -910q-19 -117 -55.5 -199.5t-92.5 -134.5t-131.5 -76t-172.5 -24q-61 0 -109.5 8t-86 20.5t-64.5 28t-46 29.5q-30 21 -8 52l40 58q12 15 22.5 16.5t25.5 -10.5q16 -13 37 -25.5t48 -22.5t61 -16t76 -6q86 0 141.5 27t89.5 72.5t51 105.5
t28 127l18 116q-59 -92 -136.5 -136t-175.5 -44q-86 0 -144 31t-93 83.5t-50 121t-15 144.5q0 127 36.5 240t101 197.5t154 133.5t196.5 49q91 0 151 -32.5t87 -77.5l8 54q3 20 12.5 28t29.5 8h80zM230 362q0 -47 7 -93t28 -83.5t58 -60.5t97 -23q61 0 113 25t92.5 69
t68 103.5t38.5 128.5l52 326q-26 41 -78.5 69.5t-127.5 28.5q-88 0 -153 -43t-108.5 -112t-65 -157t-21.5 -178zM480 1312q18 -50 53.5 -76t94.5 -26q60 0 104 27t74 77q6 11 12.5 17.5t17.5 6.5q7 0 22 -6l26 -10q24 -9 24 -26q0 -11 -6 -23t-12 -23q-18 -32 -45 -60
t-61 -49t-74.5 -33t-85.5 -12q-47 0 -85 13t-67 34.5t-49 50t-31 60.5q-3 8 -5.5 19t-2.5 17q0 11 4 17.5t18 12.5l26 10q15 6 24 6t14 -6t10 -18z" />
    <glyph glyph-name="Gdotaccent" unicode="&#x120;" horiz-adv-x="1270" 
d="M1074 88q-198 -108 -426 -108q-135 0 -237 37.5t-170 108.5t-102.5 174t-34.5 234q0 95 18 192t55.5 187t94.5 168.5t134.5 137t176 92t219.5 33.5q57 0 113 -8t108 -25.5t98 -44.5t83 -64q26 -26 2 -54l-50 -54q-14 -15 -25 -15.5t-25 13.5q-54 50 -135.5 82t-184.5 32
q-91 0 -165 -27.5t-132 -75.5t-99.5 -113t-68.5 -139t-40 -154.5t-13 -158.5q0 -101 21.5 -180t67.5 -133.5t118 -83.5t173 -29q46 0 92 6t86.5 16t75 23.5t58.5 28.5l62 386h-280q-36 0 -30 36l8 60q3 20 12.5 28t29.5 8h402q36 0 30 -36l-82 -528q-6 -34 -38 -52z
M936 1574q0 -47 -29.5 -78.5t-76.5 -31.5q-44 0 -66 26t-22 64q0 47 29.5 78.5t76.5 31.5q44 0 66 -26t22 -64z" />
    <glyph glyph-name="gdotaccent" unicode="&#x121;" horiz-adv-x="1060" 
d="M932 960q36 0 30 -36l-144 -910q-19 -117 -55.5 -199.5t-92.5 -134.5t-131.5 -76t-172.5 -24q-61 0 -109.5 8t-86 20.5t-64.5 28t-46 29.5q-30 21 -8 52l40 58q12 15 22.5 16.5t25.5 -10.5q16 -13 37 -25.5t48 -22.5t61 -16t76 -6q86 0 141.5 27t89.5 72.5t51 105.5
t28 127l18 116q-59 -92 -136.5 -136t-175.5 -44q-86 0 -144 31t-93 83.5t-50 121t-15 144.5q0 127 36.5 240t101 197.5t154 133.5t196.5 49q91 0 151 -32.5t87 -77.5l8 54q3 20 12.5 28t29.5 8h80zM230 362q0 -47 7 -93t28 -83.5t58 -60.5t97 -23q61 0 113 25t92.5 69
t68 103.5t38.5 128.5l52 326q-26 41 -78.5 69.5t-127.5 28.5q-88 0 -153 -43t-108.5 -112t-65 -157t-21.5 -178zM730 1244q0 -47 -29.5 -78.5t-76.5 -31.5q-44 0 -66 26t-22 64q0 47 29.5 78.5t76.5 31.5q44 0 66 -26t22 -64z" />
    <glyph glyph-name="Gcommaaccent" unicode="&#x122;" horiz-adv-x="1270" 
d="M1074 88q-198 -108 -426 -108q-135 0 -237 37.5t-170 108.5t-102.5 174t-34.5 234q0 95 18 192t55.5 187t94.5 168.5t134.5 137t176 92t219.5 33.5q57 0 113 -8t108 -25.5t98 -44.5t83 -64q26 -26 2 -54l-50 -54q-14 -15 -25 -15.5t-25 13.5q-54 50 -135.5 82t-184.5 32
q-91 0 -165 -27.5t-132 -75.5t-99.5 -113t-68.5 -139t-40 -154.5t-13 -158.5q0 -101 21.5 -180t67.5 -133.5t118 -83.5t173 -29q46 0 92 6t86.5 16t75 23.5t58.5 28.5l62 386h-280q-36 0 -30 36l8 60q3 20 12.5 28t29.5 8h402q36 0 30 -36l-82 -528q-6 -34 -38 -52z
M652 -176q0 -32 -12.5 -65t-32.5 -64.5t-45 -60t-50 -52.5q-5 -5 -13 -10.5t-17 -5.5t-18 6l-6 4q-12 9 -12 18q0 10 8 18q33 35 42.5 57t9.5 43q0 18 -5.5 30t-11.5 22.5t-11.5 22.5t-5.5 31q0 41 28 64.5t70 23.5q39 0 60.5 -20.5t21.5 -61.5z" />
    <glyph glyph-name="gcommaaccent" unicode="&#x123;" horiz-adv-x="1060" 
d="M932 960q36 0 30 -36l-144 -910q-19 -117 -55.5 -199.5t-92.5 -134.5t-131.5 -76t-172.5 -24q-61 0 -109.5 8t-86 20.5t-64.5 28t-46 29.5q-30 21 -8 52l40 58q12 15 22.5 16.5t25.5 -10.5q16 -13 37 -25.5t48 -22.5t61 -16t76 -6q86 0 141.5 27t89.5 72.5t51 105.5
t28 127l18 116q-59 -92 -136.5 -136t-175.5 -44q-86 0 -144 31t-93 83.5t-50 121t-15 144.5q0 127 36.5 240t101 197.5t154 133.5t196.5 49q91 0 151 -32.5t87 -77.5l8 54q3 20 12.5 28t29.5 8h80zM230 362q0 -47 7 -93t28 -83.5t58 -60.5t97 -23q61 0 113 25t92.5 69
t68 103.5t38.5 128.5l52 326q-26 41 -78.5 69.5t-127.5 28.5q-88 0 -153 -43t-108.5 -112t-65 -157t-21.5 -178zM532 1194q0 32 12.5 65t32.5 64.5t45 60t50 52.5q5 5 13 10.5t17 5.5t18 -6l6 -4q12 -9 12 -18q0 -10 -8 -18q-33 -35 -42.5 -57t-9.5 -43q0 -18 5.5 -30
t11.5 -22.5t11.5 -22.5t5.5 -31q0 -41 -28 -64.5t-70 -23.5q-39 0 -60.5 20.5t-21.5 61.5z" />
    <glyph glyph-name="Hcircumflex" unicode="&#x124;" horiz-adv-x="1306" 
d="M1010 602h-658l-88 -566q-3 -20 -12.5 -28t-29.5 -8h-86q-30 0 -30 28v7t2 13l196 1240q3 20 12.5 28t29.5 8h86q30 0 30 -28v-7t-2 -13l-86 -542h656l88 554q3 20 12.5 28t29.5 8h86q30 0 30 -28v-7t-2 -13l-196 -1240q-3 -20 -12.5 -28t-29.5 -8h-86q-30 0 -30 28v7
t2 13zM628 1438q-13 -8 -22 -8q-16 0 -28 18l-10 16q-10 17 -10 28q0 16 18 28l250 166q8 5 15.5 7.5t16.5 2.5q16 0 30 -14l186 -166q8 -6 11 -13t3 -13q0 -14 -12 -26l-16 -18q-8 -8 -14 -12t-14 -4q-11 0 -26 12l-164 118z" />
    <glyph glyph-name="hcircumflex" unicode="&#x125;" horiz-adv-x="1068" 
d="M314 1400q3 20 12.5 28t29.5 8h80q36 0 30 -36l-96 -596q25 37 57.5 69.5t72.5 56t87.5 37t102.5 13.5q68 0 119 -20t84.5 -57t50 -89t16.5 -116q0 -27 -2.5 -65t-7.5 -65l-84 -532q-3 -20 -12.5 -28t-29.5 -8h-80q-36 0 -30 36l84 532q6 41 8 66t2 42q0 37 -8 69.5
t-26.5 57t-49 39t-76.5 14.5q-64 0 -118.5 -28t-96.5 -76.5t-70.5 -115t-40.5 -142.5l-72 -458q-3 -20 -12.5 -28t-29.5 -8h-80q-36 0 -30 36zM221 1506q-13 -8 -22 -8q-16 0 -28 18l-10 16q-10 17 -10 28q0 16 18 28l250 166q8 5 15.5 7.5t16.5 2.5q16 0 30 -14l186 -166
q8 -6 11 -13t3 -13q0 -14 -12 -26l-16 -18q-8 -8 -14 -12t-14 -4q-11 0 -26 12l-164 118z" />
    <glyph glyph-name="Hbar" unicode="&#x126;" horiz-adv-x="1330" 
d="M1378 1078q17 0 24.5 -6.5t7.5 -23.5v-6.5t-2 -17.5l-2 -20q-2 -20 -12 -28t-30 -8h-126l-148 -932q-3 -20 -12.5 -28t-29.5 -8h-86q-36 0 -30 36l88 566h-656l-88 -566q-3 -20 -12.5 -28t-29.5 -8h-86q-36 0 -30 36l148 932h-122q-17 0 -24.5 6.5t-7.5 23.5v6.5t2 17.5
l2 20q2 20 12 28t30 8h124l34 210q3 20 12.5 28t29.5 8h86q36 0 30 -36l-34 -210h656l34 210q3 20 12.5 28t29.5 8h86q36 0 30 -36l-34 -210h124zM386 734h656l36 234h-654z" />
    <glyph glyph-name="hbar" unicode="&#x127;" horiz-adv-x="1068" 
d="M182 1126q-36 0 -30 36l4 30q3 20 12.5 28t29.5 8h88l28 172q3 20 12.5 28t29.5 8h80q36 0 30 -36l-28 -172h226q36 0 30 -36l-4 -30q-3 -20 -12.5 -28t-29.5 -8h-226l-52 -322q25 37 57.5 69.5t72.5 56t87.5 37t102.5 13.5q68 0 119 -20t84.5 -57t50 -89t16.5 -116
q0 -27 -2.5 -65t-7.5 -65l-84 -532q-3 -20 -12.5 -28t-29.5 -8h-80q-36 0 -30 36l84 532q6 41 8 66t2 42q0 37 -8 69.5t-26.5 57t-49 39t-76.5 14.5q-64 0 -118.5 -28t-96.5 -76.5t-70.5 -115t-40.5 -142.5l-72 -458q-3 -20 -12.5 -28t-29.5 -8h-80q-36 0 -30 36l172 1090
h-88z" />
    <glyph glyph-name="Itilde" unicode="&#x128;" horiz-adv-x="492" 
d="M304 1288q3 20 12.5 28t29.5 8h86q30 0 30 -28v-7t-2 -13l-196 -1240q-3 -20 -12.5 -28t-29.5 -8h-86q-30 0 -30 28v7t2 13zM545 1576q27 0 52.5 13t45.5 31q15 12 28 12q12 0 26 -14l8 -8q14 -14 14 -26q0 -13 -10 -26q-14 -19 -33 -36.5t-41.5 -31t-48 -22t-53.5 -8.5
q-33 0 -60.5 10.5t-52.5 23.5t-48.5 23.5t-48.5 10.5q-27 0 -52.5 -13t-45.5 -31q-15 -12 -28 -12q-12 0 -26 14l-8 8q-14 14 -14 26q0 13 10 26q14 19 33 36.5t41.5 31t48 22t53.5 8.5q33 0 60.5 -10.5t52.5 -23.5t48.5 -23.5t48.5 -10.5z" />
    <glyph glyph-name="itilde" unicode="&#x129;" horiz-adv-x="488" 
d="M238 924q3 20 12.5 28t29.5 8h80q30 0 30 -28v-7t-2 -13l-138 -876q-3 -20 -12.5 -28t-29.5 -8h-80q-30 0 -30 28v7t2 13zM477 1246q27 0 52.5 13t45.5 31q15 12 28 12q12 0 26 -14l8 -8q14 -14 14 -26q0 -13 -10 -26q-14 -19 -33 -36.5t-41.5 -31t-48 -22t-53.5 -8.5
q-33 0 -60.5 10.5t-52.5 23.5t-48.5 23.5t-48.5 10.5q-27 0 -52.5 -13t-45.5 -31q-15 -12 -28 -12q-12 0 -26 14l-8 8q-14 14 -14 26q0 13 10 26q14 19 33 36.5t41.5 31t48 22t53.5 8.5q33 0 60.5 -10.5t52.5 -23.5t48.5 -23.5t48.5 -10.5z" />
    <glyph glyph-name="Imacron" unicode="&#x12a;" horiz-adv-x="492" 
d="M304 1288q3 20 12.5 28t29.5 8h86q30 0 30 -28v-7t-2 -13l-196 -1240q-3 -20 -12.5 -28t-29.5 -8h-86q-30 0 -30 28v7t2 13zM623 1592q17 0 24.5 -6.5t7.5 -23.5v-6.5t-2 -17.5l-2 -18q-3 -21 -12.5 -28.5t-29.5 -7.5h-382q-17 0 -24.5 6.5t-7.5 23.5v6.5t2 17.5l2 18
q3 21 12.5 28.5t29.5 7.5h382v0z" />
    <glyph glyph-name="imacron" unicode="&#x12b;" horiz-adv-x="488" 
d="M238 924q3 20 12.5 28t29.5 8h80q30 0 30 -28v-7t-2 -13l-138 -876q-3 -20 -12.5 -28t-29.5 -8h-80q-30 0 -30 28v7t2 13zM563 1262q17 0 24.5 -6.5t7.5 -23.5v-6.5t-2 -17.5l-2 -18q-3 -21 -12.5 -28.5t-29.5 -7.5h-382q-17 0 -24.5 6.5t-7.5 23.5v6.5t2 17.5l2 18
q3 21 12.5 28.5t29.5 7.5h382v0z" />
    <glyph glyph-name="Ibreve" unicode="&#x12c;" horiz-adv-x="492" 
d="M304 1288q3 20 12.5 28t29.5 8h86q30 0 30 -28v-7t-2 -13l-196 -1240q-3 -20 -12.5 -28t-29.5 -8h-86q-30 0 -30 28v7t2 13zM277 1642q18 -50 53.5 -76t94.5 -26q60 0 104 27t74 77q6 11 12.5 17.5t17.5 6.5q7 0 22 -6l26 -10q24 -9 24 -26q0 -11 -6 -23t-12 -23
q-18 -32 -45 -60t-61 -49t-74.5 -33t-85.5 -12q-47 0 -85 13t-67 34.5t-49 50t-31 60.5q-3 8 -5.5 19t-2.5 17q0 11 4 17.5t18 12.5l26 10q15 6 24 6t14 -6t10 -18z" />
    <glyph glyph-name="ibreve" unicode="&#x12d;" horiz-adv-x="488" 
d="M238 924q3 20 12.5 28t29.5 8h80q30 0 30 -28v-7t-2 -13l-138 -876q-3 -20 -12.5 -28t-29.5 -8h-80q-30 0 -30 28v7t2 13zM215 1312q18 -50 53.5 -76t94.5 -26q60 0 104 27t74 77q6 11 12.5 17.5t17.5 6.5q7 0 22 -6l26 -10q24 -9 24 -26q0 -11 -6 -23t-12 -23
q-18 -32 -45 -60t-61 -49t-74.5 -33t-85.5 -12q-47 0 -85 13t-67 34.5t-49 50t-31 60.5q-3 8 -5.5 19t-2.5 17q0 11 4 17.5t18 12.5l26 10q15 6 24 6t14 -6t10 -18z" />
    <glyph glyph-name="Iogonek" unicode="&#x12e;" horiz-adv-x="492" 
d="M134 0q-34 0 -28 34l198 1254q3 20 12.5 28t29.5 8h86q36 0 30 -36l-198 -1256q-6 -32 -38 -32h-2q-28 -31 -52 -57.5t-42 -52t-28 -50t-10 -50.5q0 -38 21 -53t53 -15q17 0 35.5 3.5t36.5 12.5t29.5 6.5t20.5 -20.5l4 -8q16 -32 -12 -50q-32 -18 -69.5 -29t-78.5 -11
q-72 0 -113 33.5t-41 92.5q0 34 13.5 68t36 65.5t51 60.5t57.5 54h-2z" />
    <glyph glyph-name="iogonek" unicode="&#x12f;" horiz-adv-x="488" 
d="M124 0q-32 0 -26 32l140 892q3 20 12.5 28t29.5 8h80q36 0 30 -36l-142 -896q-3 -28 -32 -28h-2q-28 -31 -52 -57.5t-42 -52t-28 -50t-10 -50.5q0 -38 21 -53t53 -15q17 0 35.5 3.5t36.5 12.5t29.5 6.5t20.5 -20.5l4 -8q16 -32 -12 -50q-32 -18 -69.5 -29t-78.5 -11
q-72 0 -113 33.5t-41 92.5q0 34 13.5 68t36 65.5t51 60.5t57.5 54h-2zM482 1320q0 -26 -9.5 -48.5t-26 -39t-38 -25.5t-46.5 -9q-44 0 -69 26.5t-25 67.5q0 26 9.5 48.5t26 39t38 25.5t46.5 9q44 0 69 -26.5t25 -67.5z" />
    <glyph glyph-name="Idotaccent" unicode="&#x130;" horiz-adv-x="492" 
d="M304 1288q3 20 12.5 28t29.5 8h86q30 0 30 -28v-7t-2 -13l-196 -1240q-3 -20 -12.5 -28t-29.5 -8h-86q-30 0 -30 28v7t2 13zM526 1574q0 -47 -29.5 -78.5t-76.5 -31.5q-44 0 -66 26t-22 64q0 47 29.5 78.5t76.5 31.5q44 0 66 -26t22 -64z" />
    <glyph glyph-name="dotlessi" unicode="&#x131;" horiz-adv-x="488" 
d="M238 924q3 20 12.5 28t29.5 8h80q30 0 30 -28v-7t-2 -13l-138 -876q-3 -20 -12.5 -28t-29.5 -8h-80q-30 0 -30 28v7t2 13z" />
    <glyph glyph-name="IJ" unicode="&#x132;" horiz-adv-x="1202" 
d="M214 540q-36 0 -30 36l112 712q3 20 12.5 28t29.5 8h86q36 0 30 -36l-112 -712q-3 -20 -12.5 -28t-29.5 -8h-86zM1050 468q-38 -236 -172 -362t-356 -126q-65 0 -118 10.5t-94.5 27t-72 37.5t-51.5 43q-6 6 -10 12t-4 14q0 11 12 26l44 50q24 30 50 4q39 -36 100.5 -62
t139.5 -26q71 0 133.5 24t111.5 70.5t83 114.5t48 155l128 808q3 20 12.5 28t29.5 8h86q30 0 30 -26v-7.5t-2 -16.5z" />
    <glyph glyph-name="ij" unicode="&#x133;" horiz-adv-x="976" 
d="M482 1320q0 -26 -9.5 -48.5t-26 -39t-38 -25.5t-46.5 -9q-44 0 -69 26.5t-25 67.5q0 26 9.5 48.5t26 39t38 25.5t46.5 9q44 0 69 -26.5t25 -67.5zM128 0q-36 0 -30 36l140 888q3 20 12.5 28t29.5 8h80q36 0 30 -36l-140 -888q-3 -20 -12.5 -28t-29.5 -8h-80zM714 -114
q-13 -82 -38.5 -140t-63 -95t-86 -54t-106.5 -17q-79 0 -136 30q-30 18 -16 50l22 46q8 18 18 22t30 -4q14 -6 31 -10t35 -4q37 0 64.5 15t47 42.5t32 65.5t20.5 85l158 1006q3 20 12.5 28t29.5 8h80q36 0 30 -36zM970 1320q0 -26 -9.5 -48.5t-26 -39t-38 -25.5t-46.5 -9
q-44 0 -69 26.5t-25 67.5q0 26 9.5 48.5t26 39t38 25.5t46.5 9q44 0 69 -26.5t25 -67.5z" />
    <glyph glyph-name="Jcircumflex" unicode="&#x134;" horiz-adv-x="904" 
d="M728 1288q3 20 12.5 28t29.5 8h86q30 0 30 -28v-7t-2 -13l-132 -836q-36 -224 -148.5 -342t-307.5 -118q-52 0 -94.5 8t-77 21.5t-61 31t-45.5 37.5q-14 14 -14 26q0 14 12 26l40 48q13 16 28 16t32 -14q27 -24 73.5 -44t108.5 -20q119 0 194.5 81.5t101.5 244.5l134 846
v0zM646 1438q-13 -8 -22 -8q-16 0 -28 18l-10 16q-10 17 -10 28q0 16 18 28l250 166q8 5 15.5 7.5t16.5 2.5q16 0 30 -14l186 -166q8 -6 11 -13t3 -13q0 -14 -12 -26l-16 -18q-8 -8 -14 -12t-14 -4q-11 0 -26 12l-164 118z" />
    <glyph glyph-name="jcircumflex" unicode="&#x135;" horiz-adv-x="488" 
d="M238 924q3 20 12.5 28t29.5 8h80q30 0 30 -28v-7t-2 -13l-162 -1026q-13 -82 -38.5 -140t-63 -95t-86 -54t-106.5 -17q-39 0 -74 7.5t-64 24.5q-20 11 -20 28q0 8 6 20l22 48q6 12 10.5 17t13.5 5t24 -6t30.5 -10t35.5 -4q37 0 64.5 15t47 42.5t32 65.5t20.5 85z
M159 1108q-13 -8 -22 -8q-16 0 -28 18l-10 16q-10 17 -10 28q0 16 18 28l250 166q8 5 15.5 7.5t16.5 2.5q16 0 30 -14l186 -166q8 -6 11 -13t3 -13q0 -14 -12 -26l-16 -18q-8 -8 -14 -12t-14 -4q-11 0 -26 12l-164 118z" />
    <glyph glyph-name="Kcommaaccent" unicode="&#x136;" horiz-adv-x="1164" 
d="M304 1288q3 20 12.5 28t29.5 8h86q30 0 30 -28v-7t-2 -13l-96 -608q86 58 177.5 136t178.5 163.5t163.5 171t132.5 159.5q12 15 24 20.5t32 5.5h110q20 0 20 -16q0 -5 -2 -9.5t-8 -12.5q-58 -75 -116.5 -144.5t-121.5 -135.5t-131.5 -131t-146.5 -131q60 -72 117 -161
t105.5 -183t86 -186.5t59.5 -171.5q3 -11 3.5 -15t0.5 -7q0 -20 -28 -20h-98q-20 0 -30 8t-16 26q-23 75 -57 157t-76 163t-91 158t-102 142q-51 -39 -106.5 -76.5t-105.5 -69.5l-74 -472q-3 -20 -12.5 -28t-29.5 -8h-86q-30 0 -30 28v7t2 13zM632 -176q0 -32 -12.5 -65
t-32.5 -64.5t-45 -60t-50 -52.5q-5 -5 -13 -10.5t-17 -5.5t-18 6l-6 4q-12 9 -12 18q0 10 8 18q33 35 42.5 57t9.5 43q0 18 -5.5 30t-11.5 22.5t-11.5 22.5t-5.5 31q0 41 28 64.5t70 23.5q39 0 60.5 -20.5t21.5 -61.5z" />
    <glyph glyph-name="kcommaaccent" unicode="&#x137;" horiz-adv-x="940" 
d="M314 1400q3 20 12.5 28t29.5 8h80q30 0 30 -28v-7t-2 -13l-132 -832q55 39 109.5 85.5t105.5 96t96.5 99.5t80.5 95q12 15 25 21.5t33 6.5h102q11 0 15.5 -5t4.5 -11q0 -9 -14 -26q-75 -92 -161 -178.5t-189 -171.5q26 -30 56 -69t60.5 -83.5t59 -92t53 -95.5t43 -94.5
t28.5 -87.5q2 -6 3 -13.5t1 -12.5q0 -20 -28 -20h-84q-20 0 -30 8t-18 28q-26 67 -50 122.5t-52.5 108t-65 104.5t-88.5 111q-30 -23 -60 -43.5t-62 -40.5l-56 -362q-3 -20 -12.5 -28t-29.5 -8h-80q-30 0 -30 28v7t2 13zM532 -176q0 -32 -12.5 -65t-32.5 -64.5t-45 -60
t-50 -52.5q-5 -5 -13 -10.5t-17 -5.5t-18 6l-6 4q-12 9 -12 18q0 10 8 18q33 35 42.5 57t9.5 43q0 18 -5.5 30t-11.5 22.5t-11.5 22.5t-5.5 31q0 41 28 64.5t70 23.5q39 0 60.5 -20.5t21.5 -61.5z" />
    <glyph glyph-name="Lacute" unicode="&#x139;" horiz-adv-x="936" 
d="M136 0q-30 0 -30 28v7t2 13l196 1240q3 20 12.5 28t29.5 8h86q30 0 30 -28v-7t-2 -13l-182 -1144h548q30 0 30 -26v-6.5t-2 -15.5l-8 -48q-3 -20 -12.5 -28t-29.5 -8h-668zM599 1664q10 -13 10 -24q0 -15 -16 -26l-268 -184q-11 -8 -22 -8q-9 0 -16.5 5t-13.5 13l-12 16
q-10 13 -10 24q0 15 16 28l248 202q15 12 28 12q15 0 26 -16z" />
    <glyph glyph-name="lacute" unicode="&#x13a;" horiz-adv-x="488" 
d="M314 1400q3 20 12.5 28t29.5 8h80q30 0 30 -28v-7t-2 -13l-214 -1352q-3 -20 -12.5 -28t-29.5 -8h-80q-30 0 -30 28v7t2 13zM612 1732q10 -13 10 -24q0 -15 -16 -26l-268 -184q-11 -8 -22 -8q-9 0 -16.5 5t-13.5 13l-12 16q-10 13 -10 24q0 15 16 28l248 202q15 12 28 12
q15 0 26 -16z" />
    <glyph glyph-name="Lcommaaccent" unicode="&#x13b;" horiz-adv-x="936" 
d="M136 0q-30 0 -30 28v7t2 13l196 1240q3 20 12.5 28t29.5 8h86q30 0 30 -28v-7t-2 -13l-182 -1144h548q30 0 30 -26v-6.5t-2 -15.5l-8 -48q-3 -20 -12.5 -28t-29.5 -8h-668zM534 -176q0 -32 -12.5 -65t-32.5 -64.5t-45 -60t-50 -52.5q-5 -5 -13 -10.5t-17 -5.5t-18 6l-6 4
q-12 9 -12 18q0 10 8 18q33 35 42.5 57t9.5 43q0 18 -5.5 30t-11.5 22.5t-11.5 22.5t-5.5 31q0 41 28 64.5t70 23.5q39 0 60.5 -20.5t21.5 -61.5z" />
    <glyph glyph-name="lcommaaccent" unicode="&#x13c;" horiz-adv-x="488" 
d="M314 1400q3 20 12.5 28t29.5 8h80q30 0 30 -28v-7t-2 -13l-214 -1352q-3 -20 -12.5 -28t-29.5 -8h-80q-30 0 -30 28v7t2 13zM232 -176q0 -32 -12.5 -65t-32.5 -64.5t-45 -60t-50 -52.5q-5 -5 -13 -10.5t-17 -5.5t-18 6l-6 4q-12 9 -12 18q0 10 8 18q33 35 42.5 57t9.5 43
q0 18 -5.5 30t-11.5 22.5t-11.5 22.5t-5.5 31q0 41 28 64.5t70 23.5q39 0 60.5 -20.5t21.5 -61.5z" />
    <glyph glyph-name="Lcaron" unicode="&#x13d;" horiz-adv-x="936" 
d="M136 0q-30 0 -30 28v7t2 13l196 1240q3 20 12.5 28t29.5 8h86q30 0 30 -28v-7t-2 -13l-182 -1144h548q30 0 30 -26v-6.5t-2 -15.5l-8 -48q-3 -20 -12.5 -28t-29.5 -8h-668zM602 977q-5 0 -12.5 1.5t-14 5t-11 9.5t-4.5 14q0 3 1 10t3 12l70 274q6 28 28 28q5 0 12 -1
t12 -3l62 -20q24 -9 24 -26q0 -10 -8 -26l-132 -256q-11 -22 -30 -22z" />
    <glyph glyph-name="lcaron" unicode="&#x13e;" horiz-adv-x="488" 
d="M314 1400q3 20 12.5 28t29.5 8h80q30 0 30 -28v-7t-2 -13l-214 -1352q-3 -20 -12.5 -28t-29.5 -8h-80q-30 0 -30 28v7t2 13zM588 1090q-5 0 -12.5 1.5t-14 5t-11 9.5t-4.5 14q0 3 1 10t3 12l70 274q6 28 28 28q5 0 12 -1t12 -3l62 -20q24 -9 24 -26q0 -10 -8 -26
l-132 -256q-11 -22 -30 -22z" />
    <glyph glyph-name="Ldot" unicode="&#x13f;" horiz-adv-x="936" 
d="M136 0q-30 0 -30 28v7t2 13l196 1240q3 20 12.5 28t29.5 8h86q30 0 30 -28v-7t-2 -13l-182 -1144h548q30 0 30 -26v-6.5t-2 -15.5l-8 -48q-3 -20 -12.5 -28t-29.5 -8h-668zM842 690q0 -28 -9.5 -52t-26 -42t-39.5 -28t-51 -10q-50 0 -76 29.5t-26 74.5q0 28 9.5 52t26 42
t39.5 28t51 10q50 0 76 -29.5t26 -74.5z" />
    <glyph glyph-name="ldot" unicode="&#x140;" horiz-adv-x="734" 
d="M314 1400q3 20 12.5 28t29.5 8h80q30 0 30 -28v-7t-2 -13l-214 -1352q-3 -20 -12.5 -28t-29.5 -8h-80q-30 0 -30 28v7t2 13zM728 588q0 -28 -9.5 -52t-26 -42t-39.5 -28t-51 -10q-50 0 -76 29.5t-26 74.5q0 28 9.5 52t26 42t39.5 28t51 10q50 0 76 -29.5t26 -74.5z" />
    <glyph glyph-name="Lslash" unicode="&#x141;" horiz-adv-x="946" 
d="M146 0q-30 0 -30 28v7t2 13l78 492l-124 -64q-16 -8 -22 -8q-16 0 -16 18v4.5t2 13.5l10 60q3 20 11.5 31.5t26.5 20.5l134 68l96 604q3 20 12.5 28t29.5 8h86q30 0 30 -28v-7t-2 -13l-80 -504l300 154q16 8 22 8q16 0 16 -18v-4.5t-2 -13.5l-10 -60q-3 -20 -11.5 -31.5
t-26.5 -20.5l-312 -160l-78 -494h548q30 0 30 -26v-6.5t-2 -15.5l-8 -48q-3 -20 -12.5 -28t-29.5 -8h-668z" />
    <glyph glyph-name="lslash" unicode="&#x142;" horiz-adv-x="504" 
d="M514 924q16 8 22 8q16 0 16 -18v-4.5t-2 -13.5l-10 -62q-3 -20 -11.5 -31.5t-26.5 -20.5l-138 -70l-106 -676q-3 -20 -12.5 -28t-29.5 -8h-80q-36 0 -30 36l94 592l-128 -66q-16 -8 -22 -8q-16 0 -16 18v4.5t2 13.5l10 62q3 20 11.5 31.5t26.5 20.5l138 70l100 626
q3 20 12.5 28t29.5 8h80q36 0 30 -36l-86 -542z" />
    <glyph glyph-name="Nacute" unicode="&#x143;" horiz-adv-x="1342" 
d="M1282 1324q30 0 30 -28v-7t-2 -13l-196 -1240q-3 -20 -12.5 -28t-29.5 -8h-106q-20 0 -31 7t-19 25l-490 1102l-174 -1098q-3 -20 -12.5 -28t-29.5 -8h-74q-30 0 -30 28v7t2 13l196 1240q3 20 12.5 28t29.5 8h106q20 0 31 -7t19 -25l490 -1102l174 1098q3 20 12.5 28
t29.5 8h74zM1012 1664q10 -13 10 -24q0 -15 -16 -26l-268 -184q-11 -8 -22 -8q-9 0 -16.5 5t-13.5 13l-12 16q-10 13 -10 24q0 15 16 28l248 202q15 12 28 12q15 0 26 -16z" />
    <glyph glyph-name="nacute" unicode="&#x144;" horiz-adv-x="1068" 
d="M128 0q-36 0 -30 36l140 888q3 20 12.5 28t29.5 8h72q36 0 30 -36l-20 -128q24 39 57 72.5t74 58.5t90.5 39t106.5 14q68 0 119 -20t84.5 -57t50 -89t16.5 -116q0 -27 -2.5 -65t-7.5 -65l-84 -532q-3 -20 -12.5 -28t-29.5 -8h-80q-36 0 -30 36l84 532q6 41 8 66t2 42
q0 37 -8 69.5t-26.5 57t-49 39t-76.5 14.5q-64 0 -118.5 -28t-96.5 -76.5t-70.5 -115t-40.5 -142.5l-72 -458q-3 -20 -12.5 -28t-29.5 -8h-80zM856 1334q10 -13 10 -24q0 -15 -16 -26l-268 -184q-11 -8 -22 -8q-9 0 -16.5 5t-13.5 13l-12 16q-10 13 -10 24q0 15 16 28
l248 202q15 12 28 12q15 0 26 -16z" />
    <glyph glyph-name="Ncommaaccent" unicode="&#x145;" horiz-adv-x="1342" 
d="M1282 1324q30 0 30 -28v-7t-2 -13l-196 -1240q-3 -20 -12.5 -28t-29.5 -8h-106q-20 0 -31 7t-19 25l-490 1102l-174 -1098q-3 -20 -12.5 -28t-29.5 -8h-74q-30 0 -30 28v7t2 13l196 1240q3 20 12.5 28t29.5 8h106q20 0 31 -7t19 -25l490 -1102l174 1098q3 20 12.5 28
t29.5 8h74zM656 -176q0 -32 -12.5 -65t-32.5 -64.5t-45 -60t-50 -52.5q-5 -5 -13 -10.5t-17 -5.5t-18 6l-6 4q-12 9 -12 18q0 10 8 18q33 35 42.5 57t9.5 43q0 18 -5.5 30t-11.5 22.5t-11.5 22.5t-5.5 31q0 41 28 64.5t70 23.5q39 0 60.5 -20.5t21.5 -61.5z" />
    <glyph glyph-name="ncommaaccent" unicode="&#x146;" horiz-adv-x="1068" 
d="M128 0q-36 0 -30 36l140 888q3 20 12.5 28t29.5 8h72q36 0 30 -36l-20 -128q24 39 57 72.5t74 58.5t90.5 39t106.5 14q68 0 119 -20t84.5 -57t50 -89t16.5 -116q0 -27 -2.5 -65t-7.5 -65l-84 -532q-3 -20 -12.5 -28t-29.5 -8h-80q-36 0 -30 36l84 532q6 41 8 66t2 42
q0 37 -8 69.5t-26.5 57t-49 39t-76.5 14.5q-64 0 -118.5 -28t-96.5 -76.5t-70.5 -115t-40.5 -142.5l-72 -458q-3 -20 -12.5 -28t-29.5 -8h-80zM540 -176q0 -32 -12.5 -65t-32.5 -64.5t-45 -60t-50 -52.5q-5 -5 -13 -10.5t-17 -5.5t-18 6l-6 4q-12 9 -12 18q0 10 8 18
q33 35 42.5 57t9.5 43q0 18 -5.5 30t-11.5 22.5t-11.5 22.5t-5.5 31q0 41 28 64.5t70 23.5q39 0 60.5 -20.5t21.5 -61.5z" />
    <glyph glyph-name="Ncaron" unicode="&#x147;" horiz-adv-x="1342" 
d="M1282 1324q30 0 30 -28v-7t-2 -13l-196 -1240q-3 -20 -12.5 -28t-29.5 -8h-106q-20 0 -31 7t-19 25l-490 1102l-174 -1098q-3 -20 -12.5 -28t-29.5 -8h-74q-30 0 -30 28v7t2 13l196 1240q3 20 12.5 28t29.5 8h106q20 0 31 -7t19 -25l490 -1102l174 1098q3 20 12.5 28
t29.5 8h74zM1050 1678q13 8 22 8q16 0 28 -18l10 -16q10 -17 10 -28q0 -16 -18 -28l-250 -166q-8 -5 -15.5 -7.5t-16.5 -2.5q-16 0 -30 14l-186 166q-8 6 -11 13t-3 13q0 14 12 26l16 18q8 8 14 12t14 4q11 0 26 -12l164 -118z" />
    <glyph glyph-name="ncaron" unicode="&#x148;" horiz-adv-x="1068" 
d="M128 0q-36 0 -30 36l140 888q3 20 12.5 28t29.5 8h72q36 0 30 -36l-20 -128q24 39 57 72.5t74 58.5t90.5 39t106.5 14q68 0 119 -20t84.5 -57t50 -89t16.5 -116q0 -27 -2.5 -65t-7.5 -65l-84 -532q-3 -20 -12.5 -28t-29.5 -8h-80q-36 0 -30 36l84 532q6 41 8 66t2 42
q0 37 -8 69.5t-26.5 57t-49 39t-76.5 14.5q-64 0 -118.5 -28t-96.5 -76.5t-70.5 -115t-40.5 -142.5l-72 -458q-3 -20 -12.5 -28t-29.5 -8h-80zM896 1360q13 8 22 8q16 0 28 -18l10 -16q10 -17 10 -28q0 -16 -18 -28l-250 -166q-8 -5 -15.5 -7.5t-16.5 -2.5q-16 0 -30 14
l-186 166q-8 6 -11 13t-3 13q0 14 12 26l16 18q8 8 14 12t14 4q11 0 26 -12l164 -118z" />
    <glyph glyph-name="napostrophe" unicode="&#x149;" horiz-adv-x="1312" 
d="M372 0q-36 0 -30 36l140 888q3 20 12.5 28t29.5 8h72q36 0 30 -36l-20 -128q24 39 57 72.5t74 58.5t90.5 39t106.5 14q68 0 119 -20t84.5 -57t50 -89t16.5 -116q0 -27 -2.5 -65t-7.5 -65l-84 -532q-3 -20 -12.5 -28t-29.5 -8h-80q-36 0 -30 36l84 532q6 41 8 66t2 42
q0 37 -8 69.5t-26.5 57t-49 39t-76.5 14.5q-64 0 -118.5 -28t-96.5 -76.5t-70.5 -115t-40.5 -142.5l-72 -458q-3 -20 -12.5 -28t-29.5 -8h-80zM428 1346q0 -32 -12 -74.5t-34.5 -89.5t-55 -95t-74.5 -91q-14 -14 -28 -14q-11 0 -22 8l-6 4q-16 13 -16 24t10 24
q39 51 52.5 82.5t13.5 57.5q0 22 -6.5 39.5t-14.5 34t-14.5 33.5t-6.5 39q0 23 8.5 44.5t24 38t37.5 26t48 9.5q42 0 69 -26t27 -74z" />
    <glyph glyph-name="Omacron" unicode="&#x14c;" horiz-adv-x="1376" 
d="M268 538q0 -96 22.5 -174.5t67.5 -134.5t112 -86.5t156 -30.5q84 0 157 27t132.5 74.5t106 112.5t78 139.5t48 156.5t16.5 164q0 96 -22.5 174.5t-67.5 134.5t-112 86.5t-156 30.5q-85 0 -157.5 -27t-132 -74.5t-106 -112.5t-78 -139.5t-48 -156.5t-16.5 -164zM1328 780
q0 -106 -21.5 -206.5t-63.5 -189.5t-103 -163t-140 -127.5t-174.5 -83.5t-205.5 -30q-122 0 -218 37.5t-162 109.5t-101 177t-35 240q0 106 21.5 206.5t63.5 189.5t103 163t140 127.5t174 83.5t206 30q122 0 218 -37.5t162 -109.5t101 -177t35 -240zM1058 1592
q17 0 24.5 -6.5t7.5 -23.5v-6.5t-2 -17.5l-2 -18q-3 -21 -12.5 -28.5t-29.5 -7.5h-382q-17 0 -24.5 6.5t-7.5 23.5v6.5t2 17.5l2 18q3 21 12.5 28.5t29.5 7.5h382v0z" />
    <glyph glyph-name="omacron" unicode="&#x14d;" horiz-adv-x="1006" 
d="M222 382q0 -64 12.5 -115.5t39.5 -88t68 -56.5t98 -20t104.5 19.5t86 53.5t67 79.5t48 98.5t29 110.5t9.5 114.5q0 64 -12.5 115.5t-39.5 88t-68 56.5t-98 20q-86 0 -150 -42.5t-107.5 -110t-65 -153t-21.5 -170.5zM938 574q0 -69 -13 -140t-40 -137t-68 -123.5
t-97 -100.5t-127 -68t-157 -25q-97 0 -166.5 31t-114.5 85.5t-66 129t-21 160.5q0 69 13 140t40 137t68 123.5t97 100.5t126.5 68t157.5 25q97 0 166.5 -31t114.5 -85.5t66 -129t21 -160.5zM820 1262q17 0 24.5 -6.5t7.5 -23.5v-6.5t-2 -17.5l-2 -18q-3 -21 -12.5 -28.5
t-29.5 -7.5h-382q-17 0 -24.5 6.5t-7.5 23.5v6.5t2 17.5l2 18q3 21 12.5 28.5t29.5 7.5h382v0z" />
    <glyph glyph-name="Obreve" unicode="&#x14e;" horiz-adv-x="1376" 
d="M268 538q0 -96 22.5 -174.5t67.5 -134.5t112 -86.5t156 -30.5q84 0 157 27t132.5 74.5t106 112.5t78 139.5t48 156.5t16.5 164q0 96 -22.5 174.5t-67.5 134.5t-112 86.5t-156 30.5q-85 0 -157.5 -27t-132 -74.5t-106 -112.5t-78 -139.5t-48 -156.5t-16.5 -164zM1328 780
q0 -106 -21.5 -206.5t-63.5 -189.5t-103 -163t-140 -127.5t-174.5 -83.5t-205.5 -30q-122 0 -218 37.5t-162 109.5t-101 177t-35 240q0 106 21.5 206.5t63.5 189.5t103 163t140 127.5t174 83.5t206 30q122 0 218 -37.5t162 -109.5t101 -177t35 -240zM712 1642
q18 -50 53.5 -76t94.5 -26q60 0 104 27t74 77q6 11 12.5 17.5t17.5 6.5q7 0 22 -6l26 -10q24 -9 24 -26q0 -11 -6 -23t-12 -23q-18 -32 -45 -60t-61 -49t-74.5 -33t-85.5 -12q-47 0 -85 13t-67 34.5t-49 50t-31 60.5q-3 8 -5.5 19t-2.5 17q0 11 4 17.5t18 12.5l26 10
q15 6 24 6t14 -6t10 -18z" />
    <glyph glyph-name="obreve" unicode="&#x14f;" horiz-adv-x="1006" 
d="M222 382q0 -64 12.5 -115.5t39.5 -88t68 -56.5t98 -20t104.5 19.5t86 53.5t67 79.5t48 98.5t29 110.5t9.5 114.5q0 64 -12.5 115.5t-39.5 88t-68 56.5t-98 20q-86 0 -150 -42.5t-107.5 -110t-65 -153t-21.5 -170.5zM938 574q0 -69 -13 -140t-40 -137t-68 -123.5
t-97 -100.5t-127 -68t-157 -25q-97 0 -166.5 31t-114.5 85.5t-66 129t-21 160.5q0 69 13 140t40 137t68 123.5t97 100.5t126.5 68t157.5 25q97 0 166.5 -31t114.5 -85.5t66 -129t21 -160.5zM472 1312q18 -50 53.5 -76t94.5 -26q60 0 104 27t74 77q6 11 12.5 17.5t17.5 6.5
q7 0 22 -6l26 -10q24 -9 24 -26q0 -11 -6 -23t-12 -23q-18 -32 -45 -60t-61 -49t-74.5 -33t-85.5 -12q-47 0 -85 13t-67 34.5t-49 50t-31 60.5q-3 8 -5.5 19t-2.5 17q0 11 4 17.5t18 12.5l26 10q15 6 24 6t14 -6t10 -18z" />
    <glyph glyph-name="Ohungarumlaut" unicode="&#x150;" horiz-adv-x="1376" 
d="M268 538q0 -96 22.5 -174.5t67.5 -134.5t112 -86.5t156 -30.5q84 0 157 27t132.5 74.5t106 112.5t78 139.5t48 156.5t16.5 164q0 96 -22.5 174.5t-67.5 134.5t-112 86.5t-156 30.5q-85 0 -157.5 -27t-132 -74.5t-106 -112.5t-78 -139.5t-48 -156.5t-16.5 -164zM1328 780
q0 -106 -21.5 -206.5t-63.5 -189.5t-103 -163t-140 -127.5t-174.5 -83.5t-205.5 -30q-122 0 -218 37.5t-162 109.5t-101 177t-35 240q0 106 21.5 206.5t63.5 189.5t103 163t140 127.5t174 83.5t206 30q122 0 218 -37.5t162 -109.5t101 -177t35 -240zM684 1422
q-13 -10 -26 -10q-14 0 -26 12l-18 18q-12 12 -12 26q0 12 12 24l210 218q14 14 28 14q6 0 13.5 -4t12.5 -10l34 -38q12 -15 12 -26q0 -13 -16 -26zM998 1422q-13 -10 -26 -10q-14 0 -26 12l-18 18q-12 12 -12 26q0 12 12 24l210 218q14 14 28 14q6 0 13.5 -4t12.5 -10
l34 -38q12 -15 12 -26q0 -13 -16 -26z" />
    <glyph glyph-name="ohungarumlaut" unicode="&#x151;" horiz-adv-x="1006" 
d="M222 382q0 -64 12.5 -115.5t39.5 -88t68 -56.5t98 -20t104.5 19.5t86 53.5t67 79.5t48 98.5t29 110.5t9.5 114.5q0 64 -12.5 115.5t-39.5 88t-68 56.5t-98 20q-86 0 -150 -42.5t-107.5 -110t-65 -153t-21.5 -170.5zM938 574q0 -69 -13 -140t-40 -137t-68 -123.5
t-97 -100.5t-127 -68t-157 -25q-97 0 -166.5 31t-114.5 85.5t-66 129t-21 160.5q0 69 13 140t40 137t68 123.5t97 100.5t126.5 68t157.5 25q97 0 166.5 -31t114.5 -85.5t66 -129t21 -160.5zM444 1092q-13 -10 -26 -10q-14 0 -26 12l-18 18q-12 12 -12 26q0 12 12 24l210 218
q14 14 28 14q6 0 13.5 -4t12.5 -10l34 -38q12 -15 12 -26q0 -13 -16 -26zM758 1092q-13 -10 -26 -10q-14 0 -26 12l-18 18q-12 12 -12 26q0 12 12 24l210 218q14 14 28 14q6 0 13.5 -4t12.5 -10l34 -38q12 -15 12 -26q0 -13 -16 -26z" />
    <glyph glyph-name="OE" unicode="&#x152;" horiz-adv-x="1798" 
d="M1804 1324q36 0 30 -36l-10 -60q-3 -20 -12.5 -28t-29.5 -8h-556l-68 -438h492q36 0 30 -36l-10 -60q-3 -20 -12.5 -28t-29.5 -8h-492l-76 -490h556q36 0 30 -36l-10 -60q-3 -20 -12.5 -28t-29.5 -8h-948q-145 0 -247.5 42.5t-168 114.5t-96 166.5t-30.5 198.5
q0 102 18.5 201.5t57.5 188.5t99 164.5t143.5 130.5t191.5 86t242 31h948zM842 1192q-146 0 -253.5 -54t-179 -145.5t-106.5 -211.5t-35 -253q0 -89 23 -162t72 -125t126 -80.5t185 -28.5h226l168 1060h-226z" />
    <glyph glyph-name="oe" unicode="&#x153;" horiz-adv-x="1614" 
d="M1460 70q-69 -45 -148.5 -67.5t-159.5 -22.5q-68 0 -122.5 15t-96 43t-71 67.5t-48.5 88.5q-29 -47 -67.5 -86.5t-86 -68t-104.5 -44t-124 -15.5q-95 0 -163.5 31t-113 85.5t-66 129t-21.5 160.5q0 70 13.5 141t40.5 137t68 123.5t96 100.5t124.5 67.5t153.5 24.5
q66 0 118.5 -15.5t92.5 -44t68 -68t45 -88.5q30 47 68.5 87t85.5 68.5t102.5 44.5t119.5 16q69 0 125 -19t96 -54.5t61.5 -85.5t21.5 -111q0 -23 -4 -49t-14.5 -53t-30.5 -54t-51 -50q-71 -51 -188.5 -75.5t-289.5 -24.5h-70v-6q0 -68 12.5 -122.5t40.5 -92t73.5 -57.5
t111.5 -20q63 0 126 17.5t114 52.5q15 11 26 9t22 -19l26 -44q9 -17 7 -29t-19 -23zM222 382q0 -64 12.5 -115.5t39.5 -88t68 -56.5t98 -20t104.5 19.5t86 53.5t67 79.5t48 98.5t29 110.5t9.5 114.5q0 64 -12.5 115.5t-39.5 88t-68 56.5t-98 20q-86 0 -150 -42.5
t-107.5 -110t-65 -153t-21.5 -170.5zM1428 708q0 77 -47.5 115.5t-124.5 38.5q-65 0 -118.5 -27t-95.5 -73.5t-70.5 -110.5t-41.5 -137h70q128 0 211 14.5t131 40.5t67 61.5t19 77.5z" />
    <glyph glyph-name="Racute" unicode="&#x154;" horiz-adv-x="1128" 
d="M136 0q-36 0 -30 36l198 1252q3 20 12.5 28t29.5 8h364q112 0 187 -28.5t120.5 -75t65 -106.5t19.5 -124q0 -83 -25.5 -155.5t-74.5 -129t-121 -93.5t-165 -50q59 -54 105.5 -119t82 -134t60.5 -139t42 -134q9 -36 -28 -36h-94q-20 0 -29.5 8t-14.5 26q-15 55 -39 120
t-59 132.5t-82 133.5t-108 124h-208l-80 -508q-3 -20 -12.5 -28t-29.5 -8h-86zM366 676h234q92 0 156.5 25t105 67.5t58.5 99.5t18 122q0 43 -12.5 80t-42.5 64t-78.5 42.5t-120.5 15.5h-238zM892 1664q10 -13 10 -24q0 -15 -16 -26l-268 -184q-11 -8 -22 -8q-9 0 -16.5 5
t-13.5 13l-12 16q-10 13 -10 24q0 15 16 28l248 202q15 12 28 12q15 0 26 -16z" />
    <glyph glyph-name="racute" unicode="&#x155;" horiz-adv-x="704" 
d="M250 36q-3 -20 -12.5 -28t-29.5 -8h-80q-30 0 -30 28v7t2 13l138 876q3 20 12.5 28t29.5 8h68q30 0 30 -28v-7t-2 -13l-20 -130q20 41 49 77t65.5 63t79.5 42.5t92 15.5q20 0 44 -3t42 -11q11 -5 17.5 -11t6.5 -15q0 -5 -1 -9t-3 -9l-32 -78q-5 -12 -11.5 -17t-14.5 -5
q-5 0 -12.5 1.5t-19.5 6.5q-5 2 -20 5t-36 3q-59 0 -106.5 -28.5t-82.5 -77.5t-58.5 -113.5t-34.5 -136.5zM714 1334q10 -13 10 -24q0 -15 -16 -26l-268 -184q-11 -8 -22 -8q-9 0 -16.5 5t-13.5 13l-12 16q-10 13 -10 24q0 15 16 28l248 202q15 12 28 12q15 0 26 -16z" />
    <glyph glyph-name="Rcommaaccent" unicode="&#x156;" horiz-adv-x="1128" 
d="M136 0q-36 0 -30 36l198 1252q3 20 12.5 28t29.5 8h364q112 0 187 -28.5t120.5 -75t65 -106.5t19.5 -124q0 -83 -25.5 -155.5t-74.5 -129t-121 -93.5t-165 -50q59 -54 105.5 -119t82 -134t60.5 -139t42 -134q9 -36 -28 -36h-94q-20 0 -29.5 8t-14.5 26q-15 55 -39 120
t-59 132.5t-82 133.5t-108 124h-208l-80 -508q-3 -20 -12.5 -28t-29.5 -8h-86zM366 676h234q92 0 156.5 25t105 67.5t58.5 99.5t18 122q0 43 -12.5 80t-42.5 64t-78.5 42.5t-120.5 15.5h-238zM636 -176q0 -32 -12.5 -65t-32.5 -64.5t-45 -60t-50 -52.5q-5 -5 -13 -10.5
t-17 -5.5t-18 6l-6 4q-12 9 -12 18q0 10 8 18q33 35 42.5 57t9.5 43q0 18 -5.5 30t-11.5 22.5t-11.5 22.5t-5.5 31q0 41 28 64.5t70 23.5q39 0 60.5 -20.5t21.5 -61.5z" />
    <glyph glyph-name="rcommaaccent" unicode="&#x157;" horiz-adv-x="704" 
d="M250 36q-3 -20 -12.5 -28t-29.5 -8h-80q-30 0 -30 28v7t2 13l138 876q3 20 12.5 28t29.5 8h68q30 0 30 -28v-7t-2 -13l-20 -130q20 41 49 77t65.5 63t79.5 42.5t92 15.5q20 0 44 -3t42 -11q11 -5 17.5 -11t6.5 -15q0 -5 -1 -9t-3 -9l-32 -78q-5 -12 -11.5 -17t-14.5 -5
q-5 0 -12.5 1.5t-19.5 6.5q-5 2 -20 5t-36 3q-59 0 -106.5 -28.5t-82.5 -77.5t-58.5 -113.5t-34.5 -136.5zM232 -176q0 -32 -12.5 -65t-32.5 -64.5t-45 -60t-50 -52.5q-5 -5 -13 -10.5t-17 -5.5t-18 6l-6 4q-12 9 -12 18q0 10 8 18q33 35 42.5 57t9.5 43q0 18 -5.5 30
t-11.5 22.5t-11.5 22.5t-5.5 31q0 41 28 64.5t70 23.5q39 0 60.5 -20.5t21.5 -61.5z" />
    <glyph glyph-name="Rcaron" unicode="&#x158;" horiz-adv-x="1128" 
d="M136 0q-36 0 -30 36l198 1252q3 20 12.5 28t29.5 8h364q112 0 187 -28.5t120.5 -75t65 -106.5t19.5 -124q0 -83 -25.5 -155.5t-74.5 -129t-121 -93.5t-165 -50q59 -54 105.5 -119t82 -134t60.5 -139t42 -134q9 -36 -28 -36h-94q-20 0 -29.5 8t-14.5 26q-15 55 -39 120
t-59 132.5t-82 133.5t-108 124h-208l-80 -508q-3 -20 -12.5 -28t-29.5 -8h-86zM366 676h234q92 0 156.5 25t105 67.5t58.5 99.5t18 122q0 43 -12.5 80t-42.5 64t-78.5 42.5t-120.5 15.5h-238zM930 1678q13 8 22 8q16 0 28 -18l10 -16q10 -17 10 -28q0 -16 -18 -28l-250 -166
q-8 -5 -15.5 -7.5t-16.5 -2.5q-16 0 -30 14l-186 166q-8 6 -11 13t-3 13q0 14 12 26l16 18q8 8 14 12t14 4q11 0 26 -12l164 -118z" />
    <glyph glyph-name="rcaron" unicode="&#x159;" horiz-adv-x="704" 
d="M250 36q-3 -20 -12.5 -28t-29.5 -8h-80q-30 0 -30 28v7t2 13l138 876q3 20 12.5 28t29.5 8h68q30 0 30 -28v-7t-2 -13l-20 -130q20 41 49 77t65.5 63t79.5 42.5t92 15.5q20 0 44 -3t42 -11q11 -5 17.5 -11t6.5 -15q0 -5 -1 -9t-3 -9l-32 -78q-5 -12 -11.5 -17t-14.5 -5
q-5 0 -12.5 1.5t-19.5 6.5q-5 2 -20 5t-36 3q-59 0 -106.5 -28.5t-82.5 -77.5t-58.5 -113.5t-34.5 -136.5zM754 1360q13 8 22 8q16 0 28 -18l10 -16q10 -17 10 -28q0 -16 -18 -28l-250 -166q-8 -5 -15.5 -7.5t-16.5 -2.5q-16 0 -30 14l-186 166q-8 6 -11 13t-3 13
q0 14 12 26l16 18q8 8 14 12t14 4q11 0 26 -12l164 -118z" />
    <glyph glyph-name="Sacute" unicode="&#x15a;" horiz-adv-x="1050" 
d="M936 390q0 -90 -33 -165.5t-95 -129.5t-150.5 -84.5t-199.5 -30.5q-67 0 -126.5 11t-110.5 29t-92 42t-69 50q-26 26 -2 50l56 60q14 15 25.5 15.5t26.5 -13.5q53 -48 122.5 -77t161.5 -29q73 0 133 19t102.5 53t65.5 81t23 103q0 47 -16.5 79.5t-48.5 56.5t-78.5 43.5
t-106.5 40.5t-120.5 46t-108.5 63.5t-78.5 95.5t-30.5 143q0 91 36 165t100.5 126.5t153 81.5t194.5 29q58 0 111 -8.5t98.5 -22.5t83 -33t63.5 -40q29 -25 4 -50l-52 -62q-14 -15 -25.5 -15.5t-26.5 11.5q-45 36 -109.5 59t-150.5 23q-80 0 -140 -21t-99.5 -55.5t-59 -80.5
t-19.5 -95q0 -51 19.5 -85.5t53 -59.5t79 -43.5t98.5 -37.5q73 -26 135 -52t107 -63t70.5 -90t25.5 -133zM880 1664q10 -13 10 -24q0 -15 -16 -26l-268 -184q-11 -8 -22 -8q-9 0 -16.5 5t-13.5 13l-12 16q-10 13 -10 24q0 15 16 28l248 202q15 12 28 12q15 0 26 -16z" />
    <glyph glyph-name="sacute" unicode="&#x15b;" horiz-adv-x="864" 
d="M752 282q0 -74 -28.5 -130t-81 -94.5t-128.5 -58t-170 -19.5q-100 0 -173.5 22.5t-118.5 55.5q-30 21 -8 50l38 50q14 15 24.5 17.5t27.5 -9.5q41 -26 99 -44t129 -18q38 0 80.5 7t78.5 24.5t59.5 47.5t23.5 77q0 38 -16.5 64t-45 44.5t-66 31.5t-80.5 26
q-68 20 -118.5 43.5t-83.5 54t-49.5 70.5t-16.5 94q0 73 28 127.5t78.5 91t121 55t156.5 18.5q97 0 163 -19t105 -43q31 -18 10 -48l-34 -50q-12 -17 -23 -20t-29 6q-38 20 -90.5 35t-117.5 15q-32 0 -69.5 -5.5t-70 -22t-54.5 -47t-22 -79.5q0 -39 14.5 -63t42 -40.5
t66.5 -30t89 -30.5q61 -22 109.5 -44.5t82 -51.5t51 -67.5t17.5 -92.5zM728 1334q10 -13 10 -24q0 -15 -16 -26l-268 -184q-11 -8 -22 -8q-9 0 -16.5 5t-13.5 13l-12 16q-10 13 -10 24q0 15 16 28l248 202q15 12 28 12q15 0 26 -16z" />
    <glyph glyph-name="Scircumflex" unicode="&#x15c;" horiz-adv-x="1050" 
d="M936 390q0 -90 -33 -165.5t-95 -129.5t-150.5 -84.5t-199.5 -30.5q-67 0 -126.5 11t-110.5 29t-92 42t-69 50q-26 26 -2 50l56 60q14 15 25.5 15.5t26.5 -13.5q53 -48 122.5 -77t161.5 -29q73 0 133 19t102.5 53t65.5 81t23 103q0 47 -16.5 79.5t-48.5 56.5t-78.5 43.5
t-106.5 40.5t-120.5 46t-108.5 63.5t-78.5 95.5t-30.5 143q0 91 36 165t100.5 126.5t153 81.5t194.5 29q58 0 111 -8.5t98.5 -22.5t83 -33t63.5 -40q29 -25 4 -50l-52 -62q-14 -15 -25.5 -15.5t-26.5 11.5q-45 36 -109.5 59t-150.5 23q-80 0 -140 -21t-99.5 -55.5t-59 -80.5
t-19.5 -95q0 -51 19.5 -85.5t53 -59.5t79 -43.5t98.5 -37.5q73 -26 135 -52t107 -63t70.5 -90t25.5 -133zM502 1438q-13 -8 -22 -8q-16 0 -28 18l-10 16q-10 17 -10 28q0 16 18 28l250 166q8 5 15.5 7.5t16.5 2.5q16 0 30 -14l186 -166q8 -6 11 -13t3 -13q0 -14 -12 -26
l-16 -18q-8 -8 -14 -12t-14 -4q-11 0 -26 12l-164 118z" />
    <glyph glyph-name="scircumflex" unicode="&#x15d;" horiz-adv-x="864" 
d="M752 282q0 -74 -28.5 -130t-81 -94.5t-128.5 -58t-170 -19.5q-100 0 -173.5 22.5t-118.5 55.5q-30 21 -8 50l38 50q14 15 24.5 17.5t27.5 -9.5q41 -26 99 -44t129 -18q38 0 80.5 7t78.5 24.5t59.5 47.5t23.5 77q0 38 -16.5 64t-45 44.5t-66 31.5t-80.5 26
q-68 20 -118.5 43.5t-83.5 54t-49.5 70.5t-16.5 94q0 73 28 127.5t78.5 91t121 55t156.5 18.5q97 0 163 -19t105 -43q31 -18 10 -48l-34 -50q-12 -17 -23 -20t-29 6q-38 20 -90.5 35t-117.5 15q-32 0 -69.5 -5.5t-70 -22t-54.5 -47t-22 -79.5q0 -39 14.5 -63t42 -40.5
t66.5 -30t89 -30.5q61 -22 109.5 -44.5t82 -51.5t51 -67.5t17.5 -92.5zM350 1108q-13 -8 -22 -8q-16 0 -28 18l-10 16q-10 17 -10 28q0 16 18 28l250 166q8 5 15.5 7.5t16.5 2.5q16 0 30 -14l186 -166q8 -6 11 -13t3 -13q0 -14 -12 -26l-16 -18q-8 -8 -14 -12t-14 -4
q-11 0 -26 12l-164 118z" />
    <glyph glyph-name="Scedilla" unicode="&#x15e;" horiz-adv-x="1050" 
d="M382 -168q-12 0 -24.5 -1t-23.5 -3q-14 -2 -20 -0.5t-14 10.5l-2 2q-13 13 -2 30l76 116q-106 11 -185.5 46.5t-126.5 79.5q-26 26 -2 50l56 60q14 15 25.5 15.5t26.5 -13.5q53 -48 122.5 -77t161.5 -29q73 0 133 19t102.5 53t65.5 81t23 103q0 47 -16.5 79.5t-48.5 56.5
t-78.5 43.5t-106.5 40.5t-120.5 46t-108.5 63.5t-78.5 95.5t-30.5 143q0 91 36 165t100.5 126.5t153 81.5t194.5 29q58 0 111 -8.5t98.5 -22.5t83 -33t63.5 -40q29 -25 4 -50l-52 -62q-14 -15 -25.5 -15.5t-26.5 11.5q-45 36 -109.5 59t-150.5 23q-80 0 -140 -21
t-99.5 -55.5t-59 -80.5t-19.5 -95q0 -51 19.5 -85.5t53 -59.5t79 -43.5t98.5 -37.5q73 -26 135 -52t107 -63t70.5 -90t25.5 -133q0 -90 -33 -165.5t-95.5 -129.5t-152.5 -84.5t-203 -30.5l-62 -84q11 3 23.5 4.5t24.5 1.5q56 0 87 -31.5t31 -84.5q0 -34 -13 -63t-37.5 -50.5
t-60 -34t-81.5 -12.5q-36 0 -71 8.5t-59 25.5q-14 9 -15.5 23.5t7.5 26.5l6 8q12 18 22 20t30 -10q30 -18 74 -18q47 0 73.5 19t26.5 51q0 23 -16 37.5t-60 14.5z" />
    <glyph glyph-name="scedilla" unicode="&#x15f;" horiz-adv-x="864" 
d="M322 -104q11 3 23.5 4.5t24.5 1.5q56 0 87 -31.5t31 -84.5q0 -34 -13 -63t-37.5 -50.5t-60 -34t-81.5 -12.5q-36 0 -71 8.5t-59 25.5q-14 9 -15.5 23.5t7.5 26.5l6 8q12 18 22 20t30 -10q30 -18 74 -18q47 0 73.5 19t26.5 51q0 23 -16 37.5t-60 14.5q-12 0 -24.5 -1
t-23.5 -3q-14 -2 -20 -0.5t-14 10.5l-2 2q-13 13 -2 30l74 112q-83 5 -147 26t-103 50q-30 21 -8 50l38 50q14 15 24.5 17.5t27.5 -9.5q41 -26 99 -44t129 -18q38 0 80.5 7t78.5 24.5t59.5 47.5t23.5 77q0 38 -16.5 64t-45 44.5t-66 31.5t-80.5 26q-68 20 -118.5 43.5
t-83.5 54t-49.5 70.5t-16.5 94q0 73 28 127.5t78.5 91t121 55t156.5 18.5q97 0 163 -19t105 -43q31 -18 10 -48l-34 -50q-12 -17 -23 -20t-29 6q-38 20 -90.5 35t-117.5 15q-32 0 -69.5 -5.5t-70 -22t-54.5 -47t-22 -79.5q0 -39 14.5 -63t42 -40.5t66.5 -30t89 -30.5
q61 -22 109.5 -44.5t82 -51.5t51 -67.5t17.5 -92.5q0 -71 -25.5 -125t-73.5 -91.5t-117 -58.5t-156 -25z" />
    <glyph glyph-name="Scaron" unicode="&#x160;" horiz-adv-x="1050" 
d="M936 390q0 -90 -33 -165.5t-95 -129.5t-150.5 -84.5t-199.5 -30.5q-67 0 -126.5 11t-110.5 29t-92 42t-69 50q-26 26 -2 50l56 60q14 15 25.5 15.5t26.5 -13.5q53 -48 122.5 -77t161.5 -29q73 0 133 19t102.5 53t65.5 81t23 103q0 47 -16.5 79.5t-48.5 56.5t-78.5 43.5
t-106.5 40.5t-120.5 46t-108.5 63.5t-78.5 95.5t-30.5 143q0 91 36 165t100.5 126.5t153 81.5t194.5 29q58 0 111 -8.5t98.5 -22.5t83 -33t63.5 -40q29 -25 4 -50l-52 -62q-14 -15 -25.5 -15.5t-26.5 11.5q-45 36 -109.5 59t-150.5 23q-80 0 -140 -21t-99.5 -55.5t-59 -80.5
t-19.5 -95q0 -51 19.5 -85.5t53 -59.5t79 -43.5t98.5 -37.5q73 -26 135 -52t107 -63t70.5 -90t25.5 -133zM918 1678q13 8 22 8q16 0 28 -18l10 -16q10 -17 10 -28q0 -16 -18 -28l-250 -166q-8 -5 -15.5 -7.5t-16.5 -2.5q-16 0 -30 14l-186 166q-8 6 -11 13t-3 13q0 14 12 26
l16 18q8 8 14 12t14 4q11 0 26 -12l164 -118z" />
    <glyph glyph-name="scaron" unicode="&#x161;" horiz-adv-x="864" 
d="M752 282q0 -74 -28.5 -130t-81 -94.5t-128.5 -58t-170 -19.5q-100 0 -173.5 22.5t-118.5 55.5q-30 21 -8 50l38 50q14 15 24.5 17.5t27.5 -9.5q41 -26 99 -44t129 -18q38 0 80.5 7t78.5 24.5t59.5 47.5t23.5 77q0 38 -16.5 64t-45 44.5t-66 31.5t-80.5 26
q-68 20 -118.5 43.5t-83.5 54t-49.5 70.5t-16.5 94q0 73 28 127.5t78.5 91t121 55t156.5 18.5q97 0 163 -19t105 -43q31 -18 10 -48l-34 -50q-12 -17 -23 -20t-29 6q-38 20 -90.5 35t-117.5 15q-32 0 -69.5 -5.5t-70 -22t-54.5 -47t-22 -79.5q0 -39 14.5 -63t42 -40.5
t66.5 -30t89 -30.5q61 -22 109.5 -44.5t82 -51.5t51 -67.5t17.5 -92.5zM768 1360q13 8 22 8q16 0 28 -18l10 -16q10 -17 10 -28q0 -16 -18 -28l-250 -166q-8 -5 -15.5 -7.5t-16.5 -2.5q-16 0 -30 14l-186 166q-8 6 -11 13t-3 13q0 14 12 26l16 18q8 8 14 12t14 4
q11 0 26 -12l164 -118z" />
    <glyph glyph-name="Tcommaaccent" unicode="&#x162;" horiz-adv-x="976" 
d="M170 1192q-30 0 -30 26v6.5t2 15.5l8 48q3 20 12.5 28t29.5 8h866q30 0 30 -26v-6.5t-2 -15.5l-8 -48q-3 -20 -12.5 -28t-29.5 -8h-354l-184 -1156q-3 -20 -12.5 -28t-29.5 -8h-86q-30 0 -30 28v7t2 13l182 1144h-354zM478 -176q0 -32 -12.5 -65t-32.5 -64.5t-45 -60
t-50 -52.5q-5 -5 -13 -10.5t-17 -5.5t-18 6l-6 4q-12 9 -12 18q0 10 8 18q33 35 42.5 57t9.5 43q0 18 -5.5 30t-11.5 22.5t-11.5 22.5t-5.5 31q0 41 28 64.5t70 23.5q39 0 60.5 -20.5t21.5 -61.5z" />
    <glyph glyph-name="tcommaaccent" unicode="&#x163;" horiz-adv-x="666" 
d="M112 842q-36 0 -30 36l6 46q3 20 12.5 28t29.5 8h126l36 224q3 20 12.5 28t29.5 8h80q36 0 30 -36l-36 -224h254q36 0 30 -36l-6 -46q-3 -20 -12.5 -28t-29.5 -8h-254l-88 -554q-3 -20 -5.5 -41t-2.5 -39q0 -45 22.5 -71.5t81.5 -26.5q56 0 108 26q31 20 46 -14l22 -48
q14 -32 -16 -50q-41 -24 -89.5 -34t-96.5 -10q-53 0 -95.5 12.5t-72.5 39t-46 68t-16 100.5q0 18 1.5 41.5t6.5 50.5l88 550h-126zM406 -176q0 -32 -12.5 -65t-32.5 -64.5t-45 -60t-50 -52.5q-5 -5 -13 -10.5t-17 -5.5t-18 6l-6 4q-12 9 -12 18q0 10 8 18q33 35 42.5 57
t9.5 43q0 18 -5.5 30t-11.5 22.5t-11.5 22.5t-5.5 31q0 41 28 64.5t70 23.5q39 0 60.5 -20.5t21.5 -61.5z" />
    <glyph glyph-name="Tcaron" unicode="&#x164;" horiz-adv-x="976" 
d="M170 1192q-30 0 -30 26v6.5t2 15.5l8 48q3 20 12.5 28t29.5 8h866q30 0 30 -26v-6.5t-2 -15.5l-8 -48q-3 -20 -12.5 -28t-29.5 -8h-354l-184 -1156q-3 -20 -12.5 -28t-29.5 -8h-86q-30 0 -30 28v7t2 13l182 1144h-354zM872 1678q13 8 22 8q16 0 28 -18l10 -16
q10 -17 10 -28q0 -16 -18 -28l-250 -166q-8 -5 -15.5 -7.5t-16.5 -2.5q-16 0 -30 14l-186 166q-8 6 -11 13t-3 13q0 14 12 26l16 18q8 8 14 12t14 4q11 0 26 -12l164 -118z" />
    <glyph glyph-name="tcaron" unicode="&#x165;" horiz-adv-x="666" 
d="M112 842q-36 0 -30 36l6 46q3 20 12.5 28t29.5 8h126l36 224q3 20 12.5 28t29.5 8h80q36 0 30 -36l-36 -224h254q36 0 30 -36l-6 -46q-3 -20 -12.5 -28t-29.5 -8h-254l-88 -554q-3 -20 -5.5 -41t-2.5 -39q0 -45 22.5 -71.5t81.5 -26.5q56 0 108 26q31 20 46 -14l22 -48
q14 -32 -16 -50q-41 -24 -89.5 -34t-96.5 -10q-53 0 -95.5 12.5t-72.5 39t-46 68t-16 100.5q0 18 1.5 41.5t6.5 50.5l88 550h-126zM606 1090q-5 0 -12.5 1.5t-14 5t-11 9.5t-4.5 14q0 3 1 10t3 12l70 274q6 28 28 28q5 0 12 -1t12 -3l62 -20q24 -9 24 -26q0 -10 -8 -26
l-132 -256q-11 -22 -30 -22z" />
    <glyph glyph-name="Tbar" unicode="&#x166;" horiz-adv-x="976" 
d="M450 730l74 462h-354q-30 0 -30 26v6.5t2 15.5l8 48q3 20 12.5 28t29.5 8h866q30 0 30 -26v-6.5t-2 -15.5l-8 -48q-3 -20 -12.5 -28t-29.5 -8h-354l-74 -462h162q17 0 24.5 -6.5t7.5 -23.5v-6.5t-2 -17.5l-4 -32q-3 -20 -12.5 -28t-29.5 -8h-166l-90 -572
q-3 -20 -12.5 -28t-29.5 -8h-86q-30 0 -30 28v7t2 13l88 560h-158q-17 0 -24.5 6.5t-7.5 23.5v6.5t2 17.5l4 32q3 20 12.5 28t29.5 8h162z" />
    <glyph glyph-name="tbar" unicode="&#x167;" horiz-adv-x="686" 
d="M122 842q-36 0 -30 36l6 46q3 20 12.5 28t29.5 8h126l36 224q3 20 12.5 28t29.5 8h80q36 0 30 -36l-36 -224h254q36 0 30 -36l-6 -46q-3 -20 -12.5 -28t-29.5 -8h-254l-38 -236h214q36 0 30 -36l-6 -34q-3 -20 -12.5 -28t-29.5 -8h-212l-34 -212q-3 -20 -5.5 -41
t-2.5 -39q0 -45 22.5 -71.5t81.5 -26.5q56 0 108 26q31 20 46 -14l22 -48q14 -32 -16 -50q-41 -24 -89.5 -34t-96.5 -10q-53 0 -95.5 12.5t-72.5 39t-46 68t-16 100.5q0 18 1.5 41.5t6.5 50.5l34 208h-82q-36 0 -30 36l6 34q3 20 12.5 28t29.5 8h80l38 236h-126z" />
    <glyph glyph-name="Utilde" unicode="&#x168;" horiz-adv-x="1290" 
d="M1144 504q-21 -133 -67.5 -231.5t-116 -163.5t-161 -97t-201.5 -32q-104 0 -185 27t-136.5 79.5t-85 129t-29.5 174.5q0 23 2 50.5t8 69.5l122 778q3 20 12.5 28t29.5 8h86q36 0 30 -36l-122 -772q-5 -29 -6.5 -60t-1.5 -52q0 -74 19 -128t54.5 -89.5t86 -53t112.5 -17.5
q72 0 136.5 23.5t116 71.5t87.5 121t52 172l124 784q3 20 12.5 28t29.5 8h86q36 0 30 -36l-124 -784v0zM950 1576q27 0 52.5 13t45.5 31q15 12 28 12q12 0 26 -14l8 -8q14 -14 14 -26q0 -13 -10 -26q-14 -19 -33 -36.5t-41.5 -31t-48 -22t-53.5 -8.5q-33 0 -60.5 10.5
t-52.5 23.5t-48.5 23.5t-48.5 10.5q-27 0 -52.5 -13t-45.5 -31q-15 -12 -28 -12q-12 0 -26 14l-8 8q-14 14 -14 26q0 13 10 26q14 19 33 36.5t41.5 31t48 22t53.5 8.5q33 0 60.5 -10.5t52.5 -23.5t48.5 -23.5t48.5 -10.5z" />
    <glyph glyph-name="utilde" unicode="&#x169;" horiz-adv-x="1068" 
d="M940 960q36 0 30 -36l-140 -888q-3 -20 -12.5 -28t-29.5 -8h-72q-36 0 -30 36l20 128q-24 -39 -55.5 -72.5t-71.5 -58.5t-88 -39t-105 -14q-68 0 -117.5 20t-81.5 57t-47.5 89t-15.5 116q0 27 2.5 65t7.5 65l84 532q3 20 12.5 28t29.5 8h80q36 0 30 -36l-84 -532
q-6 -41 -8 -66t-2 -42q0 -37 6.5 -69.5t23.5 -57t46.5 -39t75.5 -14.5q64 0 117 28t93.5 76.5t68 114.5t39.5 143l72 458q3 20 12.5 28t29.5 8h80zM756 1246q27 0 52.5 13t45.5 31q15 12 28 12q12 0 26 -14l8 -8q14 -14 14 -26q0 -13 -10 -26q-14 -19 -33 -36.5t-41.5 -31
t-48 -22t-53.5 -8.5q-33 0 -60.5 10.5t-52.5 23.5t-48.5 23.5t-48.5 10.5q-27 0 -52.5 -13t-45.5 -31q-15 -12 -28 -12q-12 0 -26 14l-8 8q-14 14 -14 26q0 13 10 26q14 19 33 36.5t41.5 31t48 22t53.5 8.5q33 0 60.5 -10.5t52.5 -23.5t48.5 -23.5t48.5 -10.5z" />
    <glyph glyph-name="Umacron" unicode="&#x16a;" horiz-adv-x="1290" 
d="M1144 504q-21 -133 -67.5 -231.5t-116 -163.5t-161 -97t-201.5 -32q-104 0 -185 27t-136.5 79.5t-85 129t-29.5 174.5q0 23 2 50.5t8 69.5l122 778q3 20 12.5 28t29.5 8h86q36 0 30 -36l-122 -772q-5 -29 -6.5 -60t-1.5 -52q0 -74 19 -128t54.5 -89.5t86 -53t112.5 -17.5
q72 0 136.5 23.5t116 71.5t87.5 121t52 172l124 784q3 20 12.5 28t29.5 8h86q36 0 30 -36l-124 -784v0zM1028 1592q17 0 24.5 -6.5t7.5 -23.5v-6.5t-2 -17.5l-2 -18q-3 -21 -12.5 -28.5t-29.5 -7.5h-382q-17 0 -24.5 6.5t-7.5 23.5v6.5t2 17.5l2 18q3 21 12.5 28.5t29.5 7.5
h382v0z" />
    <glyph glyph-name="umacron" unicode="&#x16b;" horiz-adv-x="1068" 
d="M940 960q36 0 30 -36l-140 -888q-3 -20 -12.5 -28t-29.5 -8h-72q-36 0 -30 36l20 128q-24 -39 -55.5 -72.5t-71.5 -58.5t-88 -39t-105 -14q-68 0 -117.5 20t-81.5 57t-47.5 89t-15.5 116q0 27 2.5 65t7.5 65l84 532q3 20 12.5 28t29.5 8h80q36 0 30 -36l-84 -532
q-6 -41 -8 -66t-2 -42q0 -37 6.5 -69.5t23.5 -57t46.5 -39t75.5 -14.5q64 0 117 28t93.5 76.5t68 114.5t39.5 143l72 458q3 20 12.5 28t29.5 8h80zM842 1262q17 0 24.5 -6.5t7.5 -23.5v-6.5t-2 -17.5l-2 -18q-3 -21 -12.5 -28.5t-29.5 -7.5h-382q-17 0 -24.5 6.5t-7.5 23.5
v6.5t2 17.5l2 18q3 21 12.5 28.5t29.5 7.5h382v0z" />
    <glyph glyph-name="Ubreve" unicode="&#x16c;" horiz-adv-x="1290" 
d="M1144 504q-21 -133 -67.5 -231.5t-116 -163.5t-161 -97t-201.5 -32q-104 0 -185 27t-136.5 79.5t-85 129t-29.5 174.5q0 23 2 50.5t8 69.5l122 778q3 20 12.5 28t29.5 8h86q36 0 30 -36l-122 -772q-5 -29 -6.5 -60t-1.5 -52q0 -74 19 -128t54.5 -89.5t86 -53t112.5 -17.5
q72 0 136.5 23.5t116 71.5t87.5 121t52 172l124 784q3 20 12.5 28t29.5 8h86q36 0 30 -36l-124 -784v0zM682 1642q18 -50 53.5 -76t94.5 -26q60 0 104 27t74 77q6 11 12.5 17.5t17.5 6.5q7 0 22 -6l26 -10q24 -9 24 -26q0 -11 -6 -23t-12 -23q-18 -32 -45 -60t-61 -49
t-74.5 -33t-85.5 -12q-47 0 -85 13t-67 34.5t-49 50t-31 60.5q-3 8 -5.5 19t-2.5 17q0 11 4 17.5t18 12.5l26 10q15 6 24 6t14 -6t10 -18z" />
    <glyph glyph-name="ubreve" unicode="&#x16d;" horiz-adv-x="1068" 
d="M940 960q36 0 30 -36l-140 -888q-3 -20 -12.5 -28t-29.5 -8h-72q-36 0 -30 36l20 128q-24 -39 -55.5 -72.5t-71.5 -58.5t-88 -39t-105 -14q-68 0 -117.5 20t-81.5 57t-47.5 89t-15.5 116q0 27 2.5 65t7.5 65l84 532q3 20 12.5 28t29.5 8h80q36 0 30 -36l-84 -532
q-6 -41 -8 -66t-2 -42q0 -37 6.5 -69.5t23.5 -57t46.5 -39t75.5 -14.5q64 0 117 28t93.5 76.5t68 114.5t39.5 143l72 458q3 20 12.5 28t29.5 8h80zM494 1312q18 -50 53.5 -76t94.5 -26q60 0 104 27t74 77q6 11 12.5 17.5t17.5 6.5q7 0 22 -6l26 -10q24 -9 24 -26
q0 -11 -6 -23t-12 -23q-18 -32 -45 -60t-61 -49t-74.5 -33t-85.5 -12q-47 0 -85 13t-67 34.5t-49 50t-31 60.5q-3 8 -5.5 19t-2.5 17q0 11 4 17.5t18 12.5l26 10q15 6 24 6t14 -6t10 -18z" />
    <glyph glyph-name="Uring" unicode="&#x16e;" horiz-adv-x="1290" 
d="M1144 504q-21 -133 -67.5 -231.5t-116 -163.5t-161 -97t-201.5 -32q-104 0 -185 27t-136.5 79.5t-85 129t-29.5 174.5q0 23 2 50.5t8 69.5l122 778q3 20 12.5 28t29.5 8h86q36 0 30 -36l-122 -772q-5 -29 -6.5 -60t-1.5 -52q0 -74 19 -128t54.5 -89.5t86 -53t112.5 -17.5
q72 0 136.5 23.5t116 71.5t87.5 121t52 172l124 784q3 20 12.5 28t29.5 8h86q36 0 30 -36l-124 -784v0zM718 1556q0 -53 29 -79.5t73 -26.5q30 0 55 11.5t43 31t28 46t10 57.5q0 53 -29 79.5t-73 26.5q-30 0 -55 -11.5t-43 -31t-28 -46t-10 -57.5zM1048 1598
q0 -47 -17.5 -88.5t-48.5 -72.5t-73.5 -49t-92.5 -18q-43 0 -78 13t-60 37t-38.5 58t-13.5 76q0 47 17.5 88.5t48.5 72.5t73.5 49t92.5 18q43 0 78 -13t60 -37t38.5 -58t13.5 -76z" />
    <glyph glyph-name="uring" unicode="&#x16f;" horiz-adv-x="1068" 
d="M940 960q36 0 30 -36l-140 -888q-3 -20 -12.5 -28t-29.5 -8h-72q-36 0 -30 36l20 128q-24 -39 -55.5 -72.5t-71.5 -58.5t-88 -39t-105 -14q-68 0 -117.5 20t-81.5 57t-47.5 89t-15.5 116q0 27 2.5 65t7.5 65l84 532q3 20 12.5 28t29.5 8h80q36 0 30 -36l-84 -532
q-6 -41 -8 -66t-2 -42q0 -37 6.5 -69.5t23.5 -57t46.5 -39t75.5 -14.5q64 0 117 28t93.5 76.5t68 114.5t39.5 143l72 458q3 20 12.5 28t29.5 8h80zM530 1226q0 -53 29 -79.5t73 -26.5q30 0 55 11.5t43 31t28 46t10 57.5q0 53 -29 79.5t-73 26.5q-30 0 -55 -11.5t-43 -31
t-28 -46t-10 -57.5zM860 1268q0 -47 -17.5 -88.5t-48.5 -72.5t-73.5 -49t-92.5 -18q-43 0 -78 13t-60 37t-38.5 58t-13.5 76q0 47 17.5 88.5t48.5 72.5t73.5 49t92.5 18q43 0 78 -13t60 -37t38.5 -58t13.5 -76z" />
    <glyph glyph-name="Uhungarumlaut" unicode="&#x170;" horiz-adv-x="1290" 
d="M1144 504q-21 -133 -67.5 -231.5t-116 -163.5t-161 -97t-201.5 -32q-104 0 -185 27t-136.5 79.5t-85 129t-29.5 174.5q0 23 2 50.5t8 69.5l122 778q3 20 12.5 28t29.5 8h86q36 0 30 -36l-122 -772q-5 -29 -6.5 -60t-1.5 -52q0 -74 19 -128t54.5 -89.5t86 -53t112.5 -17.5
q72 0 136.5 23.5t116 71.5t87.5 121t52 172l124 784q3 20 12.5 28t29.5 8h86q36 0 30 -36l-124 -784v0zM654 1422q-13 -10 -26 -10q-14 0 -26 12l-18 18q-12 12 -12 26q0 12 12 24l210 218q14 14 28 14q6 0 13.5 -4t12.5 -10l34 -38q12 -15 12 -26q0 -13 -16 -26zM968 1422
q-13 -10 -26 -10q-14 0 -26 12l-18 18q-12 12 -12 26q0 12 12 24l210 218q14 14 28 14q6 0 13.5 -4t12.5 -10l34 -38q12 -15 12 -26q0 -13 -16 -26z" />
    <glyph glyph-name="uhungarumlaut" unicode="&#x171;" horiz-adv-x="1068" 
d="M940 960q36 0 30 -36l-140 -888q-3 -20 -12.5 -28t-29.5 -8h-72q-36 0 -30 36l20 128q-24 -39 -55.5 -72.5t-71.5 -58.5t-88 -39t-105 -14q-68 0 -117.5 20t-81.5 57t-47.5 89t-15.5 116q0 27 2.5 65t7.5 65l84 532q3 20 12.5 28t29.5 8h80q36 0 30 -36l-84 -532
q-6 -41 -8 -66t-2 -42q0 -37 6.5 -69.5t23.5 -57t46.5 -39t75.5 -14.5q64 0 117 28t93.5 76.5t68 114.5t39.5 143l72 458q3 20 12.5 28t29.5 8h80zM466 1092q-13 -10 -26 -10q-14 0 -26 12l-18 18q-12 12 -12 26q0 12 12 24l210 218q14 14 28 14q6 0 13.5 -4t12.5 -10
l34 -38q12 -15 12 -26q0 -13 -16 -26zM780 1092q-13 -10 -26 -10q-14 0 -26 12l-18 18q-12 12 -12 26q0 12 12 24l210 218q14 14 28 14q6 0 13.5 -4t12.5 -10l34 -38q12 -15 12 -26q0 -13 -16 -26z" />
    <glyph glyph-name="Uogonek" unicode="&#x172;" horiz-adv-x="1290" 
d="M404 -246q0 34 13 68t35 64.5t51 55.5t61 42q-193 8 -297.5 112.5t-104.5 293.5q0 23 2 50.5t8 69.5l122 778q3 20 12.5 28t29.5 8h86q36 0 30 -36l-122 -772q-5 -29 -6.5 -60t-1.5 -52q0 -74 19 -128t54.5 -89.5t86 -53t112.5 -17.5q72 0 136.5 23.5t116 71.5t87.5 121
t52 172l124 784q3 20 12.5 28t29.5 8h86q36 0 30 -36l-124 -784q-17 -103 -45 -178.5t-63.5 -129t-75.5 -88.5t-81 -57.5t-80 -35t-71 -21.5q-48 -14 -87 -35t-66 -47.5t-42 -57t-15 -62.5q0 -39 20.5 -54.5t53.5 -15.5q17 0 35.5 3.5t36.5 12.5t29.5 6.5t20.5 -20.5l4 -8
q16 -32 -12 -50q-32 -18 -69.5 -29t-78.5 -11q-72 0 -113 34t-41 94z" />
    <glyph glyph-name="uogonek" unicode="&#x173;" horiz-adv-x="1068" 
d="M522 -248q0 34 13.5 68t36 65.5t51 60.5t57.5 54l26 164q-24 -39 -55.5 -72.5t-71.5 -58.5t-88 -39t-105 -14q-68 0 -117.5 20t-81.5 57t-47.5 89t-15.5 116q0 27 2.5 65t7.5 65l84 532q3 20 12.5 28t29.5 8h80q36 0 30 -36l-84 -532q-6 -41 -8 -66t-2 -42
q0 -37 6.5 -69.5t23.5 -57t46.5 -39t75.5 -14.5q64 0 117 28t93.5 76.5t68 114.5t39.5 143l72 458q3 20 12.5 28t29.5 8h80q36 0 30 -36l-140 -888q-3 -20 -12.5 -28t-29.5 -8h-20q-28 -31 -52 -57.5t-42 -52t-28 -50t-10 -50.5q0 -38 21 -53t53 -15q17 0 35.5 3.5
t36.5 12.5t29.5 6.5t20.5 -20.5l4 -8q16 -32 -12 -50q-32 -18 -69.5 -29t-78.5 -11q-72 0 -113 33.5t-41 92.5z" />
    <glyph glyph-name="Wcircumflex" unicode="&#x174;" horiz-adv-x="1890" 
d="M408 0q-38 0 -46 34q-22 75 -40 167.5t-32.5 196.5t-25.5 216t-19 226.5t-13.5 227.5t-7.5 220q0 20 8 28t28 8h86q20 0 28 -8t8 -28q1 -140 5.5 -293t15 -303.5t27 -291t40.5 -254.5q47 72 95.5 159t96 183t92 198t85.5 205t76.5 204t64.5 195q6 18 16 26t30 8h94
q20 0 28 -8t8 -28q0 -95 4 -196.5t12 -204t19.5 -204.5t27 -198t34 -184t41.5 -163q62 113 127 252.5t125.5 290.5t114 306t93.5 301q6 18 16 27t30 9h94q26 0 26 -22q0 -5 -0.5 -10t-5.5 -20q-31 -102 -70.5 -213.5t-83.5 -224.5t-91.5 -224.5t-96.5 -215.5t-97.5 -196.5
t-94.5 -167.5q-9 -17 -21.5 -23.5t-32.5 -6.5h-86q-37 0 -48 34q-41 122 -69.5 251.5t-46.5 261.5t-27.5 264t-10.5 259q-42 -128 -94.5 -262t-114.5 -267.5t-133 -263t-150 -247.5q-11 -17 -23.5 -23.5t-32.5 -6.5h-82zM914 1438q-13 -8 -22 -8q-16 0 -28 18l-10 16
q-10 17 -10 28q0 16 18 28l250 166q8 5 15.5 7.5t16.5 2.5q16 0 30 -14l186 -166q8 -6 11 -13t3 -13q0 -14 -12 -26l-16 -18q-8 -8 -14 -12t-14 -4q-11 0 -26 12l-164 118z" />
    <glyph glyph-name="wcircumflex" unicode="&#x175;" horiz-adv-x="1456" 
d="M302 0q-37 0 -48 34q-31 84 -54 189t-39 221.5t-24 238.5t-9 241q0 20 8 28t28 8h74q20 0 28 -8t8 -28q1 -101 5 -209t13.5 -212t25 -199t38.5 -170q49 72 100.5 166.5t100 199.5t92 214.5t75.5 211.5q6 18 16 26t30 8h72q20 0 28 -8t8 -28q1 -107 8.5 -215t20.5 -210
t31.5 -194t41.5 -167q49 70 97.5 164t92.5 199t82.5 214.5t69.5 210.5q6 18 16 26t30 8h78q28 0 28 -20q0 -8 -3.5 -19t-8.5 -25q-38 -113 -84.5 -232t-99 -232.5t-109 -216.5t-113.5 -185q-11 -17 -23.5 -23.5t-32.5 -6.5h-74q-38 0 -46 34q-57 193 -80.5 368t-25.5 330
q-51 -159 -131 -331.5t-203 -370.5q-11 -17 -23.5 -23.5t-32.5 -6.5h-82zM652 1108q-13 -8 -22 -8q-16 0 -28 18l-10 16q-10 17 -10 28q0 16 18 28l250 166q8 5 15.5 7.5t16.5 2.5q16 0 30 -14l186 -166q8 -6 11 -13t3 -13q0 -14 -12 -26l-16 -18q-8 -8 -14 -12t-14 -4
q-11 0 -26 12l-164 118z" />
    <glyph glyph-name="Ycircumflex" unicode="&#x176;" horiz-adv-x="1052" 
d="M410 0q-36 0 -30 36l66 434q-46 80 -87.5 176t-77 200t-63.5 213.5t-46 216.5q-2 9 -2 14v8q0 26 30 26h86q20 0 29.5 -8t12.5 -28q16 -96 38.5 -193t50 -188.5t59 -173.5t66.5 -147q54 62 112.5 142t117 171.5t114.5 190.5t104 200q9 18 20.5 26t31.5 8h86q14 0 19 -4
t5 -12q0 -5 -1 -9.5t-7 -18.5q-48 -107 -112 -218.5t-136 -218.5t-147 -204.5t-145 -174.5l-66 -428q-3 -20 -12.5 -28t-29.5 -8h-86zM504 1438q-13 -8 -22 -8q-16 0 -28 18l-10 16q-10 17 -10 28q0 16 18 28l250 166q8 5 15.5 7.5t16.5 2.5q16 0 30 -14l186 -166
q8 -6 11 -13t3 -13q0 -14 -12 -26l-16 -18q-8 -8 -14 -12t-14 -4q-11 0 -26 12l-164 118z" />
    <glyph glyph-name="ycircumflex" unicode="&#x177;" horiz-adv-x="1068" 
d="M940 960q36 0 30 -36l-144 -910q-19 -117 -55.5 -199.5t-92.5 -134.5t-131.5 -76t-172.5 -24q-61 0 -109.5 8t-86 20.5t-64.5 28t-46 29.5q-30 21 -8 52l40 58q12 15 22.5 16.5t25.5 -10.5q16 -13 37 -25.5t48 -22.5t61 -16t76 -6q86 0 141.5 27t89.5 72.5t51 105.5
t28 127l18 116q-59 -92 -136.5 -136t-175.5 -44q-68 0 -117.5 20t-81.5 57t-47.5 89t-15.5 116q0 27 2.5 65t7.5 65l84 532q3 20 12.5 28t29.5 8h80q36 0 30 -36l-84 -532q-6 -41 -8 -66t-2 -42q0 -37 6.5 -69.5t23.5 -57t46.5 -39t75.5 -14.5q64 0 117 28t93.5 76.5
t68 114.5t39.5 143l72 458q3 20 12.5 28t29.5 8h80zM438 1108q-13 -8 -22 -8q-16 0 -28 18l-10 16q-10 17 -10 28q0 16 18 28l250 166q8 5 15.5 7.5t16.5 2.5q16 0 30 -14l186 -166q8 -6 11 -13t3 -13q0 -14 -12 -26l-16 -18q-8 -8 -14 -12t-14 -4q-11 0 -26 12l-164 118z
" />
    <glyph glyph-name="Ydieresis" unicode="&#x178;" horiz-adv-x="1052" 
d="M410 0q-36 0 -30 36l66 434q-46 80 -87.5 176t-77 200t-63.5 213.5t-46 216.5q-2 9 -2 14v8q0 26 30 26h86q20 0 29.5 -8t12.5 -28q16 -96 38.5 -193t50 -188.5t59 -173.5t66.5 -147q54 62 112.5 142t117 171.5t114.5 190.5t104 200q9 18 20.5 26t31.5 8h86q14 0 19 -4
t5 -12q0 -5 -1 -9.5t-7 -18.5q-48 -107 -112 -218.5t-136 -218.5t-147 -204.5t-145 -174.5l-66 -428q-3 -20 -12.5 -28t-29.5 -8h-86zM638 1574q0 -47 -29.5 -78.5t-76.5 -31.5q-44 0 -66 26t-22 64q0 47 29.5 78.5t76.5 31.5q44 0 66 -26t22 -64zM978 1574
q0 -47 -29.5 -78.5t-76.5 -31.5q-44 0 -66 26t-22 64q0 47 29.5 78.5t76.5 31.5q44 0 66 -26t22 -64z" />
    <glyph glyph-name="Zacute" unicode="&#x179;" horiz-adv-x="1020" 
d="M1036 1324q30 0 30 -28v-8.5t-2 -15.5l-6 -40q-2 -14 -8 -31t-14 -31q-26 -41 -72 -101t-104.5 -132t-125 -152t-134.5 -160.5t-132.5 -157t-118.5 -142t-93 -115t-56 -76.5h680q36 0 30 -36l-8 -62q-3 -20 -12.5 -28t-29.5 -8h-820q-30 0 -30 28v8.5t2 15.5l6 40
q2 15 8 31.5t14 30.5q26 40 72.5 100.5t104.5 133t125 152.5t134.5 160.5t132 157t118.5 142t93 115t56 75.5h-614q-36 0 -30 36l10 62q3 20 12.5 28t29.5 8h752zM870 1664q10 -13 10 -24q0 -15 -16 -26l-268 -184q-11 -8 -22 -8q-9 0 -16.5 5t-13.5 13l-12 16
q-10 13 -10 24q0 15 16 28l248 202q15 12 28 12q15 0 26 -16z" />
    <glyph glyph-name="zacute" unicode="&#x17a;" horiz-adv-x="868" 
d="M814 960q30 0 30 -26v-6.5t-2 -15.5l-4 -26q-2 -14 -8.5 -30.5t-15.5 -27.5q-27 -38 -77.5 -98.5t-113 -131.5t-129 -145.5t-125 -140.5t-102.5 -116.5t-59 -73.5h498q36 0 30 -36l-8 -50q-3 -20 -12.5 -28t-29.5 -8h-640q-30 0 -30 26v6.5t2 15.5l4 26q2 12 8 28.5
t14 27.5q21 29 55.5 71t77.5 92t91.5 105t97.5 109.5t95.5 106.5t85 96t66 77t39.5 51h-452q-36 0 -30 36l10 50q3 20 12.5 28t29.5 8h592zM734 1334q10 -13 10 -24q0 -15 -16 -26l-268 -184q-11 -8 -22 -8q-9 0 -16.5 5t-13.5 13l-12 16q-10 13 -10 24q0 15 16 28l248 202
q15 12 28 12q15 0 26 -16z" />
    <glyph glyph-name="Zdotaccent" unicode="&#x17b;" horiz-adv-x="1020" 
d="M1036 1324q30 0 30 -28v-8.5t-2 -15.5l-6 -40q-2 -14 -8 -31t-14 -31q-26 -41 -72 -101t-104.5 -132t-125 -152t-134.5 -160.5t-132.5 -157t-118.5 -142t-93 -115t-56 -76.5h680q36 0 30 -36l-8 -62q-3 -20 -12.5 -28t-29.5 -8h-820q-30 0 -30 28v8.5t2 15.5l6 40
q2 15 8 31.5t14 30.5q26 40 72.5 100.5t104.5 133t125 152.5t134.5 160.5t132 157t118.5 142t93 115t56 75.5h-614q-36 0 -30 36l10 62q3 20 12.5 28t29.5 8h752zM798 1574q0 -47 -29.5 -78.5t-76.5 -31.5q-44 0 -66 26t-22 64q0 47 29.5 78.5t76.5 31.5q44 0 66 -26t22 -64
z" />
    <glyph glyph-name="zdotaccent" unicode="&#x17c;" horiz-adv-x="868" 
d="M814 960q30 0 30 -26v-6.5t-2 -15.5l-4 -26q-2 -14 -8.5 -30.5t-15.5 -27.5q-27 -38 -77.5 -98.5t-113 -131.5t-129 -145.5t-125 -140.5t-102.5 -116.5t-59 -73.5h498q36 0 30 -36l-8 -50q-3 -20 -12.5 -28t-29.5 -8h-640q-30 0 -30 26v6.5t2 15.5l4 26q2 12 8 28.5
t14 27.5q21 29 55.5 71t77.5 92t91.5 105t97.5 109.5t95.5 106.5t85 96t66 77t39.5 51h-452q-36 0 -30 36l10 50q3 20 12.5 28t29.5 8h592zM662 1244q0 -47 -29.5 -78.5t-76.5 -31.5q-44 0 -66 26t-22 64q0 47 29.5 78.5t76.5 31.5q44 0 66 -26t22 -64z" />
    <glyph glyph-name="Zcaron" unicode="&#x17d;" horiz-adv-x="1020" 
d="M1036 1324q30 0 30 -28v-8.5t-2 -15.5l-6 -40q-2 -14 -8 -31t-14 -31q-26 -41 -72 -101t-104.5 -132t-125 -152t-134.5 -160.5t-132.5 -157t-118.5 -142t-93 -115t-56 -76.5h680q36 0 30 -36l-8 -62q-3 -20 -12.5 -28t-29.5 -8h-820q-30 0 -30 28v8.5t2 15.5l6 40
q2 15 8 31.5t14 30.5q26 40 72.5 100.5t104.5 133t125 152.5t134.5 160.5t132 157t118.5 142t93 115t56 75.5h-614q-36 0 -30 36l10 62q3 20 12.5 28t29.5 8h752zM908 1678q13 8 22 8q16 0 28 -18l10 -16q10 -17 10 -28q0 -16 -18 -28l-250 -166q-8 -5 -15.5 -7.5
t-16.5 -2.5q-16 0 -30 14l-186 166q-8 6 -11 13t-3 13q0 14 12 26l16 18q8 8 14 12t14 4q11 0 26 -12l164 -118z" />
    <glyph glyph-name="zcaron" unicode="&#x17e;" horiz-adv-x="868" 
d="M814 960q30 0 30 -26v-6.5t-2 -15.5l-4 -26q-2 -14 -8.5 -30.5t-15.5 -27.5q-27 -38 -77.5 -98.5t-113 -131.5t-129 -145.5t-125 -140.5t-102.5 -116.5t-59 -73.5h498q36 0 30 -36l-8 -50q-3 -20 -12.5 -28t-29.5 -8h-640q-30 0 -30 26v6.5t2 15.5l4 26q2 12 8 28.5
t14 27.5q21 29 55.5 71t77.5 92t91.5 105t97.5 109.5t95.5 106.5t85 96t66 77t39.5 51h-452q-36 0 -30 36l10 50q3 20 12.5 28t29.5 8h592zM774 1360q13 8 22 8q16 0 28 -18l10 -16q10 -17 10 -28q0 -16 -18 -28l-250 -166q-8 -5 -15.5 -7.5t-16.5 -2.5q-16 0 -30 14
l-186 166q-8 6 -11 13t-3 13q0 14 12 26l16 18q8 8 14 12t14 4q11 0 26 -12l164 -118z" />
    <glyph glyph-name="florin" unicode="&#x192;" 
d="M944 1216q-83 0 -142.5 -62.5t-101.5 -195.5l-74 -230h200q18 0 24 -9.5t0 -26.5l-14 -46q-6 -18 -17 -27t-31 -9h-200l-206 -650q-38 -119 -84 -193t-97.5 -115.5t-107 -56.5t-113.5 -15q-60 0 -102.5 12t-69.5 32q-16 13 -16 26q0 6 2 11.5t8 14.5l32 42q12 17 23 20
t31 -8q41 -22 96 -22q83 0 142.5 62.5t101.5 195.5l204 644h-172q-18 0 -24 9.5t0 26.5l14 46q6 18 17 27t31 9h172l76 236q38 118 84 192.5t97.5 116t107 56.5t113.5 15q60 0 102.5 -12t69.5 -32q16 -13 16 -26q0 -6 -2 -11.5t-8 -14.5l-32 -42q-12 -17 -23 -20t-31 8
q-41 22 -96 22z" />
    <glyph glyph-name="Scommaaccent" unicode="&#x218;" horiz-adv-x="1050" 
d="M936 390q0 -90 -33 -165.5t-95 -129.5t-150.5 -84.5t-199.5 -30.5q-67 0 -126.5 11t-110.5 29t-92 42t-69 50q-26 26 -2 50l56 60q14 15 25.5 15.5t26.5 -13.5q53 -48 122.5 -77t161.5 -29q73 0 133 19t102.5 53t65.5 81t23 103q0 47 -16.5 79.5t-48.5 56.5t-78.5 43.5
t-106.5 40.5t-120.5 46t-108.5 63.5t-78.5 95.5t-30.5 143q0 91 36 165t100.5 126.5t153 81.5t194.5 29q58 0 111 -8.5t98.5 -22.5t83 -33t63.5 -40q29 -25 4 -50l-52 -62q-14 -15 -25.5 -15.5t-26.5 11.5q-45 36 -109.5 59t-150.5 23q-80 0 -140 -21t-99.5 -55.5t-59 -80.5
t-19.5 -95q0 -51 19.5 -85.5t53 -59.5t79 -43.5t98.5 -37.5q73 -26 135 -52t107 -63t70.5 -90t25.5 -133zM524 -176q0 -32 -12.5 -65t-32.5 -64.5t-45 -60t-50 -52.5q-5 -5 -13 -10.5t-17 -5.5t-18 6l-6 4q-12 9 -12 18q0 10 8 18q33 35 42.5 57t9.5 43q0 18 -5.5 30
t-11.5 22.5t-11.5 22.5t-5.5 31q0 41 28 64.5t70 23.5q39 0 60.5 -20.5t21.5 -61.5z" />
    <glyph glyph-name="scommaaccent" unicode="&#x219;" horiz-adv-x="864" 
d="M752 282q0 -74 -28.5 -130t-81 -94.5t-128.5 -58t-170 -19.5q-100 0 -173.5 22.5t-118.5 55.5q-30 21 -8 50l38 50q14 15 24.5 17.5t27.5 -9.5q41 -26 99 -44t129 -18q38 0 80.5 7t78.5 24.5t59.5 47.5t23.5 77q0 38 -16.5 64t-45 44.5t-66 31.5t-80.5 26
q-68 20 -118.5 43.5t-83.5 54t-49.5 70.5t-16.5 94q0 73 28 127.5t78.5 91t121 55t156.5 18.5q97 0 163 -19t105 -43q31 -18 10 -48l-34 -50q-12 -17 -23 -20t-29 6q-38 20 -90.5 35t-117.5 15q-32 0 -69.5 -5.5t-70 -22t-54.5 -47t-22 -79.5q0 -39 14.5 -63t42 -40.5
t66.5 -30t89 -30.5q61 -22 109.5 -44.5t82 -51.5t51 -67.5t17.5 -92.5zM430 -176q0 -32 -12.5 -65t-32.5 -64.5t-45 -60t-50 -52.5q-5 -5 -13 -10.5t-17 -5.5t-18 6l-6 4q-12 9 -12 18q0 10 8 18q33 35 42.5 57t9.5 43q0 18 -5.5 30t-11.5 22.5t-11.5 22.5t-5.5 31
q0 41 28 64.5t70 23.5q39 0 60.5 -20.5t21.5 -61.5z" />
    <glyph glyph-name="uni021A" unicode="&#x21a;" horiz-adv-x="976" 
d="M170 1192q-30 0 -30 26v6.5t2 15.5l8 48q3 20 12.5 28t29.5 8h866q30 0 30 -26v-6.5t-2 -15.5l-8 -48q-3 -20 -12.5 -28t-29.5 -8h-354l-184 -1156q-3 -20 -12.5 -28t-29.5 -8h-86q-30 0 -30 28v7t2 13l182 1144h-354zM478 -176q0 -32 -12.5 -65t-32.5 -64.5t-45 -60
t-50 -52.5q-5 -5 -13 -10.5t-17 -5.5t-18 6l-6 4q-12 9 -12 18q0 10 8 18q33 35 42.5 57t9.5 43q0 18 -5.5 30t-11.5 22.5t-11.5 22.5t-5.5 31q0 41 28 64.5t70 23.5q39 0 60.5 -20.5t21.5 -61.5z" />
    <glyph glyph-name="uni021B" unicode="&#x21b;" horiz-adv-x="666" 
d="M112 842q-36 0 -30 36l6 46q3 20 12.5 28t29.5 8h126l36 224q3 20 12.5 28t29.5 8h80q36 0 30 -36l-36 -224h254q36 0 30 -36l-6 -46q-3 -20 -12.5 -28t-29.5 -8h-254l-88 -554q-3 -20 -5.5 -41t-2.5 -39q0 -45 22.5 -71.5t81.5 -26.5q56 0 108 26q31 20 46 -14l22 -48
q14 -32 -16 -50q-41 -24 -89.5 -34t-96.5 -10q-53 0 -95.5 12.5t-72.5 39t-46 68t-16 100.5q0 18 1.5 41.5t6.5 50.5l88 550h-126zM406 -176q0 -32 -12.5 -65t-32.5 -64.5t-45 -60t-50 -52.5q-5 -5 -13 -10.5t-17 -5.5t-18 6l-6 4q-12 9 -12 18q0 10 8 18q33 35 42.5 57
t9.5 43q0 18 -5.5 30t-11.5 22.5t-11.5 22.5t-5.5 31q0 41 28 64.5t70 23.5q39 0 60.5 -20.5t21.5 -61.5z" />
    <glyph glyph-name="uni0237" unicode="&#x237;" horiz-adv-x="488" 
d="M238 924q3 20 12.5 28t29.5 8h80q30 0 30 -28v-7t-2 -13l-162 -1026q-13 -82 -38.5 -140t-63 -95t-86 -54t-106.5 -17q-39 0 -74 7.5t-64 24.5q-20 11 -20 28q0 8 6 20l22 48q6 12 10.5 17t13.5 5t24 -6t30.5 -10t35.5 -4q37 0 64.5 15t47 42.5t32 65.5t20.5 85z" />
    <glyph glyph-name="circumflex" unicode="&#x2c6;" horiz-adv-x="754" 
d="M292 1108q-13 -8 -22 -8q-16 0 -28 18l-10 16q-10 17 -10 28q0 16 18 28l250 166q8 5 15.5 7.5t16.5 2.5q16 0 30 -14l186 -166q8 -6 11 -13t3 -13q0 -14 -12 -26l-16 -18q-8 -8 -14 -12t-14 -4q-11 0 -26 12l-164 118z" />
    <glyph glyph-name="caron" unicode="&#x2c7;" horiz-adv-x="754" 
d="M682 1360q13 8 22 8q16 0 28 -18l10 -16q10 -17 10 -28q0 -16 -18 -28l-250 -166q-8 -5 -15.5 -7.5t-16.5 -2.5q-16 0 -30 14l-186 166q-8 6 -11 13t-3 13q0 14 12 26l16 18q8 8 14 12t14 4q11 0 26 -12l164 -118z" />
    <glyph glyph-name="breve" unicode="&#x2d8;" horiz-adv-x="734" 
d="M308 1312q18 -50 53.5 -76t94.5 -26q60 0 104 27t74 77q6 11 12.5 17.5t17.5 6.5q7 0 22 -6l26 -10q24 -9 24 -26q0 -11 -6 -23t-12 -23q-18 -32 -45 -60t-61 -49t-74.5 -33t-85.5 -12q-47 0 -85 13t-67 34.5t-49 50t-31 60.5q-3 8 -5.5 19t-2.5 17q0 11 4 17.5t18 12.5
l26 10q15 6 24 6t14 -6t10 -18z" />
    <glyph glyph-name="dotaccent" unicode="&#x2d9;" horiz-adv-x="394" 
d="M404 1244q0 -47 -29.5 -78.5t-76.5 -31.5q-44 0 -66 26t-22 64q0 47 29.5 78.5t76.5 31.5q44 0 66 -26t22 -64z" />
    <glyph glyph-name="ring" unicode="&#x2da;" horiz-adv-x="622" 
d="M302 1226q0 -53 29 -79.5t73 -26.5q30 0 55 11.5t43 31t28 46t10 57.5q0 53 -29 79.5t-73 26.5q-30 0 -55 -11.5t-43 -31t-28 -46t-10 -57.5zM632 1268q0 -47 -17.5 -88.5t-48.5 -72.5t-73.5 -49t-92.5 -18q-43 0 -78 13t-60 37t-38.5 58t-13.5 76q0 47 17.5 88.5
t48.5 72.5t73.5 49t92.5 18q43 0 78 -13t60 -37t38.5 -58t13.5 -76z" />
    <glyph glyph-name="ogonek" unicode="&#x2db;" horiz-adv-x="530" 
d="M104 -210q0 -38 21 -53t53 -15q17 0 35.5 3.5t36.5 12.5t29.5 6.5t20.5 -20.5l4 -8q16 -32 -12 -50q-32 -18 -69.5 -29t-78.5 -11q-72 0 -113 33.5t-41 92.5q0 34 13.5 68t36 65.5t51 60.5t57.5 54h88q-28 -31 -52 -57.5t-42 -52t-28 -50t-10 -50.5z" />
    <glyph glyph-name="tilde" unicode="&#x2dc;" horiz-adv-x="790" 
d="M616 1246q27 0 52.5 13t45.5 31q15 12 28 12q12 0 26 -14l8 -8q14 -14 14 -26q0 -13 -10 -26q-14 -19 -33 -36.5t-41.5 -31t-48 -22t-53.5 -8.5q-33 0 -60.5 10.5t-52.5 23.5t-48.5 23.5t-48.5 10.5q-27 0 -52.5 -13t-45.5 -31q-15 -12 -28 -12q-12 0 -26 14l-8 8
q-14 14 -14 26q0 13 10 26q14 19 33 36.5t41.5 31t48 22t53.5 8.5q33 0 60.5 -10.5t52.5 -23.5t48.5 -23.5t48.5 -10.5z" />
    <glyph glyph-name="hungarumlaut" unicode="&#x2dd;" horiz-adv-x="860" 
d="M304 1092q-13 -10 -26 -10q-14 0 -26 12l-18 18q-12 12 -12 26q0 12 12 24l210 218q14 14 28 14q6 0 13.5 -4t12.5 -10l34 -38q12 -15 12 -26q0 -13 -16 -26zM618 1092q-13 -10 -26 -10q-14 0 -26 12l-18 18q-12 12 -12 26q0 12 12 24l210 218q14 14 28 14q6 0 13.5 -4
t12.5 -10l34 -38q12 -15 12 -26q0 -13 -16 -26z" />
    <glyph glyph-name="uni0312" unicode="&#x312;" horiz-adv-x="416" 
d="M210 1194q0 32 12.5 65t32.5 64.5t45 60t50 52.5q5 5 13 10.5t17 5.5t18 -6l6 -4q12 -9 12 -18q0 -10 -8 -18q-33 -35 -42.5 -57t-9.5 -43q0 -18 5.5 -30t11.5 -22.5t11.5 -22.5t5.5 -31q0 -41 -28 -64.5t-70 -23.5q-39 0 -60.5 20.5t-21.5 61.5z" />
    <glyph glyph-name="uni0315" unicode="&#x315;" horiz-adv-x="430" 
d="M258 1090q-5 0 -12.5 1.5t-14 5t-11 9.5t-4.5 14q0 3 1 10t3 12l70 274q6 28 28 28q5 0 12 -1t12 -3l62 -20q24 -9 24 -26q0 -10 -8 -26l-132 -256q-11 -22 -30 -22z" />
    <glyph glyph-name="uni0326" unicode="&#x326;" horiz-adv-x="416" 
d="M206 -176q0 -32 -12.5 -65t-32.5 -64.5t-45 -60t-50 -52.5q-5 -5 -13 -10.5t-17 -5.5t-18 6l-6 4q-12 9 -12 18q0 10 8 18q33 35 42.5 57t9.5 43q0 18 -5.5 30t-11.5 22.5t-11.5 22.5t-5.5 31q0 41 28 64.5t70 23.5q39 0 60.5 -20.5t21.5 -61.5z" />
    <glyph glyph-name="pi" unicode="&#x3c0;" horiz-adv-x="1056" 
d="M1012 960q36 0 30 -36l-6 -46q-3 -20 -12.5 -28t-29.5 -8h-118l-86 -544q-3 -21 -5.5 -44t-2.5 -44q0 -51 20.5 -77.5t71.5 -26.5q34 0 64 12q18 8 28 3t16 -25l12 -40q12 -35 -22 -50q-26 -12 -58.5 -19t-71.5 -7q-101 0 -157.5 52.5t-56.5 161.5q0 17 1.5 44.5
t6.5 53.5l88 550h-332l-128 -806q-3 -20 -12.5 -28t-29.5 -8h-80q-36 0 -30 36l128 806h-120q-36 0 -30 36l6 46q3 20 12.5 28t29.5 8h874z" />
    </font>
</defs>
</svg>
