<?xml version="1.0" encoding="UTF-8" standalone="no"?>
<!DOCTYPE svg  PUBLIC '-//W3C//DTD SVG 1.1//EN'  'http://www.w3.org/Graphics/SVG/1.1/DTD/svg11.dtd'>
<svg xmlns="http://www.w3.org/2000/svg">
<defs>
<font id="Clan-Book" horiz-adv-x="654">
<font-face underline-position="-81" font-weight="400" descent="-200" panose-1="2 0 5 3 0 0 0 0 0 0" units-per-em="1000" unicode-range="U+0020-2212" bbox="-125 -192 1058 916" x-height="590" underline-thickness="39" font-family="Clan" ascent="800" cap-height="750"/>
<missing-glyph horiz-adv-x="1000"/>
<glyph glyph-name=".notdef" horiz-adv-x="1000"/>
<glyph glyph-name=".null" horiz-adv-x="0"/>
<glyph glyph-name=".null" horiz-adv-x="0"/>
<glyph glyph-name="nonmarkingreturn" horiz-adv-x="1000"/>
<glyph glyph-name="space" horiz-adv-x="320" unicode=" "/>
<glyph glyph-name="exclam" horiz-adv-x="303" unicode="!" d="M198 33q0 -43 -46 -43t-46 43q0 44 46 44t46 -44zM172 191h-44l-11 559h66z"/>
<glyph glyph-name="quotedbl" horiz-adv-x="361" unicode='&quot;' d="M66 772h67l-16 -222h-41zM232 772h67l-16 -222h-41z"/>
<glyph glyph-name="numbersign" horiz-adv-x="648" unicode="#" d="M273 472l-30 -184h131l28 184h-129zM65 288h129l30 184h-158v51h165l32 227h48l-31 -227h130l32 227h47l-32 -227h126v-51h-133l-29 -184h161v-51h-167l-34 -237h-47l33 237h-131l-33 -237h-49l33 237h-122v51z"/>
<glyph glyph-name="dollar" horiz-adv-x="605" unicode="$" d="M123 572q0 -28 12 -50q13 -22 39 -38t50 -26t64 -24l21 267q-93 -1 -139 -36t-47 -93zM491 191q-1 61 -45 95t-125 64l-25 -306q195 1 195 147zM285 -85l-38 3l5 69q-113 8 -187 53l8 64q87 -52 184 -59l25 319q-52 18 -82 32t-65 37q-36 23 -53 57t-17 79q0 91 65 141 t184 52l5 66l41 -3l-5 -64q92 -7 150 -37l-6 -59q-72 28 -149 34l-23 -278q49 -17 81 -32t66 -41t52 -62q18 -38 17 -87q1 -109 -61 -160t-191 -53z"/>
<glyph glyph-name="percent" horiz-adv-x="695" unicode="%" d="M594 167q0 75 -21 103t-70 29q-49 -1 -70 -29t-21 -103t22 -103t69 -28t69 28t22 103zM638 167q0 -91 -33 -133t-102 -41q-71 0 -104 41t-33 133q0 93 32 135t105 41q69 -1 102 -41t33 -135zM510 745l39 -27l-379 -711l-39 27zM284 591q0 75 -21 103t-69 29 q-49 -1 -71 -29t-22 -103t22 -103t71 -29q48 1 69 29t21 103zM329 590q1 -92 -33 -133t-103 -41q-71 0 -103 41t-33 133q-1 93 31 134t106 41q69 0 102 -40t33 -135z"/>
<glyph glyph-name="ampersand" horiz-adv-x="679" unicode="&amp;" d="M194 600q0 -54 56 -144q54 40 77 58t49 52t25 67q1 37 -25 58t-72 21q-48 0 -79 -30t-31 -82zM262 47q98 0 180 99q-125 116 -207 230q-115 -95 -115 -193q0 -63 40 -99t102 -37zM667 45l-22 -55q-79 48 -160 119q-100 -121 -232 -121q-99 0 -147 54t-47 138q0 75 39 132 t106 110q-67 105 -67 178q0 74 42 118t127 44q74 0 114 -34t40 -91q0 -31 -14 -61t-38 -56t-50 -48t-61 -47q-12 -9 -18 -13q80 -111 198 -218q56 87 72 181l52 1q-11 -109 -82 -220q77 -66 148 -111z"/>
<glyph glyph-name="quotesingle" horiz-adv-x="195" unicode="&apos;" d="M64 772h67l-16 -222h-41z"/>
<glyph glyph-name="parenleft" horiz-adv-x="317" unicode="(" d="M259 801l55 -4q-153 -206 -153 -461q0 -250 152 -461l-54 -4q-73 87 -115 207t-41 258q0 266 156 465z"/>
<glyph glyph-name="parenright" horiz-adv-x="317" unicode=")" d="M3 797l55 4q155 -198 155 -465q0 -137 -41 -258t-114 -207l-54 4q152 209 152 461q0 253 -153 461z"/>
<glyph glyph-name="asterisk" horiz-adv-x="349" unicode="*" d="M158 796h35l3 -117l111 31l12 -36l-112 -35l72 -98l-28 -23l-75 98l-78 -98l-28 22l73 99l-113 35l13 36l112 -31z"/>
<glyph glyph-name="plus" horiz-adv-x="594" unicode="+" d="M516 312h-194v-190h-55v190h-188v58h188v194h55v-194h194v-58z"/>
<glyph glyph-name="comma" horiz-adv-x="242" unicode="," d="M120 82q47 0 47 -50q-1 -22 -21 -78t-41 -94l-23 6l26 124q-14 4 -24 16t-10 27q0 49 46 49z"/>
<glyph glyph-name="hyphen" horiz-adv-x="414" unicode="-" d="M80 364h253v-48h-253v48z"/>
<glyph glyph-name="period" horiz-adv-x="242" unicode="." d="M168 37q0 -47 -46 -47q-48 0 -48 47q0 46 48 46q46 0 46 -46z"/>
<glyph glyph-name="slash" horiz-adv-x="430" unicode="/" d="M366 799h53l-346 -928h-52z"/>
<glyph glyph-name="zero" d="M526 376q0 128 -22 200t-64 98t-112 26q-72 0 -114 -27t-64 -99t-23 -198q1 -188 47 -258t154 -70q70 0 112 27t64 99t22 202zM589 375q1 -209 -61 -297t-201 -89q-140 0 -201 88t-61 298q0 213 61 299t202 86q140 0 200 -86t61 -299z" unicode="0"/>
<glyph glyph-name="one" d="M190 0v52h146v531l2 81l-2 1l-172 -117l-8 58l208 147h38v-701h141v-52h-353z" unicode="1"/>
<glyph glyph-name="two" d="M562 559q0 -47 -20 -97t-49 -94q-30 -44 -83 -98q-52 -54 -102 -99q-50 -44 -126 -107v-3h388l-2 -61h-476v46q23 21 84 77q61 55 86 79l72 72t69 75q21 28 47 67t38 72q10 33 10 65q0 65 -46 105t-137 40q-108 0 -200 -78l-19 54q96 84 228 84q114 0 176 -52t62 -147z " unicode="2"/>
<glyph glyph-name="three" d="M576 223q0 -107 -66 -169t-199 -62q-128 0 -224 61l15 55q90 -59 208 -59q102 1 154 49t51 129q-1 80 -61 115t-200 35v50q126 1 184 37t57 108q1 64 -47 96t-132 31q-112 0 -203 -76l-19 51q91 84 225 84q111 0 173 -47t62 -135q0 -133 -141 -171v-2q81 -15 122 -59 t41 -121z" unicode="3"/>
<glyph glyph-name="four" d="M436 233l3 383l3 81l-2 1l-43 -70l-206 -327l-44 -65l1 -3h288zM595 175h-101v-175h-59v175h-355l-6 43l340 532h80v-517h104z" unicode="4"/>
<glyph glyph-name="five" d="M565 254q0 -262 -253 -262q-124 0 -212 61l14 57q92 -61 193 -61q196 0 196 200q1 85 -45 125t-143 40q-108 0 -186 -45l-27 25l30 356h398l3 -60h-352l-22 -254q79 34 171 34q235 0 235 -216z" unicode="5"/>
<glyph glyph-name="six" d="M513 256q0 84 -43 124t-137 40q-51 0 -107 -24t-89 -63q2 -154 47 -219t145 -65q184 0 184 207zM576 255q0 -263 -247 -263q-130 0 -193 82t-63 275q0 409 303 409q87 0 161 -30l-7 -58q-71 28 -147 28q-120 0 -182 -74t-68 -230l3 -2q86 80 208 80q120 0 176 -53 t56 -164z" unicode="6"/>
<glyph glyph-name="seven" d="M588 750v-56l-336 -694h-74l346 686h-447l3 64h508z" unicode="7"/>
<glyph glyph-name="eight" d="M160 570q0 -36 14 -62t46 -44t57 -27t72 -23q3 -2 5 -2h4t5 -2q70 28 102 66t32 91q0 137 -170 137q-167 0 -167 -134zM521 198q0 22 -6 41t-14 33q-9 14 -25 26t-28 20t-38 18q-24 10 -38 14t-42 13q-29 9 -42 13q-73 -30 -114 -72t-41 -103q0 -79 46 -117t151 -38 q90 0 140 38t51 114zM72 201q0 69 42 119t112 78v3q-60 24 -92 64t-32 107q0 186 226 186t226 -186q0 -124 -129 -180v-2q73 -26 115 -68t42 -121q0 -210 -254 -210q-132 -1 -194 51t-62 159z" unicode="8"/>
<glyph glyph-name="nine" d="M513 443q-4 258 -201 258q-88 -1 -134 -43t-46 -123t47 -125t142 -44q126 0 192 77zM575 417q0 -225 -71 -325t-218 -100q-90 0 -166 33l10 56q72 -31 150 -31q118 0 174 78t62 256l-2 1q-79 -73 -201 -73q-123 0 -183 58t-59 162q1 108 61 167t181 59q126 0 194 -86 t68 -255z" unicode="9"/>
<glyph glyph-name="colon" horiz-adv-x="242" unicode=":" d="M168 37q0 -47 -46 -47q-48 0 -48 47q0 46 48 46q46 0 46 -46zM168 517q0 -47 -46 -47q-48 0 -48 47q0 46 48 46q46 0 46 -46z"/>
<glyph glyph-name="semicolon" horiz-adv-x="247" unicode=";" d="M121 82q47 0 47 -50q0 -22 -20 -78t-42 -94l-23 6l26 124q-14 4 -24 16t-10 27q0 49 46 49zM173 517q0 -47 -46 -47q-48 0 -48 47q0 46 48 46q46 0 46 -46z"/>
<glyph glyph-name="less" horiz-adv-x="594" unicode="&lt;" d="M502 507l-258 -131l-72 -34v-3l73 -34l257 -127v-63l-409 208v32l409 217v-65z"/>
<glyph glyph-name="equal" horiz-adv-x="594" unicode="=" d="M517 228h-439v52h439v-52zM517 398h-439v52h439v-52z"/>
<glyph glyph-name="greater" horiz-adv-x="594" unicode="&gt;" d="M93 115v63l256 126l74 34v3l-73 34l-257 132v65l409 -217v-32z"/>
<glyph glyph-name="question" horiz-adv-x="516" unicode="?" d="M295 33q0 -43 -45 -43q-47 0 -47 43q0 44 47 44q45 0 45 -44zM463 590q0 -82 -47 -142t-141 -112l-3 -145h-49l-4 170q95 60 139 109t43 113q0 122 -145 122q-103 0 -190 -77l-24 49q86 86 220 86q100 -1 150 -45t51 -128z"/>
<glyph glyph-name="at" horiz-adv-x="846" unicode="@" d="M492 302l30 166q-23 41 -76 41q-62 0 -106 -67t-45 -155q1 -55 23 -83t61 -27q41 -1 73 35t40 90zM445 558q62 0 90 -46h3l13 39l37 -4l-45 -256q-3 -19 -3 -36q0 -83 75 -83q60 0 96 60t36 172q1 148 -79 242t-223 94q-163 0 -254 -116t-91 -286q0 -176 88 -288 t257 -111q185 0 284 99l18 -37q-119 -103 -302 -103q-187 0 -287 120t-100 321q0 89 25 168t73 141t122 98q75 36 168 36q158 0 250 -104t92 -274q0 -138 -50 -208t-131 -70q-90 0 -105 85l-3 1q-48 -86 -133 -86q-58 0 -92 40t-33 121q0 107 60 189t144 82z"/>
<glyph glyph-name="A" horiz-adv-x="698" unicode="A" d="M348 701l-26 -77l-133 -367h318l-131 367l-25 77h-3zM599 0l-71 198h-361l-71 -198h-71l285 750h78l285 -750h-74z"/>
<glyph glyph-name="B" horiz-adv-x="684" unicode="B" d="M517 555q1 72 -35 104t-113 32h-194v-273h202q140 0 140 137zM547 215q0 149 -164 149h-209v-306h213q79 0 119 36t41 121zM612 210q0 -104 -54 -157t-172 -53h-275v750h260q209 0 209 -184q0 -70 -30 -112t-80 -56v-2q142 -29 142 -186z"/>
<glyph glyph-name="C" horiz-adv-x="611" unicode="C" d="M561 726l-9 -61q-73 34 -163 34q-131 0 -191 -71t-60 -245q0 -185 60 -259t194 -75q89 0 162 39l11 -57q-84 -45 -181 -45q-164 0 -239 95t-75 302q0 197 76 288t240 91q101 0 175 -36z"/>
<glyph glyph-name="D" horiz-adv-x="740" unicode="D" d="M602 378q0 174 -57 241t-191 67h-177v-623h178q131 0 189 68t58 247zM671 378q1 -202 -75 -290t-239 -88h-246v750h245q167 0 241 -86t74 -286z"/>
<glyph glyph-name="E" horiz-adv-x="626" unicode="E" d="M176 62h398l-3 -62h-460v750h442l3 -62h-380v-267h329v-56h-329v-303z"/>
<glyph glyph-name="F" horiz-adv-x="595" unicode="F" d="M555 686h-378v-271h318v-60h-318v-355h-66v750h442z"/>
<glyph glyph-name="G" horiz-adv-x="682" unicode="G" d="M611 394v-364q-90 -44 -214 -44q-171 0 -249 91t-78 295q0 206 79 298t250 92q110 0 194 -37l-9 -61q-86 37 -182 37q-140 -1 -202 -73t-62 -255q0 -177 60 -250t198 -73q89 0 156 28v316h59z"/>
<glyph glyph-name="H" horiz-adv-x="759" unicode="H" d="M648 0h-66v361h-405v-361h-66v750h66v-327h405v327h66v-750z"/>
<glyph glyph-name="I" horiz-adv-x="316" unicode="I" d="M125 0v750h66v-750h-66z"/>
<glyph glyph-name="J" horiz-adv-x="549" unicode="J" d="M438 750v-511q0 -123 -64 -188t-181 -65q-94 0 -153 46l7 61q56 -45 139 -45q89 0 137 48t48 144v510h67z"/>
<glyph glyph-name="K" horiz-adv-x="694" unicode="K" d="M660 0h-86l-272 363h-125v-363h-66v750h66v-328h126l258 328h82l-280 -354z"/>
<glyph glyph-name="L" horiz-adv-x="576" unicode="L" d="M177 64h372l-3 -64h-435v750h66v-686z"/>
<glyph glyph-name="M" horiz-adv-x="911" unicode="M" d="M111 750h78l237 -583l29 -75h3l28 75l237 583h77v-750h-59v561l2 81l-3 1l-29 -76l-231 -567h-50l-231 564l-29 76l-2 -1l1 -81v-558h-58v750z"/>
<glyph glyph-name="N" horiz-adv-x="764" unicode="N" d="M653 0h-49l-388 580l-44 68l-2 -1l1 -81v-566h-60v750h65l375 -566l44 -68l2 1l-2 80l-1 553h59v-750z"/>
<glyph glyph-name="O" horiz-adv-x="737" unicode="O" d="M600 375q0 127 -24 197t-72 98t-135 29q-127 0 -179 -69t-52 -255q0 -126 24 -197q24 -72 73 -100t135 -28t134 29t72 99t24 197zM668 375q0 -209 -68 -299t-231 -90t-231 90t-68 299t68 298t231 89t231 -89t68 -298z"/>
<glyph glyph-name="P" horiz-adv-x="646" unicode="P" d="M527 527q-1 88 -43 126t-134 38h-173v-331h173q91 0 134 38t43 129zM594 527q0 -115 -58 -169t-186 -55h-173v-303h-66v750h239q128 0 186 -53t58 -170z"/>
<glyph glyph-name="Q" horiz-adv-x="737" unicode="Q" d="M600 375q0 127 -24 197t-72 98t-135 29q-127 0 -179 -69t-52 -255q0 -126 24 -197q24 -72 73 -100t135 -28t134 29t72 99t24 197zM668 375q0 -191 -56 -281t-185 -103l-1 -2l67 -46l109 -76l-93 -21l-159 140q-152 6 -216 96t-64 293q0 209 68 298t231 89t231 -89 t68 -298z"/>
<glyph glyph-name="R" horiz-adv-x="652" unicode="R" d="M506 544q0 78 -36 112t-116 35h-177v-300h171q82 0 120 36t38 117zM574 547q0 -180 -160 -198l209 -349h-80l-192 337h-174v-337h-66v750h243q112 0 166 -50t54 -153z"/>
<glyph glyph-name="S" horiz-adv-x="563" unicode="S" d="M515 207q0 -105 -63 -163t-181 -58q-119 0 -213 58l12 62q89 -58 201 -58q88 0 134 40t46 115q-1 47 -29 79t-71 49q-43 16 -93 35q-50 18 -92 38q-44 20 -72 60t-28 99q0 89 58 144t175 55q107 0 192 -40l-12 -59q-90 38 -177 38q-88 0 -130 -38t-43 -96q-1 -39 21 -67 t56 -43q34 -16 75 -30t82 -30t75 -38q34 -23 56 -61t21 -91z"/>
<glyph glyph-name="T" horiz-adv-x="575" unicode="T" d="M556 686h-236v-686h-66v686h-235l2 64h534z"/>
<glyph glyph-name="U" horiz-adv-x="741" unicode="U" d="M647 750v-479q0 -285 -276 -285q-277 0 -277 285v479h66v-479q0 -113 52 -167t159 -54q106 0 158 54t52 167v479h66z"/>
<glyph glyph-name="V" horiz-adv-x="683" unicode="V" d="M584 750h69l-273 -750h-77l-273 750h73l214 -610l25 -77h3l25 76z"/>
<glyph glyph-name="W" horiz-adv-x="996" unicode="W" d="M461 750h76l154 -605l19 -79h3l16 79l140 605h66l-183 -750h-84l-151 606l-17 80h-3l-18 -80l-152 -606h-82l-184 750h68l140 -606l17 -79h3l18 79z"/>
<glyph glyph-name="X" horiz-adv-x="689" unicode="X" d="M624 750l-232 -360l250 -390h-78l-221 351l-216 -351h-79l245 389l-236 361h81l205 -323l203 323h78z"/>
<glyph glyph-name="Y" horiz-adv-x="656" unicode="Y" d="M30 750h77l186 -351l36 -72h3l35 72l185 351h74l-263 -487v-263h-67v263z"/>
<glyph glyph-name="Z" horiz-adv-x="616" unicode="Z" d="M554 0h-499v45l376 575l45 65l-1 2h-407l3 63h485v-52l-373 -568l-45 -64l1 -3h418z"/>
<glyph glyph-name="bracketleft" horiz-adv-x="312" unicode="[" d="M103 -126v926h206v-49h-150v-829h150v-48h-206z"/>
<glyph glyph-name="backslash" horiz-adv-x="388" unicode="\" d="M21 799h50l306 -928h-50z"/>
<glyph glyph-name="bracketright" horiz-adv-x="313" unicode="]" d="M209 800v-926h-206v47h151v830h-151v49h206z"/>
<glyph glyph-name="asciicircum" d="M526 463l-199 290l-198 -290h-56l232 342h45l230 -342h-54z" unicode="^"/>
<glyph glyph-name="underscore" horiz-adv-x="436" unicode="_" d="M33 -49h374v-44h-374v44z"/>
<glyph glyph-name="grave" horiz-adv-x="395" unicode="`" d="M269 665h-49l-103 142h79z"/>
<glyph glyph-name="a" horiz-adv-x="568" unicode="a" d="M424 160v118q-14 10 -52 19t-86 9q-164 0 -164 -129q0 -134 139 -134q63 1 113 37t50 80zM439 0l-7 83l-3 1q-23 -42 -73 -68t-111 -25q-85 0 -133 45t-48 140q0 84 54 130t159 46q78 0 147 -26v73q0 82 -36 115t-115 33q-94 0 -167 -37l-7 53q84 39 184 39 q108 0 155 -49t47 -163v-390h-46z"/>
<glyph glyph-name="b" horiz-adv-x="628" unicode="b" d="M509 295q-1 141 -45 195t-135 54q-53 0 -97 -22t-70 -61v-334q21 -37 65 -61t104 -25q86 0 132 56t46 198zM571 296q0 -163 -59 -235t-174 -72q-58 0 -106 21t-76 60l-3 -1l-12 -69h-40v797l61 4v-196l-1 -80l2 -1q65 77 182 77q110 -1 168 -71t58 -234z"/>
<glyph glyph-name="c" horiz-adv-x="501" unicode="c" d="M447 567l-5 -56q-64 31 -130 31q-104 0 -148 -56t-44 -184q0 -139 46 -199t144 -60q80 0 136 41l6 -53q-59 -44 -153 -44q-123 0 -183 75t-59 240q1 152 59 225t184 73q79 0 147 -33z"/>
<glyph glyph-name="d" horiz-adv-x="624" unicode="d" d="M466 126v335q-22 37 -66 59t-99 22q-98 0 -140 -58t-42 -191q1 -137 41 -195t140 -58q68 0 108 26t58 60zM527 0h-46l-10 69l-3 1q-56 -82 -183 -82q-122 0 -175 74t-53 233q0 153 55 229t174 76q117 0 180 -77l2 1l-2 80v191l61 5v-800z"/>
<glyph glyph-name="e" horiz-adv-x="573" unicode="e" d="M118 341h344q-3 205 -170 205q-86 0 -128 -50t-46 -155zM320 -12q-140 0 -202 78t-61 249q-1 141 59 213t176 72q106 0 166 -67t60 -205q0 -14 -2 -30h-397q3 -139 51 -196t156 -57q85 0 163 42l8 -53q-81 -46 -177 -46z"/>
<glyph glyph-name="f" horiz-adv-x="403" unicode="f" d="M195 0h-61v542h-95v48h95v29q0 83 46 129t142 47q49 0 83 -12l-5 -43q-36 9 -70 9q-135 0 -135 -131v-28h166v-48h-166v-542z"/>
<glyph glyph-name="g" horiz-adv-x="565" unicode="g" d="M281 549q-75 0 -107 -30t-33 -93q0 -69 36 -95t103 -26q78 -1 110 29t31 92q0 67 -33 95t-107 28zM329 97l-144 15q-64 -41 -64 -103q0 -112 164 -112q103 1 143 29t41 82q0 42 -29 62t-111 27zM281 257q-48 0 -85 11q-61 -14 -61 -54q0 -37 58 -46l145 -15 q104 -11 146 -43t42 -94q0 -82 -56 -126t-183 -44q-112 0 -166 41t-54 115q0 71 65 121q-54 23 -54 79q0 27 20 50t54 34l1 2q-71 39 -71 139q0 85 48 129t151 44q92 0 144 -41l95 43l14 -31l-76 -51q21 -39 21 -92q1 -87 -45 -129t-153 -42z"/>
<glyph glyph-name="h" horiz-adv-x="622" unicode="h" d="M538 0h-61v399q0 143 -154 143q-53 0 -97 -23t-64 -58v-461h-61v795l61 5v-194l-1 -80l2 -1q64 76 176 76q97 0 148 -52t51 -150v-399z"/>
<glyph glyph-name="i" horiz-adv-x="308" unicode="i" d="M201 753q0 -42 -47 -42t-47 42t47 42t47 -42zM184 0h-61v587l61 5v-592z"/>
<glyph glyph-name="j" horiz-adv-x="305" unicode="j" d="M198 755q0 -42 -47 -42q-23 -1 -35 9t-12 33q0 42 47 42t47 -42zM182 592v-609q0 -137 -125 -137q-31 0 -62 11l5 48q23 -9 44 -9q77 0 77 88v603z"/>
<glyph glyph-name="k" horiz-adv-x="573" unicode="k" d="M162 800v-454h94l206 245h78l-229 -270l239 -321h-77l-217 292h-94v-292h-61v796z"/>
<glyph glyph-name="l" horiz-adv-x="296" unicode="l" d="M178 0h-60v796l60 4v-800z"/>
<glyph glyph-name="m" horiz-adv-x="914" unicode="m" d="M830 0h-60v401q0 70 -38 105t-105 35q-56 1 -95 -33t-39 -94v-414h-60v414q1 65 -37 96t-97 31q-43 1 -83 -21t-61 -58v-462h-60v589l43 4l12 -72h3q25 35 67 56t89 21q127 0 163 -98h3q19 48 63 74t103 25q87 1 138 -49t51 -148v-402z"/>
<glyph glyph-name="n" horiz-adv-x="616" unicode="n" d="M532 0h-60v398q0 144 -156 144q-46 0 -92 -22t-69 -58v-462h-60v589l43 4l11 -71h3q30 38 78 58t101 20q97 0 149 -50t52 -151v-399z"/>
<glyph glyph-name="o" horiz-adv-x="609" unicode="o" d="M120 294q0 -138 43 -196t143 -58q99 0 141 58t42 196q0 136 -42 194t-141 58q-100 0 -143 -58t-43 -194zM552 294q0 -165 -58 -236t-188 -71q-130 -1 -190 71t-59 236q-1 162 59 234t190 72t188 -71t58 -235z"/>
<glyph glyph-name="p" horiz-adv-x="622" unicode="p" d="M502 296q0 138 -44 192t-132 54q-113 0 -168 -82v-332q22 -38 63 -62t99 -24q88 0 135 56t47 198zM565 296q0 -162 -60 -235t-173 -73q-115 0 -173 76l-2 -1l1 -81v-126h-63v731l45 4l13 -68h3q64 77 183 77q114 0 170 -69t56 -235z"/>
<glyph glyph-name="q" horiz-adv-x="622" unicode="q" d="M464 142v314q-16 36 -62 61t-101 25q-97 0 -139 -56t-42 -191q0 -136 43 -192t137 -56q68 -1 114 29t50 66zM524 -144l-61 -2v129l2 81l-2 1q-62 -74 -174 -74q-113 -1 -173 71t-59 233t59 233t175 72q122 0 182 -83h3l10 72h39z"/>
<glyph glyph-name="r" horiz-adv-x="437" unicode="r" d="M155 0h-60v587l49 4l2 -66l2 -81h2q26 70 76 112t116 42q32 0 56 -7l-5 -63q-23 8 -54 8q-77 0 -131 -65t-53 -170v-301z"/>
<glyph glyph-name="s" horiz-adv-x="490" unicode="s" d="M440 166q0 -82 -49 -130t-149 -48q-112 0 -180 54l10 55q67 -56 169 -56q72 1 107 33t35 86q0 42 -33 70q-34 28 -80 43t-92 32t-80 51q-33 34 -33 89q0 73 51 114t145 41q86 0 155 -34l-6 -53q-74 33 -150 33q-63 0 -100 -26t-37 -72q1 -40 33 -65t79 -39t93 -30t80 -54 q32 -36 32 -94z"/>
<glyph glyph-name="t" horiz-adv-x="387" unicode="t" d="M347 541h-155v-399q0 -99 96 -99q31 0 50 8l5 -48q-27 -12 -71 -12q-141 0 -141 149v401h-92v49h93l12 155l48 6v-161h155v-49z"/>
<glyph glyph-name="u" horiz-adv-x="605" unicode="u" d="M521 590v-404q0 -94 -55 -146t-164 -52q-108 0 -163 52t-55 146v404h60v-402q0 -70 40 -106t118 -36t118 36t41 106v402h60z"/>
<glyph glyph-name="v" horiz-adv-x="630" unicode="v" d="M519 590h68l-236 -590h-72l-237 590h69l175 -459l28 -76h3l27 76z"/>
<glyph glyph-name="w" horiz-adv-x="862" unicode="w" d="M400 590h67l123 -466l20 -78h3l16 79l110 465h61l-149 -590h-77l-119 447l-19 79h-3l-20 -79l-122 -447h-75l-154 590h62l112 -463l18 -79h3l19 78z"/>
<glyph glyph-name="x" horiz-adv-x="590" unicode="x" d="M464 0l-172 269l-170 -269h-72l202 300l-197 290h74l167 -258l165 258h71l-193 -288l200 -302h-75z"/>
<glyph glyph-name="y" horiz-adv-x="630" unicode="y" d="M190 -105q38 0 64 19t46 67l4 13l-262 596h73l190 -461l30 -75h3l24 77l158 459h67l-225 -612q-30 -73 -68 -103t-94 -30q-48 0 -86 19l8 49q32 -18 68 -18z"/>
<glyph glyph-name="z" horiz-adv-x="544" unicode="z" d="M475 545l-286 -425l-46 -63l1 -3h335l-2 -54h-407v44l287 425l46 64l-1 2h-319l2 55h390v-45z"/>
<glyph glyph-name="braceleft" horiz-adv-x="361" unicode="{" d="M240 440q0 -78 -63 -99v-3q63 -24 63 -100q0 -44 -8 -114t-8 -113q0 -41 24 -63t82 -22h28v-50h-25q-89 0 -128 32t-39 95q0 45 10 119t10 118q0 34 -22 56t-61 27v32q39 5 61 27t22 56q0 43 -10 117t-10 119q0 64 39 96t128 32h25v-51h-28q-58 0 -82 -21t-24 -63 q0 -43 8 -113t8 -114z"/>
<glyph glyph-name="bar" horiz-adv-x="276" unicode="|" d="M114 -177v993h48v-993h-48z"/>
<glyph glyph-name="braceright" horiz-adv-x="361" unicode="}" d="M120 238q0 76 64 100v3q-64 21 -64 99q0 44 9 114t9 113q0 42 -24 63t-83 21h-28v51h25q89 0 128 -32t39 -96q0 -45 -10 -119t-10 -117q0 -34 22 -56t61 -27v-32q-39 -5 -61 -27t-22 -56q0 -44 10 -118t10 -119q0 -63 -39 -95t-128 -32h-25v50h28q59 0 83 22t24 63 q0 43 -9 113t-9 114z"/>
<glyph glyph-name="asciitilde" d="M146 643h-40q20 123 120 123q38 0 104 -37t97 -37q33 0 51 16t29 47h40q-21 -122 -120 -122q-37 1 -103 37t-97 36q-58 0 -81 -63z" unicode="~"/>
<glyph glyph-name="uni00A0" horiz-adv-x="320" unicode=" "/>
<glyph glyph-name="exclamdown" horiz-adv-x="303" unicode="¡" d="M105 629q0 42 45 42q47 0 47 -42q0 -44 -47 -44q-45 0 -45 44zM128 474h49l8 -609h-66z"/>
<glyph glyph-name="cent" horiz-adv-x="505" unicode="¢" d="M450 567l-5 -56q-64 31 -130 31q-103 0 -147 -56t-45 -184q1 -139 47 -199t143 -60q80 0 136 41l6 -53q-51 -38 -135 -43l-5 -141h-51l6 141q-106 8 -158 84t-52 230q0 147 54 220t172 78l8 132h50l-8 -134q62 -6 114 -31z"/>
<glyph glyph-name="sterling" horiz-adv-x="646" unicode="£" d="M88 350l-2 54h53q-26 96 -26 145q1 94 61 152t195 58q106 0 190 -41l-10 -59q-78 40 -174 40q-101 0 -149 -42t-48 -112q0 -47 25 -141h275v-54h-263q13 -65 13 -116q0 -123 -78 -178l1 -2q94 15 226 15q92 0 224 -13l-2 -30q-2 -30 -3 -32q-148 15 -247 15 q-134 0 -282 -14l-3 58q49 20 75 68t26 110q0 61 -12 119h-65z"/>
<glyph glyph-name="currency" horiz-adv-x="567" unicode="¤" d="M156 361q0 -51 36 -87t90 -36q53 0 89 36t36 87q-1 51 -37 87t-88 36t-89 -36t-37 -87zM112 359q0 57 33 103l-64 66l34 38l65 -68q47 34 102 34q57 0 102 -35l69 69l34 -37l-68 -69q33 -44 33 -101q0 -54 -30 -98l64 -65l-34 -38l-66 66q-45 -36 -104 -36q-58 0 -104 35 l-64 -65l-34 37l63 64q-31 43 -31 100z"/>
<glyph glyph-name="yen" horiz-adv-x="725" unicode="¥" d="M191 327h121l-236 423h76l176 -346l35 -72h3l34 72l175 346h73l-230 -423h117v-43h-135v-57h135v-42h-135v-185h-70v185h-139v42h139v57h-139v43z"/>
<glyph glyph-name="brokenbar" horiz-adv-x="276" unicode="¦" d="M114 -172v448h48v-448h-48zM114 374v442h48v-442h-48z"/>
<glyph glyph-name="section" horiz-adv-x="557" unicode="§" d="M453 280q0 24 -11 46t-23 36q-13 14 -41 34t-43 28t-54 29q-39 20 -51 26q-98 -31 -98 -111q0 -24 11 -46t23 -36t40 -34t44 -28q15 -8 54 -29q39 -20 51 -26q98 32 98 111zM73 362q-1 46 25 85t80 61l1 2q-91 57 -91 128q0 72 54 113t154 41q114 0 185 -50l-8 -50 q-79 48 -175 48q-72 0 -110 -26t-38 -73q0 -37 38 -67t90 -56q53 -24 106 -52q52 -28 90 -75q38 -46 38 -105q0 -46 -26 -86t-79 -60v-3q90 -55 90 -128q1 -73 -53 -113t-154 -40q-114 0 -185 50l7 50q75 -48 175 -48q72 0 110 26t38 73q1 37 -37 67t-91 56q-53 24 -106 52 t-91 75q-38 46 -37 105z"/>
<glyph glyph-name="dieresis" horiz-adv-x="395" unicode="¨" d="M309 756q0 -38 -35 -38t-35 38q0 39 35 39t35 -39zM160 756q0 -38 -35 -38t-35 38q0 39 35 39t35 -39z"/>
<glyph glyph-name="copyright" horiz-adv-x="924" unicode="©" d="M619 592l-6 -48q-54 33 -127 33q-98 0 -154 -55t-56 -142q0 -90 58 -146t153 -56q71 0 140 41q3 -13 7 -46q-73 -56 -161 -56q-114 -1 -186 73t-72 190q0 107 69 181t187 74q90 0 148 -43zM105 381q0 -145 104 -251t253 -106t254 104t105 253q1 144 -105 248t-254 104 q-150 1 -254 -103t-103 -249zM69 380q0 162 115 277t278 115q162 0 278 -115t115 -277q1 -162 -115 -278t-278 -116q-163 0 -278 115t-115 279z"/>
<glyph glyph-name="ordfeminine" horiz-adv-x="406" unicode="ª" d="M290 512v77q-23 16 -82 16q-101 0 -101 -83q0 -84 85 -84q38 0 68 24t30 50zM301 396l-5 52l-3 1q-41 -58 -115 -58q-122 0 -122 131q0 60 36 93t106 33q54 0 92 -19v48q0 53 -22 73t-74 20q-57 0 -108 -24l-6 47q58 26 124 26q74 0 106 -35t32 -116v-272h-41z"/>
<glyph glyph-name="guillemotleft" horiz-adv-x="610" unicode="«" d="M308 460l-211 -131l211 -130v-54l-278 181v7l278 180v-53zM505 460l-211 -131l211 -130v-54l-278 181v7l278 180v-53z"/>
<glyph glyph-name="logicalnot" d="M481 313h-360v58h412v-216h-52v158z" unicode="¬"/>
<glyph glyph-name="registered" horiz-adv-x="453" unicode="®" d="M283 708q0 33 -42 33h-55v-66h60q37 0 37 33zM313 709q0 -45 -42 -56l49 -85h-35l-44 83h-55v-83h-31v200h85q73 0 73 -59zM77 664q1 -62 45 -106t106 -44q60 0 104 44t44 106t-44 106t-104 44q-63 0 -107 -44t-44 -106zM55 664q1 72 51 123t121 51t121 -51t51 -123 q-1 -71 -51 -122t-121 -51t-121 51t-51 122z"/>
<glyph glyph-name="macron" horiz-adv-x="395" unicode="¯" d="M332 766v-44h-263v44h263z"/>
<glyph glyph-name="degree" horiz-adv-x="357" unicode="°" d="M90 692q0 -36 26 -62t63 -25q36 -1 62 25t26 62t-26 62t-62 26q-39 0 -64 -26t-25 -62zM56 692q0 52 36 88t86 36q51 0 87 -36t36 -88t-36 -88t-87 -36q-50 0 -86 37t-36 87z"/>
<glyph glyph-name="plusminus" d="M541 81h-431v51h431v-51zM543 348h-190v-173h-56v173h-186v57h186v187h56v-187h190v-57z" unicode="±"/>
<glyph glyph-name="twosuperior" horiz-adv-x="341" unicode="²" d="M304 792q0 -56 -46 -110t-145 -132v-3h195l-1 -45h-262v35q12 11 44 40t44 41t36 35q25 23 35 37t23 32t18 35q5 16 5 31q0 32 -21 50t-65 18q-52 0 -105 -39l-14 42q55 43 129 43q62 0 96 -30t34 -80z"/>
<glyph glyph-name="threesuperior" horiz-adv-x="341" unicode="³" d="M305 620q0 -122 -146 -122q-71 0 -124 32l13 41q49 -30 111 -30q48 0 72 22t24 60t-29 54t-101 16v38q65 0 93 17t28 51q0 59 -84 59q-63 0 -110 -38l-13 39q50 43 124 43q62 0 97 -26t35 -74q0 -68 -72 -88v-2q82 -17 82 -92z"/>
<glyph glyph-name="acute" horiz-adv-x="395" unicode="´" d="M243 807h80l-110 -142h-50z"/>
<glyph glyph-name="mu" horiz-adv-x="616" unicode="µ" d="M321 -11q-57 0 -103 23t-69 72l-2 -1q5 -141 10 -227l-62 -6v740h61l-1 -399q0 -69 46 -108t119 -39q67 0 109 34t42 94v418h61v-589l-44 -5l-10 66l-3 1q-42 -74 -154 -74z"/>
<glyph glyph-name="paragraph" horiz-adv-x="643" unicode="¶" d="M249 -147h-55v655q-64 2 -102 34t-37 90q0 54 37 86t105 32h390l-3 -55h-78v-842h-55v842h-203z"/>
<glyph glyph-name="periodcentered" horiz-adv-x="276" unicode="·" d="M185 344q0 -47 -46 -47q-48 0 -48 47q0 46 48 46q46 0 46 -46z"/>
<glyph glyph-name="cedilla" horiz-adv-x="395" unicode="¸" d="M137 -192l59 192h43l-40 -192h-62z"/>
<glyph glyph-name="onesuperior" horiz-adv-x="264" unicode="¹" d="M192 899v-397h-53v248l3 79l-3 1l-85 -57l-5 44l111 82h32z"/>
<glyph glyph-name="ordmasculine" horiz-adv-x="439" unicode="º" d="M108 604q0 -94 26 -130t87 -36t87 37t25 129q1 92 -25 128t-87 37q-61 -1 -87 -37t-26 -128zM386 604q0 -116 -39 -165t-126 -49t-127 49t-40 165q0 115 40 165t127 50q89 1 127 -49t38 -166z"/>
<glyph glyph-name="guillemotright" horiz-adv-x="610" unicode="»" d="M84 145v54l211 130l-211 131v53l278 -180v-7zM282 145v54l211 130l-211 131v53l278 -180v-7z"/>
<glyph glyph-name="onequarter" horiz-adv-x="869" unicode="¼" d="M661 750h49l-508 -750h-49zM669 130l1 137l3 81l-2 1l-45 -68l-57 -85l-46 -63l1 -3h145zM766 88h-49v-88h-49v88h-201l-4 29l190 277h64v-264h51zM279 752v-397h-53v248l3 79l-3 1l-85 -57l-5 44l111 82h32z"/>
<glyph glyph-name="onehalf" horiz-adv-x="869" unicode="½" d="M276 752v-397h-53v248l3 79l-3 1l-85 -57l-5 44l111 82h32zM654 750h49l-508 -750h-49zM781 290q-1 -58 -47 -112t-144 -130v-3h195l-1 -45h-262v35q12 11 34 31t35 32q12 10 31 28q20 18 30 30t24 26q14 16 22 28t15 26q8 14 11 26t3 24q0 32 -21 50t-65 18 q-52 0 -105 -39l-14 42q56 42 129 42q63 0 97 -29t33 -80z"/>
<glyph glyph-name="threequarters" horiz-adv-x="869" unicode="¾" d="M341 473q0 -122 -146 -122q-71 0 -124 32l13 41q49 -30 111 -30q48 0 72 22t24 60t-29 54t-101 16v38q65 0 93 17t28 51q0 59 -84 59q-62 0 -110 -37l-13 38q50 43 124 43q62 1 97 -25t35 -75q0 -68 -72 -88v-2q82 -17 82 -92zM662 750h49l-508 -750h-49zM671 130l1 137 l3 81l-2 1l-45 -68l-57 -85l-46 -63l1 -3h145zM768 88h-49v-88h-49v88h-201l-4 29l190 277h64v-264h51z"/>
<glyph glyph-name="questiondown" horiz-adv-x="490" unicode="¿" d="M222 628q0 44 45 44q47 0 47 -44q0 -43 -47 -43q-45 0 -45 43zM53 71q0 82 47 142t141 112l4 146h49l4 -171q-94 -60 -138 -109t-44 -113q0 -121 144 -121q105 0 191 76l24 -48q-85 -87 -220 -87q-100 0 -151 44t-51 129z"/>
<glyph glyph-name="Agrave" horiz-adv-x="698" unicode="À" d="M396 802h-53l-116 114h83zM348 701l-26 -77l-133 -367h318l-131 367l-25 77h-3zM599 0l-71 198h-361l-71 -198h-71l285 750h78l285 -750h-74z"/>
<glyph glyph-name="Aacute" horiz-adv-x="698" unicode="Á" d="M385 915h90l-125 -115h-52zM348 701l-26 -77l-133 -367h318l-131 367l-25 77h-3zM599 0l-71 198h-361l-71 -198h-71l285 750h78l285 -750h-74z"/>
<glyph glyph-name="Acircumflex" horiz-adv-x="698" unicode="Â" d="M316 915h65l121 -115h-64l-89 83l-87 -83h-63zM348 701l-26 -77l-133 -367h318l-131 367l-25 77h-3zM599 0l-71 198h-361l-71 -198h-71l285 750h78l285 -750h-74z"/>
<glyph glyph-name="Atilde" horiz-adv-x="698" unicode="Ã" d="M242 808l-31 1q5 45 25 71t52 26q28 0 68 -36t57 -35q32 0 44 57l30 -1q-5 -44 -25 -71t-53 -27q-28 -1 -67 35t-56 36q-30 0 -44 -56zM348 701l-26 -77l-133 -367h318l-131 367l-25 77h-3zM599 0l-71 198h-361l-71 -198h-71l285 750h78l285 -750h-74z"/>
<glyph glyph-name="Adieresis" horiz-adv-x="698" unicode="Ä" d="M478 845q0 -37 -34 -37q-35 0 -35 37t35 37q34 0 34 -37zM290 845q0 -37 -34 -37q-35 0 -35 37t35 37q34 0 34 -37zM348 701l-26 -77l-133 -367h318l-131 367l-25 77h-3zM599 0l-71 198h-361l-71 -198h-71l285 750h78l285 -750h-74z"/>
<glyph glyph-name="Aring" horiz-adv-x="698" unicode="Å" d="M303 804q0 -40 46 -40q47 0 47 40t-47 40q-46 0 -46 -40zM348 701l-26 -77l-133 -367h318l-131 367l-25 77h-3zM267 805q-1 33 21 53t61 19q38 1 60 -19t22 -52q0 -48 -40 -65l282 -741h-74l-71 198h-361l-71 -198h-71l281 740q-39 17 -39 65z"/>
<glyph glyph-name="AE" horiz-adv-x="1050" unicode="Æ" d="M516 701l-37 -72l-203 -372h292l-42 363l-7 80zM987 688h-406l32 -267h316v-56h-309l36 -303h341l-3 -62h-396l-23 198h-331l-108 -198h-80l425 750h504z"/>
<glyph glyph-name="Ccedilla" horiz-adv-x="611" unicode="Ç" d="M302 -192l55 179q-149 9 -218 103t-69 293q0 197 76 288t240 91q101 0 175 -36l-9 -61q-73 34 -163 34q-131 0 -191 -71t-60 -245q0 -185 60 -259t194 -75q89 0 162 39l11 -57q-74 -40 -164 -44l-37 -179h-62z"/>
<glyph glyph-name="Egrave" horiz-adv-x="626" unicode="È" d="M388 802h-53l-116 114h83zM176 62h398l-3 -62h-460v750h442l3 -62h-380v-267h329v-56h-329v-303z"/>
<glyph glyph-name="Eacute" horiz-adv-x="626" unicode="É" d="M377 915h90l-125 -115h-52zM176 62h398l-3 -62h-460v750h442l3 -62h-380v-267h329v-56h-329v-303z"/>
<glyph glyph-name="Ecircumflex" horiz-adv-x="626" unicode="Ê" d="M309 915h65l121 -115h-64l-89 83l-87 -83h-63zM176 62h398l-3 -62h-460v750h442l3 -62h-380v-267h329v-56h-329v-303z"/>
<glyph glyph-name="Edieresis" horiz-adv-x="626" unicode="Ë" d="M470 845q0 -37 -34 -37q-35 0 -35 37t35 37q34 0 34 -37zM282 845q0 -37 -34 -37q-35 0 -35 37t35 37q34 0 34 -37zM176 62h398l-3 -62h-460v750h442l3 -62h-380v-267h329v-56h-329v-303z"/>
<glyph glyph-name="Igrave" horiz-adv-x="316" unicode="Ì" d="M205 802h-53l-116 114h83zM125 0v750h66v-750h-66z"/>
<glyph glyph-name="Iacute" horiz-adv-x="316" unicode="Í" d="M194 915h90l-125 -115h-52zM125 0v750h66v-750h-66z"/>
<glyph glyph-name="Icircumflex" horiz-adv-x="316" unicode="Î" d="M125 915h65l121 -115h-64l-89 83l-87 -83h-63zM125 0v750h66v-750h-66z"/>
<glyph glyph-name="Idieresis" horiz-adv-x="316" unicode="Ï" d="M287 845q0 -37 -34 -37q-35 0 -35 37t35 37q34 0 34 -37zM99 845q0 -37 -34 -37q-35 0 -35 37t35 37q34 0 34 -37zM125 0v750h66v-750h-66z"/>
<glyph glyph-name="Eth" horiz-adv-x="746" unicode="Ð" d="M608 378q0 174 -57 241t-191 67h-177v-270h117v-45h-117v-308h178q131 0 189 68t58 247zM677 378q1 -202 -75 -290t-239 -88h-246v371h-78v45h78v334h245q167 0 241 -86t74 -286z"/>
<glyph glyph-name="Ntilde" horiz-adv-x="764" unicode="Ñ" d="M283 808l-31 1q5 45 25 71t52 26q29 0 69 -36t56 -35q32 0 44 57l30 -1q-5 -44 -25 -71t-53 -27q-28 -1 -67 35t-56 36q-30 0 -44 -56zM653 0h-49l-388 580l-44 68l-2 -1l1 -81v-566h-60v750h65l375 -566l44 -68l2 1l-2 80l-1 553h59v-750z"/>
<glyph glyph-name="Ograve" horiz-adv-x="737" unicode="Ò" d="M435 802h-53l-116 114h83zM600 375q0 127 -24 197t-72 98t-135 29q-127 0 -179 -69t-52 -255q0 -126 24 -197q24 -72 73 -100t135 -28t134 29t72 99t24 197zM668 375q0 -209 -68 -299t-231 -90t-231 90t-68 299t68 298t231 89t231 -89t68 -298z"/>
<glyph glyph-name="Oacute" horiz-adv-x="737" unicode="Ó" d="M405 915h90l-125 -115h-52zM600 375q0 127 -24 197t-72 98t-135 29q-127 0 -179 -69t-52 -255q0 -126 24 -197q24 -72 73 -100t135 -28t134 29t72 99t24 197zM668 375q0 -209 -68 -299t-231 -90t-231 90t-68 299t68 298t231 89t231 -89t68 -298z"/>
<glyph glyph-name="Ocircumflex" horiz-adv-x="737" unicode="Ô" d="M337 915h65l121 -115h-64l-89 83l-87 -83h-63zM600 375q0 127 -24 197t-72 98t-135 29q-127 0 -179 -69t-52 -255q0 -126 24 -197q24 -72 73 -100t135 -28t134 29t72 99t24 197zM668 375q0 -209 -68 -299t-231 -90t-231 90t-68 299t68 298t231 89t231 -89t68 -298z"/>
<glyph glyph-name="Otilde" horiz-adv-x="737" unicode="Õ" d="M263 808l-31 1q5 45 25 71t52 26q29 0 69 -36t56 -35q32 0 44 57l30 -1q-5 -44 -25 -71t-53 -27q-28 -1 -67 35t-56 36q-30 0 -44 -56zM600 375q0 127 -24 197t-72 98t-135 29q-127 0 -179 -69t-52 -255q0 -126 24 -197q24 -72 73 -100t135 -28t134 29t72 99t24 197z M668 375q0 -209 -68 -299t-231 -90t-231 90t-68 299t68 298t231 89t231 -89t68 -298z"/>
<glyph glyph-name="Odieresis" horiz-adv-x="737" unicode="Ö" d="M498 845q0 -37 -34 -37q-35 0 -35 37t35 37q34 0 34 -37zM310 845q0 -37 -34 -37q-35 0 -35 37t35 37q34 0 34 -37zM600 375q0 127 -24 197t-72 98t-135 29q-127 0 -179 -69t-52 -255q0 -126 24 -197q24 -72 73 -100t135 -28t134 29t72 99t24 197zM668 375 q0 -209 -68 -299t-231 -90t-231 90t-68 299t68 298t231 89t231 -89t68 -298z"/>
<glyph glyph-name="multiply" horiz-adv-x="594" unicode="×" d="M488 184l-35 -40l-155 154l-155 -154l-37 40l156 154l-155 153l36 41l156 -154l153 154l37 -41l-155 -153z"/>
<glyph glyph-name="Oslash" horiz-adv-x="737" unicode="Ø" d="M600 375q0 132 -24 207l-3 1l-50 -64l-330 -402q51 -67 177 -67t178 70t52 255zM139 375q0 -145 31 -219l383 467q-50 76 -183 76q-127 0 -179 -69t-52 -255zM93 -14l-34 35l62 82q-51 89 -51 272q0 209 69 298t231 89q157 0 227 -84l69 82l34 -33l-75 -94 q43 -87 43 -258q0 -209 -68 -299t-230 -90q-151 0 -220 76z"/>
<glyph glyph-name="Ugrave" horiz-adv-x="741" unicode="Ù" d="M417 802h-53l-116 114h83zM647 750v-479q0 -285 -276 -285q-277 0 -277 285v479h66v-479q0 -113 52 -167t159 -54q106 0 158 54t52 167v479h66z"/>
<glyph glyph-name="Uacute" horiz-adv-x="741" unicode="Ú" d="M405 915h90l-125 -115h-52zM647 750v-479q0 -285 -276 -285q-277 0 -277 285v479h66v-479q0 -113 52 -167t159 -54q106 0 158 54t52 167v479h66z"/>
<glyph glyph-name="Ucircumflex" horiz-adv-x="741" unicode="Û" d="M337 915h65l121 -115h-64l-89 83l-87 -83h-63zM647 750v-479q0 -285 -276 -285q-277 0 -277 285v479h66v-479q0 -113 52 -167t159 -54q106 0 158 54t52 167v479h66z"/>
<glyph glyph-name="Udieresis" horiz-adv-x="741" unicode="Ü" d="M499 845q0 -37 -34 -37q-35 0 -35 37t35 37q34 0 34 -37zM311 845q0 -37 -34 -37q-35 0 -35 37t35 37q34 0 34 -37zM647 750v-479q0 -285 -276 -285q-277 0 -277 285v479h66v-479q0 -113 52 -167t159 -54q106 0 158 54t52 167v479h66z"/>
<glyph glyph-name="Yacute" horiz-adv-x="656" unicode="Ý" d="M365 915h90l-125 -115h-52zM30 750h77l186 -351l36 -72h3l35 72l185 351h74l-263 -487v-263h-67v263z"/>
<glyph glyph-name="Thorn" horiz-adv-x="645" unicode="Þ" d="M528 388q0 89 -47 126t-155 37h-150v-331h150q108 0 155 37t47 131zM594 387q0 -116 -62 -170t-206 -54h-150v-163h-65v750h65v-140h150q144 0 206 -52t62 -171z"/>
<glyph glyph-name="germandbls" horiz-adv-x="622" unicode="ß" d="M101 0v511q-1 122 57 187t164 65q70 -1 116 -37t45 -90q1 -36 -23 -72t-52 -58t-52 -44t-24 -38t25 -32t60 -36q35 -18 71 -41t60 -61q25 -38 25 -84q0 -82 -58 -130t-156 -48q-105 0 -163 43l6 56q58 -43 148 -43q74 0 118 32t44 88q0 38 -25 70t-61 52t-72 39 q-36 18 -62 40q-25 22 -25 47q0 24 25 52q24 28 54 50t55 52q25 32 25 64q0 33 -29 54t-76 21q-79 0 -119 -49t-41 -143v-517h-60z"/>
<glyph glyph-name="agrave" horiz-adv-x="568" unicode="à" d="M321 665h-49l-103 142h79zM424 160v118q-14 10 -52 19t-86 9q-164 0 -164 -129q0 -134 139 -134q63 1 113 37t50 80zM439 0l-7 83l-3 1q-23 -42 -73 -68t-111 -25q-85 0 -133 45t-48 140q0 84 54 130t159 46q78 0 147 -26v73q0 82 -36 115t-115 33q-94 0 -167 -37l-7 53 q84 39 184 39q108 0 155 -49t47 -163v-390h-46z"/>
<glyph glyph-name="aacute" horiz-adv-x="568" unicode="á" d="M309 807h80l-110 -142h-50zM424 160v118q-14 10 -52 19t-86 9q-164 0 -164 -129q0 -134 139 -134q63 1 113 37t50 80zM439 0l-7 83l-3 1q-23 -42 -73 -68t-111 -25q-85 0 -133 45t-48 140q0 84 54 130t159 46q78 0 147 -26v73q0 82 -36 115t-115 33q-94 0 -167 -37l-7 53 q84 39 184 39q108 0 155 -49t47 -163v-390h-46z"/>
<glyph glyph-name="acircumflex" horiz-adv-x="568" unicode="â" d="M252 807h56l107 -142h-51l-84 113l-82 -113h-51zM424 160v118q-14 10 -52 19t-86 9q-164 0 -164 -129q0 -134 139 -134q63 1 113 37t50 80zM439 0l-7 83l-3 1q-23 -42 -73 -68t-111 -25q-85 0 -133 45t-48 140q0 84 54 130t159 46q78 0 147 -26v73q0 82 -36 115t-115 33 q-94 0 -167 -37l-7 53q84 39 184 39q108 0 155 -49t47 -163v-390h-46z"/>
<glyph glyph-name="atilde" horiz-adv-x="568" unicode="ã" d="M173 690l-33 1q5 49 26 78t52 29q32 0 70 -38t58 -37q31 0 45 64l33 -1q-4 -50 -26 -78t-53 -29q-25 1 -47 19t-42 37t-37 19q-31 0 -46 -64zM424 160v118q-14 10 -52 19t-86 9q-164 0 -164 -129q0 -134 139 -134q63 1 113 37t50 80zM439 0l-7 83l-3 1q-23 -42 -73 -68 t-111 -25q-85 0 -133 45t-48 140q0 84 54 130t159 46q78 0 147 -26v73q0 82 -36 115t-115 33q-94 0 -167 -37l-7 53q84 39 184 39q108 0 155 -49t47 -163v-390h-46z"/>
<glyph glyph-name="adieresis" horiz-adv-x="568" unicode="ä" d="M396 756q0 -38 -35 -38t-35 38q0 39 35 39t35 -39zM247 756q0 -38 -35 -38t-35 38q0 39 35 39t35 -39zM424 160v118q-14 10 -52 19t-86 9q-164 0 -164 -129q0 -134 139 -134q63 1 113 37t50 80zM439 0l-7 83l-3 1q-23 -42 -73 -68t-111 -25q-85 0 -133 45t-48 140 q0 84 54 130t159 46q78 0 147 -26v73q0 82 -36 115t-115 33q-94 0 -167 -37l-7 53q84 39 184 39q108 0 155 -49t47 -163v-390h-46z"/>
<glyph glyph-name="aring" horiz-adv-x="568" unicode="å" d="M231 745q0 -21 14 -33t40 -13q25 0 40 13t15 33q0 21 -15 33t-40 13q-26 -1 -40 -13t-14 -33zM196 745q0 34 24 55t64 21t64 -21t24 -55q0 -35 -24 -55t-64 -20t-64 20t-24 55zM424 160v118q-14 10 -52 19t-86 9q-164 0 -164 -129q0 -134 139 -134q63 1 113 37t50 80z M439 0l-7 83l-3 1q-23 -42 -73 -68t-111 -25q-85 0 -133 45t-48 140q0 84 54 130t159 46q78 0 147 -26v73q0 82 -36 115t-115 33q-94 0 -167 -37l-7 53q84 39 184 39q108 0 155 -49t47 -163v-390h-46z"/>
<glyph glyph-name="ae" horiz-adv-x="933" unicode="æ" d="M479 341h343q-1 105 -47 155t-123 50q-85 0 -127 -51t-46 -154zM424 182v94q-14 10 -52 19t-86 9q-165 0 -165 -129q0 -134 140 -134q71 1 117 41t46 100zM283 600q75 0 118 -25t60 -79h2q57 104 192 104q102 0 162 -68t60 -204q0 -22 -1 -30h-396q4 -139 52 -196 t154 -57q82 0 163 43l8 -54q-81 -46 -178 -46q-176 0 -225 127h-3q-22 -59 -75 -93t-126 -33q-186 0 -186 185q0 175 213 175q79 0 147 -28v76q0 82 -36 115t-115 33q-94 0 -167 -37l-7 53q84 39 184 39z"/>
<glyph glyph-name="ccedilla" horiz-adv-x="501" unicode="ç" d="M216 -192l55 180q-109 8 -161 84t-53 230q1 152 59 225t184 73q79 0 147 -33l-5 -56q-64 31 -130 31q-104 0 -148 -56t-44 -184q0 -139 46 -199t144 -60q80 0 136 41l6 -53q-51 -38 -137 -43l-37 -180h-62z"/>
<glyph glyph-name="egrave" horiz-adv-x="573" unicode="è" d="M333 665h-49l-103 142h79zM118 341h344q-3 205 -170 205q-86 0 -128 -50t-46 -155zM320 -12q-140 0 -202 78t-61 249q-1 141 59 213t176 72q106 0 166 -67t60 -205q0 -14 -2 -30h-397q3 -139 51 -196t156 -57q85 0 163 42l8 -53q-81 -46 -177 -46z"/>
<glyph glyph-name="eacute" horiz-adv-x="573" unicode="é" d="M321 807h80l-110 -142h-50zM118 341h344q-3 205 -170 205q-86 0 -128 -50t-46 -155zM320 -12q-140 0 -202 78t-61 249q-1 141 59 213t176 72q106 0 166 -67t60 -205q0 -14 -2 -30h-397q3 -139 51 -196t156 -57q85 0 163 42l8 -53q-81 -46 -177 -46z"/>
<glyph glyph-name="ecircumflex" horiz-adv-x="573" unicode="ê" d="M263 807h56l107 -142h-51l-84 113l-82 -113h-51zM118 341h344q-3 205 -170 205q-86 0 -128 -50t-46 -155zM320 -12q-140 0 -202 78t-61 249q-1 141 59 213t176 72q106 0 166 -67t60 -205q0 -14 -2 -30h-397q3 -139 51 -196t156 -57q85 0 163 42l8 -53q-81 -46 -177 -46z "/>
<glyph glyph-name="edieresis" horiz-adv-x="573" unicode="ë" d="M395 756q0 -38 -35 -38t-35 38q0 39 35 39t35 -39zM246 756q0 -38 -35 -38t-35 38q0 39 35 39t35 -39zM118 341h344q-3 205 -170 205q-86 0 -128 -50t-46 -155zM320 -12q-140 0 -202 78t-61 249q-1 141 59 213t176 72q106 0 166 -67t60 -205q0 -14 -2 -30h-397 q3 -139 51 -196t156 -57q85 0 163 42l8 -53q-81 -46 -177 -46z"/>
<glyph glyph-name="igrave" horiz-adv-x="308" unicode="ì" d="M193 665h-49l-103 142h79zM184 0h-61v587l61 5v-592z"/>
<glyph glyph-name="iacute" horiz-adv-x="308" unicode="í" d="M181 807h80l-110 -142h-50zM184 0h-61v587l61 5v-592z"/>
<glyph glyph-name="icircumflex" horiz-adv-x="308" unicode="î" d="M123 807h56l107 -142h-51l-84 113l-82 -113h-51zM184 0h-61v587l61 5v-592z"/>
<glyph glyph-name="idieresis" horiz-adv-x="308" unicode="ï" d="M267 756q0 -38 -35 -38t-35 38q0 39 35 39t35 -39zM118 756q0 -38 -35 -38t-35 38q0 39 35 39t35 -39zM184 0h-61v587l61 5v-592z"/>
<glyph glyph-name="eth" horiz-adv-x="610" unicode="ð" d="M119 286q-1 -138 45 -190t142 -53q93 1 139 67t46 211q0 199 -185 199q-100 0 -144 -54t-43 -180zM440 781l-77 -64q84 -77 137 -179t53 -207q-1 -181 -61 -262t-184 -81q-129 0 -190 68t-61 232q0 149 55 218t180 69q105 0 167 -59l2 2q-45 91 -135 169l-86 -71l-26 24 l83 70q-43 33 -99 65l38 33q49 -25 99 -66l79 66z"/>
<glyph glyph-name="ntilde" horiz-adv-x="616" unicode="ñ" d="M202 690l-33 1q5 49 26 78t52 29t69 -38t59 -37q31 0 45 64l33 -1q-5 -50 -27 -78t-52 -29q-24 1 -46 19t-43 37q-20 19 -37 19q-31 0 -46 -64zM532 0h-60v398q0 144 -156 144q-46 0 -92 -22t-69 -58v-462h-60v589l43 4l11 -71h3q30 38 78 58t101 20q97 0 149 -50 t52 -151v-399z"/>
<glyph glyph-name="ograve" horiz-adv-x="609" unicode="ò" d="M347 665h-49l-103 142h79zM120 294q0 -138 43 -196t143 -58q99 0 141 58t42 196q0 136 -42 194t-141 58q-100 0 -143 -58t-43 -194zM552 294q0 -165 -58 -236t-188 -71q-130 -1 -190 71t-59 236q-1 162 59 234t190 72t188 -71t58 -235z"/>
<glyph glyph-name="oacute" horiz-adv-x="609" unicode="ó" d="M335 807h80l-110 -142h-50zM120 294q0 -138 43 -196t143 -58q99 0 141 58t42 196q0 136 -42 194t-141 58q-100 0 -143 -58t-43 -194zM552 294q0 -165 -58 -236t-188 -71q-130 -1 -190 71t-59 236q-1 162 59 234t190 72t188 -71t58 -235z"/>
<glyph glyph-name="ocircumflex" horiz-adv-x="609" unicode="ô" d="M277 807h56l107 -142h-51l-84 113l-82 -113h-51zM120 294q0 -138 43 -196t143 -58q99 0 141 58t42 196q0 136 -42 194t-141 58q-100 0 -143 -58t-43 -194zM552 294q0 -165 -58 -236t-188 -71q-130 -1 -190 71t-59 236q-1 162 59 234t190 72t188 -71t58 -235z"/>
<glyph glyph-name="otilde" horiz-adv-x="609" unicode="õ" d="M199 690l-33 1q5 49 26 78t52 29q32 0 70 -38t58 -37q31 0 45 64l33 -1q-4 -50 -26 -78t-53 -29q-25 1 -47 19t-42 37t-37 19q-31 0 -46 -64zM120 294q0 -138 43 -196t143 -58q99 0 141 58t42 196q0 136 -42 194t-141 58q-100 0 -143 -58t-43 -194zM552 294 q0 -165 -58 -236t-188 -71q-130 -1 -190 71t-59 236q-1 162 59 234t190 72t188 -71t58 -235z"/>
<glyph glyph-name="odieresis" horiz-adv-x="609" unicode="ö" d="M414 756q0 -38 -35 -38t-35 38q0 39 35 39t35 -39zM265 756q0 -38 -35 -38t-35 38q0 39 35 39t35 -39zM120 294q0 -138 43 -196t143 -58q99 0 141 58t42 196q0 136 -42 194t-141 58q-100 0 -143 -58t-43 -194zM552 294q0 -165 -58 -236t-188 -71q-130 -1 -190 71t-59 236 q-1 162 59 234t190 72t188 -71t58 -235z"/>
<glyph glyph-name="divide" horiz-adv-x="594" unicode="÷" d="M526 311h-457v60h457v-60zM343 189q0 -41 -47 -41q-46 0 -46 41q0 42 46 42q47 0 47 -42zM343 491q0 -41 -47 -41q-46 0 -46 41q0 42 46 42q47 0 47 -42z"/>
<glyph glyph-name="oslash" horiz-adv-x="609" unicode="ø" d="M120 294q0 -89 17 -149h2l52 61l252 288q-43 52 -137 52q-102 0 -144 -58t-42 -194zM489 294q0 113 -27 168l-308 -352q41 -70 152 -70q99 0 141 58t42 196zM73 1l-28 28l49 63q-37 71 -37 202q-1 162 59 234t190 72q115 0 172 -54l40 52l28 -27l-41 -58q47 -72 47 -219 q0 -165 -58 -236t-188 -71q-129 0 -188 69z"/>
<glyph glyph-name="ugrave" horiz-adv-x="605" unicode="ù" d="M345 665h-49l-103 142h79zM521 590v-404q0 -94 -55 -146t-164 -52q-108 0 -163 52t-55 146v404h60v-402q0 -70 40 -106t118 -36t118 36t41 106v402h60z"/>
<glyph glyph-name="uacute" horiz-adv-x="605" unicode="ú" d="M333 807h80l-110 -142h-50zM521 590v-404q0 -94 -55 -146t-164 -52q-108 0 -163 52t-55 146v404h60v-402q0 -70 40 -106t118 -36t118 36t41 106v402h60z"/>
<glyph glyph-name="ucircumflex" horiz-adv-x="605" unicode="û" d="M275 807h56l107 -142h-51l-84 113l-82 -113h-51zM521 590v-404q0 -94 -55 -146t-164 -52q-108 0 -163 52t-55 146v404h60v-402q0 -70 40 -106t118 -36t118 36t41 106v402h60z"/>
<glyph glyph-name="udieresis" horiz-adv-x="605" unicode="ü" d="M412 756q0 -38 -35 -38t-35 38q0 39 35 39t35 -39zM263 756q0 -38 -35 -38t-35 38q0 39 35 39t35 -39zM521 590v-404q0 -94 -55 -146t-164 -52q-108 0 -163 52t-55 146v404h60v-402q0 -70 40 -106t118 -36t118 36t41 106v402h60z"/>
<glyph glyph-name="yacute" horiz-adv-x="630" unicode="ý" d="M339 807h80l-110 -142h-50zM190 -105q38 0 64 19t46 67l4 13l-262 596h73l190 -461l30 -75h3l24 77l158 459h67l-225 -612q-30 -73 -68 -103t-94 -30q-48 0 -86 19l8 49q32 -18 68 -18z"/>
<glyph glyph-name="thorn" horiz-adv-x="628" unicode="þ" d="M506 296q0 138 -42 192t-132 54q-112 0 -168 -82v-332q50 -86 162 -86q88 0 134 56t46 198zM571 296q-1 -162 -59 -235t-171 -73q-115 0 -176 74l-2 -1l1 -81v-124h-63v940l63 4v-196l-1 -80l2 -1q69 77 185 77q111 0 166 -69t55 -235z"/>
<glyph glyph-name="OE" horiz-adv-x="1110" unicode="Œ" d="M596 375q0 187 -50 256t-177 69t-179 -70t-52 -255t52 -255t180 -71q126 0 176 70t50 256zM1055 0h-454v117l-3 1q-57 -132 -239 -132q-155 0 -222 90t-67 299q0 207 67 297t222 90q185 0 239 -123h3v111h436l2 -62h-378v-267h327v-56h-327v-303h397z"/>
<glyph glyph-name="oe" horiz-adv-x="1012" unicode="œ" d="M559 341h341q0 105 -46 155t-122 50q-167 0 -173 -205zM128 294q0 -138 44 -196t143 -58t141 58t42 196q0 136 -42 194t-141 58t-143 -58t-44 -194zM760 -12q-96 0 -150 34t-78 109h-3q-23 -76 -77 -110t-141 -34q-127 -1 -185 71t-59 236q0 162 59 234t185 72 q171 0 216 -129h3q46 129 203 129q103 0 163 -67t61 -205q0 -14 -2 -30h-395q3 -139 51 -196t155 -57q82 0 162 43l9 -54q-81 -46 -177 -46z"/>
<glyph glyph-name="Scaron" horiz-adv-x="563" unicode="Š" d="M337 800h-65l-119 115h63l88 -86l90 86h62zM515 207q0 -105 -63 -163t-181 -58q-119 0 -213 58l12 62q89 -58 201 -58q88 0 134 40t46 115q-1 47 -29 79t-71 49q-43 16 -93 35q-50 18 -92 38q-44 20 -72 60t-28 99q0 89 58 144t175 55q107 0 192 -40l-12 -59 q-90 38 -177 38q-88 0 -130 -38t-43 -96q-1 -39 21 -67t56 -43q34 -16 75 -30t82 -30t75 -38q34 -23 56 -61t21 -91z"/>
<glyph glyph-name="scaron" horiz-adv-x="490" unicode="š" d="M284 665h-56l-106 142h52l82 -112l82 112h53zM440 166q0 -82 -49 -130t-149 -48q-112 0 -180 54l10 55q67 -56 169 -56q72 1 107 33t35 86q0 42 -33 70q-34 28 -80 43t-92 32t-80 51q-33 34 -33 89q0 73 51 114t145 41q86 0 155 -34l-6 -53q-74 33 -150 33 q-63 0 -100 -26t-37 -72q1 -40 33 -65t79 -39t93 -30t80 -54q32 -36 32 -94z"/>
<glyph glyph-name="Ydieresis" horiz-adv-x="656" unicode="Ÿ" d="M458 845q0 -37 -34 -37q-35 0 -35 37t35 37q34 0 34 -37zM270 845q0 -37 -34 -37q-35 0 -35 37t35 37q34 0 34 -37zM30 750h77l186 -351l36 -72h3l35 72l185 351h74l-263 -487v-263h-67v263z"/>
<glyph glyph-name="circumflex" horiz-adv-x="395" unicode="ˆ" d="M169 807h56l107 -142h-51l-84 113l-82 -113h-51z"/>
<glyph glyph-name="tilde" horiz-adv-x="395" unicode="˜" d="M95 690l-33 1q5 49 26 78t52 29q32 0 70 -38t58 -37q31 0 45 64l33 -1q-4 -50 -26 -78t-53 -29q-25 1 -47 19t-42 37t-37 19q-31 0 -46 -64z"/>
<glyph glyph-name="endash" horiz-adv-x="541" unicode="–" d="M80 364h381v-48h-381v48z"/>
<glyph glyph-name="emdash" horiz-adv-x="714" unicode="—" d="M80 364h554v-48h-554v48z"/>
<glyph glyph-name="quoteleft" horiz-adv-x="221" unicode="‘" d="M112 602q-47 0 -47 50q0 22 20 78t41 94l24 -6l-26 -124q14 -4 24 -16t9 -27q0 -49 -45 -49z"/>
<glyph glyph-name="quotesinglbase" horiz-adv-x="222" unicode="‚" d="M110 82q47 0 47 -50q-1 -22 -21 -78t-41 -94l-23 6l26 124q-14 4 -24 16t-10 27q0 49 46 49z"/>
<glyph glyph-name="quotedblleft" horiz-adv-x="386" unicode="“" d="M276 602q-47 0 -47 50q0 22 21 77t42 95l22 -6l-26 -124q14 -4 24 -16t10 -27q0 -49 -46 -49zM112 602q-47 0 -47 50q0 22 20 78t41 94l24 -6l-26 -124q14 -4 24 -16t9 -27q0 -49 -45 -49z"/>
<glyph glyph-name="quotedblright" horiz-adv-x="386" unicode="”" d="M274 797q47 0 47 -50q-1 -21 -21 -77t-41 -95l-23 6l26 124q-14 4 -24 16t-10 27q0 49 46 49zM110 797q47 0 47 -50q-1 -21 -21 -77t-41 -95l-23 6l26 124q-14 4 -24 16t-10 27q0 49 46 49z"/>
<glyph glyph-name="dagger" horiz-adv-x="506" unicode="†" d="M53 594l172 -5l-5 208h59l-4 -208l178 5v-61l-178 4l4 -680h-59l5 680l-172 -4v61z"/>
<glyph glyph-name="daggerdbl" horiz-adv-x="506" unicode="‡" d="M453 122v-60l-178 5l4 -211h-59l5 211l-172 -5v59l173 -4l-1 421l-172 -4v60l172 -5l-5 208h59l-4 -208l178 5v-60l-178 4v-421z"/>
<glyph glyph-name="ellipsis" horiz-adv-x="607" unicode="…" d="M168 37q0 -47 -46 -47q-48 0 -48 47q0 46 48 46q46 0 46 -46zM356 37q0 -47 -46 -47q-48 0 -48 47q0 46 48 46q46 0 46 -46zM533 37q0 -47 -46 -47q-48 0 -48 47q0 46 48 46q46 0 46 -46z"/>
<glyph glyph-name="perthousand" horiz-adv-x="1003" unicode="‰" d="M904 167q0 75 -22 103t-71 29q-49 -1 -71 -29t-22 -103t22 -103t71 -28t71 28t22 103zM947 167q1 -92 -33 -133t-104 -41q-72 0 -104 41t-32 133q0 93 32 135t105 41q69 -1 103 -41t33 -135zM595 167q1 75 -21 103t-71 29q-49 -1 -71 -29t-22 -103t22 -103t71 -28t71 28 t21 103zM638 167q0 -91 -33 -133t-102 -41q-71 0 -104 41t-33 133q0 93 32 135t105 41q69 -1 102 -41t33 -135zM510 745l41 -27l-379 -711l-41 27zM285 591q1 75 -21 103t-70 29q-50 -1 -72 -29t-22 -103t22 -103t72 -29q48 1 70 29t21 103zM329 590q1 -92 -33 -133 t-103 -41q-71 0 -103 41t-33 133q-1 93 31 134t106 41q69 0 102 -40t33 -135z"/>
<glyph glyph-name="guilsinglleft" horiz-adv-x="411" unicode="‹" d="M332 460l-211 -131l211 -130v-54l-278 181v7l278 180v-53z"/>
<glyph glyph-name="guilsinglright" horiz-adv-x="411" unicode="›" d="M79 145v54l211 130l-211 131v53l278 -180v-7z"/>
<glyph glyph-name="fraction" horiz-adv-x="277" unicode="⁄" d="M383 750h49l-508 -750h-49z"/>
<glyph glyph-name="Euro" horiz-adv-x="687" unicode="€" d="M490 341l-11 -42h-288q13 -131 73 -191t175 -60q99 0 186 54l7 -52q-82 -58 -205 -58q-143 0 -214 74t-85 233h-91v42h89q-1 15 -1 47v24h-88v44h91q14 147 91 224t213 77q112 0 182 -39l-14 -53q-75 33 -159 33q-223 0 -250 -242h338l-11 -44h-331v-29q0 -29 1 -42h302z "/>
<glyph glyph-name="trademark" horiz-adv-x="647" unicode="™" d="M254 739h-88v-234h-38v234h-89v36h215v-36zM590 505h-33v146l2 81l-3 1l-31 -76l-65 -152h-29l-66 153l-31 75l-2 -1l1 -81v-146h-34v270h51l64 -150l31 -74h3l30 74l65 150h47v-270z"/>
<glyph glyph-name="minus" horiz-adv-x="594" unicode="−" d="M511 311h-427v60h427v-60z"/>
</font>
</defs>
</svg>
