<?xml version="1.0" encoding="UTF-8" standalone="no"?>
<!DOCTYPE svg  PUBLIC '-//W3C//DTD SVG 1.1//EN'  'http://www.w3.org/Graphics/SVG/1.1/DTD/svg11.dtd'>
<svg xmlns="http://www.w3.org/2000/svg">
<defs>
<font id="CenturyGothic-Italic" horiz-adv-x="1135">
<font-face slope="-7.59999" underline-position="-138" font-weight="400" descent="-410" panose-1="2 11 5 2 2 2 2 9 2 4" units-per-em="2048" unicode-range="U+0020-F003" bbox="-394 -451 2401 1989" x-height="1088" underline-thickness="119" font-family="CenturyGothic" ascent="1638" font-style="italic" cap-height="1471"/>
<missing-glyph horiz-adv-x="2048"/>
<glyph glyph-name=".notdef" horiz-adv-x="2048"/>
<glyph glyph-name="glyph1" horiz-adv-x="0"/>
<glyph glyph-name="glyph2" horiz-adv-x="2048"/>
<glyph glyph-name="space" horiz-adv-x="567" unicode=" "/>
<glyph glyph-name="exclam" horiz-adv-x="604" unicode="!" d="M205 216q51 0 86.5 -36t35.5 -86t-35.5 -86t-86.5 -36t-86.5 36t-35.5 86t35.5 86t86.5 36zM317 1508h138l-151 -1141h-140z"/>
<glyph glyph-name="quotedbl" horiz-adv-x="633" unicode='&quot;' d="M228 1045h-104l-22 463h148zM616 1045h-103l-22 463h148z"/>
<glyph glyph-name="numbersign" horiz-adv-x="1475" unicode="#" d="M940 936h-334l-49 -334h332zM1233 602v-108h-248l-72 -494h-112l72 494h-333l-76 -494h-110l76 494h-246v108h263l51 334h-253v109h269l70 468h107l-68 -468h332l68 468h112l-69 -468h224v-109h-240l-48 -334h231z"/>
<glyph glyph-name="dollar" d="M552 98q149 26 216 100q80 88 80 193q0 67 -43 129.5t-173 142.5zM596 1336q-114 -17 -180.5 -84t-66.5 -151q0 -59 44.5 -117t137.5 -104zM1032 1255l-114 -83q-60 73 -98.5 102t-91.5 48l-75 -504q199 -111 269 -207.5t70 -219.5q0 -168 -126.5 -292t-335.5 -138 l-45 -311h-132l48 320q-142 27 -236 103t-146 195l129 65q47 -96 110.5 -149t161.5 -79l90 623q-153 83 -214 155q-90 105 -90 223q0 88 52 171.5t149.5 136.5t209.5 57l17 109h131l-19 -120q91 -26 155 -71t131 -134z" unicode="$"/>
<glyph glyph-name="percent" horiz-adv-x="1587" unicode="%" d="M1182 551q-108 0 -187.5 -82t-79.5 -193q0 -90 56.5 -149t142.5 -59q116 0 189 85.5t73 197.5q0 87 -55 143.5t-139 56.5zM1186 659q130 0 219.5 -87.5t89.5 -215.5q0 -155 -106 -274t-286 -119q-136 0 -221.5 85.5t-85.5 216.5q0 159 117 276.5t273 117.5zM492 1399 q-108 0 -187.5 -82t-79.5 -192q0 -90 56 -149t143 -59q115 0 188 85.5t73 197.5q0 87 -54.5 143t-138.5 56zM1491 1536l-1307 -1638h-116l1202 1510q-89 -22 -186 -33t-201 -11q-50 0 -127 5q48 -78 48 -164q0 -168 -111.5 -281t-279.5 -113q-137 0 -222.5 85.5t-85.5 217.5 q0 165 120 279.5t264 114.5q39 0 123 -17q159 -33 271 -33q123 0 249 19.5t255 58.5h104z"/>
<glyph glyph-name="ampersand" horiz-adv-x="1550" unicode="&amp;" d="M631 694q-227 -137 -307 -234q-60 -72 -60 -154q0 -95 66 -149.5t146 -54.5q77 0 198 52q90 39 273 154q-34 34 -67 74q-172 212 -249 312zM672 891q148 105 191 163.5t43 108.5q0 45 -42.5 79t-115.5 34q-82 0 -131 -43t-49 -101q0 -81 104 -241zM1270 551l92 -112 q-113 -93 -199 -153q97 -123 260 -286h-200l-126 132q-26 29 -56 66q-313 -235 -560 -235q-116 0 -192.5 42t-125 124.5t-48.5 174.5q0 80 29 143q39 83 111.5 153t289.5 214q-128 186 -128 312q0 123 97 207.5t247 84.5q130 0 213 -73t83 -172q0 -90 -60 -180.5 t-241 -219.5q100 -132 223 -274l87 -103l112 83z"/>
<glyph glyph-name="quotesingle" horiz-adv-x="405" unicode="&apos;" d="M308 1045h-103l-22 463h148z"/>
<glyph glyph-name="parenleft" horiz-adv-x="756" unicode="(" d="M553 1536h162q-180 -287 -284 -658.5t-104 -775.5q0 -300 63 -528h-154q-62 222 -62 506q0 382 100.5 765.5t278.5 690.5z"/>
<glyph glyph-name="parenright" horiz-adv-x="756" unicode=")" d="M93 -426h-162q180 286 284.5 660.5t104.5 766.5q0 305 -64 535h154q60 -217 60 -512q0 -382 -99.5 -762.5t-277.5 -687.5z"/>
<glyph glyph-name="asterisk" horiz-adv-x="870" unicode="*" d="M399 1508h130l-29 -297l246 176l66 -112l-277 -125l277 -123l-66 -113l-246 174l29 -297h-130l31 297l-246 -174l-66 113l281 123l-281 125l66 112l246 -176z"/>
<glyph glyph-name="plus" horiz-adv-x="1241" unicode="+" d="M552 804v434h137v-434h438v-137h-438v-434h-137v434h-437v137h437z"/>
<glyph glyph-name="comma" horiz-adv-x="567" unicode="," d="M187 270l127 -64l-256 -376l-94 41z"/>
<glyph glyph-name="hyphen" horiz-adv-x="680" unicode="-" d="M21 614h551l-18 -122h-550z"/>
<glyph glyph-name="hyphen" horiz-adv-x="680" unicode="­" d="M21 614h551l-18 -122h-550z"/>
<glyph glyph-name="period" horiz-adv-x="567" unicode="." d="M182 216q51 0 86.5 -36t35.5 -86t-35.5 -86t-86.5 -36t-86.5 36t-35.5 86t35.5 86t86.5 36z"/>
<glyph glyph-name="slash" horiz-adv-x="895" unicode="/" d="M836 1508l-611 -1708h-153l610 1708h154z"/>
<glyph glyph-name="zero" d="M619 1368q-90 0 -190.5 -87.5t-167.5 -292t-67 -487.5q0 -203 71 -301t176 -98q107 0 206.5 98.5t157.5 282.5q73 230 73 491q0 197 -74 295.5t-185 98.5zM633 1508q167 0 280.5 -144.5t113.5 -410.5q0 -304 -93 -545.5t-223 -343t-278 -101.5q-112 0 -197.5 59.5 t-138 180t-52.5 311.5q0 317 89 553.5t221.5 338.5t277.5 102z" unicode="0"/>
<glyph glyph-name="one" d="M451 1471h307l-195 -1471h-144l177 1329h-198z" unicode="1"/>
<glyph glyph-name="two" d="M275 1026h-149q12 230 137 356t324 126q169 0 282 -110.5t113 -273.5q0 -114 -58 -226t-299 -374l-343 -379h631l-17 -145h-936l485 539q278 309 332.5 405t54.5 184q0 102 -74 172.5t-187 70.5q-126 0 -207.5 -90t-88.5 -255z" unicode="2"/>
<glyph glyph-name="three" d="M344 1155h-149q23 158 138 255.5t272 97.5q167 0 275 -107.5t108 -275.5q0 -111 -53.5 -189t-185.5 -142q208 -121 208 -343q0 -131 -66.5 -243.5t-185 -178.5t-255.5 -66q-175 0 -296 113t-145 313h147q16 -105 51.5 -159.5t104 -89.5t143.5 -35q135 0 243.5 104.5 t108.5 232.5q0 83 -42.5 152.5t-122 105.5t-208.5 36l16 130l38 -1q158 0 255.5 79t97.5 189q0 97 -71 164t-175 67q-96 0 -165.5 -57t-85.5 -152z" unicode="3"/>
<glyph glyph-name="four" d="M691 1043l-448 -585h369zM893 1508l-140 -1050h206l-19 -146h-205l-41 -312h-142l41 312h-645l914 1196h31z" unicode="4"/>
<glyph glyph-name="five" d="M455 1471h595l-19 -145h-472l-104 -355q49 5 79 5q107 0 204 -61t154.5 -171.5t57.5 -241.5q0 -147 -70 -275.5t-183.5 -196t-254.5 -67.5q-149 0 -263 77.5t-190 243.5l136 59q51 -118 136 -178t185 -60q134 0 244 106.5t110 287.5q0 153 -89 249t-227 96 q-108 0 -233 -51z" unicode="5"/>
<glyph glyph-name="six" d="M517 842q-146 0 -249 -111t-103 -274q0 -151 95.5 -250.5t230.5 -99.5q137 0 249.5 103.5t112.5 276.5q0 151 -98 253t-238 102zM713 1508l105 -86l-395 -469q70 22 126 22q169 0 298 -121q152 -142 152 -368q0 -222 -145 -372.5t-358 -150.5q-203 0 -339.5 138 t-136.5 343q0 133 57 257t244 344z" unicode="6"/>
<glyph glyph-name="seven" d="M177 1471h932l-954 -1508l-116 73l819 1296h-703z" unicode="7"/>
<glyph glyph-name="eight" d="M542 727q-153 0 -270 -98t-117 -256q0 -119 84 -196.5t219 -77.5q102 0 190 45.5t137 126.5t49 167q0 122 -83.5 205.5t-208.5 83.5zM620 1364q-129 0 -218 -81.5t-89 -188.5q0 -96 69 -158.5t182 -62.5q122 0 207 81.5t85 190.5q0 91 -67.5 155t-168.5 64zM746 794 q107 -55 158 -125q71 -98 71 -223q0 -129 -67.5 -242t-187.5 -177t-267 -64q-193 0 -320 120t-127 287q0 138 80.5 252t248.5 191q-92 62 -130.5 129.5t-38.5 148.5q0 165 135 291t323 126q164 0 272.5 -104.5t108.5 -252.5q0 -113 -64.5 -202t-194.5 -155z" unicode="8"/>
<glyph glyph-name="nine" d="M548 629q146 0 249 110.5t103 274.5q0 150 -96 250t-231 100q-137 0 -249 -104t-112 -277q0 -150 98 -252t238 -102zM351 -37l-105 86l395 468q-69 -22 -125 -22q-169 0 -299 122q-151 141 -151 368q0 222 145 372.5t357 150.5q203 0 340 -138.5t137 -343.5 q0 -133 -57.5 -256.5t-243.5 -343.5z" unicode="9"/>
<glyph glyph-name="colon" horiz-adv-x="567" unicode=":" d="M182 216q51 0 86.5 -36t35.5 -86t-35.5 -86t-86.5 -36t-86.5 36t-35.5 86t35.5 86t86.5 36zM305 1116q51 0 86.5 -36t35.5 -86q0 -51 -35.5 -86.5t-86.5 -35.5t-86.5 35.5t-35.5 86.5q0 50 36 86t86 36z"/>
<glyph glyph-name="less" horiz-adv-x="1241" unicode="&lt;" d="M1137 347v-146l-1033 469v130l1033 471v-147l-839 -390z"/>
<glyph glyph-name="equal" horiz-adv-x="1241" unicode="=" d="M1127 584v-137h-1012v137h1012zM1127 1024v-137h-1012v137h1012z"/>
<glyph glyph-name="greater" horiz-adv-x="1241" unicode="&gt;" d="M104 347l839 387l-839 390v147l1033 -471v-130l-1033 -469v146z"/>
<glyph glyph-name="question" horiz-adv-x="1210" unicode="?" d="M505 216q50 0 86 -36t36 -86q0 -51 -35.5 -86.5t-86.5 -35.5t-86.5 36t-35.5 86t35.5 86t86.5 36zM353 1100h-136q23 215 150 325.5t322 110.5q170 0 274.5 -91t104.5 -225q0 -99 -47 -173.5t-140 -126.5q-44 -25 -232 -90q-158 -55 -214 -110q-57 -56 -57 -114 q0 -50 51 -89t133 -39q100 0 164 54.5t84 164.5h136q-15 -168 -115.5 -260t-270.5 -92q-143 0 -229 78t-86 192q0 108 77 187q76 78 362 181q140 51 184 88q62 54 62 144q0 84 -65 135t-191 51q-283 0 -321 -301z"/>
<glyph glyph-name="at" horiz-adv-x="1776" unicode="@" d="M838 428q66 0 124 41.5t92 124.5q44 109 44 219q0 101 -56.5 164t-146.5 63q-120 0 -207.5 -98.5t-87.5 -245.5q0 -123 66.5 -195.5t171.5 -72.5zM1444 301h106q-134 -167 -248 -234q-162 -94 -369 -94q-219 0 -404 103.5t-288.5 282.5t-103.5 391q0 215 104.5 400 t284.5 287.5t394 102.5q302 0 510 -193.5t208 -450.5q0 -187 -86.5 -322.5t-234.5 -210.5q-113 -58 -193 -58q-58 0 -92 31q-26 23 -27 80q-34 -43 -93.5 -72t-123.5 -29q-144 0 -238 99.5t-94 263.5q0 177 114 323t314 146q88 0 147.5 -33t112.5 -115l26 138h108l-116 -654 q-5 -32 -5 -41q0 -23 14 -36t36 -13q59 0 153.5 68.5t147 176t52.5 238.5q0 254 -197 421q-184 155 -448 155q-196 0 -355.5 -89.5t-252 -252t-92.5 -351.5q0 -191 93 -352.5t257.5 -253.5t362.5 -92q145 0 263 52t253 188z"/>
<glyph glyph-name="A" horiz-adv-x="1515" unicode="A" d="M805 1163l-314 -542h496zM852 1471l493 -1471h-151l-161 481h-623l-275 -481h-164l847 1471h34z"/>
<glyph glyph-name="B" horiz-adv-x="1176" unicode="B" d="M289 699l-74 -560h199q208 0 286 17q110 25 166.5 90.5t56.5 168.5q0 92 -46 153.5t-151 96t-314 34.5h-123zM373 1331l-66 -488q43 -4 100 -4q200 0 288.5 32t137.5 100.5t49 151.5q0 108 -76.5 159.5t-325.5 51.5q-43 0 -107 -3zM246 1471h189q278 0 376 -33.5 t158.5 -116.5t60.5 -196q0 -118 -64 -211t-172 -134q130 -40 204 -136.5t74 -228.5q0 -135 -63.5 -232t-170.5 -140t-369 -43h-419z"/>
<glyph glyph-name="C" horiz-adv-x="1665" unicode="C" d="M1576 1268l-89 -123q-234 220 -533 220q-195 0 -364.5 -95t-265 -256t-95.5 -346q0 -165 73.5 -293t212.5 -200.5t318 -72.5q273 0 509 173l82 -117q-175 -115 -301 -155t-291 -40q-305 0 -497 153q-255 205 -255 547q0 353 255 599t634 246q173 0 315 -54.5t292 -185.5z "/>
<glyph glyph-name="D" horiz-adv-x="1524" unicode="D" d="M368 1329l-157 -1186h129q298 0 395 16q148 24 249 94.5t173 211t72 306.5q0 175 -81.5 306t-223.5 196q-121 56 -409 56h-147zM241 1471h316q300 0 460 -78.5t258 -243t98 -375.5q0 -225 -110.5 -416t-272 -274.5t-481.5 -83.5h-463z"/>
<glyph glyph-name="E" horiz-adv-x="1098" unicode="E" d="M1056 1471l-21 -143h-662l-65 -482h662l-19 -141h-662l-75 -564h662l-17 -141h-811l197 1471h811z"/>
<glyph glyph-name="F" horiz-adv-x="993" unicode="F" d="M955 1471l-18 -144h-565l-65 -481h565l-18 -141h-565l-97 -705h-145l198 1471h710z"/>
<glyph glyph-name="G" horiz-adv-x="1786" unicode="G" d="M1597 1155l-118 -87q-111 145 -260.5 222.5t-306.5 77.5q-176 0 -338 -94.5t-254.5 -251t-92.5 -335.5q0 -243 173.5 -413.5t422.5 -170.5q149 0 286 61t222 162t124 250h-539v145h716q-22 -338 -242.5 -548t-549.5 -210q-338 0 -549 205t-211 515q0 221 111 412.5 t305.5 302t419.5 110.5q407 0 681 -353z"/>
<glyph glyph-name="H" horiz-adv-x="1399" unicode="H" d="M245 1471h145l-79 -598h753l80 598h143l-193 -1471h-144l97 734h-757l-96 -734h-146z"/>
<glyph glyph-name="I" horiz-adv-x="463" unicode="I" d="M238 1471h148l-199 -1471h-148z"/>
<glyph glyph-name="J" horiz-adv-x="987" unicode="J" d="M680 1471h145l-133 -1014q-30 -229 -69.5 -314.5t-116 -132.5t-177.5 -47q-93 0 -179 40.5t-175 136.5l113 80q125 -121 244 -121q90 0 145 82q42 62 69 265z"/>
<glyph glyph-name="K" horiz-adv-x="1210" unicode="K" d="M243 1471h145l-79 -597l689 597h211l-797 -688l690 -783h-188l-625 710l-98 -710h-144z"/>
<glyph glyph-name="L" horiz-adv-x="946" unicode="L" d="M246 1471h148l-177 -1333h636l-17 -138h-784z"/>
<glyph glyph-name="M" horiz-adv-x="1882" unicode="M" d="M1642 1471v-1471h-138v1014l-638 -1014h-37l-381 1050l-302 -1050h-149l425 1471h24l430 -1195l743 1195h23z"/>
<glyph glyph-name="N" horiz-adv-x="1515" unicode="N" d="M1265 1471h144l-199 -1471h-32l-828 1140l-154 -1140h-146l198 1471h32l830 -1142z"/>
<glyph glyph-name="O" horiz-adv-x="1780" unicode="O" d="M953 1369q-211 0 -376.5 -92t-262 -261t-96.5 -360q0 -162 70 -290.5t193.5 -196.5t290.5 -68q198 0 367 95.5t265.5 265t96.5 366.5q0 261 -183 414q-152 127 -365 127zM956 1508q297 0 494.5 -195t197.5 -493q0 -363 -250.5 -610t-624.5 -247q-318 0 -509 190t-191 497 q0 237 114.5 435t317 310.5t451.5 112.5z"/>
<glyph glyph-name="P" horiz-adv-x="1212" unicode="P" d="M392 1329l-68 -489h205q207 0 286.5 28.5t128 98t48.5 154.5q0 70 -33 119t-91 69t-213 20h-263zM262 1471h401q199 0 285.5 -37t138.5 -118.5t52 -192.5q0 -145 -82 -252.5t-207 -146.5q-91 -29 -321 -29h-223l-94 -695h-147z"/>
<glyph glyph-name="Q" horiz-adv-x="1784" unicode="Q" d="M1298 315q97 100 151 234.5t54 278.5q0 238 -156 389.5t-407 151.5q-197 0 -363.5 -94t-261.5 -261.5t-95 -357.5q0 -162 70 -290.5t193.5 -196.5t289.5 -68q230 0 420 127l-247 261h189zM1399 209l252 -268h-187l-170 180q-224 -158 -519 -158q-318 0 -509 190t-191 497 q0 236 113.5 433.5t316 311t441.5 113.5q307 0 505.5 -194.5t198.5 -493.5q0 -360 -251 -611z"/>
<glyph glyph-name="R" horiz-adv-x="1243" unicode="R" d="M407 1330l-66 -490h169q188 0 246 15q97 24 156.5 94.5t59.5 172.5q0 115 -83 167q-64 41 -230 41h-252zM278 1471h369q197 0 282 -37.5t138 -120t53 -191.5q0 -119 -62.5 -221t-170.5 -153.5t-284 -51.5l444 -696h-167l-443 696h-116l-95 -696h-148z"/>
<glyph glyph-name="S" horiz-adv-x="1020" unicode="S" d="M927 1199l-139 -35q-28 93 -92 147t-138 54q-82 0 -133.5 -55.5t-51.5 -148.5q0 -82 55 -171q34 -56 164 -174q135 -122 188.5 -227.5t53.5 -206.5q0 -107 -58.5 -206t-157.5 -156t-210 -57q-141 0 -244.5 90t-148.5 264l136 46q32 -132 104 -196t166 -64q107 0 184 79 t77 195q0 85 -43.5 166t-170.5 195q-136 124 -177 190q-67 110 -67 232q0 151 98.5 249.5t244.5 98.5q123 0 219 -78t141 -231z"/>
<glyph glyph-name="T" horiz-adv-x="872" unicode="T" d="M73 1471h879l-19 -140h-375l-177 -1331h-147l177 1331h-357z"/>
<glyph glyph-name="U" horiz-adv-x="1341" unicode="U" d="M233 1471h145l-111 -842q-22 -168 -22 -239q0 -138 79 -212.5t223 -74.5q101 0 179 34t132.5 99t77.5 150q40 148 69 374l92 711h145l-98 -743l-24 -182q-21 -127 -50 -216.5t-76 -158.5t-107 -113t-145.5 -69.5t-191.5 -25.5q-217 0 -335 110t-118 292q0 51 6 114 l22 172z"/>
<glyph glyph-name="V" horiz-adv-x="1438" unicode="V" d="M122 1471h148l365 -1165l683 1165h163l-862 -1471h-34z"/>
<glyph glyph-name="W" horiz-adv-x="1966" unicode="W" d="M126 1471h143l204 -1093l569 1093h28l257 -1093l520 1093h155l-702 -1471h-27l-259 1108l-586 -1108h-27z"/>
<glyph glyph-name="X" horiz-adv-x="1247" unicode="X" d="M217 1471h156l260 -572l433 572h172l-540 -713l348 -758h-155l-288 627l-476 -627h-173l584 771z"/>
<glyph glyph-name="Y" horiz-adv-x="1212" unicode="Y" d="M83 1471h154l315 -668l531 668h178l-652 -819l-89 -652h-144l89 660z"/>
<glyph glyph-name="Z" horiz-adv-x="983" unicode="Z" d="M217 1471h756l-722 -1331h551l-19 -140h-770l725 1329h-540z"/>
<glyph glyph-name="bracketleft" horiz-adv-x="719" unicode="[" d="M370 1508h336l-20 -142h-196l-228 -1627h195l-19 -137h-336z"/>
<glyph glyph-name="backslash" horiz-adv-x="1239" unicode="\" d="M220 1508l952 -1708h-153l-953 1708h154z"/>
<glyph glyph-name="bracketright" horiz-adv-x="719" unicode="]" d="M240 -398h-336l20 142h195l229 1627h-195l19 137h336z"/>
<glyph glyph-name="asciicircum" horiz-adv-x="1376" unicode="^" d="M629 1471h118l510 -1106h-133l-439 952l-436 -952h-129z"/>
<glyph glyph-name="underscore" horiz-adv-x="1024" unicode="_" d="M-12 -154h1048v-102h-1048v102z"/>
<glyph glyph-name="grave" horiz-adv-x="774" unicode="`" d="M430 1598l175 -308h-138l-252 308h215z"/>
<glyph glyph-name="a" horiz-adv-x="1399" unicode="a" d="M583 100q135 0 246 63.5t176 182.5t65 259q0 169 -107 275t-278 106q-201 0 -344 -145t-143 -356q0 -173 107 -279t278 -106zM1121 0h-141l21 164q-189 -192 -433 -192q-222 0 -365 143t-143 368q0 260 185.5 446.5t436.5 186.5q136 0 238.5 -57t175.5 -178l25 207h145z "/>
<glyph glyph-name="b" horiz-adv-x="1397" unicode="b" d="M742 988q-134 0 -245.5 -63.5t-176.5 -182.5t-65 -259q0 -169 107.5 -275t277.5 -106q201 0 344 145t143 356q0 173 -106.5 279t-278.5 106zM260 1508h142l-77 -583q189 191 432 191q223 0 365.5 -143t142.5 -368q0 -260 -185 -446.5t-436 -186.5q-136 0 -239 57.5 t-176 178.5l-25 -208h-145z"/>
<glyph glyph-name="c" horiz-adv-x="1325" unicode="c" d="M1198 853l-115 -67q-121 196 -370 196q-144 0 -263 -64t-186 -178t-67 -244q0 -115 50 -206t140.5 -140t213.5 -49q126 0 240.5 50t178.5 129l115 -81q-108 -118 -234.5 -172.5t-293.5 -54.5q-258 0 -402.5 140.5t-144.5 374.5q0 260 189.5 444.5t464.5 184.5 q165 0 291 -69.5t193 -193.5z"/>
<glyph glyph-name="d" horiz-adv-x="1403" unicode="d" d="M585 100q135 0 246 63.5t176 182.5t65 259q0 169 -107 275t-278 106q-201 0 -344 -145t-143 -356q0 -173 107 -279t278 -106zM1123 0h-141l21 164q-189 -192 -433 -192q-222 0 -365 143t-143 368q0 260 185.5 446.5t436.5 186.5q136 0 238.5 -57t175.5 -178l81 627h145z "/>
<glyph glyph-name="e" horiz-adv-x="1331" unicode="e" d="M1038 637q-6 154 -105 249.5t-249 95.5q-163 0 -287.5 -92t-176.5 -253h818zM1166 516h-970v-11q0 -186 101 -294q104 -111 277 -111q115 0 213 47t162 132l104 -85q-79 -101 -206.5 -161.5t-275.5 -60.5q-256 0 -384.5 158.5t-128.5 356.5q0 162 86.5 312t231.5 233.5 t314 83.5q209 0 346 -141.5t137 -360.5q0 -40 -7 -98z"/>
<glyph glyph-name="f" horiz-adv-x="643" unicode="f" d="M666 1471l-19 -132q-75 72 -141 72q-42 0 -72 -41t-47 -166l-17 -116h224l-15 -123h-224l-136 -965h-137l137 965h-137l15 123h138l13 96q24 169 51 226t80 91.5t117 34.5q84 0 170 -65z"/>
<glyph glyph-name="g" horiz-adv-x="1378" unicode="g" d="M698 983q-137 0 -254.5 -65.5t-182 -177.5t-64.5 -251q0 -160 102 -258t274 -98q208 0 345.5 136t137.5 343q0 182 -112 276.5t-246 94.5zM1113 1088h137l-125 -921q-30 -223 -73 -312q-59 -123 -196 -202t-324 -79q-184 0 -313.5 75t-196.5 217l125 45 q114 -207 385 -207q143 0 247.5 58t149.5 149q27 55 55 239l6 43q-177 -193 -431 -193q-225 0 -362 137.5t-137 357.5q0 162 83.5 304.5t230 229.5t297.5 87q126 0 230 -56.5t185 -178.5z"/>
<glyph glyph-name="h" horiz-adv-x="1249" unicode="h" d="M248 1508h136l-80 -585q168 193 384 193q165 0 269.5 -103t104.5 -268q0 -91 -22 -245l-68 -500h-138l68 500q21 151 21 240q0 112 -70 181t-184 69q-106 0 -200.5 -57t-146 -154t-80.5 -308l-65 -471h-136z"/>
<glyph glyph-name="i" horiz-adv-x="410" unicode="i" d="M164 1088h133l-145 -1088h-138zM274 1536q46 0 79 -33t33 -79q0 -47 -33 -79.5t-79 -32.5q-47 0 -79.5 32.5t-32.5 79.5q0 46 32.5 79t79.5 33z"/>
<glyph glyph-name="j" horiz-adv-x="416" unicode="j" d="M170 1088h137l-159 -1158q-30 -215 -84.5 -285.5t-139.5 -70.5q-53 0 -121 28l17 119q37 -22 71 -22q41 0 64 32q33 48 48 156zM281 1536q46 0 79 -33t33 -79q0 -47 -33 -79.5t-79 -32.5q-47 0 -80 32.5t-33 79.5q0 46 33 79t80 33z"/>
<glyph glyph-name="k" horiz-adv-x="1028" unicode="k" d="M252 1508h136l-115 -823l524 403h218l-632 -486l557 -602h-186l-502 540l-73 -540h-140z"/>
<glyph glyph-name="l" horiz-adv-x="410" unicode="l" d="M225 1508h137l-210 -1508h-138z"/>
<glyph glyph-name="m" horiz-adv-x="1921" unicode="m" d="M191 1088h137l-22 -154q63 85 161 133.5t197 48.5q123 0 218 -73q73 -57 109 -170q74 116 182.5 179.5t220.5 63.5q151 0 248 -97t97 -251q0 -70 -13 -171l-81 -597h-136l73 522q23 164 23 240q0 95 -62.5 157t-164.5 62q-108 0 -201 -67.5t-132 -159.5t-59 -232 l-74 -522h-139l82 597q14 95 14 156q0 105 -62 168t-162 63q-84 0 -161 -39.5t-126 -103.5t-74.5 -158.5t-36.5 -170.5l-72 -512h-139z"/>
<glyph glyph-name="n" horiz-adv-x="1249" unicode="n" d="M192 1088h134l-21 -167q165 195 384 195q168 0 271 -103.5t103 -278.5q0 -70 -22 -235l-68 -499h-138l67 499q22 160 22 236q0 114 -69 184t-181 70q-110 0 -204.5 -56.5t-146.5 -154t-80 -308.5l-65 -470h-137z"/>
<glyph glyph-name="o" horiz-adv-x="1341" unicode="o" d="M677 983q-130 0 -244.5 -65t-176 -178.5t-61.5 -250.5q0 -172 106 -279.5t274 -107.5q131 0 237.5 62.5t169.5 180.5t63 253q0 113 -47 200.5t-133 136t-188 48.5zM680 1116q139 0 255 -66.5t181 -185t65 -268.5q0 -171 -83 -317.5t-223 -226.5t-317 -80 q-219 0 -360.5 143.5t-141.5 365.5q0 174 83 321t227.5 230.5t313.5 83.5z"/>
<glyph glyph-name="p" horiz-adv-x="1397" unicode="p" d="M742 988q-134 0 -245.5 -63.5t-176.5 -182.5t-65 -259q0 -169 107.5 -275t277.5 -106q201 0 344 145t143 356q0 173 -106.5 279t-278.5 106zM204 1088h142l-21 -163q189 191 432 191q223 0 365.5 -143t142.5 -368q0 -260 -185 -446.5t-436 -186.5q-136 0 -239 57.5 t-175 178.5l-79 -606h-145z"/>
<glyph glyph-name="q" horiz-adv-x="1397" unicode="q" d="M582 100q135 0 246 63.5t176 182.5t65 259q0 169 -107 275t-278 106q-201 0 -344 -145t-143 -356q0 -173 107 -279t278 -106zM1067 -398h-142l75 562q-189 -192 -433 -192q-222 0 -365 143t-143 368q0 260 185.5 446.5t436.5 186.5q136 0 238.5 -57t175.5 -178l25 207 h145z"/>
<glyph glyph-name="r" horiz-adv-x="616" unicode="r" d="M133 1088h139l-18 -137q56 78 135 121.5t162 43.5q59 0 123 -28l-66 -128q-52 21 -87 21q-73 0 -144.5 -51t-116 -148.5t-75.5 -320.5l-64 -461h-136z"/>
<glyph glyph-name="s" horiz-adv-x="795" unicode="s" d="M694 966l-76 -113q-92 131 -218 131q-72 0 -123 -47t-51 -104q0 -44 31 -84q30 -40 137 -109q156 -101 206 -176q49 -76 49 -175q0 -137 -95.5 -227t-248.5 -90q-202 0 -340 179l85 99q121 -147 263 -147q81 0 141 57t60 132q0 61 -45 117q-29 36 -156 122 q-137 94 -180 156q-43 61 -43 138q0 121 91 206t230 85q82 0 148.5 -33t134.5 -117z"/>
<glyph glyph-name="t" horiz-adv-x="694" unicode="t" d="M363 1495h137l-54 -407h216l-16 -122h-216l-132 -966h-140l131 966h-187l17 122h186z"/>
<glyph glyph-name="u" horiz-adv-x="1245" unicode="u" d="M188 1088h140l-63 -455q-26 -193 -26 -248q0 -125 83.5 -204t220.5 -79q114 0 198 60t120 157q18 49 43 225l78 544h137l-56 -412q-40 -295 -85 -419.5t-160.5 -204.5t-281.5 -80q-189 0 -309.5 115.5t-120.5 288.5q0 69 11 161l10 96l5 41z"/>
<glyph glyph-name="v" d="M56 1088h143l275 -796l458 796h152l-627 -1088h-26z" unicode="v"/>
<glyph glyph-name="w" horiz-adv-x="1702" unicode="w" d="M70 1088h139l224 -768l409 768h24l248 -776l400 776h150l-562 -1088h-28l-252 768l-409 -768h-26z"/>
<glyph glyph-name="x" horiz-adv-x="983" unicode="x" d="M36 1088h158l265 -425l311 425h168l-403 -548l329 -540h-159l-258 418l-307 -418h-168l399 540z"/>
<glyph glyph-name="y" horiz-adv-x="1098" unicode="y" d="M47 1088h144l282 -803l466 803h155l-862 -1486h-157l308 531z"/>
<glyph glyph-name="z" horiz-adv-x="870" unicode="z" d="M92 1088h748l-650 -964h591l-16 -124h-822l653 965h-520z"/>
<glyph glyph-name="braceleft" horiz-adv-x="719" unicode="{" d="M62 591q61 2 102 24q55 29 87 81t50 144q8 44 32.5 208.5t54 235.5t77 113.5t115.5 61.5q42 12 129 12h55l-22 -157h-31q-84 0 -118 -19.5t-52.5 -61t-40.5 -199.5q-29 -210 -60 -295t-79.5 -136t-143.5 -93q82 -37 121.5 -102.5t39.5 -176.5q0 -70 -25 -246 q-18 -129 -18 -171q0 -60 30 -84t120 -24h31l-22 -157h-55q-93 0 -132 12q-67 22 -104.5 78.5t-37.5 145.5q0 62 27 256q18 138 18 195q0 94 -44 142t-127 50z"/>
<glyph glyph-name="bar" horiz-adv-x="1376" unicode="|" d="M616 1508h143v-1906h-143v1906z"/>
<glyph glyph-name="braceright" horiz-adv-x="719" unicode="}" d="M535 428q-61 -1 -102 -23q-54 -30 -86 -81.5t-50 -144.5q-8 -44 -33 -208t-54 -235t-77 -114t-116 -62q-41 -11 -128 -11h-56l22 157h31q84 0 118.5 19t52.5 60.5t40 199.5q30 210 61 295t79.5 136t142.5 94q-81 36 -120.5 101.5t-39.5 177.5q0 69 25 245q18 130 18 172 q0 59 -30.5 83.5t-120.5 24.5h-31l22 157h56q93 0 131 -13q67 -22 104.5 -78.5t37.5 -144.5q0 -63 -26 -256q-19 -139 -19 -195q0 -95 44 -143t127 -50z"/>
<glyph glyph-name="asciitilde" horiz-adv-x="1241" unicode="~" d="M1128 837v-162q-112 -63 -160.5 -79.5t-91.5 -16.5q-95 0 -265 77q-132 60 -168.5 71.5t-68.5 11.5q-44 0 -97 -19t-165 -86v160q110 62 159 79t95 17q97 0 268 -81q118 -56 161.5 -69.5t78.5 -13.5q42 0 85 16.5t169 94.5z"/>
<glyph glyph-name="nbspace" horiz-adv-x="573" unicode=" "/>
<glyph glyph-name="exclamdown" horiz-adv-x="604" unicode="¡" d="M197 -426h-138l150 1141h140zM308 867q-50 0 -86 35.5t-36 85.5q0 51 36 86.5t86 35.5q51 0 87 -35.5t36 -86.5q0 -50 -36 -85.5t-87 -35.5z"/>
<glyph glyph-name="cent" d="M768 964q-57 18 -100 18q-123 0 -237 -68t-181 -185.5t-67 -249.5q0 -157 96 -267zM1022 1352l103 -68l-168 -260q50 -33 93 -74l-86 -110q-38 35 -82 68l-500 -770q80 -32 162 -32q200 0 359 141l78 -109q-189 -166 -449 -166q-121 0 -226 51l-198 -307l-109 69l204 310 q-84 90 -121 180t-37 199q0 167 85 317t231.5 237.5t299.5 87.5q84 0 186 -34z" unicode="¢"/>
<glyph glyph-name="sterling" d="M317 211q-58 37 -100 37q-41 0 -68 -23.5t-27 -56.5q0 -30 18.5 -49t46.5 -19q65 0 130 111zM128 844h254q-31 205 -31 263q0 183 110.5 292t285.5 109q149 0 238 -92.5t89 -256.5l-1 -35h-144q-5 135 -51 188.5t-137 53.5q-106 0 -174.5 -67.5t-68.5 -173.5 q0 -94 35 -281h318l-18 -137h-284q3 -64 3 -111q0 -193 -55 -338q152 -113 174 -125q38 -19 70 -19q53 0 92 63t52 166h146q-12 -148 -91.5 -264t-202.5 -116q-64 0 -123 28q-84 41 -184 131q-114 -159 -253 -159q-85 0 -138 53t-53 137q0 93 68.5 162t163.5 69 q80 0 154 -41q32 113 32 198l-7 166h-288z" unicode="£"/>
<glyph glyph-name="currency" d="M193 612q0 -154 110.5 -263t265.5 -109q156 0 266 110t110 265t-109.5 264.5t-265.5 109.5t-266.5 -110.5t-110.5 -266.5zM42 192l116 114q-61 82 -84.5 153.5t-23.5 154.5q0 89 28 171q21 63 83 140l-120 117l90 91l120 -119q76 59 156.5 85.5t164.5 26.5q81 0 156 -24 t156 -82l117 113l88 -91l-116 -112q64 -79 89.5 -153t25.5 -162q0 -86 -24.5 -158.5t-84.5 -150.5l116 -114l-89 -90l-116 115q-79 -62 -156.5 -88.5t-164.5 -26.5q-86 0 -162.5 26t-158.5 89l-117 -115z" unicode="¤"/>
<glyph glyph-name="yen" d="M145 1471h153l253 -603l411 603h168l-516 -766h367l-18 -115h-366l-22 -155h366l-17 -117h-367l-44 -318h-145l45 318h-368l16 117h369l21 155h-368l15 115h368z" unicode="¥"/>
<glyph glyph-name="brokenbar" horiz-adv-x="1376" unicode="¦" d="M616 -398v957l143 54v-1011h-143zM616 686v822h143v-767z"/>
<glyph glyph-name="section" horiz-adv-x="1259" unicode="§" d="M553 839q-126 -18 -199 -86t-73 -149q0 -48 26.5 -93.5t92.5 -97.5l153 -107q134 12 215.5 84.5t81.5 152.5q0 38 -18.5 73.5t-72.5 77.5zM1045 1195h-139q-26 200 -207 200q-111 0 -182.5 -63t-71.5 -146q0 -66 58 -129t209 -158q166 -105 224 -185.5t58 -158.5 q0 -69 -39.5 -138.5t-115.5 -120t-184 -72.5q106 -85 145 -155.5t39 -147.5q0 -88 -51 -169.5t-147 -129.5t-213 -48q-153 0 -245.5 73.5t-117.5 213.5h141q27 -80 82 -117t145 -37q115 0 188.5 62t73.5 148q0 30 -11.5 60t-35.5 59q-47 58 -255 205q-154 109 -201.5 181.5 t-47.5 165.5q0 109 81.5 199.5t227.5 124.5q-79 62 -113.5 128t-34.5 142q0 145 111 249.5t282 104.5q151 0 246 -92t101 -249z"/>
<glyph glyph-name="dieresis" horiz-adv-x="756" unicode="¨" d="M687 1518q44 0 72.5 -29t28.5 -71q0 -52 -40.5 -92t-93.5 -40q-43 0 -71.5 28.5t-28.5 71.5q0 52 40 92t93 40zM279 1518q43 0 72 -29t29 -71q0 -52 -40.5 -92t-94.5 -40q-42 0 -70.5 28.5t-28.5 71.5q0 52 40 92t93 40z"/>
<glyph glyph-name="copyright" horiz-adv-x="1530" unicode="©" d="M1150 924h-136q-21 89 -79.5 133.5t-155.5 44.5q-127 0 -204 -89.5t-77 -261.5q0 -168 74 -256t193 -88q100 0 165.5 61.5t83.5 184.5h136q-19 -164 -124 -261t-256 -97q-189 0 -302 121.5t-113 336.5q0 226 117.5 352t298.5 126q167 0 267 -83.5t112 -223.5zM1442 757 q0 182 -90.5 338.5t-247.5 247.5t-339 91q-181 0 -338 -91t-247.5 -248t-90.5 -338q0 -182 90.5 -339t248 -247.5t338.5 -90.5t338 90.5t247.5 247.5t90.5 339zM1551 757q0 -211 -105 -392t-287.5 -286.5t-392.5 -105.5t-393 105.5t-288 287t-105 391.5t105 391.5 t287.5 286.5t393.5 105q210 0 392.5 -105t287.5 -286.5t105 -391.5z"/>
<glyph glyph-name="ordfeminine" horiz-adv-x="756" unicode="ª" d="M354 899q91 0 154.5 78.5t63.5 209.5q0 100 -49 157.5t-122 57.5q-85 0 -151.5 -80t-66.5 -206q0 -102 49 -159.5t122 -57.5zM628 810h-116l11 80q-57 -56 -102 -76t-96 -20q-108 0 -182 87t-74 233q0 169 95.5 281.5t216.5 112.5q52 0 97.5 -23.5t115.5 -97.5l13 104 h119z"/>
<glyph glyph-name="guillemotleft" horiz-adv-x="870" unicode="«" d="M752 1088h152l-302 -550l142 -538h-136l-149 557zM292 1088h152l-302 -550l142 -538h-136l-149 557z"/>
<glyph glyph-name="logicalnot" horiz-adv-x="1241" unicode="¬" d="M1127 1024v-577h-137l-1 440h-874v137h1012z"/>
<glyph glyph-name="registered" horiz-adv-x="1530" unicode="®" d="M582 1087v-268h222q101 0 137 23q53 33 53 112q0 69 -38 101t-143 32h-231zM439 1217h377q132 0 190 -26.5t94.5 -86.5t36.5 -140q0 -69 -26 -119q-20 -37 -87 -81q61 -30 82 -69.5t21 -135.5v-102q0 -72 32 -120l15 -24h-160q-15 56 -21 133l-7 111q-4 61 -19.5 86 t-44 36t-113.5 11h-227v-377h-143v904zM1442 759q0 180 -91 338.5t-247 249.5t-336 91q-181 0 -339.5 -91t-249 -249.5t-90.5 -340.5q0 -181 90.5 -338t249.5 -248t339 -91q179 0 336 91.5t247.5 248t90.5 339.5zM1551 760q0 -212 -105 -393.5t-288 -287.5t-392 -106 t-392 105.5t-288.5 287.5t-105.5 390q0 210 105.5 394t288 289t392.5 105t391.5 -104.5t287.5 -288.5t106 -391z"/>
<glyph glyph-name="overscore" horiz-adv-x="1024" unicode="¯" d="M72 1685h1048v-102h-1048v102z"/>
<glyph glyph-name="degree" horiz-adv-x="819" unicode="°" d="M678 1162q0 102 -65 171t-158 69q-94 0 -161.5 -69.5t-67.5 -168.5q0 -97 68 -167.5t160 -70.5t158 69t66 167zM797 1164q0 -145 -101 -244.5t-245 -99.5t-244 100t-100 247q0 141 102.5 241t244.5 100t242.5 -100t100.5 -244z"/>
<glyph glyph-name="plusminus" horiz-adv-x="1124" unicode="±" d="M1068 161v-137h-1012v137h1012zM493 913v434h137v-434h438v-137h-438v-434h-137v434h-437v137h437z"/>
<glyph glyph-name="twosuperior" horiz-adv-x="680" unicode="²" d="M248 1241h-112q7 128 81.5 197.5t202.5 69.5q111 0 178.5 -59.5t67.5 -145.5q0 -58 -33.5 -114t-180.5 -192l-176 -164h352l-15 -100h-596l311 291q164 153 195 198t31 84q0 42 -39.5 74t-103.5 32q-73 0 -116 -43.5t-47 -127.5z"/>
<glyph glyph-name="threesuperior" horiz-adv-x="680" unicode="³" d="M274 1305h-112q10 66 41.5 107.5t90 68.5t125.5 27q107 0 172.5 -58t65.5 -145q0 -54 -27 -93.5t-95 -72.5q59 -41 81 -80t22 -88q0 -104 -87.5 -180t-223.5 -76q-113 0 -186.5 63t-87.5 176h111q11 -73 47 -102q49 -39 120 -39q77 0 136 49.5t59 102.5q0 60 -51 96.5 t-171 36.5l13 93l31 -1q92 0 153 41q45 31 45 77q0 41 -37.5 71t-95.5 30q-56 0 -93 -27.5t-46 -76.5z"/>
<glyph glyph-name="acute" horiz-adv-x="768" unicode="´" d="M581 1598h215l-339 -308h-138z"/>
<glyph glyph-name="mu1" horiz-adv-x="1180" unicode="µ" d="M-24 -398l204 1486h140l-81 -574q-11 -82 -11 -130q0 -115 74.5 -186t192.5 -71q99 0 183.5 59t123.5 144q25 55 45 201l78 557h140l-150 -1088h-140l16 118q-70 -74 -149 -108.5t-172 -34.5q-95 0 -165.5 34.5t-118.5 105.5l-70 -513h-140z"/>
<glyph glyph-name="paragraph" horiz-adv-x="1155" unicode="¶" d="M483 -231v937q-75 0 -111 8q-78 17 -141 67.5t-100 135t-37 188.5q0 189 116 308q97 100 299 100h513v-75h-84v-1669h-119v1669h-217v-1669h-119z"/>
<glyph glyph-name="middot" horiz-adv-x="682" unicode="·" d="M600 870q43 0 72 -28.5t29 -71.5q0 -52 -40.5 -92t-94.5 -40q-42 0 -70.5 29t-28.5 71q0 52 40 92t93 40z"/>
<glyph glyph-name="cedilla" horiz-adv-x="664" unicode="¸" d="M178 0h88l-34 -118q24 3 39 3q44 0 72.5 -26t28.5 -65q0 -70 -68 -122t-185 -52q-88 0 -162 30l31 69q62 -20 118 -20q78 0 111 20.5t33 48.5q0 16 -15 27.5t-41 11.5q-24 0 -72 -9z"/>
<glyph glyph-name="onesuperior" horiz-adv-x="680" unicode="¹" d="M295 1489h203l-120 -756h-109l104 658h-122z"/>
<glyph glyph-name="ordmasculine" horiz-adv-x="756" unicode="º" d="M416 1401q-61 0 -116.5 -35.5t-87 -101t-31.5 -147.5q0 -99 52 -158.5t131 -59.5q103 0 166 83.5t63 200.5q0 101 -51 159.5t-126 58.5zM420 1508q120 0 202.5 -90t82.5 -236q0 -169 -101.5 -278.5t-250.5 -109.5q-122 0 -204 88.5t-82 230.5q0 170 104 282.5t249 112.5z "/>
<glyph glyph-name="guillemotright" horiz-adv-x="870" unicode="»" d="M73 0h-152l302 550l-141 538h135l149 -557zM533 0h-152l302 550l-141 538h135l149 -557z"/>
<glyph glyph-name="onequarter" horiz-adv-x="1702" unicode="¼" d="M224 1489h203l-120 -756h-109l104 658h-122zM227 -37l932 1545h112l-933 -1545h-111zM1332 472l-213 -226h177zM1490 790l-87 -544h122l-16 -100h-121l-24 -155h-108l24 155h-397z"/>
<glyph glyph-name="onehalf" horiz-adv-x="1702" unicode="½" d="M224 1489h203l-120 -756h-109l104 658h-122zM204 -37l932 1545h112l-933 -1545h-111zM1118 508h-112q7 128 81.5 197.5t202.5 69.5q111 0 178.5 -59.5t67.5 -145.5q0 -58 -33.5 -114t-180.5 -192l-176 -164h352l-15 -100h-596l311 291q164 153 195 198t31 84 q0 42 -39.5 74t-103.5 32q-73 0 -116 -43.5t-47 -127.5z"/>
<glyph glyph-name="threequarters" horiz-adv-x="1702" unicode="¾" d="M257 1305h-112q10 66 41.5 107.5t90 68.5t125.5 27q107 0 172.5 -58t65.5 -145q0 -54 -27 -93.5t-95 -72.5q59 -41 81 -80t22 -88q0 -104 -87.5 -180t-223.5 -76q-113 0 -186.5 63t-87.5 176h111q11 -73 47 -102q49 -39 120 -39q77 0 136 49.5t59 102.5q0 60 -51 96.5 t-171 36.5l13 93l31 -1q92 0 153 41q45 31 45 77q0 41 -37.5 71t-95.5 30q-56 0 -93 -27.5t-46 -76.5zM376 -37l932 1545h112l-933 -1545h-111zM1417 472l-213 -226h177zM1575 790l-87 -544h122l-16 -100h-121l-24 -155h-108l24 155h-397z"/>
<glyph glyph-name="questiondown" horiz-adv-x="1210" unicode="¿" d="M799 10h136q-23 -215 -150 -325.5t-321 -110.5q-171 0 -275.5 91t-104.5 225q0 99 47 173.5t140 126.5q45 25 232 90q158 55 215 111q56 55 56 113q0 50 -50.5 89t-132.5 39q-101 0 -165 -54.5t-83 -164.5h-136q14 167 114.5 259.5t270.5 92.5q144 0 230 -78.5t86 -191.5 q0 -108 -77 -186q-77 -79 -363 -182q-140 -51 -183 -88q-63 -54 -63 -144q0 -84 65 -135t191 -51q283 0 321 301zM648 894q-51 0 -87 35.5t-36 86.5q0 50 36 86t87 36q50 0 86 -36t36 -86t-36 -86t-86 -36z"/>
<glyph glyph-name="Agrave" horiz-adv-x="1515" unicode="À" d="M805 1163l-314 -542h496zM852 1471l493 -1471h-151l-161 481h-623l-275 -481h-164l847 1471h34zM801 1895l175 -308h-138l-252 308h215z"/>
<glyph glyph-name="Aacute" horiz-adv-x="1515" unicode="Á" d="M805 1163l-314 -542h496zM852 1471l493 -1471h-151l-161 481h-623l-275 -481h-164l847 1471h34zM954 1895h215l-339 -308h-138z"/>
<glyph glyph-name="Acircumflex" horiz-adv-x="1515" unicode="Â" d="M805 1163l-314 -542h496zM852 1471l493 -1471h-151l-161 481h-623l-275 -481h-164l847 1471h34zM799 1840h139l254 -257h-180l-155 152l-205 -152h-186z"/>
<glyph glyph-name="Atilde" horiz-adv-x="1515" unicode="Ã" d="M805 1163l-314 -542h496zM852 1471l493 -1471h-151l-161 481h-623l-275 -481h-164l847 1471h34zM1143 1789l57 -97q-80 -52 -132.5 -70t-106.5 -18q-72 0 -143 37q-60 32 -77 37q-24 7 -50 7q-37 0 -70 -12.5t-99 -56.5l-52 102q105 97 238 97q64 0 148 -40 q80 -39 126 -39q58 0 161 53z"/>
<glyph glyph-name="Adieresis" horiz-adv-x="1515" unicode="Ä" d="M805 1163l-314 -542h496zM852 1471l493 -1471h-151l-161 481h-623l-275 -481h-164l847 1471h34zM1066 1816q44 0 72.5 -29t28.5 -71q0 -52 -40.5 -92t-93.5 -40q-43 0 -71.5 28.5t-28.5 71.5q0 52 40 92t93 40zM658 1816q43 0 72 -29t29 -71q0 -52 -40.5 -92t-94.5 -40 q-42 0 -70.5 28.5t-28.5 71.5q0 52 40 92t93 40z"/>
<glyph glyph-name="Aring" horiz-adv-x="1515" unicode="Å" d="M805 1163l-314 -542h496zM852 1471l493 -1471h-151l-161 481h-623l-275 -481h-164l847 1471h34zM870 1888q-50 0 -88 -38t-38 -87q0 -41 27 -68t68 -27q51 0 89 38t38 87q0 41 -27.5 68t-68.5 27zM886 1989q80 0 133 -52.5t53 -131.5q0 -96 -74.5 -169.5t-173.5 -73.5 q-78 0 -130.5 53t-52.5 131q0 96 74 169.5t171 73.5z"/>
<glyph glyph-name="AE" horiz-adv-x="2032" unicode="Æ" d="M1092 1344l-519 -723h423zM1743 0h-832l65 478h-504l-346 -478h-159l1059 1471h895l-21 -143h-661l-65 -482h661l-19 -141h-662l-75 -564h680z"/>
<glyph glyph-name="Ccedilla" horiz-adv-x="1665" unicode="Ç" d="M1576 1268l-89 -123q-234 220 -533 220q-195 0 -364.5 -95t-265 -256t-95.5 -346q0 -165 73.5 -293t212.5 -200.5t318 -72.5q273 0 509 173l82 -117q-175 -115 -301 -155t-291 -40q-305 0 -497 153q-255 205 -255 547q0 353 255 599t634 246q173 0 315 -54.5t292 -185.5z M715 0h88l-34 -118q24 3 39 3q44 0 72.5 -26t28.5 -65q0 -70 -68 -122t-185 -52q-88 0 -162 30l31 69q62 -20 118 -20q78 0 111 20.5t33 48.5q0 16 -15 27.5t-41 11.5q-24 0 -72 -9z"/>
<glyph glyph-name="Egrave" horiz-adv-x="1098" unicode="È" d="M1056 1471l-21 -143h-662l-65 -482h662l-19 -141h-662l-75 -564h662l-17 -141h-811l197 1471h811zM628 1895l175 -308h-138l-252 308h215z"/>
<glyph glyph-name="Eacute" horiz-adv-x="1098" unicode="É" d="M1056 1471l-21 -143h-662l-65 -482h662l-19 -141h-662l-75 -564h662l-17 -141h-811l197 1471h811zM781 1895h215l-339 -308h-138z"/>
<glyph glyph-name="Ecircumflex" horiz-adv-x="1098" unicode="Ê" d="M1056 1471l-21 -143h-662l-65 -482h662l-19 -141h-662l-75 -564h662l-17 -141h-811l197 1471h811zM627 1840h139l254 -257h-180l-155 152l-205 -152h-186z"/>
<glyph glyph-name="Edieresis" horiz-adv-x="1098" unicode="Ë" d="M1056 1471l-21 -143h-662l-65 -482h662l-19 -141h-662l-75 -564h662l-17 -141h-811l197 1471h811zM893 1816q44 0 72.5 -29t28.5 -71q0 -52 -40.5 -92t-93.5 -40q-43 0 -71.5 28.5t-28.5 71.5q0 52 40 92t93 40zM485 1816q43 0 72 -29t29 -71q0 -52 -40.5 -92t-94.5 -40 q-42 0 -70.5 28.5t-28.5 71.5q0 52 40 92t93 40z"/>
<glyph glyph-name="Igrave" horiz-adv-x="463" unicode="Ì" d="M238 1471h148l-199 -1471h-148zM274 1895l175 -308h-138l-252 308h215z"/>
<glyph glyph-name="Iacute" horiz-adv-x="463" unicode="Í" d="M238 1471h148l-199 -1471h-148zM464 1895h215l-339 -308h-138z"/>
<glyph glyph-name="Icircumflex" horiz-adv-x="463" unicode="Î" d="M238 1471h148l-199 -1471h-148zM310 1840h139l254 -257h-180l-155 152l-205 -152h-186z"/>
<glyph glyph-name="Idieresis" horiz-adv-x="463" unicode="Ï" d="M238 1471h148l-199 -1471h-148zM577 1816q44 0 72.5 -29t28.5 -71q0 -52 -40.5 -92t-93.5 -40q-43 0 -71.5 28.5t-28.5 71.5q0 52 40 92t93 40zM169 1816q43 0 72 -29t29 -71q0 -52 -40.5 -92t-94.5 -40q-42 0 -70.5 28.5t-28.5 71.5q0 52 40 92t93 40z"/>
<glyph glyph-name="Eth" horiz-adv-x="1618" unicode="Ð" d="M375 669l-70 -526h129q299 0 396 16q147 24 248.5 94.5t173.5 211t72 306.5q0 175 -82 306t-223 196q-122 56 -410 56h-146l-70 -528h358l-18 -132h-358zM230 669h-186l18 132h185l89 670h316q299 0 459.5 -78.5t258.5 -243t98 -375.5q0 -225 -110.5 -416t-272 -274.5 t-481.5 -83.5h-463z"/>
<glyph glyph-name="Ntilde" horiz-adv-x="1515" unicode="Ñ" d="M1265 1471h144l-199 -1471h-32l-828 1140l-154 -1140h-146l198 1471h32l830 -1142zM1143 1789l57 -97q-80 -52 -132.5 -70t-106.5 -18q-72 0 -143 37q-60 32 -77 37q-24 7 -50 7q-37 0 -70 -12.5t-99 -56.5l-52 102q105 97 238 97q64 0 148 -40q80 -39 126 -39 q58 0 161 53z"/>
<glyph glyph-name="Ograve" horiz-adv-x="1780" unicode="Ò" d="M953 1369q-211 0 -376.5 -92t-262 -261t-96.5 -360q0 -162 70 -290.5t193.5 -196.5t290.5 -68q198 0 367 95.5t265.5 265t96.5 366.5q0 261 -183 414q-152 127 -365 127zM956 1508q297 0 494.5 -195t197.5 -493q0 -363 -250.5 -610t-624.5 -247q-318 0 -509 190t-191 497 q0 237 114.5 435t317 310.5t451.5 112.5zM934 1895l175 -308h-138l-252 308h215z"/>
<glyph glyph-name="Oacute" horiz-adv-x="1780" unicode="Ó" d="M953 1369q-211 0 -376.5 -92t-262 -261t-96.5 -360q0 -162 70 -290.5t193.5 -196.5t290.5 -68q198 0 367 95.5t265.5 265t96.5 366.5q0 261 -183 414q-152 127 -365 127zM956 1508q297 0 494.5 -195t197.5 -493q0 -363 -250.5 -610t-624.5 -247q-318 0 -509 190t-191 497 q0 237 114.5 435t317 310.5t451.5 112.5zM1087 1895h215l-339 -308h-138z"/>
<glyph glyph-name="Ocircumflex" horiz-adv-x="1780" unicode="Ô" d="M953 1369q-211 0 -376.5 -92t-262 -261t-96.5 -360q0 -162 70 -290.5t193.5 -196.5t290.5 -68q198 0 367 95.5t265.5 265t96.5 366.5q0 261 -183 414q-152 127 -365 127zM956 1508q297 0 494.5 -195t197.5 -493q0 -363 -250.5 -610t-624.5 -247q-318 0 -509 190t-191 497 q0 237 114.5 435t317 310.5t451.5 112.5zM932 1840h139l254 -257h-180l-155 152l-205 -152h-186z"/>
<glyph glyph-name="Otilde" horiz-adv-x="1780" unicode="Õ" d="M953 1369q-211 0 -376.5 -92t-262 -261t-96.5 -360q0 -162 70 -290.5t193.5 -196.5t290.5 -68q198 0 367 95.5t265.5 265t96.5 366.5q0 261 -183 414q-152 127 -365 127zM956 1508q297 0 494.5 -195t197.5 -493q0 -363 -250.5 -610t-624.5 -247q-318 0 -509 190t-191 497 q0 237 114.5 435t317 310.5t451.5 112.5zM1276 1789l57 -97q-80 -52 -132.5 -70t-106.5 -18q-72 0 -143 37q-60 32 -77 37q-24 7 -50 7q-37 0 -70 -12.5t-99 -56.5l-52 102q105 97 238 97q64 0 148 -40q80 -39 126 -39q58 0 161 53z"/>
<glyph glyph-name="Odieresis" horiz-adv-x="1780" unicode="Ö" d="M953 1369q-211 0 -376.5 -92t-262 -261t-96.5 -360q0 -162 70 -290.5t193.5 -196.5t290.5 -68q198 0 367 95.5t265.5 265t96.5 366.5q0 261 -183 414q-152 127 -365 127zM956 1508q297 0 494.5 -195t197.5 -493q0 -363 -250.5 -610t-624.5 -247q-318 0 -509 190t-191 497 q0 237 114.5 435t317 310.5t451.5 112.5zM1199 1816q44 0 72.5 -29t28.5 -71q0 -52 -40.5 -92t-93.5 -40q-43 0 -71.5 28.5t-28.5 71.5q0 52 40 92t93 40zM791 1816q43 0 72 -29t29 -71q0 -52 -40.5 -92t-94.5 -40q-42 0 -70.5 28.5t-28.5 71.5q0 52 40 92t93 40z"/>
<glyph glyph-name="multiply" horiz-adv-x="1241" unicode="×" d="M712 735l332 -331l-92 -92l-331 331l-332 -331l-92 92l331 331l-331 332l92 92l332 -332l331 332l92 -92z"/>
<glyph glyph-name="Oslash" horiz-adv-x="1778" unicode="Ø" d="M1366 1194l-894 -1021q132 -72 299 -72q197 0 366.5 95.5t265.5 265t96 366.5q0 217 -133 366zM366 254l898 1027q-137 88 -330 88q-195 0 -361.5 -94t-261.5 -261.5t-95 -357.5q0 -118 40 -223t110 -179zM1460 1301q186 -191 186 -481q0 -362 -250.5 -609.5 t-622.5 -247.5q-233 0 -398 100l-132 -151l-98 88l126 144q-200 194 -200 506q0 236 113.5 433t316 311t441.5 114q235 0 416 -121l121 139l102 -87z"/>
<glyph glyph-name="Ugrave" horiz-adv-x="1341" unicode="Ù" d="M233 1471h145l-111 -842q-22 -168 -22 -239q0 -138 79 -212.5t223 -74.5q101 0 179 34t132.5 99t77.5 150q40 148 69 374l92 711h145l-98 -743l-24 -182q-21 -127 -50 -216.5t-76 -158.5t-107 -113t-145.5 -69.5t-191.5 -25.5q-217 0 -335 110t-118 292q0 51 6 114 l22 172zM714 1895l175 -308h-138l-252 308h215z"/>
<glyph glyph-name="Uacute" horiz-adv-x="1341" unicode="Ú" d="M233 1471h145l-111 -842q-22 -168 -22 -239q0 -138 79 -212.5t223 -74.5q101 0 179 34t132.5 99t77.5 150q40 148 69 374l92 711h145l-98 -743l-24 -182q-21 -127 -50 -216.5t-76 -158.5t-107 -113t-145.5 -69.5t-191.5 -25.5q-217 0 -335 110t-118 292q0 51 6 114 l22 172zM868 1895h215l-339 -308h-138z"/>
<glyph glyph-name="Ucircumflex" horiz-adv-x="1341" unicode="Û" d="M233 1471h145l-111 -842q-22 -168 -22 -239q0 -138 79 -212.5t223 -74.5q101 0 179 34t132.5 99t77.5 150q40 148 69 374l92 711h145l-98 -743l-24 -182q-21 -127 -50 -216.5t-76 -158.5t-107 -113t-145.5 -69.5t-191.5 -25.5q-217 0 -335 110t-118 292q0 51 6 114 l22 172zM713 1840h139l254 -257h-180l-155 152l-205 -152h-186z"/>
<glyph glyph-name="Udieresis" horiz-adv-x="1341" unicode="Ü" d="M233 1471h145l-111 -842q-22 -168 -22 -239q0 -138 79 -212.5t223 -74.5q101 0 179 34t132.5 99t77.5 150q40 148 69 374l92 711h145l-98 -743l-24 -182q-21 -127 -50 -216.5t-76 -158.5t-107 -113t-145.5 -69.5t-191.5 -25.5q-217 0 -335 110t-118 292q0 51 6 114 l22 172zM979 1816q44 0 72.5 -29t28.5 -71q0 -52 -40.5 -92t-93.5 -40q-43 0 -71.5 28.5t-28.5 71.5q0 52 40 92t93 40zM571 1816q43 0 72 -29t29 -71q0 -52 -40.5 -92t-94.5 -40q-42 0 -70.5 28.5t-28.5 71.5q0 52 40 92t93 40z"/>
<glyph glyph-name="Yacute" horiz-adv-x="1212" unicode="Ý" d="M83 1471h154l315 -668l531 668h178l-652 -819l-89 -652h-144l89 660zM803 1895h215l-339 -308h-138z"/>
<glyph glyph-name="Thorn" horiz-adv-x="1212" unicode="Þ" d="M345 981l-68 -489h204q208 0 287.5 28.5t128 98t48.5 155.5q0 69 -33.5 118t-91.5 69t-212 20h-263zM262 1471h147l-47 -348h254q199 0 285 -37t138.5 -118t52.5 -192q0 -146 -82.5 -253.5t-206.5 -146.5q-91 -28 -321 -28h-223l-47 -348h-147z"/>
<glyph glyph-name="germandbls" d="M185 0h-141l141 993q31 216 90.5 319.5t164 163.5t229.5 60q147 0 241.5 -91.5t94.5 -229.5q0 -141 -71.5 -240.5t-212.5 -149.5q125 -59 187 -153.5t62 -211.5q0 -192 -124 -340t-335 -148q-125 0 -211 53l19 136q104 -55 186 -55q116 0 220.5 91t104.5 247 q0 261 -345 317l22 151q111 0 194.5 39.5t127 108t43.5 147.5q0 82 -57 136.5t-150 54.5q-99 0 -177.5 -55t-116.5 -142q-24 -56 -46 -208z" unicode="ß"/>
<glyph glyph-name="agrave" horiz-adv-x="1399" unicode="à" d="M583 100q135 0 246 63.5t176 182.5t65 259q0 169 -107 275t-278 106q-201 0 -344 -145t-143 -356q0 -173 107 -279t278 -106zM1121 0h-141l21 164q-189 -192 -433 -192q-222 0 -365 143t-143 368q0 260 185.5 446.5t436.5 186.5q136 0 238.5 -57t175.5 -178l25 207h145z M743 1598l175 -308h-138l-252 308h215z"/>
<glyph glyph-name="aacute" horiz-adv-x="1399" unicode="á" d="M583 100q135 0 246 63.5t176 182.5t65 259q0 169 -107 275t-278 106q-201 0 -344 -145t-143 -356q0 -173 107 -279t278 -106zM1121 0h-141l21 164q-189 -192 -433 -192q-222 0 -365 143t-143 368q0 260 185.5 446.5t436.5 186.5q136 0 238.5 -57t175.5 -178l25 207h145z M896 1598h215l-339 -308h-138z"/>
<glyph glyph-name="acircumflex" horiz-adv-x="1399" unicode="â" d="M583 100q135 0 246 63.5t176 182.5t65 259q0 169 -107 275t-278 106q-201 0 -344 -145t-143 -356q0 -173 107 -279t278 -106zM1121 0h-141l21 164q-189 -192 -433 -192q-222 0 -365 143t-143 368q0 260 185.5 446.5t436.5 186.5q136 0 238.5 -57t175.5 -178l25 207h145z M742 1542h139l254 -257h-180l-155 152l-205 -152h-186z"/>
<glyph glyph-name="atilde" horiz-adv-x="1399" unicode="ã" d="M583 100q135 0 246 63.5t176 182.5t65 259q0 169 -107 275t-278 106q-201 0 -344 -145t-143 -356q0 -173 107 -279t278 -106zM1121 0h-141l21 164q-189 -192 -433 -192q-222 0 -365 143t-143 368q0 260 185.5 446.5t436.5 186.5q136 0 238.5 -57t175.5 -178l25 207h145z M1085 1492l57 -97q-80 -52 -132.5 -70t-106.5 -18q-72 0 -143 37q-60 32 -77 37q-24 7 -50 7q-37 0 -70 -12.5t-99 -56.5l-52 102q105 97 238 97q64 0 148 -40q80 -39 126 -39q58 0 161 53z"/>
<glyph glyph-name="adieresis" horiz-adv-x="1399" unicode="ä" d="M583 100q135 0 246 63.5t176 182.5t65 259q0 169 -107 275t-278 106q-201 0 -344 -145t-143 -356q0 -173 107 -279t278 -106zM1121 0h-141l21 164q-189 -192 -433 -192q-222 0 -365 143t-143 368q0 260 185.5 446.5t436.5 186.5q136 0 238.5 -57t175.5 -178l25 207h145z M1008 1518q44 0 72.5 -29t28.5 -71q0 -52 -40.5 -92t-93.5 -40q-43 0 -71.5 28.5t-28.5 71.5q0 52 40 92t93 40zM600 1518q43 0 72 -29t29 -71q0 -52 -40.5 -92t-94.5 -40q-42 0 -70.5 28.5t-28.5 71.5q0 52 40 92t93 40z"/>
<glyph glyph-name="aring" horiz-adv-x="1399" unicode="å" d="M583 100q135 0 246 63.5t176 182.5t65 259q0 169 -107 275t-278 106q-201 0 -344 -145t-143 -356q0 -173 107 -279t278 -106zM1121 0h-141l21 164q-189 -192 -433 -192q-222 0 -365 143t-143 368q0 260 185.5 446.5t436.5 186.5q136 0 238.5 -57t175.5 -178l25 207h145z M812 1590q-50 0 -88 -38t-38 -87q0 -41 27 -68t68 -27q51 0 89 38t38 87q0 41 -27.5 68t-68.5 27zM828 1691q80 0 133 -52.5t53 -131.5q0 -96 -74.5 -169.5t-173.5 -73.5q-78 0 -130.5 53t-52.5 131q0 96 74 169.5t171 73.5z"/>
<glyph glyph-name="ae" horiz-adv-x="2370" unicode="æ" d="M2081 635q-5 149 -102.5 249.5t-270.5 100.5q-166 0 -290 -93.5t-173 -256.5h836zM683 987q-228 0 -368 -169q-120 -143 -120 -331q0 -172 109 -278.5t289 -106.5q134 0 247.5 64t179 180.5t65.5 241.5q0 108 -53 203t-142.5 145.5t-206.5 50.5zM1149 1088h125l-22 -178 q91 103 206.5 154.5t247.5 51.5q223 0 365 -140.5t142 -363.5q0 -45 -8 -96h-985l-3 -47q0 -98 51 -186t139 -135t205 -47q223 0 376 174l107 -79q-180 -224 -498 -224q-156 0 -262 56.5t-180 171.5l-27 -200h-124l21 170q-103 -104 -213.5 -151t-243.5 -47q-229 0 -362 139 q-148 153 -148 382q0 255 184.5 439t436.5 184q160 0 275 -70q86 -53 165 -177z"/>
<glyph glyph-name="ccedilla" horiz-adv-x="1325" unicode="ç" d="M1198 853l-115 -67q-121 196 -370 196q-144 0 -263 -64t-186 -178t-67 -244q0 -115 50 -206t140.5 -140t213.5 -49q126 0 240.5 50t178.5 129l115 -81q-108 -118 -234.5 -172.5t-293.5 -54.5q-258 0 -402.5 140.5t-144.5 374.5q0 260 189.5 444.5t464.5 184.5 q165 0 291 -69.5t193 -193.5zM533 0h88l-34 -118q24 3 39 3q44 0 72.5 -26t28.5 -65q0 -70 -68 -122t-185 -52q-88 0 -162 30l31 69q62 -20 118 -20q78 0 111 20.5t33 48.5q0 16 -15 27.5t-41 11.5q-24 0 -72 -9z"/>
<glyph glyph-name="egrave" horiz-adv-x="1331" unicode="è" d="M1038 637q-6 154 -105 249.5t-249 95.5q-163 0 -287.5 -92t-176.5 -253h818zM1166 516h-970v-11q0 -186 101 -294q104 -111 277 -111q115 0 213 47t162 132l104 -85q-79 -101 -206.5 -161.5t-275.5 -60.5q-256 0 -384.5 158.5t-128.5 356.5q0 162 86.5 312t231.5 233.5 t314 83.5q209 0 346 -141.5t137 -360.5q0 -40 -7 -98zM709 1598l175 -308h-138l-252 308h215z"/>
<glyph glyph-name="eacute" horiz-adv-x="1331" unicode="é" d="M1038 637q-6 154 -105 249.5t-249 95.5q-163 0 -287.5 -92t-176.5 -253h818zM1166 516h-970v-11q0 -186 101 -294q104 -111 277 -111q115 0 213 47t162 132l104 -85q-79 -101 -206.5 -161.5t-275.5 -60.5q-256 0 -384.5 158.5t-128.5 356.5q0 162 86.5 312t231.5 233.5 t314 83.5q209 0 346 -141.5t137 -360.5q0 -40 -7 -98zM862 1598h215l-339 -308h-138z"/>
<glyph glyph-name="ecircumflex" horiz-adv-x="1331" unicode="ê" d="M1038 637q-6 154 -105 249.5t-249 95.5q-163 0 -287.5 -92t-176.5 -253h818zM1166 516h-970v-11q0 -186 101 -294q104 -111 277 -111q115 0 213 47t162 132l104 -85q-79 -101 -206.5 -161.5t-275.5 -60.5q-256 0 -384.5 158.5t-128.5 356.5q0 162 86.5 312t231.5 233.5 t314 83.5q209 0 346 -141.5t137 -360.5q0 -40 -7 -98zM707 1542h139l254 -257h-180l-155 152l-205 -152h-186z"/>
<glyph glyph-name="edieresis" horiz-adv-x="1331" unicode="ë" d="M1038 637q-6 154 -105 249.5t-249 95.5q-163 0 -287.5 -92t-176.5 -253h818zM1166 516h-970v-11q0 -186 101 -294q104 -111 277 -111q115 0 213 47t162 132l104 -85q-79 -101 -206.5 -161.5t-275.5 -60.5q-256 0 -384.5 158.5t-128.5 356.5q0 162 86.5 312t231.5 233.5 t314 83.5q209 0 346 -141.5t137 -360.5q0 -40 -7 -98zM974 1518q44 0 72.5 -29t28.5 -71q0 -52 -40.5 -92t-93.5 -40q-43 0 -71.5 28.5t-28.5 71.5q0 52 40 92t93 40zM566 1518q43 0 72 -29t29 -71q0 -52 -40.5 -92t-94.5 -40q-42 0 -70.5 28.5t-28.5 71.5q0 52 40 92t93 40 z"/>
<glyph glyph-name="igrave" horiz-adv-x="410" unicode="ì" d="M164 1088h133l-145 -1088h-138zM248 1598l175 -308h-138l-252 308h215z"/>
<glyph glyph-name="iacute" horiz-adv-x="410" unicode="í" d="M164 1088h133l-145 -1088h-138zM402 1598h215l-339 -308h-138z"/>
<glyph glyph-name="icircumflex" horiz-adv-x="410" unicode="î" d="M164 1088h133l-145 -1088h-138zM247 1542h139l254 -257h-180l-155 152l-205 -152h-186z"/>
<glyph glyph-name="idieresis" horiz-adv-x="410" unicode="ï" d="M164 1088h133l-145 -1088h-138zM514 1518q44 0 72.5 -29t28.5 -71q0 -52 -40.5 -92t-93.5 -40q-43 0 -71.5 28.5t-28.5 71.5q0 52 40 92t93 40zM106 1518q43 0 72 -29t29 -71q0 -52 -40.5 -92t-94.5 -40q-42 0 -70.5 28.5t-28.5 71.5q0 52 40 92t93 40z"/>
<glyph glyph-name="eth" horiz-adv-x="1341" unicode="ð" d="M694 975q-127 0 -244.5 -67.5t-185 -182t-67.5 -239.5q0 -107 48.5 -196.5t130.5 -136.5t184 -47q116 0 231.5 69.5t182 187.5t66.5 251q0 161 -98.5 261t-247.5 100zM471 1508h189q73 -40 132 -89l183 68l35 -100l-126 -47q142 -140 221 -320t79 -370q0 -195 -83.5 -346 t-233.5 -241.5t-313 -90.5q-138 0 -249 64.5t-178 187.5t-67 263q0 154 87 303.5t232 237.5t292 88q168 0 283 -104q-75 156 -195 280l-228 -86l-39 101l177 65q-93 71 -198 136z"/>
<glyph glyph-name="ntilde" horiz-adv-x="1249" unicode="ñ" d="M192 1088h134l-21 -167q165 195 384 195q168 0 271 -103.5t103 -278.5q0 -70 -22 -235l-68 -499h-138l67 499q22 160 22 236q0 114 -69 184t-181 70q-110 0 -204.5 -56.5t-146.5 -154t-80 -308.5l-65 -470h-137zM1011 1492l57 -97q-80 -52 -132.5 -70t-106.5 -18 q-72 0 -143 37q-60 32 -77 37q-24 7 -50 7q-37 0 -70 -12.5t-99 -56.5l-52 102q105 97 238 97q64 0 148 -40q80 -39 126 -39q58 0 161 53z"/>
<glyph glyph-name="ograve" horiz-adv-x="1341" unicode="ò" d="M677 983q-130 0 -244.5 -65t-176 -178.5t-61.5 -250.5q0 -172 106 -279.5t274 -107.5q131 0 237.5 62.5t169.5 180.5t63 253q0 113 -47 200.5t-133 136t-188 48.5zM680 1116q139 0 255 -66.5t181 -185t65 -268.5q0 -171 -83 -317.5t-223 -226.5t-317 -80 q-219 0 -360.5 143.5t-141.5 365.5q0 174 83 321t227.5 230.5t313.5 83.5zM714 1598l175 -308h-138l-252 308h215z"/>
<glyph glyph-name="oacute" horiz-adv-x="1341" unicode="ó" d="M677 983q-130 0 -244.5 -65t-176 -178.5t-61.5 -250.5q0 -172 106 -279.5t274 -107.5q131 0 237.5 62.5t169.5 180.5t63 253q0 113 -47 200.5t-133 136t-188 48.5zM680 1116q139 0 255 -66.5t181 -185t65 -268.5q0 -171 -83 -317.5t-223 -226.5t-317 -80 q-219 0 -360.5 143.5t-141.5 365.5q0 174 83 321t227.5 230.5t313.5 83.5zM868 1598h215l-339 -308h-138z"/>
<glyph glyph-name="ocircumflex" horiz-adv-x="1341" unicode="ô" d="M677 983q-130 0 -244.5 -65t-176 -178.5t-61.5 -250.5q0 -172 106 -279.5t274 -107.5q131 0 237.5 62.5t169.5 180.5t63 253q0 113 -47 200.5t-133 136t-188 48.5zM680 1116q139 0 255 -66.5t181 -185t65 -268.5q0 -171 -83 -317.5t-223 -226.5t-317 -80 q-219 0 -360.5 143.5t-141.5 365.5q0 174 83 321t227.5 230.5t313.5 83.5zM713 1542h139l254 -257h-180l-155 152l-205 -152h-186z"/>
<glyph glyph-name="otilde" horiz-adv-x="1341" unicode="õ" d="M677 983q-130 0 -244.5 -65t-176 -178.5t-61.5 -250.5q0 -172 106 -279.5t274 -107.5q131 0 237.5 62.5t169.5 180.5t63 253q0 113 -47 200.5t-133 136t-188 48.5zM680 1116q139 0 255 -66.5t181 -185t65 -268.5q0 -171 -83 -317.5t-223 -226.5t-317 -80 q-219 0 -360.5 143.5t-141.5 365.5q0 174 83 321t227.5 230.5t313.5 83.5zM1056 1492l57 -97q-80 -52 -132.5 -70t-106.5 -18q-72 0 -143 37q-60 32 -77 37q-24 7 -50 7q-37 0 -70 -12.5t-99 -56.5l-52 102q105 97 238 97q64 0 148 -40q80 -39 126 -39q58 0 161 53z"/>
<glyph glyph-name="odieresis" horiz-adv-x="1341" unicode="ö" d="M677 983q-130 0 -244.5 -65t-176 -178.5t-61.5 -250.5q0 -172 106 -279.5t274 -107.5q131 0 237.5 62.5t169.5 180.5t63 253q0 113 -47 200.5t-133 136t-188 48.5zM680 1116q139 0 255 -66.5t181 -185t65 -268.5q0 -171 -83 -317.5t-223 -226.5t-317 -80 q-219 0 -360.5 143.5t-141.5 365.5q0 174 83 321t227.5 230.5t313.5 83.5zM979 1518q44 0 72.5 -29t28.5 -71q0 -52 -40.5 -92t-93.5 -40q-43 0 -71.5 28.5t-28.5 71.5q0 52 40 92t93 40zM571 1518q43 0 72 -29t29 -71q0 -52 -40.5 -92t-94.5 -40q-42 0 -70.5 28.5 t-28.5 71.5q0 52 40 92t93 40z"/>
<glyph glyph-name="divide" horiz-adv-x="1124" unicode="÷" d="M461 466h201v-205h-201v205zM56 804h1012v-137h-1012v137zM461 1207h201v-202h-201v202z"/>
<glyph glyph-name="oslash" horiz-adv-x="1337" unicode="ø" d="M980 827l-594 -682q85 -43 187 -43q131 0 237.5 62.5t169.5 180.5t63 252q0 128 -63 230zM282 228l604 694q-95 61 -219 61t-238 -66t-175 -179t-61 -249q0 -153 89 -261zM1071 931q108 -143 108 -335q0 -171 -82.5 -317.5t-223 -226.5t-316.5 -80q-156 0 -264 66 l-129 -149l-101 87l127 146q-136 146 -136 359q0 173 82.5 319.5t226.5 231t307 84.5q178 0 305 -92l121 139l103 -84z"/>
<glyph glyph-name="ugrave" horiz-adv-x="1245" unicode="ù" d="M188 1088h140l-63 -455q-26 -193 -26 -248q0 -125 83.5 -204t220.5 -79q114 0 198 60t120 157q18 49 43 225l78 544h137l-56 -412q-40 -295 -85 -419.5t-160.5 -204.5t-281.5 -80q-189 0 -309.5 115.5t-120.5 288.5q0 69 11 161l10 96l5 41zM666 1598l175 -308h-138 l-252 308h215z"/>
<glyph glyph-name="uacute" horiz-adv-x="1245" unicode="ú" d="M188 1088h140l-63 -455q-26 -193 -26 -248q0 -125 83.5 -204t220.5 -79q114 0 198 60t120 157q18 49 43 225l78 544h137l-56 -412q-40 -295 -85 -419.5t-160.5 -204.5t-281.5 -80q-189 0 -309.5 115.5t-120.5 288.5q0 69 11 161l10 96l5 41zM820 1598h215l-339 -308h-138 z"/>
<glyph glyph-name="ucircumflex" horiz-adv-x="1245" unicode="û" d="M188 1088h140l-63 -455q-26 -193 -26 -248q0 -125 83.5 -204t220.5 -79q114 0 198 60t120 157q18 49 43 225l78 544h137l-56 -412q-40 -295 -85 -419.5t-160.5 -204.5t-281.5 -80q-189 0 -309.5 115.5t-120.5 288.5q0 69 11 161l10 96l5 41zM665 1542h139l254 -257h-180 l-155 152l-205 -152h-186z"/>
<glyph glyph-name="udieresis" horiz-adv-x="1245" unicode="ü" d="M188 1088h140l-63 -455q-26 -193 -26 -248q0 -125 83.5 -204t220.5 -79q114 0 198 60t120 157q18 49 43 225l78 544h137l-56 -412q-40 -295 -85 -419.5t-160.5 -204.5t-281.5 -80q-189 0 -309.5 115.5t-120.5 288.5q0 69 11 161l10 96l5 41zM931 1518q44 0 72.5 -29 t28.5 -71q0 -52 -40.5 -92t-93.5 -40q-43 0 -71.5 28.5t-28.5 71.5q0 52 40 92t93 40zM523 1518q43 0 72 -29t29 -71q0 -52 -40.5 -92t-94.5 -40q-42 0 -70.5 28.5t-28.5 71.5q0 52 40 92t93 40z"/>
<glyph glyph-name="yacute" horiz-adv-x="1098" unicode="ý" d="M47 1088h144l282 -803l466 803h155l-862 -1486h-157l308 531zM746 1598h215l-339 -308h-138z"/>
<glyph glyph-name="thorn" horiz-adv-x="1397" unicode="þ" d="M742 988q-134 0 -245.5 -63.5t-176.5 -182.5t-65 -259q0 -169 107.5 -275t277.5 -106q201 0 344 145t143 356q0 173 -106.5 279t-278.5 106zM260 1508h142l-77 -583q189 191 432 191q223 0 365.5 -143t142.5 -368q0 -260 -185 -446.5t-436 -186.5q-136 0 -239 57.5 t-175 178.5l-79 -606h-145z"/>
<glyph glyph-name="dotlessi" horiz-adv-x="410" unicode="ı" d="M164 1088h133l-145 -1088h-138z"/>
<glyph glyph-name="OE" horiz-adv-x="2445" unicode="Œ" d="M930 1368q-141 0 -314.5 -80t-283.5 -250t-110 -388q0 -244 157.5 -400.5t396.5 -156.5q189 0 360.5 98t269 266t97.5 357q0 163 -70.5 287t-202 195.5t-300.5 71.5zM1593 1471h808l-18 -143h-664l-65 -482h664l-18 -141h-664l-75 -563h664l-20 -142h-810l32 239 q-137 -143 -297 -209.5t-356 -66.5q-343 0 -536 225q-160 188 -160 470q0 356 248.5 603t608.5 247q212 0 367 -85.5t251 -255.5z"/>
<glyph glyph-name="oe" horiz-adv-x="2329" unicode="œ" d="M2028 636q-2 147 -102 247t-248 100q-169 0 -301 -99.5t-168 -247.5h819zM682 984q-204 0 -341 -141.5t-137 -360.5q0 -178 102 -279t275 -101q198 0 336 142.5t138 354.5q0 174 -104 279.5t-269 105.5zM2154 517h-968q-3 -38 -3 -57q0 -154 105.5 -256.5t274.5 -102.5 q227 0 375 178l105 -84q-84 -106 -208.5 -164.5t-275.5 -58.5q-164 0 -277.5 69t-187.5 213q-106 -150 -222 -210q-139 -72 -307 -72q-227 0 -364 141.5t-137 368.5q0 169 84 319t223.5 232.5t305.5 82.5q164 0 286.5 -78t180.5 -216q102 148 238 221t294 73 q216 0 351 -138.5t135 -364.5q0 -46 -8 -96z"/>
<glyph glyph-name="Scaron" horiz-adv-x="1020" unicode="Š" d="M927 1199l-139 -35q-28 93 -92 147t-138 54q-82 0 -133.5 -55.5t-51.5 -148.5q0 -82 55 -171q34 -56 164 -174q135 -122 188.5 -227.5t53.5 -206.5q0 -107 -58.5 -206t-157.5 -156t-210 -57q-141 0 -244.5 90t-148.5 264l136 46q32 -132 104 -196t166 -64q107 0 184 79 t77 195q0 85 -43.5 166t-170.5 195q-136 124 -177 190q-67 110 -67 232q0 151 98.5 249.5t244.5 98.5q123 0 219 -78t141 -231zM648 1583h-139l-254 257h180l155 -152l205 152h186z"/>
<glyph glyph-name="scaron" horiz-adv-x="795" unicode="š" d="M694 966l-76 -113q-92 131 -218 131q-72 0 -123 -47t-51 -104q0 -44 31 -84q30 -40 137 -109q156 -101 206 -176q49 -76 49 -175q0 -137 -95.5 -227t-248.5 -90q-202 0 -340 179l85 99q121 -147 263 -147q81 0 141 57t60 132q0 61 -45 117q-29 36 -156 122 q-137 94 -180 156q-43 61 -43 138q0 121 91 206t230 85q82 0 148.5 -33t134.5 -117zM535 1285h-139l-254 257h180l155 -152l205 152h186z"/>
<glyph glyph-name="Ydieresis" horiz-adv-x="1212" unicode="Ÿ" d="M83 1471h154l315 -668l531 668h178l-652 -819l-89 -652h-144l89 660zM915 1816q44 0 72.5 -29t28.5 -71q0 -52 -40.5 -92t-93.5 -40q-43 0 -71.5 28.5t-28.5 71.5q0 52 40 92t93 40zM507 1816q43 0 72 -29t29 -71q0 -52 -40.5 -92t-94.5 -40q-42 0 -70.5 28.5t-28.5 71.5 q0 52 40 92t93 40z"/>
<glyph glyph-name="circumflex" horiz-adv-x="1028" unicode="ˆ" d="M556 1542h139l254 -257h-180l-155 152l-205 -152h-186z"/>
<glyph glyph-name="caron" horiz-adv-x="1028" unicode="ˇ" d="M652 1285h-139l-254 257h180l155 -152l205 152h186z"/>
<glyph glyph-name="ring" horiz-adv-x="680" unicode="˚" d="M455 1590q-50 0 -88 -38t-38 -87q0 -41 27 -68t68 -27q51 0 89 38t38 87q0 41 -27.5 68t-68.5 27zM471 1691q80 0 133 -52.5t53 -131.5q0 -96 -74.5 -169.5t-173.5 -73.5q-78 0 -130.5 53t-52.5 131q0 96 74 169.5t171 73.5z"/>
<glyph glyph-name="tilde" horiz-adv-x="899" unicode="˜" d="M835 1492l57 -97q-80 -52 -132.5 -70t-106.5 -18q-72 0 -143 37q-60 32 -77 37q-24 7 -50 7q-37 0 -70 -12.5t-99 -56.5l-52 102q105 97 238 97q64 0 148 -40q80 -39 126 -39q58 0 161 53z"/>
<glyph glyph-name="Alpha" horiz-adv-x="1515" unicode="Α" d="M805 1163l-314 -542h496zM852 1471l493 -1471h-151l-161 481h-623l-275 -481h-164l847 1471h34z"/>
<glyph glyph-name="Beta" horiz-adv-x="1176" unicode="Β" d="M289 699l-74 -560h199q208 0 286 17q110 25 166.5 90.5t56.5 168.5q0 92 -46 153.5t-151 96t-314 34.5h-123zM373 1331l-66 -488q43 -4 100 -4q200 0 288.5 32t137.5 100.5t49 151.5q0 108 -76.5 159.5t-325.5 51.5q-43 0 -107 -3zM246 1471h189q278 0 376 -33.5 t158.5 -116.5t60.5 -196q0 -118 -64 -211t-172 -134q130 -40 204 -136.5t74 -228.5q0 -135 -63.5 -232t-170.5 -140t-369 -43h-419z"/>
<glyph glyph-name="Gamma" horiz-adv-x="946" unicode="Γ" d="M962 1331h-591l-177 -1331h-146l196 1471h737z"/>
<glyph glyph-name="Delta" horiz-adv-x="1515" unicode="Δ" d="M1137 140l-344 1024l-619 -1024h963zM1337 0h-1417l891 1471h36z"/>
<glyph glyph-name="Epsilon" horiz-adv-x="1098" unicode="Ε" d="M1056 1471l-21 -143h-662l-65 -482h662l-19 -141h-662l-75 -564h662l-17 -141h-811l197 1471h811z"/>
<glyph glyph-name="Zeta" horiz-adv-x="983" unicode="Ζ" d="M217 1471h756l-722 -1331h551l-19 -140h-770l725 1329h-540z"/>
<glyph glyph-name="Eta" horiz-adv-x="1399" unicode="Η" d="M245 1471h145l-79 -598h753l80 598h143l-193 -1471h-144l97 734h-757l-96 -734h-146z"/>
<glyph glyph-name="Theta" horiz-adv-x="1780" unicode="Θ" d="M1217 674h-737l19 140h737zM218 656q0 -241 148 -398t406 -157q308 0 518.5 210t210.5 517q0 243 -158.5 392t-389.5 149q-339 0 -537 -213t-198 -500zM1648 820q0 -368 -251 -612.5t-624 -244.5q-315 0 -507.5 187.5t-192.5 499.5q0 363 251.5 610.5t631.5 247.5 q300 0 496 -195t196 -493z"/>
<glyph glyph-name="Iota" horiz-adv-x="463" unicode="Ι" d="M238 1471h148l-199 -1471h-148z"/>
<glyph glyph-name="Kappa" horiz-adv-x="1210" unicode="Κ" d="M243 1471h145l-79 -597l689 597h211l-797 -688l690 -783h-188l-625 710l-98 -710h-144z"/>
<glyph glyph-name="Lambda" horiz-adv-x="1438" unicode="Λ" d="M1266 0h-148l-365 1165l-683 -1165h-163l862 1471h34z"/>
<glyph glyph-name="Mu" horiz-adv-x="1882" unicode="Μ" d="M1642 1471v-1471h-138v1014l-638 -1014h-37l-381 1050l-302 -1050h-149l425 1471h24l430 -1195l743 1195h23z"/>
<glyph glyph-name="Nu" horiz-adv-x="1515" unicode="Ν" d="M1265 1471h144l-199 -1471h-32l-828 1140l-154 -1140h-146l198 1471h32l830 -1142z"/>
<glyph glyph-name="Xi" horiz-adv-x="1087" unicode="Ξ" d="M843 0h-857l18 140h857zM939 724h-857l19 140h857zM1020 1331h-857l19 140h857z"/>
<glyph glyph-name="Omicron" horiz-adv-x="1780" unicode="Ο" d="M953 1369q-211 0 -376.5 -92t-262 -261t-96.5 -360q0 -162 70 -290.5t193.5 -196.5t290.5 -68q198 0 367 95.5t265.5 265t96.5 366.5q0 261 -183 414q-152 127 -365 127zM956 1508q297 0 494.5 -195t197.5 -493q0 -363 -250.5 -610t-624.5 -247q-318 0 -509 190t-191 497 q0 237 114.5 435t317 310.5t451.5 112.5z"/>
<glyph glyph-name="Pi" horiz-adv-x="1399" unicode="Π" d="M1092 0h-145l177 1331h-754l-177 -1331h-145l196 1471h1044z"/>
<glyph glyph-name="Rho" horiz-adv-x="1212" unicode="Ρ" d="M392 1329l-68 -489h205q207 0 286.5 28.5t128 98t48.5 154.5q0 70 -33 119t-91 69t-213 20h-263zM262 1471h401q199 0 285.5 -37t138.5 -118.5t52 -192.5q0 -145 -82 -252.5t-207 -146.5q-91 -29 -321 -29h-223l-94 -695h-147z"/>
<glyph glyph-name="Sigma" horiz-adv-x="1027" unicode="Σ" d="M798 0h-861l509 734l-307 737h840l-19 -142h-606l254 -608l-397 -578h606z"/>
<glyph glyph-name="Tau" horiz-adv-x="872" unicode="Τ" d="M73 1471h879l-19 -140h-375l-177 -1331h-147l177 1331h-357z"/>
<glyph glyph-name="Upsilon" horiz-adv-x="1212" unicode="Υ" d="M83 1471h154l315 -668l531 668h178l-652 -819l-89 -652h-144l89 660z"/>
<glyph glyph-name="Phi" horiz-adv-x="1760" unicode="Φ" d="M984 1209l-124 -927q626 39 626 527q0 366 -502 400zM716 282l124 927q-626 -39 -626 -529q0 -365 502 -398zM842 145l-19 -145h-144l19 145q-291 20 -461.5 159t-170.5 366q0 309 213 484t579 191l17 126h144l-17 -126q292 -20 462.5 -159.5t170.5 -366.5 q0 -311 -211.5 -485.5t-581.5 -188.5z"/>
<glyph glyph-name="Chi" horiz-adv-x="1247" unicode="Χ" d="M217 1471h156l260 -572l433 572h172l-540 -713l348 -758h-155l-288 627l-476 -627h-173l584 771z"/>
<glyph glyph-name="Psi" horiz-adv-x="1620" unicode="Ψ" d="M1479 964q-27 -205 -85.5 -310t-201.5 -193.5t-391 -101.5l-48 -359h-144l48 359q-529 31 -529 449q0 69 13 167l66 496h147l-60 -448q-15 -117 -15 -186q0 -155 89 -236.5t308 -99.5l129 970h144l-129 -970q129 2 301 82t219 440l60 448h147z"/>
<glyph glyph-name="alpha" horiz-adv-x="1399" unicode="α" d="M583 100q135 0 246 63.5t176 182.5t65 259q0 169 -107 275t-278 106q-201 0 -344 -145t-143 -356q0 -173 107 -279t278 -106zM1121 0h-141l21 164q-189 -192 -433 -192q-222 0 -365 143t-143 368q0 260 185.5 446.5t436.5 186.5q136 0 238.5 -57t175.5 -178l25 207h145z "/>
<glyph glyph-name="beta" horiz-adv-x="1221" unicode="β" d="M413 805l16 117q169 4 272.5 81.5t103.5 209.5q0 89 -48 141t-132 52q-138 0 -214 -77t-100 -255l-78 -584q-4 -26 -4 -50q0 -140 88 -240t231 -100q171 0 264.5 99t93.5 280q0 326 -423 326h-70zM194 197l-79 -595h-141l200 1505q28 206 143 317.5t305 111.5 q150 0 238.5 -82.5t88.5 -218.5q0 -255 -260 -335q158 -16 258.5 -134.5t100.5 -284.5q0 -237 -139 -373t-377 -136q-223 0 -338 225z"/>
<glyph glyph-name="gamma" d="M517 104l-67 -502h-138l71 535l-327 951h143l275 -796l458 796h152z" unicode="γ"/>
<glyph glyph-name="delta" horiz-adv-x="1171" unicode="δ" d="M880 506q1 124 -83 212t-212 88q-157 0 -273.5 -122t-116.5 -281q0 -128 83 -213t213 -85q179 0 284 120t105 281zM457 906q-129 96 -129 245q0 164 132 274.5t321 110.5q126 0 234 -28l-53 -125q-80 22 -188 22q-133 0 -217.5 -64.5t-84.5 -176.5q0 -71 51.5 -123 t220.5 -124q280 -118 280 -392q0 -225 -156 -389t-395 -164q-179 0 -300 122t-121 301q0 165 103.5 305t301.5 206z"/>
<glyph glyph-name="epsilon" horiz-adv-x="866" unicode="ε" d="M734 116q-155 -145 -378 -145q-141 0 -231 81t-90 211q0 237 230 332q-117 70 -117 192q0 140 103.5 235.5t258.5 95.5q165 0 295 -123l-92 -97q-102 88 -215 88q-100 0 -158 -59.5t-58 -145.5q0 -65 45.5 -108t119.5 -43h73l-16 -120h-86q-94 0 -166.5 -66t-72.5 -172 q0 -170 206 -170q158 0 274 114z"/>
<glyph glyph-name="zeta" horiz-adv-x="953" unicode="ζ" d="M205 -406l53 126q61 -16 116 -16q270 0 270 168q0 54 -49.5 87t-193.5 61q-351 70 -351 397q0 231 169 457.5t573 510.5h-503l17 123h674l-16 -123q-386 -290 -579.5 -505t-194.5 -452q0 -118 62 -184.5t231 -102.5q174 -37 239.5 -94.5t65.5 -148.5q0 -144 -101 -234 t-320 -90q-87 0 -162 20z"/>
<glyph glyph-name="eta" horiz-adv-x="1249" unicode="η" d="M192 1088h134l-21 -167q165 195 384 195q170 0 272 -104t102 -278q0 -72 -22 -235l-121 -897h-138l120 897q22 164 22 236q0 114 -68 184t-182 70q-132 0 -258.5 -94t-172.5 -425l-65 -470h-137z"/>
<glyph glyph-name="theta" horiz-adv-x="1341" unicode="θ" d="M1061 693h-854q-6 -64 -6 -123q0 -470 354 -470q195 0 326.5 157t179.5 436zM1077 816q5 55 5 106q0 233 -90 359.5t-262 126.5q-190 0 -323 -160.5t-183 -431.5h853zM538 -28q-228 0 -351.5 161t-123.5 441q0 383 182.5 672.5t501.5 289.5q243 0 358 -172.5t115 -433.5 q0 -386 -181 -672t-501 -286z"/>
<glyph glyph-name="iota" horiz-adv-x="410" unicode="ι" d="M164 1088h133l-145 -1088h-138z"/>
<glyph glyph-name="kappa" horiz-adv-x="1028" unicode="κ" d="M194 1089h136l-57 -404l524 403h218l-632 -486l557 -602h-186l-502 540l-73 -540h-140z"/>
<glyph glyph-name="lambda" horiz-adv-x="1098" unicode="λ" d="M941 0h-143l-251 838l-486 -838h-148l581 1006l-153 502h142z"/>
<glyph glyph-name="mu" horiz-adv-x="1249" unicode="μ" d="M1100 1088l-151 -1088h-134l21 167q-128 -195 -368 -195q-216 0 -297 144l-73 -514h-137l207 1486h138l-67 -499q-23 -168 -23 -233q0 -118 70 -187.5t181 -69.5q125 0 219 64t138.5 155t73.5 300l65 470h137z"/>
<glyph glyph-name="nu" d="M56 1088h143l275 -796l458 796h152l-627 -1088h-26z" unicode="ν"/>
<glyph glyph-name="xi" horiz-adv-x="953" unicode="ξ" d="M205 -406l53 126q61 -16 116 -16q270 0 270 169q0 49 -44 79t-180 60q-208 46 -290.5 146t-82.5 243q0 376 378 485q-198 98 -198 268q0 164 134 273t350 109q154 0 274 -37l-51 -134q-109 40 -260 40q-135 0 -220 -75t-85 -182q0 -100 101.5 -159t245.5 -59h119 l-16 -122h-202q-179 0 -302 -102t-124 -296q0 -106 54.5 -168t215.5 -98q198 -45 262.5 -102.5t64.5 -147.5q0 -140 -100.5 -230t-320.5 -90q-87 0 -162 20z"/>
<glyph glyph-name="omicron" horiz-adv-x="1341" unicode="ο" d="M677 983q-130 0 -244.5 -65t-176 -178.5t-61.5 -250.5q0 -172 106 -279.5t274 -107.5q131 0 237.5 62.5t169.5 180.5t63 253q0 113 -47 200.5t-133 136t-188 48.5zM680 1116q139 0 255 -66.5t181 -185t65 -268.5q0 -171 -83 -317.5t-223 -226.5t-317 -80 q-219 0 -360.5 143.5t-141.5 365.5q0 174 83 321t227.5 230.5t313.5 83.5z"/>
<glyph glyph-name="pi" horiz-adv-x="1373" unicode="π" d="M1323 965h-225l-129 -965h-137l129 965h-549l-129 -965h-137l129 965h-225l16 123h1273z"/>
<glyph glyph-name="rho" horiz-adv-x="1372" unicode="ρ" d="M227 489q0 -171 104.5 -279t275.5 -108q214 0 342 147t128 349q0 186 -110 285.5t-258 99.5q-201 0 -341.5 -139t-140.5 -355zM181 211l-81 -609h-138l127 912q46 328 229 465t394 137q212 0 356.5 -145.5t144.5 -374.5q0 -256 -174 -440t-449 -184q-265 0 -409 239z"/>
<glyph glyph-name="sigma1" horiz-adv-x="1185" unicode="ς" d="M1139 906l-112 -70q-120 148 -358 148q-205 0 -345.5 -149t-140.5 -366q0 -130 78 -205.5t291 -116.5q212 -40 286 -97t74 -152q0 -144 -101 -234t-320 -90q-87 0 -162 20l53 126q61 -16 116 -16q270 0 270 167q0 54 -52 87t-220 62q-455 80 -455 439q0 268 187 462.5 t455 194.5q164 0 267.5 -49.5t188.5 -160.5z"/>
<glyph glyph-name="sigma" horiz-adv-x="1468" unicode="σ" d="M195 489q0 -171 104.5 -279t275.5 -108q222 0 346 152t124 344q0 186 -110 285.5t-258 99.5q-201 0 -341.5 -139t-140.5 -355zM850 1088h594l-16 -123h-385q138 -148 138 -369q0 -256 -174 -440t-449 -184q-220 0 -361 142.5t-141 366.5q0 268 182 451.5t442 183.5 q90 0 170 -28z"/>
<glyph glyph-name="tau" horiz-adv-x="823" unicode="τ" d="M773 965h-292l-129 -965h-138l129 965h-293l16 123h723z"/>
<glyph glyph-name="upsilon" horiz-adv-x="1219" unicode="υ" d="M154 1088h138l-68 -508q-15 -113 -15 -180q0 -297 290 -297q192 0 306.5 143.5t113.5 357.5q0 239 -192 392l88 121q246 -204 246 -485q0 -292 -156 -476t-426 -184q-409 0 -409 407q0 76 14 185z"/>
<glyph glyph-name="phi" horiz-adv-x="1568" unicode="φ" d="M857 979l-115 -869q530 25 530 486q0 175 -109.5 276t-305.5 107zM723 -26l-49 -372h-141l49 373q-245 17 -391.5 150t-146.5 348q0 211 133 372.5t366 243.5l27 -133q-386 -141 -386 -475q0 -332 417 -368l133 1000q40 3 70 3q288 0 448 -142t160 -374 q0 -291 -182.5 -454t-506.5 -172z"/>
<glyph glyph-name="chi" horiz-adv-x="983" unicode="χ" d="M965 1088l-476 -709l315 -777h-150l-258 638l-429 -638h-161l529 789l-282 697h148l226 -559l375 559h163z"/>
<glyph glyph-name="psi" horiz-adv-x="1507" unicode="ψ" d="M1316 554q-21 -162 -69 -275.5t-190.5 -202.5t-366.5 -102l-49 -372h-138l49 372q-484 41 -484 429q0 66 13 161l70 524h140l-64 -478q-16 -120 -16 -188q0 -181 111.5 -241.5t247.5 -69.5l131 977h138l-131 -978q171 14 276 80.5t141 154t59 265.5l64 478h140z"/>
<glyph glyph-name="endash" horiz-adv-x="1024" unicode="–" d="M-12 637h1048v-129h-1048v129z"/>
<glyph glyph-name="emdash" horiz-adv-x="2048" unicode="—" d="M-12 637h2072v-129h-2072v129z"/>
<glyph glyph-name="quoteleft" horiz-adv-x="719" unicode="‘" d="M444 1508l72 -44q-55 -91 -72 -131t-30 -99h88l-39 -277h-176l13 123q15 155 47 245t97 183z"/>
<glyph glyph-name="quotesinglbase" horiz-adv-x="725" unicode="‚" d="M231 -274l-72 44q55 91 72 131t30 99h-88l38 277h177l-13 -123q-16 -156 -47.5 -245.5t-96.5 -182.5z"/>
<glyph glyph-name="quotedblleft" horiz-adv-x="1028" unicode="“" d="M349 1508l72 -44q-55 -91 -72 -131t-30 -99h88l-39 -277h-176l13 123q15 155 47 245t97 183zM790 1508l72 -44q-55 -91 -72 -131t-30 -99h88l-39 -277h-176l13 123q15 155 47 245t97 183z"/>
<glyph glyph-name="quotedblright" horiz-adv-x="991" unicode="”" d="M686 957l-72 44q55 91 72 131t30 99h-88l38 277h177l-13 -123q-16 -156 -47.5 -245.5t-96.5 -182.5zM245 957l-72 44q55 91 72 131t30 99h-88l38 277h177l-13 -123q-16 -156 -47.5 -245.5t-96.5 -182.5z"/>
<glyph glyph-name="dagger" horiz-adv-x="1133" unicode="†" d="M575 1508h148l-87 -457l363 21l-21 -149l-357 26l-150 -1263h-152l205 1263l-364 -26l21 149l358 -21z"/>
<glyph glyph-name="daggerdbl" horiz-adv-x="1133" unicode="‡" d="M577 1508h148l-73 -354l361 23l-21 -148l-354 27l-41 -459l-87 -452l361 20l-21 -148l-354 28l-27 -359h-148l75 359l-361 -28l21 148l354 -20l39 452l89 459l-361 -27l21 148l354 -23z"/>
<glyph glyph-name="ellipsis" horiz-adv-x="2048" unicode="…" d="M1707 216q50 0 86 -36t36 -86t-36 -86t-86 -36q-51 0 -87 36t-36 86t36 86t87 36zM341 216q51 0 86.5 -36t35.5 -86t-35.5 -86t-86.5 -36t-86.5 36t-35.5 86t35.5 86t86.5 36zM1024 216q51 0 86.5 -36t35.5 -86t-35.5 -86t-86.5 -36t-86.5 36t-35.5 86t35.5 86t86.5 36z "/>
<glyph glyph-name="perthousand" horiz-adv-x="2404" unicode="‰" d="M1977 551q-108 0 -188 -82t-80 -193q0 -90 56.5 -149t143.5 -59q115 0 188 85.5t73 197.5q0 87 -55 143.5t-138 56.5zM1980 659q130 0 219.5 -87.5t89.5 -215.5q0 -155 -106 -274t-286 -119q-136 0 -221.5 85.5t-85.5 216.5q0 159 117 276.5t273 117.5zM1184 551 q-108 0 -187.5 -82t-79.5 -193q0 -90 56.5 -149t142.5 -59q116 0 189 85.5t73 197.5q0 87 -55 143.5t-139 56.5zM1188 659q130 0 219.5 -87.5t89.5 -215.5q0 -155 -106 -274t-286 -119q-136 0 -221.5 85.5t-85.5 216.5q0 159 117 276.5t273 117.5zM494 1399 q-108 0 -187.5 -82t-79.5 -192q0 -90 56 -149t143 -59q115 0 188 85.5t73 197.5q0 87 -54.5 143t-138.5 56zM1493 1536l-1307 -1638h-116l1202 1510q-89 -22 -186 -33t-201 -11q-50 0 -127 5q48 -78 48 -164q0 -168 -111.5 -281t-279.5 -113q-137 0 -222.5 85.5t-85.5 217.5 q0 165 120 279.5t264 114.5q39 0 123 -17q159 -33 271 -33q123 0 249 19.5t255 58.5h104z"/>
<glyph glyph-name="minute" horiz-adv-x="405" unicode="′" d="M268 1045h-103l43 463h148z"/>
<glyph glyph-name="second" horiz-adv-x="633" unicode="″" d="M188 1045h-104l43 463h148zM576 1045h-104l44 463h148z"/>
<glyph glyph-name="guilsinglleft" horiz-adv-x="514" unicode="‹" d="M326 1088h152l-302 -550l142 -538h-136l-149 557z"/>
<glyph glyph-name="guilsinglright" horiz-adv-x="514" unicode="›" d="M149 0h-152l302 550l-141 538h135l149 -557z"/>
<glyph glyph-name="radicalex" d="M-42 1869h1219v-74h-1219v74z" unicode="‾"/>
<glyph glyph-name="fraction" horiz-adv-x="340" unicode="⁄" d="M-394 -37l932 1545h112l-933 -1545h-111z"/>
<glyph glyph-name="fraction" horiz-adv-x="340" unicode="∕" d="M-394 -37l932 1545h112l-933 -1545h-111z"/>
<glyph glyph-name="Euro" d="M152 965q103 258 328 400t528 142q76 0 155 -14l-57 -141q-48 12 -105 12q-230 0 -406.5 -102.5t-279.5 -296.5h656l-58 -138h-647q-20 -70 -20 -174h596l-56 -137h-522q39 -189 202.5 -301.5t379.5 -112.5q82 0 147 15l-18 -140q-60 -12 -123 -12q-290 0 -492 147 t-249 404h-146l53 137h76q8 137 19 174h-105l58 138h86z" unicode="€"/>
<glyph glyph-name="trademark" horiz-adv-x="2048" unicode="™" d="M770 1513v-137h-305v-725h-150v725h-303v137h758zM1966 1513v-862h-150v710l-321 -710h-99l-311 710v-710h-149v862h243l267 -597l282 597h238z"/>
<glyph glyph-name="arrowleft" horiz-adv-x="2048" unicode="←" d="M492 876h76q-81 -170 -195 -309h1595v-101h-1595q102 -102 198 -309h-78q-223 253 -414 341v45q177 71 413 333z"/>
<glyph glyph-name="arrowup" horiz-adv-x="1024" unicode="↑" d="M153 1050q262 236 333 413h46q87 -192 340 -415v-77q-207 96 -309 197v-1597h-101v1597q-139 -114 -309 -195v77z"/>
<glyph glyph-name="arrowright" horiz-adv-x="2048" unicode="→" d="M1555 876q237 -262 413 -333v-45q-191 -88 -414 -341h-77q95 207 197 309h-1595v101h1595q-114 139 -195 309h76z"/>
<glyph glyph-name="arrowdown" horiz-adv-x="1024" unicode="↓" d="M153 -16v76q170 -81 309 -195v1598h101v-1598q102 102 309 197v-77q-253 -223 -340 -414h-46q-71 176 -333 413z"/>
<glyph glyph-name="partialdiff" horiz-adv-x="1012" unicode="∂" d="M854 796q-248 -15 -359 -69t-185 -175t-74 -249q0 -83 51 -137t119 -54q87 0 186 73t168.5 224t93.5 387zM426 1138l-135 60q67 149 163.5 221t196.5 72q88 0 162 -56t117 -181.5t43 -327.5q0 -295 -87.5 -514.5t-231.5 -328t-290 -108.5q-138 0 -223 92t-85 255 q0 236 164 398q199 196 638 204q-4 191 -29.5 276.5t-72 124t-103.5 38.5q-143 0 -227 -225z"/>
<glyph glyph-name="product" horiz-adv-x="1685" unicode="∏" d="M162 1508h1362v-1906h-191v1732h-978v-1732h-193v1906z"/>
<glyph glyph-name="summation" horiz-adv-x="1460" unicode="∑" d="M139 1536h1237v-164h-988l607 -796l-646 -841h1037v-161h-1264v187l620 808l-603 791v176z"/>
<glyph glyph-name="minus" horiz-adv-x="1241" unicode="−" d="M115 804h1012v-137h-1012v137z"/>
<glyph glyph-name="radical" horiz-adv-x="1124" unicode="√" d="M1047 1869h74l-312 -1947l-496 1021l-198 -91l-34 64l301 151l405 -823z"/>
<glyph glyph-name="infinity" horiz-adv-x="1460" unicode="∞" d="M618 716q-77 97 -125.5 127t-94.5 30q-59 0 -97 -41.5t-38 -112.5q0 -70 39.5 -113t97.5 -43q101 0 218 153zM756 717q83 -128 152 -180q50 -38 110 -38q77 0 128 56.5t51 157.5q0 105 -52 161.5t-131 56.5q-53 0 -103.5 -36.5t-154.5 -177.5zM687 812q117 146 186 189 t147 43q110 0 199 -78t89 -243q0 -168 -84 -251.5t-204 -83.5q-87 0 -156.5 49t-176.5 183q-136 -171 -289 -171q-102 0 -174 77.5t-72 189.5t72 189.5t174 77.5q153 0 289 -171z"/>
<glyph glyph-name="intersection" horiz-adv-x="1206" unicode="∩" d="M239 0h-110v621l2 238q1 116 18.5 209t58.5 169t106 135.5t139.5 89.5t149.5 30q118 0 225 -68.5t165 -174t71.5 -224t13.5 -404.5v-621h-110v628q0 243 -10 348.5t-52 190t-127.5 139.5t-175.5 55t-174.5 -55t-126 -137t-52.5 -189.5t-11 -351.5v-628z"/>
<glyph glyph-name="approxequal" horiz-adv-x="1124" unicode="≈" d="M1070 651v-162q-112 -63 -160.5 -79.5t-91.5 -16.5q-95 0 -265 77q-132 60 -168.5 71.5t-68.5 11.5q-44 0 -97 -19.5t-165 -85.5v160q110 62 159 79t95 17q97 0 268 -81q118 -56 161.5 -69.5t78.5 -13.5q42 0 85 16.5t169 94.5zM1070 1023v-162q-112 -63 -160.5 -79.5 t-91.5 -16.5q-95 0 -265 77q-132 60 -168.5 71.5t-68.5 11.5q-44 0 -97 -19t-165 -86v160q110 63 159 79.5t95 16.5q97 0 268 -81q118 -56 161.5 -69.5t78.5 -13.5q42 0 85 16.5t169 94.5z"/>
<glyph glyph-name="notequal" horiz-adv-x="1124" unicode="≠" d="M742 1024h326v-137h-379l-117 -303h496v-137h-549l-187 -484h-138l186 484h-324v137h377l116 303h-493v137h545l186 484h142z"/>
<glyph glyph-name="equivalence" horiz-adv-x="1241" unicode="≡" d="M1127 364v-137h-1012v137h1012zM1127 804v-137h-1012v137h1012zM1127 1244v-137h-1012v137h1012z"/>
<glyph glyph-name="lessequal" horiz-adv-x="1124" unicode="≤" d="M1079 231v-137h-1033v137h1033zM1079 481v-146l-1033 469v130l1033 471v-147l-839 -390z"/>
<glyph glyph-name="greaterequal" horiz-adv-x="1124" unicode="≥" d="M1079 231v-137h-1033v137h1033zM46 481l839 387l-839 390v147l1033 -471v-130l-1033 -469v146z"/>
<glyph glyph-name="lozenge" horiz-adv-x="1012" unicode="◊" d="M495 1325l-340 -616l340 -615l359 615zM549 1422l418 -713l-418 -709h-111l-391 709l391 713h111z"/>
<glyph glyph-name="spade" horiz-adv-x="1092" unicode="♠" d="M547 1231q19 -82 65 -169t203 -230q121 -111 169 -181t48 -152q0 -96 -64 -160t-156 -64q-154 0 -254 190q0 -229 101 -325t277 -103l7 -37h-793l8 37q182 0 282 105t101 282v41q-90 -190 -262 -190q-91 0 -155 66t-64 155q0 150 188 305q262 215 299 430z"/>
<glyph glyph-name="club" horiz-adv-x="1354" unicode="♣" d="M1103 0h-848l8 34q153 32 219 68t126 139q58 103 58 228l-1 42q-55 -117 -143 -177t-184 -61q-114 0 -196 81t-82 199q0 111 72 193t170 82q64 0 163 -51q-67 106 -67 182q0 113 79 193t197 79q118 1 198 -79t81 -188q0 -94 -69 -187q106 53 162 53q105 0 176 -82 t71 -191q0 -119 -81 -201t-193 -82q-78 0 -167 50t-165 187q4 -157 48 -251q45 -94 123 -144q78 -51 237 -82z"/>
<glyph glyph-name="heart" horiz-adv-x="1210" unicode="♥" d="M607 -24q-33 122 -93 228t-275 390q-101 133 -140 212t-39 163q0 109 74 185t183 76q206 0 290 -251q33 129 113 191t172 61q110 0 184 -75t74 -177q0 -84 -40 -179t-174 -264q-284 -360 -329 -560z"/>
<glyph glyph-name="diamond" horiz-adv-x="1038" unicode="♦" d="M517 1231q193 -323 461 -627q-52 -52 -214 -265t-247 -363q-101 190 -457 628q324 383 457 627z"/>
<glyph glyph-name="foursuperior" horiz-adv-x="680" unicode="" d="M462 1214l-213 -226h177zM620 1532l-87 -544h122l-16 -100h-121l-24 -155h-108l24 155h-397z"/>
</font>
</defs>
</svg>
