<?xml version="1.0" encoding="UTF-8" standalone="no"?>
<!DOCTYPE svg  PUBLIC '-//W3C//DTD SVG 1.1//EN'  'http://www.w3.org/Graphics/SVG/1.1/DTD/svg11.dtd'>
<svg xmlns="http://www.w3.org/2000/svg">
<defs>
<font id="CenturyGothic-Bold" horiz-adv-x="1147">
<font-face underline-position="-96" font-weight="700" descent="-410" panose-1="2 11 7 2 2 2 2 2 2 4" units-per-em="2048" unicode-range="U+0020-F003" bbox="-235 -451 2580 2032" x-height="1088" underline-thickness="184" font-family="CenturyGothic" ascent="1638" cap-height="1471"/>
<missing-glyph horiz-adv-x="2048"/>
<glyph glyph-name=".notdef" horiz-adv-x="2048"/>
<glyph glyph-name="glyph1" horiz-adv-x="0"/>
<glyph glyph-name="glyph2" horiz-adv-x="2048"/>
<glyph glyph-name="space" horiz-adv-x="573" unicode=" "/>
<glyph glyph-name="exclam" horiz-adv-x="573" unicode="!" d="M286 314q71 0 121.5 -50t50.5 -121q0 -70 -50.5 -120.5t-121.5 -50.5t-121 50t-50 121t50 121t121 50zM148 1508h276v-1075h-276v1075z"/>
<glyph glyph-name="quotedbl" horiz-adv-x="737" unicode='&quot;' d="M242 1004h-156l-55 504h267zM653 1004h-156l-55 504h267z"/>
<glyph glyph-name="numbersign" horiz-adv-x="1229" unicode="#" d="M736 866h-194l-26 -188h189zM1110 678v-199h-231l-71 -479h-201l70 479h-191l-70 -479h-200l70 479h-225v199h256l30 188h-223v199h251l65 443h195l-62 -443h191l65 443h201l-65 -443h202v-199h-231l-26 -188h200z"/>
<glyph glyph-name="dollar" d="M1039 1301l-193 -188q-132 136 -261 136q-76 0 -123.5 -40.5t-47.5 -93.5q0 -45 42 -89q41 -45 166 -96q222 -92 304 -157t126 -156t44 -204t-47 -209t-121 -152t-213 -85v-267h-188v261q-131 15 -223 66q-126 70 -234 186l190 195q183 -195 354 -195q87 0 149.5 60.5 t62.5 142.5q0 69 -40 121q-41 52 -158 106q-238 110 -322 174.5t-125.5 145t-41.5 171.5q0 151 110 258.5t278 115.5v100h188v-113q97 -23 164.5 -62t159.5 -132z" unicode="$"/>
<glyph glyph-name="percent" horiz-adv-x="1761" unicode="%" d="M1367 482q-71 0 -120.5 -50t-49.5 -120t49.5 -120t120.5 -50q70 0 119.5 50t49.5 120t-49.5 120t-119.5 50zM1368 663q145 0 248 -103t103 -249q0 -145 -103 -248t-248 -103q-146 0 -248.5 103t-102.5 248q0 146 102.5 249t248.5 103zM393 1325q-70 0 -119.5 -49.5 t-49.5 -118.5q0 -70 49.5 -119.5t119.5 -49.5t119.5 49.5t49.5 119.5t-49.5 119t-119.5 49zM1352 1536h202l-1166 -1636h-202l997 1405q-90 -15 -169 -22.5t-146 -7.5q-69 0 -146 7q22 -70 22 -127q0 -146 -101.5 -248t-247.5 -102q-147 0 -250 102t-103 247q0 94 46 174.5 t129.5 130t165.5 49.5q62 0 171 -24q193 -42 340 -42q133 0 247.5 23.5t210.5 70.5z"/>
<glyph glyph-name="ampersand" horiz-adv-x="1393" unicode="&amp;" d="M724 294q-77 76 -217 252q-149 -123 -149 -215q0 -43 40.5 -79t102.5 -36q89 0 223 78zM558 902q111 95 111 168q0 38 -25 62t-66 24q-38 0 -64.5 -27t-26.5 -63q0 -72 71 -164zM1090 578l167 -191l-76 -69l-75 -68l236 -250h-339l-97 100q-232 -137 -431 -137 q-169 0 -273.5 99t-104.5 254q0 117 59 221t202 215q-141 191 -141 338q0 109 94 215t265 106q173 0 265.5 -105t92.5 -212q0 -84 -42.5 -161t-195.5 -228q179 -211 231 -263q32 24 163 136z"/>
<glyph glyph-name="quotesingle" horiz-adv-x="451" unicode="&apos;" d="M303 1004h-156l-55 504h266z"/>
<glyph glyph-name="parenleft" horiz-adv-x="778" unicode="(" d="M380 1536h346q-178 -201 -265.5 -436t-87.5 -537q0 -327 97 -575q76 -191 256 -414h-346q-160 254 -223.5 475.5t-63.5 521.5q0 294 67 515t220 450z"/>
<glyph glyph-name="parenright" horiz-adv-x="778" unicode=")" d="M399 -426h-346q178 201 265.5 435.5t87.5 537.5q0 327 -97 574q-76 191 -256 415h346q160 -254 223.5 -475.5t63.5 -521.5q0 -294 -67 -515t-220 -450z"/>
<glyph glyph-name="asterisk" horiz-adv-x="901" unicode="*" d="M331 1508h254l-79 -301l226 213l117 -220l-305 -78l305 -87l-132 -217l-218 217l77 -300h-245l77 300l-223 -217l-133 217l306 87l-306 85l133 223l223 -223z"/>
<glyph glyph-name="plus" horiz-adv-x="1229" unicode="+" d="M490 860v375h250v-375h374v-250h-374v-374h-250v374h-375v250h375z"/>
<glyph glyph-name="comma" horiz-adv-x="573" unicode="," d="M269 277l195 -98l-247 -422l-136 65z"/>
<glyph glyph-name="hyphen" horiz-adv-x="860" unicode="-" d="M176 669h508v-254h-508v254z"/>
<glyph glyph-name="hyphen" horiz-adv-x="860" unicode="­" d="M176 669h508v-254h-508v254z"/>
<glyph glyph-name="period" horiz-adv-x="573" unicode="." d="M287 285q65 0 111 -45.5t46 -110.5t-46 -111t-111 -46t-111 46t-46 111t46 110.5t111 45.5z"/>
<glyph glyph-name="slash" horiz-adv-x="942" unicode="/" d="M44 -262l661 1775h194l-662 -1775h-193z"/>
<glyph glyph-name="zero" d="M576 1242q-71 0 -126 -45.5t-84 -156.5t-29 -325q0 -279 66.5 -385.5t172.5 -106.5q102 0 162 101q73 122 73 408q0 290 -65.5 400t-169.5 110zM569 1508q161 0 277.5 -79t180 -241.5t63.5 -452.5q0 -293 -64.5 -456t-173.5 -239.5t-275 -76.5t-279 77t-177 234t-64 447 q0 405 125 587q139 200 387 200z" unicode="0"/>
<glyph glyph-name="one" d="M337 1471h419v-1471h-278v1208h-303z" unicode="1"/>
<glyph glyph-name="two" d="M357 997h-273q11 238 149.5 374.5t355.5 136.5q134 0 236.5 -56.5t164 -163t61.5 -216.5q0 -131 -74.5 -282t-272.5 -357l-165 -174h524v-259h-1019v134l455 464q165 167 219.5 268.5t54.5 183.5q0 85 -56.5 140.5t-145.5 55.5q-90 0 -150 -67t-64 -182z" unicode="2"/>
<glyph glyph-name="three" d="M389 1108h-269q21 163 117 262q134 138 337 138q181 0 303.5 -115t122.5 -273q0 -98 -53.5 -179t-155.5 -131q134 -40 209.5 -139.5t75.5 -234.5q0 -198 -146 -335.5t-372 -137.5q-214 0 -349 129.5t-148 352.5h277q18 -114 79.5 -169.5t155.5 -55.5q98 0 162.5 63 t64.5 154q0 100 -87 169t-251 71v240q101 8 150.5 31.5t77 64.5t27.5 87q0 60 -42 99.5t-110 39.5q-60 0 -109 -36.5t-67 -94.5z" unicode="3"/>
<glyph glyph-name="four" d="M684 561v493l-336 -493h336zM678 1508h280v-947h131v-259h-131v-302h-274v302h-642v259z" unicode="4"/>
<glyph glyph-name="five" d="M342 1471h689v-258h-480l-60 -268q25 7 49 10.5t46 3.5q200 0 332.5 -136.5t132.5 -349.5q0 -215 -146.5 -362.5t-356.5 -147.5q-188 0 -323 107t-177 293h294q34 -69 89.5 -104.5t122.5 -35.5q93 0 158 67t65 172q0 102 -60.5 167.5t-146.5 65.5q-46 0 -90.5 -23 t-87.5 -69l-228 51z" unicode="5"/>
<glyph glyph-name="six" d="M559 624q-78 0 -131 -56.5t-53 -141.5t55.5 -143t129.5 -58q78 0 134 57t56 144q0 85 -54.5 141.5t-136.5 56.5zM594 1508l238 -119l-257 -500q187 0 318 -134t131 -333q0 -192 -134.5 -325.5t-324.5 -133.5q-199 0 -331.5 138.5t-132.5 317.5q0 68 20.5 137t94.5 212z " unicode="6"/>
<glyph glyph-name="seven" d="M123 1471h965v-147l-664 -1361l-237 115l552 1130h-616v263z" unicode="7"/>
<glyph glyph-name="eight" d="M576 648q-101 0 -170 -61.5t-69 -146.5q0 -89 65 -150.5t171 -61.5q107 0 170.5 57.5t63.5 148.5t-66 152.5t-165 61.5zM565 1238q-69 0 -113.5 -45.5t-44.5 -116.5t47 -119t116 -48q71 0 116.5 47t45.5 122q0 71 -46 115.5t-121 44.5zM875 797q100 -64 154.5 -164.5 t54.5 -217.5q0 -127 -63.5 -235t-170.5 -162.5t-273 -54.5q-178 0 -283 52.5t-168 159t-63 240.5q0 116 50.5 211.5t151.5 170.5q-66 67 -99.5 142.5t-33.5 159.5q0 115 55.5 209.5t155.5 147t231 52.5q129 0 227 -53t154.5 -150.5t56.5 -209.5q0 -79 -29.5 -146.5 t-107.5 -151.5z" unicode="8"/>
<glyph glyph-name="nine" d="M588 846q78 0 131 57t53 141q0 86 -55.5 144t-129.5 58q-78 0 -134 -57.5t-56 -143.5q0 -85 54.5 -142t136.5 -57zM553 -37l-238 118l257 500q-187 0 -318 134t-131 333q0 193 134.5 326.5t324.5 133.5q199 0 331.5 -138.5t132.5 -318.5q0 -68 -20.5 -136.5t-94.5 -211.5 z" unicode="9"/>
<glyph glyph-name="colon" horiz-adv-x="573" unicode=":" d="M287 285q65 0 111 -45.5t46 -110.5t-46 -111t-111 -46t-111 46t-46 111t46 110.5t111 45.5zM287 1116q65 0 111 -46t46 -111q0 -64 -46 -110t-111 -46t-111 45.5t-46 110.5t46 111t111 46z"/>
<glyph glyph-name="less" horiz-adv-x="1229" unicode="&lt;" d="M1114 366v-250l-999 508v222l999 508v-249l-712 -370z"/>
<glyph glyph-name="equal" horiz-adv-x="1229" unicode="=" d="M115 646h999v-250h-999v250zM115 1074h999v-250h-999v250z"/>
<glyph glyph-name="greater" horiz-adv-x="1229" unicode="&gt;" d="M115 1105v249l999 -508v-222l-999 -508v250l713 369z"/>
<glyph glyph-name="question" d="M553 315q73 0 124.5 -50t51.5 -121t-51 -121.5t-123 -50.5t-122.5 50.5t-50.5 121.5t50 121t121 50zM362 1091h-262v6q0 189 133 314t352 125q141 0 240 -52t158.5 -150t59.5 -206q0 -59 -19 -116t-60 -117q-24 -35 -115 -118q-87 -79 -109 -111.5t-37 -86.5t-19 -150 h-271l-1 45q0 134 49 243.5t159 205.5q106 93 128 128t22 82q0 64 -53.5 108.5t-143.5 44.5q-92 0 -151 -54.5t-60 -140.5z" unicode="?"/>
<glyph glyph-name="at" horiz-adv-x="1515" unicode="@" d="M739 526q87 0 144 71.5t57 161.5q0 78 -46.5 127.5t-116.5 49.5q-82 0 -143 -67.5t-61 -163.5q0 -81 46 -130t120 -49zM1228 301h191q-109 -135 -193.5 -196.5t-196.5 -96.5t-233 -35q-214 0 -397 104.5t-287 284.5t-104 392q0 214 104.5 398t285 286t396.5 102 q300 0 506.5 -193t206.5 -449q0 -188 -86.5 -323.5t-235.5 -211.5q-114 -58 -191 -58q-58 0 -93 31q-27 22 -29 76q-88 -97 -214 -97q-142 0 -236.5 101t-94.5 269q0 185 116 330.5t308 145.5q79 0 141 -32.5t106 -98.5l21 105h196l-99 -583q-10 -62 -10 -70 q0 -11 10.5 -20.5t24.5 -9.5q35 0 94.5 48.5t97 140t37.5 200.5q0 162 -71 286t-204 195t-305 71q-181 0 -325 -80.5t-227 -228t-83 -324.5q0 -181 84 -328t235 -229t338 -82q110 0 208 41t208 139z"/>
<glyph glyph-name="A" horiz-adv-x="1515" unicode="A" d="M760 1081l-196 -505h391zM616 1471h284l566 -1471h-291l-115 303h-600l-120 -303h-291z"/>
<glyph glyph-name="B" horiz-adv-x="1188" unicode="B" d="M448 644v-377h70q174 0 234.5 44t60.5 128q0 95 -71 150t-236 55h-58zM448 1204v-310h61q102 0 151.5 43t49.5 117q0 69 -47 109.5t-143 40.5h-72zM168 0v1471h231q201 0 294 -26q132 -35 210 -130t78 -224q0 -84 -35.5 -152.5t-115.5 -128.5q134 -63 196 -157.5 t62 -223.5q0 -124 -64 -226t-165 -152.5t-279 -50.5h-412z"/>
<glyph glyph-name="C" horiz-adv-x="1597" unicode="C" d="M1520 1212l-196 -187q-200 211 -450 211q-211 0 -355.5 -144t-144.5 -355q0 -147 64 -261t181 -179t260 -65q122 0 223 45.5t222 165.5l190 -198q-163 -159 -308 -220.5t-331 -61.5q-343 0 -561.5 217.5t-218.5 557.5q0 220 99.5 391t285 275t399.5 104q182 0 350.5 -77 t290.5 -219z"/>
<glyph glyph-name="D" horiz-adv-x="1434" unicode="D" d="M448 1201v-927h130q192 0 278.5 44t141.5 148t55 256q0 234 -131 363q-118 116 -379 116h-95zM169 1471h332q321 0 477 -79.5t257 -258.5t101 -418q0 -170 -56.5 -312.5t-156 -236.5t-215.5 -130t-402 -36h-337v1471z"/>
<glyph glyph-name="E" horiz-adv-x="1065" unicode="E" d="M169 1471h803v-274h-525v-266h525v-269h-525v-387h525v-275h-803v1471z"/>
<glyph glyph-name="F" horiz-adv-x="983" unicode="F" d="M172 1471h730v-273h-453v-267h453v-269h-453v-662h-277v1471z"/>
<glyph glyph-name="G" horiz-adv-x="1720" unicode="G" d="M1526 1231l-197 -195q-187 198 -436 198q-217 0 -363.5 -144t-146.5 -350q0 -213 152 -361t375 -148q145 0 244.5 61t160.5 191h-426v263h740l2 -62q0 -193 -100 -366t-259 -264t-373 -91q-229 0 -408.5 99.5t-284 283.5t-104.5 397q0 292 193 508q229 257 596 257 q192 0 359 -71q141 -60 276 -206z"/>
<glyph glyph-name="H" horiz-adv-x="1393" unicode="H" d="M167 1471h284v-555h492v555h283v-1471h-283v645h-492v-645h-284v1471z"/>
<glyph glyph-name="I" horiz-adv-x="573" unicode="I" d="M148 1471h278v-1471h-278v1471z"/>
<glyph glyph-name="J" horiz-adv-x="983" unicode="J" d="M534 1471h281v-976q0 -233 -37 -327t-122 -149.5t-204 -55.5q-243 0 -414 213l202 189q67 -76 114 -102t91 -26q45 0 67 38t22 167v1029z"/>
<glyph glyph-name="K" horiz-adv-x="1270" unicode="K" d="M170 1471h283v-506l399 506h337l-514 -656l564 -815h-332l-454 653v-653h-283v1471z"/>
<glyph glyph-name="L" horiz-adv-x="901" unicode="L" d="M168 1471h280v-1204h408v-267h-688v1471z"/>
<glyph glyph-name="M" horiz-adv-x="1843" unicode="M" d="M310 1471h274l340 -1026l345 1026h270l248 -1471h-270l-158 929l-313 -929h-247l-309 929l-161 -929h-273z"/>
<glyph glyph-name="N" horiz-adv-x="1515" unicode="N" d="M169 1471h268l631 -968v968h280v-1471h-269l-630 965v-965h-280v1471z"/>
<glyph glyph-name="O" horiz-adv-x="1720" unicode="O" d="M860 1234q-204 0 -343 -142t-139 -361q0 -244 175 -386q136 -111 312 -111q199 0 339 144t140 355q0 210 -141 355.5t-343 145.5zM863 1508q312 0 536.5 -226t224.5 -551q0 -322 -221.5 -545t-537.5 -223q-331 0 -550 229t-219 544q0 211 102 388t280.5 280.5 t384.5 103.5z"/>
<glyph glyph-name="P" d="M447 896h89q105 0 146 15t64.5 49.5t23.5 83.5q0 85 -66 124q-48 29 -178 29h-79v-301zM167 1471h297q241 0 347.5 -44.5t168 -144t61.5 -238.5q0 -154 -80.5 -256t-218.5 -142q-81 -23 -295 -23v-623h-280v1471z" unicode="P"/>
<glyph glyph-name="Q" horiz-adv-x="1720" unicode="Q" d="M1255 441q89 132 89 292q0 209 -141 355t-341 146q-206 0 -345 -142t-139 -361q0 -244 175 -386q137 -111 311 -111q100 0 188 39l-263 339h334zM1430 215l256 -331h-332l-130 167q-161 -88 -359 -88q-331 0 -550 228.5t-219 544.5q0 211 102 387.5t280.5 280.5 t383.5 104q313 0 537.5 -226t224.5 -551q0 -299 -194 -516z"/>
<glyph glyph-name="R" horiz-adv-x="1188" unicode="R" d="M467 896h88q134 0 184.5 35t50.5 116q0 48 -25 83.5t-67 51t-154 15.5h-77v-301zM187 1471h297q244 0 347.5 -43.5t166.5 -144.5t63 -239q0 -145 -69.5 -242.5t-209.5 -147.5l348 -654h-306l-331 623h-26v-623h-280v1471z"/>
<glyph glyph-name="S" horiz-adv-x="1065" unicode="S" d="M939 1271l-207 -183q-109 152 -222 152q-55 0 -90 -29.5t-35 -66.5t25 -70q34 -44 205 -189q160 -134 194 -169q85 -86 120.5 -164.5t35.5 -171.5q0 -181 -125 -299t-326 -118q-157 0 -273.5 77t-199.5 242l235 142q106 -195 244 -195q72 0 121 42t49 97q0 50 -37 100 t-163 153q-240 196 -310 302.5t-70 212.5q0 153 116.5 262.5t287.5 109.5q110 0 209.5 -51t215.5 -186z"/>
<glyph glyph-name="T" horiz-adv-x="860" unicode="T" d="M23 1471h813v-276h-268v-1195h-284v1195h-261v276z"/>
<glyph glyph-name="U" horiz-adv-x="1311" unicode="U" d="M158 1471h281v-952q0 -123 21.5 -174t71 -81.5t119.5 -30.5q74 0 127.5 34t74 86.5t20.5 200.5v917h281v-877q0 -222 -25 -308t-95.5 -166t-162.5 -118.5t-214 -38.5q-160 0 -278.5 73.5t-169.5 184t-51 373.5v877z"/>
<glyph glyph-name="V" horiz-adv-x="1434" unicode="V" d="M56 1471h288l370 -1045l375 1045h288l-530 -1471h-270z"/>
<glyph glyph-name="W" horiz-adv-x="1843" unicode="W" d="M56 1471h276l212 -939l263 939h233l266 -939l210 939h276l-331 -1471h-269l-271 951l-266 -951h-266z"/>
<glyph glyph-name="X" horiz-adv-x="1393" unicode="X" d="M72 1471h315l308 -471l311 471h315l-468 -712l497 -759h-315l-340 517l-337 -517h-317l497 759z"/>
<glyph glyph-name="Y" horiz-adv-x="1270" unicode="Y" d="M63 1471h301l274 -528l272 528h297l-430 -834v-637h-282v637z"/>
<glyph glyph-name="Z" horiz-adv-x="1024" unicode="Z" d="M90 1471h890l-525 -1202h491v-269h-899l523 1194h-480v277z"/>
<glyph glyph-name="bracketleft" horiz-adv-x="655" unicode="[" d="M169 1508h438v-255h-162v-1397h162v-254h-438v1906z"/>
<glyph glyph-name="backslash" horiz-adv-x="1311" unicode="\" d="M1082 -262h-193l-661 1775h193z"/>
<glyph glyph-name="bracketright" horiz-adv-x="655" unicode="]" d="M486 -398h-438v255h162v1397h-162v254h438v-1906z"/>
<glyph glyph-name="asciicircum" horiz-adv-x="1229" unicode="^" d="M497 1471h232l390 -1105h-242l-262 748l-263 -748h-243z"/>
<glyph glyph-name="underscore" horiz-adv-x="1024" unicode="_" d="M-12 -154h1048v-102h-1048v102z"/>
<glyph glyph-name="grave" horiz-adv-x="860" unicode="`" d="M382 1679l239 -392h-196l-366 392h323z"/>
<glyph glyph-name="a" horiz-adv-x="1352" unicode="a" d="M655 864q-127 0 -211 -89.5t-84 -229.5q0 -141 85.5 -232t210.5 -91q129 0 214 89.5t85 234.5q0 142 -85 230t-215 88zM942 1088h272v-1088h-272v115q-80 -76 -160.5 -109.5t-174.5 -33.5q-211 0 -365 163.5t-154 406.5q0 252 149 413t362 161q98 0 184 -37t159 -111v120 z"/>
<glyph glyph-name="b" horiz-adv-x="1352" unicode="b" d="M696 864q-129 0 -214 -88t-85 -230q0 -145 85 -234.5t214 -89.5q125 0 210.5 91t85.5 232q0 140 -84 229.5t-212 89.5zM409 1508v-540q74 74 160 111t184 37q213 0 362 -161t149 -413q0 -243 -154 -406.5t-365 -163.5q-94 0 -175 33.5t-161 109.5v-115h-271v1508h271z "/>
<glyph glyph-name="c" horiz-adv-x="1311" unicode="c" d="M1203 868l-227 -125q-64 67 -126.5 93t-146.5 26q-153 0 -247.5 -91.5t-94.5 -234.5q0 -139 91 -227t239 -88q183 0 285 125l215 -147q-175 -227 -494 -227q-287 0 -449.5 170t-162.5 398q0 158 79 291t220.5 209t316.5 76q162 0 291 -64.5t211 -183.5z"/>
<glyph glyph-name="d" horiz-adv-x="1352" unicode="d" d="M655 864q-127 0 -211 -89.5t-84 -229.5q0 -141 85.5 -232t210.5 -91q129 0 214 89.5t85 234.5q0 142 -85 230t-215 88zM942 1508h272v-1508h-272v115q-80 -76 -160.5 -109.5t-174.5 -33.5q-211 0 -365 163.5t-154 406.5q0 252 149 413t362 161q98 0 184 -37t159 -111v540 z"/>
<glyph glyph-name="e" horiz-adv-x="1311" unicode="e" d="M954 680q-27 91 -106.5 148t-184.5 57q-114 0 -200 -64q-54 -40 -100 -141h591zM1228 465h-877q19 -116 101.5 -184.5t210.5 -68.5q153 0 263 107l230 -108q-86 -122 -206 -180.5t-285 -58.5q-256 0 -417 161.5t-161 404.5q0 249 160.5 413.5t402.5 164.5 q257 0 418 -164.5t161 -434.5z"/>
<glyph glyph-name="f" horiz-adv-x="573" unicode="f" d="M8 1088h97q1 214 7 253q11 90 75.5 142.5t182.5 52.5q85 0 192 -39v-208q-59 17 -97 17q-48 0 -70 -20q-16 -15 -16 -62l-1 -136h173v-232h-173v-856h-273v856h-97v232z"/>
<glyph glyph-name="g" horiz-adv-x="1352" unicode="g" d="M659 861q-129 0 -213 -86.5t-84 -217.5q0 -136 86 -223t216 -87q127 0 209.5 85t82.5 223q0 136 -83 221t-214 85zM942 1088h272v-932q0 -276 -111 -406q-149 -176 -449 -176q-160 0 -269 40t-184 117.5t-111 188.5h301q40 -46 103 -69.5t149 -23.5q110 0 177 34t94.5 88 t27.5 186q-72 -72 -151 -103.5t-179 -31.5q-219 0 -370 158t-151 400q0 259 160 416q145 142 346 142q94 0 177.5 -34.5t167.5 -113.5v120z"/>
<glyph glyph-name="h" horiz-adv-x="1229" unicode="h" d="M139 1508h271v-530q80 69 161 103.5t164 34.5q162 0 273 -112q95 -97 95 -285v-719h-269v477q0 189 -18 256t-61.5 100t-107.5 33q-83 0 -142.5 -55t-82.5 -150q-12 -49 -12 -224v-437h-271v1508z"/>
<glyph glyph-name="i" horiz-adv-x="491" unicode="i" d="M108 1088h274v-1088h-274v1088zM245 1536q72 0 123.5 -52t51.5 -126q0 -73 -51 -124.5t-122 -51.5q-73 0 -124.5 52.5t-51.5 127.5q0 72 51 123t123 51z"/>
<glyph glyph-name="j" horiz-adv-x="532" unicode="j" d="M130 1088h273v-1124q0 -155 -30.5 -231.5t-96.5 -117.5t-159 -41q-82 0 -204 41v215q64 -31 113 -31q52 0 78 31t26 114v1144zM266 1536q73 0 124.5 -52t51.5 -126q0 -73 -51 -125t-122 -52q-73 0 -124.5 53t-51.5 128q0 72 50.5 123t122.5 51z"/>
<glyph glyph-name="k" horiz-adv-x="1188" unicode="k" d="M140 1508h273v-869l402 449h342l-468 -522l525 -566h-339l-462 501v-501h-273v1508z"/>
<glyph glyph-name="l" horiz-adv-x="491" unicode="l" d="M109 1508h273v-1508h-273v1508z"/>
<glyph glyph-name="m" horiz-adv-x="1925" unicode="m" d="M136 1088h274v-125q70 77 155.5 115t186.5 38q102 0 184 -50t132 -146q65 96 159.5 146t206.5 50q116 0 204 -54t126.5 -141t38.5 -283v-638h-275v552q0 185 -46 250.5t-138 65.5q-70 0 -125.5 -40t-82.5 -110.5t-27 -226.5v-491h-275v527q0 146 -21.5 211.5t-64.5 97.5 t-104 32q-68 0 -123.5 -40.5t-83 -113.5t-27.5 -230v-484h-274v1088z"/>
<glyph glyph-name="n" horiz-adv-x="1229" unicode="n" d="M138 1088h272v-111q93 78 168.5 108.5t154.5 30.5q162 0 275 -113q95 -96 95 -284v-719h-270v477q0 195 -17.5 259t-61 97.5t-107.5 33.5q-83 0 -142.5 -55.5t-82.5 -153.5q-12 -51 -12 -221v-437h-272v1088z"/>
<glyph glyph-name="o" horiz-adv-x="1311" unicode="o" d="M653 859q-127 0 -211.5 -88.5t-84.5 -226.5q0 -142 83.5 -230t211.5 -88t213 89t85 229t-83.5 227.5t-213.5 87.5zM649 1116q154 0 289.5 -77t211.5 -209t76 -285q0 -154 -76.5 -288t-208.5 -209.5t-291 -75.5q-234 0 -399.5 166.5t-165.5 404.5q0 255 187 425 q164 148 377 148z"/>
<glyph glyph-name="p" horiz-adv-x="1352" unicode="p" d="M696 864q-129 0 -214 -88t-85 -230q0 -145 85 -234.5t214 -89.5q125 0 210.5 91t85.5 232q0 140 -84 229.5t-212 89.5zM409 1088v-120q74 74 160 111t184 37q213 0 362 -161t149 -413q0 -243 -154 -406.5t-365 -163.5q-94 0 -175 33.5t-161 109.5v-513h-271v1486h271z "/>
<glyph glyph-name="q" horiz-adv-x="1352" unicode="q" d="M655 864q-127 0 -211 -89.5t-84 -229.5q0 -141 85.5 -232t210.5 -91q129 0 214 89.5t85 234.5q0 142 -85 230t-215 88zM942 1088h272v-1486h-272v513q-80 -76 -160.5 -109.5t-174.5 -33.5q-211 0 -365 163.5t-154 406.5q0 252 149 413t362 161q98 0 184 -37t159 -111v120 z"/>
<glyph glyph-name="r" horiz-adv-x="655" unicode="r" d="M74 1088h234v-137q38 81 101 123t138 42q53 0 111 -28l-85 -235q-48 24 -79 24q-63 0 -106.5 -78t-43.5 -306l1 -53v-440h-271v1088z"/>
<glyph glyph-name="s" horiz-adv-x="901" unicode="s" d="M804 936l-169 -169q-103 102 -187 102q-46 0 -72 -19.5t-26 -48.5q0 -22 16.5 -40.5t81.5 -50.5l100 -50q158 -78 217 -159t59 -190q0 -145 -106.5 -242t-285.5 -97q-238 0 -380 186l168 183q48 -56 112.5 -90.5t114.5 -34.5q54 0 87 26t33 60q0 63 -119 123l-92 46 q-264 133 -264 333q0 129 99.5 220.5t254.5 91.5q106 0 199.5 -46.5t158.5 -133.5z"/>
<glyph glyph-name="t" horiz-adv-x="614" unicode="t" d="M171 1489h272v-401h162v-235h-162v-853h-272v853h-140v235h140v401z"/>
<glyph glyph-name="u" horiz-adv-x="1229" unicode="u" d="M137 1088h276v-524q0 -153 21 -212.5t67.5 -92.5t114.5 -33t115.5 32.5t70.5 95.5q17 47 17 201v533h274v-461q0 -285 -45 -390q-55 -128 -162 -196.5t-272 -68.5q-179 0 -289.5 80t-155.5 223q-32 99 -32 360v453z"/>
<glyph glyph-name="v" d="M21 1088h278l275 -642l274 642h277l-463 -1088h-177z" unicode="v"/>
<glyph glyph-name="w" horiz-adv-x="1638" unicode="w" d="M17 1088h267l219 -619l236 619h163l231 -612l219 612h269l-397 -1088h-173l-232 620l-239 -620h-171z"/>
<glyph glyph-name="x" d="M40 1088h317l213 -297l216 297h314l-372 -515l418 -573h-317l-259 357l-256 -357h-313l412 573z" unicode="x"/>
<glyph glyph-name="y" horiz-adv-x="1188" unicode="y" d="M17 1088h279l283 -683l312 683h280l-682 -1486h-282l224 479z"/>
<glyph glyph-name="z" horiz-adv-x="942" unicode="z" d="M91 1088h835l-490 -857h462v-231h-882l492 857h-417v231z"/>
<glyph glyph-name="braceleft" horiz-adv-x="696" unicode="{" d="M13 390v240q89 4 131.5 35t65 97t22.5 223q0 198 18 270.5t57.5 116t116 71.5t220.5 28h53v-240q-107 0 -140 -11.5t-48.5 -37.5t-15.5 -96q0 -126 -12 -281q-8 -101 -55 -181q-35 -59 -121 -115q73 -42 116 -106.5t57 -163.5q6 -43 14 -280q3 -87 11 -108 q13 -31 48.5 -47t145.5 -16v-239h-53q-145 0 -215 23.5t-114 69t-63.5 115t-19.5 239.5q0 190 -20.5 256.5t-64 99.5t-134.5 38z"/>
<glyph glyph-name="bar" horiz-adv-x="1229" unicode="|" d="M536 1508h158v-1906h-158v1906z"/>
<glyph glyph-name="braceright" horiz-adv-x="696" unicode="}" d="M683 630v-240q-89 -5 -131.5 -35.5t-65.5 -97t-23 -223.5q0 -198 -17.5 -270t-57 -115.5t-116 -71.5t-220.5 -28h-53v239q107 0 139.5 11.5t48.5 37.5t16 96q0 127 12 282q7 101 54 180q36 60 122 115q-73 42 -116 106.5t-57 164.5q-6 42 -14 279q-3 88 -12 108 q-13 32 -48.5 47.5t-144.5 15.5v240h53q145 0 214.5 -24t114 -69.5t64 -115t19.5 -239.5q0 -190 20.5 -256t63.5 -99t135 -38z"/>
<glyph glyph-name="asciitilde" horiz-adv-x="1229" unicode="~" d="M100 564v319q152 74 250 74q64 0 140.5 -21.5t203.5 -82.5q83 -41 109 -48q35 -10 69 -10q111 0 258 113v-322q-126 -72 -247 -72q-66 0 -133 18t-218 85q-96 42 -128.5 50.5t-65.5 8.5q-50 0 -101 -22t-137 -90z"/>
<glyph glyph-name="nbspace" horiz-adv-x="573" unicode=" "/>
<glyph glyph-name="exclamdown" horiz-adv-x="573" unicode="¡" d="M424 -398h-275v1075h275v-1075zM286 1138q71 0 121.5 -50t50.5 -121t-50.5 -121t-121.5 -50t-121 50t-50 121t50 121t121 50z"/>
<glyph glyph-name="cent" d="M619 870q-123 -7 -193.5 -92t-70.5 -238q0 -98 38 -183zM821 1326l155 -67l-94 -210q110 -69 169 -164l-223 -132q-23 31 -52 59l-255 -577q55 -21 107 -21q125 0 221 98l175 -170q-86 -88 -186 -129t-229 -41q-95 0 -190 28l-111 -243l-153 66l120 264 q-191 188 -191 458q0 168 70 298t195 201.5t280 71.5q43 0 96 -8z" unicode="¢"/>
<glyph glyph-name="sterling" d="M1012 1096h-281q-31 155 -145 155q-61 0 -102 -43.5t-41 -113.5q0 -41 28 -114l31 -81h340v-252h-267q12 -69 12 -109q0 -115 -68 -283q39 -5 139 -23q34 -6 55 -6q43 0 71 26q38 34 52 84h259q-4 -99 -57 -186.5t-142 -137t-186 -49.5q-43 0 -143 14q-154 23 -230 23 q-98 0 -194 -34l-94 238q85 34 159 44q55 96 75 163t20 142q0 41 -9 94h-240v252h154q-47 100 -47 201q0 122 49.5 210.5t153.5 143t226 54.5q120 0 218.5 -53t150.5 -146.5t53 -212.5z" unicode="£"/>
<glyph glyph-name="currency" horiz-adv-x="1229" unicode="¤" d="M303 816q0 -132 92.5 -225t221.5 -93t221 93.5t92 227.5q0 133 -91.5 226.5t-220.5 93.5t-222 -94t-93 -229zM96 425l103 104q-52 79 -72 145t-20 144q0 83 21 151.5t73 140.5l-106 104l121 124l106 -106q70 49 144 73t152 24q75 0 146 -22t145 -72l105 103l119 -124 l-104 -101q53 -72 75.5 -142.5t22.5 -152.5q0 -81 -22 -149.5t-73 -139.5l104 -104l-119 -121l-105 103q-73 -53 -144.5 -76.5t-151.5 -23.5q-79 0 -150.5 23.5t-144.5 76.5l-105 -103z"/>
<glyph glyph-name="yen" d="M48 1471h291l235 -523l235 523h291l-311 -692h264v-163h-338v-128h338v-169h-338v-319h-283v319h-339v169h339v128h-339v163h265z" unicode="¥"/>
<glyph glyph-name="brokenbar" horiz-adv-x="1229" unicode="¦" d="M537 -398v910l158 55v-965h-158zM537 744v764h158v-709z"/>
<glyph glyph-name="section" d="M463 796q-62 -27 -91.5 -68t-29.5 -85q0 -47 42 -96q23 -28 123 -98l153 -107q81 38 101 65q31 41 31 86q0 38 -30.5 78.5t-136.5 112.5zM985 1152h-265q-30 133 -161 133q-53 0 -82 -23.5t-29 -57.5q0 -36 23 -65q31 -38 145 -116l191 -131q129 -88 178 -171t49 -183 q0 -105 -55.5 -186t-158.5 -121q93 -77 131.5 -153t38.5 -167q0 -144 -108.5 -240.5t-297.5 -96.5q-178 0 -284.5 96.5t-131.5 281.5h259q27 -70 65.5 -99t92.5 -29q61 0 95 30t34 71q0 25 -20 54q-21 28 -89 76l-276 192q-129 91 -175.5 171t-46.5 185q0 112 56.5 196.5 t142.5 116.5q-69 56 -103.5 125t-34.5 150q0 144 111 244.5t288 100.5q169 0 288 -111t130 -273z" unicode="§"/>
<glyph glyph-name="dieresis" horiz-adv-x="1024" unicode="¨" d="M733 1573q60 0 102 -42t42 -101q0 -60 -42 -102t-102 -42q-59 0 -101 42t-42 102q0 59 42 101t101 42zM290 1573q60 0 102 -42t42 -101q0 -60 -42 -102t-102 -42q-59 0 -101 42t-42 102q0 59 42 101t101 42z"/>
<glyph glyph-name="copyright" horiz-adv-x="1515" unicode="©" d="M980 616h176q-17 -131 -118 -216t-248 -85q-188 0 -308.5 126.5t-120.5 328.5q0 196 119 318t304 122q149 0 245 -75t127 -218h-176q-17 74 -68 114t-126 40q-111 0 -183 -80.5t-72 -218.5q0 -142 76.5 -229.5t182.5 -87.5q75 0 128 45t62 116zM1366 754 q0 253 -177.5 430.5t-429.5 177.5q-164 0 -305.5 -81t-222.5 -221.5t-81 -301.5t81 -300.5t222.5 -220.5t303.5 -81q163 0 305 81t223 219.5t81 297.5zM1524 757q0 -205 -102.5 -382.5t-280.5 -280t-383 -102.5t-383 102.5t-280.5 280t-102.5 382.5q0 204 102.5 381 t280 279.5t383.5 102.5t383.5 -102.5t280 -279.5t102.5 -381z"/>
<glyph glyph-name="ordfeminine" horiz-adv-x="737" unicode="ª" d="M356 1329q-43 0 -75.5 -46.5t-32.5 -130.5q0 -85 37 -139q29 -41 72 -41t76 46.5t33 133.5q0 86 -33 131.5t-77 45.5zM459 1491h200v-681h-200v56q-33 -36 -71.5 -54t-81.5 -18q-100 0 -179.5 98.5t-79.5 257.5q0 164 77 261t178 97q44 0 83 -18.5t74 -56.5v58z"/>
<glyph glyph-name="guillemotleft" horiz-adv-x="942" unicode="«" d="M662 1088h255l-185 -548l185 -540h-255l-184 540zM208 1088h255l-185 -548l185 -540h-255l-183 540z"/>
<glyph glyph-name="logicalnot" horiz-adv-x="1229" unicode="¬" d="M115 1074h999v-678l-249 1v428l-750 -1v250z"/>
<glyph glyph-name="registered" horiz-adv-x="1515" unicode="®" d="M625 1012v-199h154q89 0 118 24t29 77t-28.5 75.5t-117.5 22.5h-155zM441 1173h371q117 0 172 -26t88.5 -82t33.5 -135q0 -67 -20.5 -109.5t-77.5 -83.5q46 -26 63 -58.5t21 -114.5q7 -156 13.5 -181.5t35.5 -48.5h-210q-14 34 -18 57t-5 79q-3 111 -12 137t-31.5 39 t-90.5 13h-149v-325h-184v839zM1366 753q0 254 -177.5 431.5t-428.5 177.5q-253 0 -431.5 -177t-178.5 -427q0 -162 80.5 -301t222.5 -220t305 -81q162 0 304 80.5t223 219t81 297.5zM1524 755q0 -205 -102.5 -381.5t-280 -279t-383.5 -102.5q-205 0 -383 102.5t-280.5 279 t-102.5 382.5q0 205 102.5 382t280 279.5t383.5 102.5t383.5 -102.5t280 -279.5t102.5 -383z"/>
<glyph glyph-name="overscore" horiz-adv-x="1024" unicode="¯" d="M-12 1685h1048v-102h-1048v102z"/>
<glyph glyph-name="degree" horiz-adv-x="819" unicode="°" d="M636 1162q0 99 -65 166t-158 67q-95 0 -162 -67.5t-67 -163.5q0 -94 67.5 -163t160.5 -69q92 0 158 67.5t66 162.5zM755 1164q0 -145 -101 -244.5t-245 -99.5t-244 100t-100 247q0 141 102.5 241t244.5 100t242.5 -100t100.5 -244z"/>
<glyph glyph-name="plusminus" horiz-adv-x="1124" unicode="±" d="M62 250h999v-250h-999v250zM437 1079v375h250v-375h374v-250h-374v-374h-250v374h-375v250h375z"/>
<glyph glyph-name="twosuperior" horiz-adv-x="688" unicode="²" d="M227 1227h-185q6 132 88.5 206.5t222.5 74.5q139 0 211.5 -74t72.5 -156q0 -67 -44 -144t-164 -182l-70 -62h285v-157h-625v88l272 232q97 83 127 130t30 84q0 36 -28.5 59.5t-77.5 23.5q-52 0 -83 -32t-32 -91z"/>
<glyph glyph-name="threesuperior" horiz-adv-x="688" unicode="³" d="M244 1282h-183q23 108 79 157q78 69 202 69q117 0 190.5 -60.5t73.5 -140.5q0 -96 -93 -149q66 -27 103.5 -79.5t37.5 -112.5q0 -101 -88 -176t-234 -75q-136 0 -217.5 73t-84.5 193h184q19 -111 126 -111q55 0 90 27.5t35 63.5q0 99 -197 105v138q88 0 121 22.5t33 59.5 q0 28 -20.5 47.5t-54.5 19.5q-67 0 -103 -71z"/>
<glyph glyph-name="acute" horiz-adv-x="860" unicode="´" d="M478 1679h323l-366 -392h-196z"/>
<glyph glyph-name="mu1" horiz-adv-x="1180" unicode="µ" d="M88 -398v1486h277v-571q0 -127 24.5 -183.5t81 -93.5t121.5 -37t115.5 34t77 98t26.5 190v563h280v-1088h-280v127q-43 -84 -98.5 -120t-124.5 -36q-68 0 -123.5 34.5t-99.5 113.5v-517h-277z"/>
<glyph glyph-name="paragraph" horiz-adv-x="1229" unicode="¶" d="M552 -379v1089q-184 1 -286.5 105t-102.5 289q0 203 111.5 306t361.5 103h420v-116h-82v-1776h-139v1776h-144v-1776h-139z"/>
<glyph glyph-name="middot" horiz-adv-x="682" unicode="·" d="M696 897q60 0 102 -41.5t42 -101.5q0 -59 -42 -101t-102 -42q-59 0 -101 42t-42 101q0 60 42 101.5t101 41.5z"/>
<glyph glyph-name="cedilla" horiz-adv-x="696" unicode="¸" d="M262 16h169l-12 -46q67 -15 105.5 -58.5t38.5 -95.5q0 -81 -68 -139t-189 -58q-98 0 -222 46l36 129q72 -23 141 -23q51 0 76 19.5t25 51.5q0 26 -19 41t-60 15l-56 -2z"/>
<glyph glyph-name="onesuperior" horiz-adv-x="688" unicode="¹" d="M199 1489h265v-756h-188v599h-193z"/>
<glyph glyph-name="ordmasculine" horiz-adv-x="737" unicode="º" d="M368 1326q-49 0 -85 -47t-36 -128q0 -84 35.5 -130.5t85.5 -46.5t86.5 47t36.5 130q0 82 -36 128.5t-87 46.5zM365 1508q134 0 231 -102t97 -255q0 -154 -95.5 -255.5t-231.5 -101.5q-131 0 -226 102.5t-95 253.5q0 152 96 255t224 103z"/>
<glyph glyph-name="guillemotright" horiz-adv-x="942" unicode="»" d="M280 0h-255l185 548l-185 540h255l183 -540zM733 0h-255l186 548l-186 540h255l184 -540z"/>
<glyph glyph-name="onequarter" horiz-adv-x="1720" unicode="¼" d="M207 1489h265v-756h-188v599h-193zM462 -37l626 1545h171l-626 -1545h-171zM1437 290v269l-217 -269h217zM1424 775h182v-485h78v-140h-78v-150h-169v150h-395v148z"/>
<glyph glyph-name="onehalf" horiz-adv-x="1720" unicode="½" d="M207 1489h265v-756h-188v599h-193zM426 -37l626 1545h171l-626 -1545h-171zM1251 494h-185q6 132 88.5 206.5t222.5 74.5q139 0 211.5 -74t72.5 -156q0 -67 -44 -144t-164 -182l-70 -62h285v-157h-625v88l272 232q97 83 127 130t30 84q0 36 -28.5 59.5t-77.5 23.5 q-52 0 -83 -32t-32 -91z"/>
<glyph glyph-name="threequarters" horiz-adv-x="1720" unicode="¾" d="M252 1282h-183q23 108 79 157q78 69 202 69q117 0 190.5 -60.5t73.5 -140.5q0 -96 -93 -149q66 -27 103.5 -79.5t37.5 -112.5q0 -101 -88 -176t-234 -75q-136 0 -217.5 73t-84.5 193h184q19 -111 126 -111q55 0 90 27.5t35 63.5q0 99 -197 105v138q88 0 121 22.5t33 59.5 q0 28 -20.5 47.5t-54.5 19.5q-67 0 -103 -71zM486 -37l626 1545h171l-626 -1545h-171zM1437 290v269l-217 -269h217zM1424 775h182v-485h78v-140h-78v-150h-169v150h-395v148z"/>
<glyph glyph-name="questiondown" d="M779 18h262v-6q0 -188 -133 -313t-352 -125q-141 0 -240.5 51.5t-158.5 150t-59 206.5q0 59 18.5 116t59.5 117q25 35 116 118q86 79 108.5 111t37.5 86.5t19 150.5h270l2 -45q0 -134 -49 -243.5t-159 -205.5q-106 -93 -128 -128.5t-22 -81.5q0 -64 53 -108.5t144 -44.5 q92 0 151 54.5t60 139.5zM588 795q-73 0 -124.5 50t-51.5 121t51 121.5t123 50.5q71 0 122 -50.5t51 -121.5t-50 -121t-121 -50z" unicode="¿"/>
<glyph glyph-name="Agrave" horiz-adv-x="1515" unicode="À" d="M760 1081l-196 -505h391zM616 1471h284l566 -1471h-291l-115 303h-600l-120 -303h-291zM709 1977l239 -392h-196l-366 392h323z"/>
<glyph glyph-name="Aacute" horiz-adv-x="1515" unicode="Á" d="M760 1081l-196 -505h391zM616 1471h284l566 -1471h-291l-115 303h-600l-120 -303h-291zM805 1977h323l-366 -392h-196z"/>
<glyph glyph-name="Acircumflex" horiz-adv-x="1515" unicode="Â" d="M760 1081l-196 -505h391zM616 1471h284l566 -1471h-291l-115 303h-600l-120 -303h-291zM349 1585l300 283h219l298 -283h-298l-108 131l-111 -131h-300z"/>
<glyph glyph-name="Atilde" horiz-adv-x="1515" unicode="Ã" d="M760 1081l-196 -505h391zM616 1471h284l566 -1471h-291l-115 303h-600l-120 -303h-291zM451 1589l-110 165q128 99 259 99q49 0 168 -34q81 -22 129 -22q84 0 174 52l104 -156q-126 -108 -244 -108q-63 0 -151 27q-72 21 -91 25q-26 4 -62 4q-88 0 -176 -52z"/>
<glyph glyph-name="Adieresis" horiz-adv-x="1515" unicode="Ä" d="M760 1081l-196 -505h391zM616 1471h284l566 -1471h-291l-115 303h-600l-120 -303h-291zM978 1871q60 0 102 -42t42 -101q0 -60 -42 -102t-102 -42q-59 0 -101 42t-42 102q0 59 42 101t101 42zM535 1871q60 0 102 -42t42 -101q0 -60 -42 -102t-102 -42q-59 0 -101 42 t-42 102q0 59 42 101t101 42z"/>
<glyph glyph-name="Aring" horiz-adv-x="1515" unicode="Å" d="M760 1081l-196 -505h391zM616 1471h284l566 -1471h-291l-115 303h-600l-120 -303h-291zM757 1903q-34 0 -58 -26t-24 -63q0 -38 24.5 -64t57.5 -26t57.5 26t24.5 64q0 37 -24 63t-58 26zM757 2032q91 0 155 -65.5t64 -157.5q0 -93 -64.5 -158.5t-154.5 -65.5t-154.5 65.5 t-64.5 158.5q0 92 64 157.5t155 65.5z"/>
<glyph glyph-name="AE" horiz-adv-x="1843" unicode="Æ" d="M941 579v644l-317 -644h317zM774 1471h963v-274h-517v-267h517v-269h-517v-387h517v-274h-796v304h-449l-147 -304h-288z"/>
<glyph glyph-name="Ccedilla" horiz-adv-x="1597" unicode="Ç" d="M1520 1212l-196 -187q-200 211 -450 211q-211 0 -355.5 -144t-144.5 -355q0 -147 64 -261t181 -179t260 -65q122 0 223 45.5t222 165.5l190 -198q-163 -159 -308 -220.5t-331 -61.5q-343 0 -561.5 217.5t-218.5 557.5q0 220 99.5 391t285 275t399.5 104q182 0 350.5 -77 t290.5 -219zM713 16h169l-12 -46q67 -15 105.5 -58.5t38.5 -95.5q0 -81 -68 -139t-189 -58q-98 0 -222 46l36 129q72 -23 141 -23q51 0 76 19.5t25 51.5q0 26 -19 41t-60 15l-56 -2z"/>
<glyph glyph-name="Egrave" horiz-adv-x="1065" unicode="È" d="M169 1471h803v-274h-525v-266h525v-269h-525v-387h525v-275h-803v1471zM520 1977l239 -392h-196l-366 392h323z"/>
<glyph glyph-name="Eacute" horiz-adv-x="1065" unicode="É" d="M169 1471h803v-274h-525v-266h525v-269h-525v-387h525v-275h-803v1471zM617 1977h323l-366 -392h-196z"/>
<glyph glyph-name="Ecircumflex" horiz-adv-x="1065" unicode="Ê" d="M169 1471h803v-274h-525v-266h525v-269h-525v-387h525v-275h-803v1471zM160 1585l300 283h219l298 -283h-298l-108 131l-111 -131h-300z"/>
<glyph glyph-name="Edieresis" horiz-adv-x="1065" unicode="Ë" d="M169 1471h803v-274h-525v-266h525v-269h-525v-387h525v-275h-803v1471zM790 1871q60 0 102 -42t42 -101q0 -60 -42 -102t-102 -42q-59 0 -101 42t-42 102q0 59 42 101t101 42zM347 1871q60 0 102 -42t42 -101q0 -60 -42 -102t-102 -42q-59 0 -101 42t-42 102q0 59 42 101 t101 42z"/>
<glyph glyph-name="Igrave" horiz-adv-x="573" unicode="Ì" d="M148 1471h278v-1471h-278v1471zM239 1977l239 -392h-196l-366 392h323z"/>
<glyph glyph-name="Iacute" horiz-adv-x="573" unicode="Í" d="M148 1471h278v-1471h-278v1471zM335 1977h323l-366 -392h-196z"/>
<glyph glyph-name="Icircumflex" horiz-adv-x="573" unicode="Î" d="M148 1471h278v-1471h-278v1471zM-122 1585l300 283h219l298 -283h-298l-108 131l-111 -131h-300z"/>
<glyph glyph-name="Idieresis" horiz-adv-x="573" unicode="Ï" d="M148 1471h278v-1471h-278v1471zM508 1871q60 0 102 -42t42 -101q0 -60 -42 -102t-102 -42q-59 0 -101 42t-42 102q0 59 42 101t101 42zM65 1871q60 0 102 -42t42 -101q0 -60 -42 -102t-102 -42q-59 0 -101 42t-42 102q0 59 42 101t101 42z"/>
<glyph glyph-name="Eth" horiz-adv-x="1520" unicode="Ð" d="M498 1201v-384h302v-163h-302v-380h154q192 0 278.5 44t141.5 148t55 256q0 234 -131 363q-118 116 -379 116h-119zM219 1471h357q320 0 476 -79.5t257 -258.5t101 -418q0 -170 -56.5 -312.5t-156 -236.5t-215.5 -130t-402 -36h-361v654h-169v163h169v654z"/>
<glyph glyph-name="Ntilde" horiz-adv-x="1515" unicode="Ñ" d="M169 1471h268l631 -968v968h280v-1471h-269l-630 965v-965h-280v1471zM452 1589l-110 165q128 99 259 99q49 0 168 -34q81 -22 129 -22q84 0 174 52l104 -156q-126 -108 -244 -108q-63 0 -151 27q-72 21 -91 25q-26 4 -62 4q-88 0 -176 -52z"/>
<glyph glyph-name="Ograve" horiz-adv-x="1720" unicode="Ò" d="M860 1234q-204 0 -343 -142t-139 -361q0 -244 175 -386q136 -111 312 -111q199 0 339 144t140 355q0 210 -141 355.5t-343 145.5zM863 1508q312 0 536.5 -226t224.5 -551q0 -322 -221.5 -545t-537.5 -223q-331 0 -550 229t-219 544q0 211 102 388t280.5 280.5 t384.5 103.5zM812 1977l239 -392h-196l-366 392h323z"/>
<glyph glyph-name="Oacute" horiz-adv-x="1720" unicode="Ó" d="M860 1234q-204 0 -343 -142t-139 -361q0 -244 175 -386q136 -111 312 -111q199 0 339 144t140 355q0 210 -141 355.5t-343 145.5zM863 1508q312 0 536.5 -226t224.5 -551q0 -322 -221.5 -545t-537.5 -223q-331 0 -550 229t-219 544q0 211 102 388t280.5 280.5 t384.5 103.5zM908 1977h323l-366 -392h-196z"/>
<glyph glyph-name="Ocircumflex" horiz-adv-x="1720" unicode="Ô" d="M860 1234q-204 0 -343 -142t-139 -361q0 -244 175 -386q136 -111 312 -111q199 0 339 144t140 355q0 210 -141 355.5t-343 145.5zM863 1508q312 0 536.5 -226t224.5 -551q0 -322 -221.5 -545t-537.5 -223q-331 0 -550 229t-219 544q0 211 102 388t280.5 280.5 t384.5 103.5zM451 1585l300 283h219l298 -283h-298l-108 131l-111 -131h-300z"/>
<glyph glyph-name="Otilde" horiz-adv-x="1720" unicode="Õ" d="M860 1234q-204 0 -343 -142t-139 -361q0 -244 175 -386q136 -111 312 -111q199 0 339 144t140 355q0 210 -141 355.5t-343 145.5zM863 1508q312 0 536.5 -226t224.5 -551q0 -322 -221.5 -545t-537.5 -223q-331 0 -550 229t-219 544q0 211 102 388t280.5 280.5 t384.5 103.5zM553 1589l-110 165q128 99 259 99q49 0 168 -34q81 -22 129 -22q84 0 174 52l104 -156q-126 -108 -244 -108q-63 0 -151 27q-72 21 -91 25q-26 4 -62 4q-88 0 -176 -52z"/>
<glyph glyph-name="Odieresis" horiz-adv-x="1720" unicode="Ö" d="M860 1234q-204 0 -343 -142t-139 -361q0 -244 175 -386q136 -111 312 -111q199 0 339 144t140 355q0 210 -141 355.5t-343 145.5zM863 1508q312 0 536.5 -226t224.5 -551q0 -322 -221.5 -545t-537.5 -223q-331 0 -550 229t-219 544q0 211 102 388t280.5 280.5 t384.5 103.5zM1081 1871q60 0 102 -42t42 -101q0 -60 -42 -102t-102 -42q-59 0 -101 42t-42 102q0 59 42 101t101 42zM638 1871q60 0 102 -42t42 -101q0 -60 -42 -102t-102 -42q-59 0 -101 42t-42 102q0 59 42 101t101 42z"/>
<glyph glyph-name="multiply" horiz-adv-x="1229" unicode="×" d="M613 588l-317 -316l-148 147l317 317l-317 317l148 148l317 -317l316 317l148 -148l-317 -317l317 -317l-148 -147z"/>
<glyph glyph-name="Oslash" horiz-adv-x="1720" unicode="Ø" d="M1245 1038l-625 -738q112 -66 247 -66q198 0 338 144t140 355q0 169 -100 305zM493 405l636 749q-113 80 -267 80q-205 0 -344 -142t-139 -361q0 -194 114 -326zM1429 1251q196 -219 196 -520q0 -322 -221.5 -545t-536.5 -223q-239 0 -426 125l-171 -202l-127 106 l171 202q-103 105 -160 246t-57 296q0 211 102 387.5t280.5 280.5t383.5 104q238 0 443 -145l161 190l126 -104z"/>
<glyph glyph-name="Ugrave" horiz-adv-x="1311" unicode="Ù" d="M158 1471h281v-952q0 -123 21.5 -174t71 -81.5t119.5 -30.5q74 0 127.5 34t74 86.5t20.5 200.5v917h281v-877q0 -222 -25 -308t-95.5 -166t-162.5 -118.5t-214 -38.5q-160 0 -278.5 73.5t-169.5 184t-51 373.5v877zM607 1977l239 -392h-196l-366 392h323z"/>
<glyph glyph-name="Uacute" horiz-adv-x="1311" unicode="Ú" d="M158 1471h281v-952q0 -123 21.5 -174t71 -81.5t119.5 -30.5q74 0 127.5 34t74 86.5t20.5 200.5v917h281v-877q0 -222 -25 -308t-95.5 -166t-162.5 -118.5t-214 -38.5q-160 0 -278.5 73.5t-169.5 184t-51 373.5v877zM703 1977h323l-366 -392h-196z"/>
<glyph glyph-name="Ucircumflex" horiz-adv-x="1311" unicode="Û" d="M158 1471h281v-952q0 -123 21.5 -174t71 -81.5t119.5 -30.5q74 0 127.5 34t74 86.5t20.5 200.5v917h281v-877q0 -222 -25 -308t-95.5 -166t-162.5 -118.5t-214 -38.5q-160 0 -278.5 73.5t-169.5 184t-51 373.5v877zM247 1585l300 283h219l298 -283h-298l-108 131 l-111 -131h-300z"/>
<glyph glyph-name="Udieresis" horiz-adv-x="1311" unicode="Ü" d="M158 1471h281v-952q0 -123 21.5 -174t71 -81.5t119.5 -30.5q74 0 127.5 34t74 86.5t20.5 200.5v917h281v-877q0 -222 -25 -308t-95.5 -166t-162.5 -118.5t-214 -38.5q-160 0 -278.5 73.5t-169.5 184t-51 373.5v877zM877 1871q60 0 102 -42t42 -101q0 -60 -42 -102 t-102 -42q-59 0 -101 42t-42 102q0 59 42 101t101 42zM434 1871q60 0 102 -42t42 -101q0 -60 -42 -102t-102 -42q-59 0 -101 42t-42 102q0 59 42 101t101 42z"/>
<glyph glyph-name="Yacute" horiz-adv-x="1270" unicode="Ý" d="M63 1471h301l274 -528l272 528h297l-430 -834v-637h-282v637zM683 1977h323l-366 -392h-196z"/>
<glyph glyph-name="Thorn" d="M447 584h89q105 0 146 15t64.5 50t23.5 84q0 84 -66 124q-48 29 -178 29h-79v-302zM167 1471h280v-312q256 0 362.5 -43.5t169 -143t62.5 -239.5q0 -155 -80.5 -256.5t-218.5 -141.5q-81 -24 -295 -24v-311h-280v1471z" unicode="Þ"/>
<glyph glyph-name="germandbls" horiz-adv-x="1229" unicode="ß" d="M579 705v244q103 0 163 48.5t60 126.5q0 67 -47 113t-117 46q-66 0 -122.5 -41t-81 -110t-24.5 -237v-895h-273v895q0 244 58 369t176.5 198.5t275.5 73.5q192 0 311.5 -109.5t119.5 -264.5q0 -85 -37 -156t-100.5 -114.5t-172.5 -62.5q120 -21 202.5 -80t126.5 -144.5 t44 -193.5q0 -125 -56.5 -226t-158.5 -157t-228 -56q-85 0 -168 34v255q63 -33 127 -33q91 0 152.5 64.5t61.5 155.5q0 72 -35.5 129.5t-96.5 90.5t-160 37z"/>
<glyph glyph-name="agrave" horiz-adv-x="1352" unicode="à" d="M655 864q-127 0 -211 -89.5t-84 -229.5q0 -141 85.5 -232t210.5 -91q129 0 214 89.5t85 234.5q0 142 -85 230t-215 88zM942 1088h272v-1088h-272v115q-80 -76 -160.5 -109.5t-174.5 -33.5q-211 0 -365 163.5t-154 406.5q0 252 149 413t362 161q98 0 184 -37t159 -111v120 zM628 1679l239 -392h-196l-366 392h323z"/>
<glyph glyph-name="aacute" horiz-adv-x="1352" unicode="á" d="M655 864q-127 0 -211 -89.5t-84 -229.5q0 -141 85.5 -232t210.5 -91q129 0 214 89.5t85 234.5q0 142 -85 230t-215 88zM942 1088h272v-1088h-272v115q-80 -76 -160.5 -109.5t-174.5 -33.5q-211 0 -365 163.5t-154 406.5q0 252 149 413t362 161q98 0 184 -37t159 -111v120 zM724 1679h323l-366 -392h-196z"/>
<glyph glyph-name="acircumflex" horiz-adv-x="1352" unicode="â" d="M655 864q-127 0 -211 -89.5t-84 -229.5q0 -141 85.5 -232t210.5 -91q129 0 214 89.5t85 234.5q0 142 -85 230t-215 88zM942 1088h272v-1088h-272v115q-80 -76 -160.5 -109.5t-174.5 -33.5q-211 0 -365 163.5t-154 406.5q0 252 149 413t362 161q98 0 184 -37t159 -111v120 zM267 1287l300 283h219l298 -283h-298l-108 131l-111 -131h-300z"/>
<glyph glyph-name="atilde" horiz-adv-x="1352" unicode="ã" d="M655 864q-127 0 -211 -89.5t-84 -229.5q0 -141 85.5 -232t210.5 -91q129 0 214 89.5t85 234.5q0 142 -85 230t-215 88zM942 1088h272v-1088h-272v115q-80 -76 -160.5 -109.5t-174.5 -33.5q-211 0 -365 163.5t-154 406.5q0 252 149 413t362 161q98 0 184 -37t159 -111v120 zM369 1291l-110 165q128 99 259 99q49 0 168 -34q81 -22 129 -22q84 0 174 52l104 -156q-126 -108 -244 -108q-63 0 -151 27q-72 21 -91 25q-26 4 -62 4q-88 0 -176 -52z"/>
<glyph glyph-name="adieresis" horiz-adv-x="1352" unicode="ä" d="M655 864q-127 0 -211 -89.5t-84 -229.5q0 -141 85.5 -232t210.5 -91q129 0 214 89.5t85 234.5q0 142 -85 230t-215 88zM942 1088h272v-1088h-272v115q-80 -76 -160.5 -109.5t-174.5 -33.5q-211 0 -365 163.5t-154 406.5q0 252 149 413t362 161q98 0 184 -37t159 -111v120 zM897 1573q60 0 102 -42t42 -101q0 -60 -42 -102t-102 -42q-59 0 -101 42t-42 102q0 59 42 101t101 42zM454 1573q60 0 102 -42t42 -101q0 -60 -42 -102t-102 -42q-59 0 -101 42t-42 102q0 59 42 101t101 42z"/>
<glyph glyph-name="aring" horiz-adv-x="1352" unicode="å" d="M655 864q-127 0 -211 -89.5t-84 -229.5q0 -141 85.5 -232t210.5 -91q129 0 214 89.5t85 234.5q0 142 -85 230t-215 88zM942 1088h272v-1088h-272v115q-80 -76 -160.5 -109.5t-174.5 -33.5q-211 0 -365 163.5t-154 406.5q0 252 149 413t362 161q98 0 184 -37t159 -111v120 zM676 1605q-34 0 -58 -26t-24 -63q0 -38 24.5 -64t57.5 -26t57.5 26t24.5 64q0 37 -24 63t-58 26zM676 1734q91 0 155 -65.5t64 -157.5q0 -93 -64.5 -158.5t-154.5 -65.5t-154.5 65.5t-64.5 158.5q0 92 64 157.5t155 65.5z"/>
<glyph glyph-name="ae" horiz-adv-x="2212" unicode="æ" d="M683 868q-135 0 -225.5 -92.5t-90.5 -233.5q0 -139 88.5 -230t224.5 -91q141 0 227.5 90t86.5 239q0 138 -88.5 228t-222.5 90zM1860 676q-25 93 -101.5 150t-184.5 57q-110 0 -189 -53t-116 -154h591zM992 1088h251v-80q136 108 322 108q158 0 291 -76.5t205.5 -211.5 t72.5 -303l-2 -62h-876q24 -119 106 -186.5t212 -67.5q75 0 134.5 25t121.5 85l230 -108q-54 -79 -125 -130t-163 -80t-200 -29q-200 0 -329 106v-78h-251v138q-79 -89 -164 -127.5t-196 -38.5q-231 0 -387 162t-156 407q0 241 159.5 408t380.5 167q121 0 224 -53 q71 -36 139 -117v142z"/>
<glyph glyph-name="ccedilla" horiz-adv-x="1311" unicode="ç" d="M1203 868l-227 -125q-64 67 -126.5 93t-146.5 26q-153 0 -247.5 -91.5t-94.5 -234.5q0 -139 91 -227t239 -88q183 0 285 125l215 -147q-175 -227 -494 -227q-287 0 -449.5 170t-162.5 398q0 158 79 291t220.5 209t316.5 76q162 0 291 -64.5t211 -183.5zM570 16h169 l-12 -46q67 -15 105.5 -58.5t38.5 -95.5q0 -81 -68 -139t-189 -58q-98 0 -222 46l36 129q72 -23 141 -23q51 0 76 19.5t25 51.5q0 26 -19 41t-60 15l-56 -2z"/>
<glyph glyph-name="egrave" horiz-adv-x="1311" unicode="è" d="M954 680q-27 91 -106.5 148t-184.5 57q-114 0 -200 -64q-54 -40 -100 -141h591zM1228 465h-877q19 -116 101.5 -184.5t210.5 -68.5q153 0 263 107l230 -108q-86 -122 -206 -180.5t-285 -58.5q-256 0 -417 161.5t-161 404.5q0 249 160.5 413.5t402.5 164.5 q257 0 418 -164.5t161 -434.5zM607 1679l239 -392h-196l-366 392h323z"/>
<glyph glyph-name="eacute" horiz-adv-x="1311" unicode="é" d="M954 680q-27 91 -106.5 148t-184.5 57q-114 0 -200 -64q-54 -40 -100 -141h591zM1228 465h-877q19 -116 101.5 -184.5t210.5 -68.5q153 0 263 107l230 -108q-86 -122 -206 -180.5t-285 -58.5q-256 0 -417 161.5t-161 404.5q0 249 160.5 413.5t402.5 164.5 q257 0 418 -164.5t161 -434.5zM703 1679h323l-366 -392h-196z"/>
<glyph glyph-name="ecircumflex" horiz-adv-x="1311" unicode="ê" d="M954 680q-27 91 -106.5 148t-184.5 57q-114 0 -200 -64q-54 -40 -100 -141h591zM1228 465h-877q19 -116 101.5 -184.5t210.5 -68.5q153 0 263 107l230 -108q-86 -122 -206 -180.5t-285 -58.5q-256 0 -417 161.5t-161 404.5q0 249 160.5 413.5t402.5 164.5 q257 0 418 -164.5t161 -434.5zM247 1287l300 283h219l298 -283h-298l-108 131l-111 -131h-300z"/>
<glyph glyph-name="edieresis" horiz-adv-x="1311" unicode="ë" d="M954 680q-27 91 -106.5 148t-184.5 57q-114 0 -200 -64q-54 -40 -100 -141h591zM1228 465h-877q19 -116 101.5 -184.5t210.5 -68.5q153 0 263 107l230 -108q-86 -122 -206 -180.5t-285 -58.5q-256 0 -417 161.5t-161 404.5q0 249 160.5 413.5t402.5 164.5 q257 0 418 -164.5t161 -434.5zM877 1573q60 0 102 -42t42 -101q0 -60 -42 -102t-102 -42q-59 0 -101 42t-42 102q0 59 42 101t101 42zM434 1573q60 0 102 -42t42 -101q0 -60 -42 -102t-102 -42q-59 0 -101 42t-42 102q0 59 42 101t101 42z"/>
<glyph glyph-name="igrave" horiz-adv-x="491" unicode="ì" d="M108 1088h274v-1088h-274v1088zM198 1679l239 -392h-196l-366 392h323z"/>
<glyph glyph-name="iacute" horiz-adv-x="491" unicode="í" d="M108 1088h274v-1088h-274v1088zM294 1679h323l-366 -392h-196z"/>
<glyph glyph-name="icircumflex" horiz-adv-x="491" unicode="î" d="M108 1088h274v-1088h-274v1088zM-163 1287l300 283h219l298 -283h-298l-108 131l-111 -131h-300z"/>
<glyph glyph-name="idieresis" horiz-adv-x="491" unicode="ï" d="M108 1088h274v-1088h-274v1088zM467 1573q60 0 102 -42t42 -101q0 -60 -42 -102t-102 -42q-59 0 -101 42t-42 102q0 59 42 101t101 42zM24 1573q60 0 102 -42t42 -101q0 -60 -42 -102t-102 -42q-59 0 -101 42t-42 102q0 59 42 101t101 42z"/>
<glyph glyph-name="eth" horiz-adv-x="1311" unicode="ð" d="M657 858q-129 0 -213 -87t-84 -227q0 -142 82.5 -230t210.5 -88q129 0 215 89t86 228q0 138 -84 226.5t-213 88.5zM384 1508h265l82 -60l199 60l50 -157l-104 -34q172 -159 264 -351t92 -384q0 -267 -166.5 -438.5t-412.5 -171.5q-235 0 -400.5 167t-165.5 405 q0 252 186 425q158 147 352 147q63 0 128 -28q-27 64 -104 159l-265 -82l-51 159l192 61q-96 89 -141 123z"/>
<glyph glyph-name="ntilde" horiz-adv-x="1229" unicode="ñ" d="M138 1088h272v-111q93 78 168.5 108.5t154.5 30.5q162 0 275 -113q95 -96 95 -284v-719h-270v477q0 195 -17.5 259t-61 97.5t-107.5 33.5q-83 0 -142.5 -55.5t-82.5 -153.5q-12 -51 -12 -221v-437h-272v1088zM308 1291l-110 165q128 99 259 99q49 0 168 -34 q81 -22 129 -22q84 0 174 52l104 -156q-126 -108 -244 -108q-63 0 -151 27q-72 21 -91 25q-26 4 -62 4q-88 0 -176 -52z"/>
<glyph glyph-name="ograve" horiz-adv-x="1311" unicode="ò" d="M653 859q-127 0 -211.5 -88.5t-84.5 -226.5q0 -142 83.5 -230t211.5 -88t213 89t85 229t-83.5 227.5t-213.5 87.5zM649 1116q154 0 289.5 -77t211.5 -209t76 -285q0 -154 -76.5 -288t-208.5 -209.5t-291 -75.5q-234 0 -399.5 166.5t-165.5 404.5q0 255 187 425 q164 148 377 148zM607 1679l239 -392h-196l-366 392h323z"/>
<glyph glyph-name="oacute" horiz-adv-x="1311" unicode="ó" d="M653 859q-127 0 -211.5 -88.5t-84.5 -226.5q0 -142 83.5 -230t211.5 -88t213 89t85 229t-83.5 227.5t-213.5 87.5zM649 1116q154 0 289.5 -77t211.5 -209t76 -285q0 -154 -76.5 -288t-208.5 -209.5t-291 -75.5q-234 0 -399.5 166.5t-165.5 404.5q0 255 187 425 q164 148 377 148zM703 1679h323l-366 -392h-196z"/>
<glyph glyph-name="ocircumflex" horiz-adv-x="1311" unicode="ô" d="M653 859q-127 0 -211.5 -88.5t-84.5 -226.5q0 -142 83.5 -230t211.5 -88t213 89t85 229t-83.5 227.5t-213.5 87.5zM649 1116q154 0 289.5 -77t211.5 -209t76 -285q0 -154 -76.5 -288t-208.5 -209.5t-291 -75.5q-234 0 -399.5 166.5t-165.5 404.5q0 255 187 425 q164 148 377 148zM247 1287l300 283h219l298 -283h-298l-108 131l-111 -131h-300z"/>
<glyph glyph-name="otilde" horiz-adv-x="1311" unicode="õ" d="M653 859q-127 0 -211.5 -88.5t-84.5 -226.5q0 -142 83.5 -230t211.5 -88t213 89t85 229t-83.5 227.5t-213.5 87.5zM649 1116q154 0 289.5 -77t211.5 -209t76 -285q0 -154 -76.5 -288t-208.5 -209.5t-291 -75.5q-234 0 -399.5 166.5t-165.5 404.5q0 255 187 425 q164 148 377 148zM349 1291l-110 165q128 99 259 99q49 0 168 -34q81 -22 129 -22q84 0 174 52l104 -156q-126 -108 -244 -108q-63 0 -151 27q-72 21 -91 25q-26 4 -62 4q-88 0 -176 -52z"/>
<glyph glyph-name="odieresis" horiz-adv-x="1311" unicode="ö" d="M653 859q-127 0 -211.5 -88.5t-84.5 -226.5q0 -142 83.5 -230t211.5 -88t213 89t85 229t-83.5 227.5t-213.5 87.5zM649 1116q154 0 289.5 -77t211.5 -209t76 -285q0 -154 -76.5 -288t-208.5 -209.5t-291 -75.5q-234 0 -399.5 166.5t-165.5 404.5q0 255 187 425 q164 148 377 148zM876 1573q60 0 102 -42t42 -101q0 -60 -42 -102t-102 -42q-59 0 -101 42t-42 102q0 59 42 101t101 42zM433 1573q60 0 102 -42t42 -101q0 -60 -42 -102t-102 -42q-59 0 -101 42t-42 102q0 59 42 101t101 42z"/>
<glyph glyph-name="divide" horiz-adv-x="1124" unicode="÷" d="M401 466h322v-321h-322v321zM62 860h999v-250h-999v250zM401 1326h322v-321h-322v321z"/>
<glyph glyph-name="oslash" horiz-adv-x="1352" unicode="ø" d="M939 696l-395 -441q63 -29 131 -29q126 0 211 89t85 229q0 82 -32 152zM423 367l406 453q-68 39 -154 39q-127 0 -212 -88.5t-85 -226.5q0 -94 45 -177zM1123 900q124 -160 124 -355q0 -154 -76.5 -288t-208.5 -209.5t-290 -75.5q-168 0 -303 88l-130 -145l-125 107 l130 146q-138 159 -138 375q0 254 186 423q164 150 379 150q178 0 331 -103l126 140l123 -110z"/>
<glyph glyph-name="ugrave" horiz-adv-x="1229" unicode="ù" d="M137 1088h276v-524q0 -153 21 -212.5t67.5 -92.5t114.5 -33t115.5 32.5t70.5 95.5q17 47 17 201v533h274v-461q0 -285 -45 -390q-55 -128 -162 -196.5t-272 -68.5q-179 0 -289.5 80t-155.5 223q-32 99 -32 360v453zM567 1679l239 -392h-196l-366 392h323z"/>
<glyph glyph-name="uacute" horiz-adv-x="1229" unicode="ú" d="M137 1088h276v-524q0 -153 21 -212.5t67.5 -92.5t114.5 -33t115.5 32.5t70.5 95.5q17 47 17 201v533h274v-461q0 -285 -45 -390q-55 -128 -162 -196.5t-272 -68.5q-179 0 -289.5 80t-155.5 223q-32 99 -32 360v453zM663 1679h323l-366 -392h-196z"/>
<glyph glyph-name="ucircumflex" horiz-adv-x="1229" unicode="û" d="M137 1088h276v-524q0 -153 21 -212.5t67.5 -92.5t114.5 -33t115.5 32.5t70.5 95.5q17 47 17 201v533h274v-461q0 -285 -45 -390q-55 -128 -162 -196.5t-272 -68.5q-179 0 -289.5 80t-155.5 223q-32 99 -32 360v453zM206 1287l300 283h219l298 -283h-298l-108 131 l-111 -131h-300z"/>
<glyph glyph-name="udieresis" horiz-adv-x="1229" unicode="ü" d="M137 1088h276v-524q0 -153 21 -212.5t67.5 -92.5t114.5 -33t115.5 32.5t70.5 95.5q17 47 17 201v533h274v-461q0 -285 -45 -390q-55 -128 -162 -196.5t-272 -68.5q-179 0 -289.5 80t-155.5 223q-32 99 -32 360v453zM836 1573q60 0 102 -42t42 -101q0 -60 -42 -102 t-102 -42q-59 0 -101 42t-42 102q0 59 42 101t101 42zM393 1573q60 0 102 -42t42 -101q0 -60 -42 -102t-102 -42q-59 0 -101 42t-42 102q0 59 42 101t101 42z"/>
<glyph glyph-name="yacute" horiz-adv-x="1188" unicode="ý" d="M17 1088h279l283 -683l312 683h280l-682 -1486h-282l224 479zM641 1679h323l-366 -392h-196z"/>
<glyph glyph-name="thorn" horiz-adv-x="1352" unicode="þ" d="M696 864q-129 0 -214 -88t-85 -230q0 -145 85 -234.5t214 -89.5q125 0 210.5 91t85.5 232q0 140 -84 229.5t-212 89.5zM409 1508v-540q74 74 160 111t184 37q213 0 362 -161t149 -413q0 -243 -154 -406.5t-365 -163.5q-94 0 -175 33.5t-161 109.5v-513h-271v1906h271z "/>
<glyph glyph-name="dotlessi" horiz-adv-x="491" unicode="ı" d="M108 1088h274v-1088h-274v1088z"/>
<glyph glyph-name="OE" horiz-adv-x="2171" unicode="Œ" d="M835 1239q-186 0 -322 -144.5t-136 -358.5q0 -147 62 -261t174 -179t242 -65q188 0 318.5 140t130.5 356q0 145 -61.5 262t-172.5 183.5t-235 66.5zM1305 1471h777v-275h-494v-267h494v-268h-494v-387h494v-274h-777v135q-100 -89 -213.5 -130.5t-251.5 -41.5 q-210 0 -379 98t-268 277.5t-99 394.5q0 214 98.5 392t274 280.5t375.5 102.5q125 0 240 -40.5t223 -127.5v131z"/>
<glyph glyph-name="oe" horiz-adv-x="2212" unicode="œ" d="M666 869q-88 0 -159 -41.5t-111.5 -117.5t-40.5 -168q0 -91 39.5 -167t108 -116.5t156.5 -40.5q136 0 223.5 90.5t87.5 237.5q0 138 -88.5 230.5t-215.5 92.5zM1860 675q-31 99 -109.5 152.5t-187.5 53.5q-110 0 -193.5 -57t-110.5 -149h601zM2131 461h-881 q17 -114 101.5 -183.5t213.5 -69.5q141 0 254 102l237 -108q-94 -117 -215.5 -173.5t-278.5 -56.5q-293 0 -452 208q-84 -104 -196 -156t-251 -52q-247 0 -414 166.5t-167 407.5q0 233 170.5 401.5t410.5 168.5q92 0 178.5 -26t158.5 -75q54 -36 110 -110q172 211 450 211 q172 0 303 -79t199.5 -215.5t68.5 -348.5v-12z"/>
<glyph glyph-name="Scaron" horiz-adv-x="1065" unicode="Š" d="M939 1271l-207 -183q-109 152 -222 152q-55 0 -90 -29.5t-35 -66.5t25 -70q34 -44 205 -189q160 -134 194 -169q85 -86 120.5 -164.5t35.5 -171.5q0 -181 -125 -299t-326 -118q-157 0 -273.5 77t-199.5 242l235 142q106 -195 244 -195q72 0 121 42t49 97q0 50 -37 100 t-163 153q-240 196 -310 302.5t-70 212.5q0 153 116.5 262.5t287.5 109.5q110 0 209.5 -51t215.5 -186zM124 1868h300l111 -132l108 132h298l-298 -283h-219z"/>
<glyph glyph-name="scaron" horiz-adv-x="901" unicode="š" d="M804 936l-169 -169q-103 102 -187 102q-46 0 -72 -19.5t-26 -48.5q0 -22 16.5 -40.5t81.5 -50.5l100 -50q158 -78 217 -159t59 -190q0 -145 -106.5 -242t-285.5 -97q-238 0 -380 186l168 183q48 -56 112.5 -90.5t114.5 -34.5q54 0 87 26t33 60q0 63 -119 123l-92 46 q-264 133 -264 333q0 129 99.5 220.5t254.5 91.5q106 0 199.5 -46.5t158.5 -133.5zM42 1570h300l111 -132l108 132h298l-298 -283h-219z"/>
<glyph glyph-name="Ydieresis" horiz-adv-x="1270" unicode="Ÿ" d="M63 1471h301l274 -528l272 528h297l-430 -834v-637h-282v637zM866 1871q60 0 102 -42t42 -101q0 -60 -42 -102t-102 -42q-59 0 -101 42t-42 102q0 59 42 101t101 42zM423 1871q60 0 102 -42t42 -101q0 -60 -42 -102t-102 -42q-59 0 -101 42t-42 102q0 59 42 101t101 42z "/>
<glyph glyph-name="circumflex" horiz-adv-x="1106" unicode="ˆ" d="M144 1287l300 283h219l298 -283h-298l-108 131l-111 -131h-300z"/>
<glyph glyph-name="caron" horiz-adv-x="1106" unicode="ˇ" d="M144 1570h300l111 -132l108 132h298l-298 -283h-219z"/>
<glyph glyph-name="ring" horiz-adv-x="737" unicode="˚" d="M368 1605q-34 0 -58 -26t-24 -63q0 -38 24.5 -64t57.5 -26t57.5 26t24.5 64q0 37 -24 63t-58 26zM368 1734q91 0 155 -65.5t64 -157.5q0 -93 -64.5 -158.5t-154.5 -65.5t-154.5 65.5t-64.5 158.5q0 92 64 157.5t155 65.5z"/>
<glyph glyph-name="tilde" horiz-adv-x="983" unicode="˜" d="M185 1291l-110 165q128 99 259 99q49 0 168 -34q81 -22 129 -22q84 0 174 52l104 -156q-126 -108 -244 -108q-63 0 -151 27q-72 21 -91 25q-26 4 -62 4q-88 0 -176 -52z"/>
<glyph glyph-name="Alpha" horiz-adv-x="1515" unicode="Α" d="M760 1081l-196 -505h391zM616 1471h284l566 -1471h-291l-115 303h-600l-120 -303h-291z"/>
<glyph glyph-name="Beta" horiz-adv-x="1188" unicode="Β" d="M448 644v-377h70q174 0 234.5 44t60.5 128q0 95 -71 150t-236 55h-58zM448 1204v-310h61q102 0 151.5 43t49.5 117q0 69 -47 109.5t-143 40.5h-72zM168 0v1471h231q201 0 294 -26q132 -35 210 -130t78 -224q0 -84 -35.5 -152.5t-115.5 -128.5q134 -63 196 -157.5 t62 -223.5q0 -124 -64 -226t-165 -152.5t-279 -50.5h-412z"/>
<glyph glyph-name="Gamma" horiz-adv-x="948" unicode="Γ" d="M167 1471h730v-274h-453v-1197h-277v1471z"/>
<glyph glyph-name="Delta" horiz-adv-x="1515" unicode="Δ" d="M1117 275l-360 806l-357 -806h717zM1444 0h-1368v235l557 1236h251l560 -1236v-235z"/>
<glyph glyph-name="Epsilon" horiz-adv-x="1065" unicode="Ε" d="M169 1471h803v-274h-525v-266h525v-269h-525v-387h525v-275h-803v1471z"/>
<glyph glyph-name="Zeta" horiz-adv-x="1024" unicode="Ζ" d="M90 1471h890l-525 -1202h491v-269h-899l523 1194h-480v277z"/>
<glyph glyph-name="Eta" horiz-adv-x="1393" unicode="Η" d="M167 1471h284v-555h492v555h283v-1471h-283v645h-492v-645h-284v1471z"/>
<glyph glyph-name="Theta" horiz-adv-x="1720" unicode="Θ" d="M598 876h526v-269h-526v269zM378 731q0 -223 145.5 -360t341.5 -137q204 0 341.5 145.5t137.5 353.5q0 209 -139.5 355t-344.5 146q-209 0 -345.5 -143.5t-136.5 -359.5zM1624 731q0 -322 -219.5 -545t-539.5 -223q-325 0 -547 224t-222 549q0 326 226.5 549t540.5 223 q317 0 539 -226t222 -551z"/>
<glyph glyph-name="Iota" horiz-adv-x="573" unicode="Ι" d="M148 1471h278v-1471h-278v1471z"/>
<glyph glyph-name="Kappa" horiz-adv-x="1270" unicode="Κ" d="M170 1471h283v-506l399 506h337l-514 -656l564 -815h-332l-454 653v-653h-283v1471z"/>
<glyph glyph-name="Lambda" horiz-adv-x="1421" unicode="Λ" d="M1120 0l-407 1081l-414 -1081h-297l567 1471h284l566 -1471h-299z"/>
<glyph glyph-name="Mu" horiz-adv-x="1843" unicode="Μ" d="M310 1471h274l340 -1026l345 1026h270l248 -1471h-270l-158 929l-313 -929h-247l-309 929l-161 -929h-273z"/>
<glyph glyph-name="Nu" horiz-adv-x="1515" unicode="Ν" d="M169 1471h268l631 -968v968h280v-1471h-269l-630 965v-965h-280v1471z"/>
<glyph glyph-name="Xi" horiz-adv-x="1083" unicode="Ξ" d="M973 0h-863v275h863v-275zM973 662h-863v269h863v-269zM973 1197h-863v274h863v-274z"/>
<glyph glyph-name="Omicron" horiz-adv-x="1720" unicode="Ο" d="M860 1234q-204 0 -343 -142t-139 -361q0 -244 175 -386q136 -111 312 -111q199 0 339 144t140 355q0 210 -141 355.5t-343 145.5zM863 1508q312 0 536.5 -226t224.5 -551q0 -322 -221.5 -545t-537.5 -223q-331 0 -550 229t-219 544q0 211 102 388t280.5 280.5 t384.5 103.5z"/>
<glyph glyph-name="Pi" horiz-adv-x="1393" unicode="Π" d="M167 1471h1059v-1471h-283v1209h-492v-1209h-284v1471z"/>
<glyph glyph-name="Rho" d="M447 896h89q105 0 146 15t64.5 49.5t23.5 83.5q0 85 -66 124q-48 29 -178 29h-79v-301zM167 1471h297q241 0 347.5 -44.5t168 -144t61.5 -238.5q0 -154 -80.5 -256t-218.5 -142q-81 -23 -295 -23v-623h-280v1471z" unicode="Ρ"/>
<glyph glyph-name="Sigma" horiz-adv-x="1027" unicode="Σ" d="M26 0l388 734l-382 737h902v-274h-458l242 -464l-245 -458h474v-275h-921z"/>
<glyph glyph-name="Tau" horiz-adv-x="860" unicode="Τ" d="M23 1471h813v-276h-268v-1195h-284v1195h-261v276z"/>
<glyph glyph-name="Upsilon" horiz-adv-x="1270" unicode="Υ" d="M63 1471h301l274 -528l272 528h297l-430 -834v-637h-282v637z"/>
<glyph glyph-name="Phi" horiz-adv-x="1760" unicode="Φ" d="M738 1084q-376 -33 -376 -340q0 -302 376 -339v679zM1022 1084v-679q376 34 376 340q0 303 -376 339zM1022 148v-148h-284v148q-313 30 -487 184.5t-174 410.5q0 255 186.5 417.5t474.5 179.5v131h284v-131q299 -22 480 -180.5t181 -414.5q0 -274 -176 -431t-485 -166z "/>
<glyph glyph-name="Chi" horiz-adv-x="1393" unicode="Χ" d="M72 1471h315l308 -471l311 471h315l-468 -712l497 -759h-315l-340 517l-337 -517h-317l497 759z"/>
<glyph glyph-name="Psi" horiz-adv-x="1682" unicode="Ψ" d="M981 369v-369h-280v369q-571 68 -571 602v500h281v-467q0 -196 65.5 -273.5t224.5 -101.5v842h280v-843q161 27 225.5 103t64.5 273v467h281v-509q0 -524 -571 -593z"/>
<glyph glyph-name="alpha" horiz-adv-x="1352" unicode="α" d="M655 864q-127 0 -211 -89.5t-84 -229.5q0 -141 85.5 -232t210.5 -91q129 0 214 89.5t85 234.5q0 142 -85 230t-215 88zM942 1088h272v-1088h-272v115q-80 -76 -160.5 -109.5t-174.5 -33.5q-211 0 -365 163.5t-154 406.5q0 252 149 413t362 161q98 0 184 -37t159 -111v120 z"/>
<glyph glyph-name="beta" horiz-adv-x="1267" unicode="β" d="M528 716v231q207 31 207 191q0 65 -38.5 106.5t-103.5 41.5q-191 0 -191 -265v-538q0 -120 65.5 -190t186.5 -70q113 0 184.5 63t71.5 166q0 264 -375 264h-7zM402 83v-481h-272v1470q0 210 123 337t330 127q191 0 307.5 -104t116.5 -263q0 -158 -161 -274 q336 -101 336 -414q0 -230 -137 -369t-357 -139q-179 0 -286 110z"/>
<glyph glyph-name="gamma" d="M710 114v-512h-274v511l-415 975h278l275 -642l274 642h277z" unicode="γ"/>
<glyph glyph-name="delta" horiz-adv-x="1228" unicode="δ" d="M614 739q-107 0 -182 -76.5t-75 -185.5t73.5 -183.5t183.5 -74.5t183.5 74.5t73.5 183.5q0 110 -76 186t-181 76zM397 898q-145 113 -145 263q0 176 127.5 275.5t328.5 99.5q130 0 308 -43l-71 -246q-134 34 -226 34q-195 0 -195 -117q0 -69 58 -106.5t194 -90.5 q367 -143 367 -487q0 -214 -154.5 -361t-374.5 -147q-219 0 -374 145t-155 343q0 310 312 438z"/>
<glyph glyph-name="epsilon" horiz-adv-x="897" unicode="ε" d="M880 96q-144 -124 -365 -124q-187 0 -308 90t-121 248q0 196 203 271q-152 88 -152 230q0 140 104.5 222.5t263.5 82.5q173 0 314 -112l-108 -188q-101 65 -168 65q-55 0 -90.5 -33t-35.5 -82q0 -110 137 -110h54v-195h-71q-62 0 -103 -35.5t-41 -91.5t42.5 -88 t109.5 -32q97 0 213 91z"/>
<glyph glyph-name="zeta" horiz-adv-x="974" unicode="ζ" d="M340 -393l58 241q77 -31 174 -31q136 0 136 89q0 63 -69 85q-201 46 -312 95.5t-181 164t-70 281.5q0 177 110.5 340t387.5 381h-408v255h785v-227q-309 -218 -456 -392t-147 -347q0 -124 55 -175t212 -93q229 -61 294 -144.5t65 -207.5q0 -167 -111 -257.5t-292 -90.5 q-98 0 -231 33z"/>
<glyph glyph-name="eta" horiz-adv-x="1229" unicode="η" d="M138 1088h272v-111q165 139 323 139q150 0 260 -98t110 -299v-1117h-270v875q0 148 -9 221.5t-54.5 121t-122.5 47.5q-85 0 -140.5 -49t-76 -127t-20.5 -254v-437h-272v1088z"/>
<glyph glyph-name="theta" horiz-adv-x="1341" unicode="θ" d="M973 625h-610q41 -399 304 -399q266 0 306 399zM363 880h612q-37 402 -307 402q-266 0 -305 -402zM665 -28q-280 0 -430 206.5t-150 573.5q0 358 153.5 571t430.5 213q287 0 437 -203t150 -578q0 -376 -151 -579.5t-440 -203.5z"/>
<glyph glyph-name="iota" horiz-adv-x="491" unicode="ι" d="M108 1088h274v-1088h-274v1088z"/>
<glyph glyph-name="kappa" horiz-adv-x="1188" unicode="κ" d="M140 1089h273v-450l402 449h342l-468 -522l525 -566h-339l-462 501v-501h-273v1089z"/>
<glyph glyph-name="lambda" horiz-adv-x="1188" unicode="λ" d="M1171 0h-280l-312 683l-283 -683h-279l414 1007l-234 501h282z"/>
<glyph glyph-name="mu" horiz-adv-x="1229" unicode="μ" d="M1097 0h-272v111q-130 -130 -266 -130q-100 0 -157 63v-442h-270v1486h270v-477q0 -148 9 -221.5t54.5 -121t122.5 -47.5q85 0 140.5 49t76 127t20.5 254v437h272v-1088z"/>
<glyph glyph-name="nu" d="M21 1088h278l275 -642l274 642h277l-463 -1088h-177z" unicode="ν"/>
<glyph glyph-name="xi" horiz-adv-x="974" unicode="ξ" d="M340 -392l58 240q86 -31 175 -31q135 0 135 88q0 41 -33.5 59.5t-182.5 55.5q-416 99 -416 440q0 273 251 411q-176 108 -176 304q0 175 128 268t340 93q156 0 320 -46l-74 -244q-126 34 -254 34q-188 0 -188 -144q0 -79 79.5 -123t207.5 -44h147v-255h-226 q-133 0 -208 -59t-75 -168q0 -90 54 -134.5t217 -87.5q232 -61 293.5 -142.5t61.5 -200.5q0 -168 -111.5 -258t-296.5 -90q-100 0 -226 34z"/>
<glyph glyph-name="omicron" horiz-adv-x="1311" unicode="ο" d="M653 859q-127 0 -211.5 -88.5t-84.5 -226.5q0 -142 83.5 -230t211.5 -88t213 89t85 229t-83.5 227.5t-213.5 87.5zM649 1116q154 0 289.5 -77t211.5 -209t76 -285q0 -154 -76.5 -288t-208.5 -209.5t-291 -75.5q-234 0 -399.5 166.5t-165.5 404.5q0 255 187 425 q164 148 377 148z"/>
<glyph glyph-name="pi" horiz-adv-x="1382" unicode="π" d="M1322 833h-180v-833h-272v833h-368v-833h-272v833h-170v255h1262v-255z"/>
<glyph glyph-name="rho" horiz-adv-x="1336" unicode="ρ" d="M382 544q0 -139 81.5 -228.5t213.5 -89.5q131 0 214.5 90t83.5 228q0 139 -82 227t-215 88q-128 0 -212 -88.5t-84 -226.5zM384 127v-525h-274v941q0 237 164 405t400 168q237 0 407 -166t170 -405q0 -249 -149 -411t-383 -162q-186 0 -335 155z"/>
<glyph glyph-name="sigma1" horiz-adv-x="1199" unicode="ς" d="M1171 868l-227 -125q-124 119 -274 119q-138 0 -223.5 -73.5t-85.5 -206.5q0 -117 71.5 -188t260.5 -125q216 -62 287.5 -143.5t71.5 -203.5q0 -167 -111 -257.5t-292 -90.5q-98 0 -231 33l58 241q74 -31 174 -31q77 0 106.5 20t29.5 69q0 63 -150 98 q-296 69 -423.5 202.5t-127.5 349.5q0 261 162.5 410.5t432.5 149.5q142 0 276.5 -66t214.5 -182z"/>
<glyph glyph-name="sigma" horiz-adv-x="1468" unicode="σ" d="M653 859q-131 0 -213.5 -90t-82.5 -225q0 -139 81.5 -228.5t213.5 -89.5q131 0 214.5 90t83.5 228q0 139 -82 227t-215 88zM1408 833h-272q90 -98 90 -288q0 -235 -165 -404t-411 -169q-236 0 -400.5 166t-164.5 405q0 243 169 408t395 165q93 0 179 -28h580v-255z"/>
<glyph glyph-name="tau" horiz-adv-x="852" unicode="τ" d="M792 833h-230v-833h-272v833h-230v255h732v-255z"/>
<glyph glyph-name="upsilon" horiz-adv-x="1229" unicode="υ" d="M110 1089h272v-512q0 -203 58 -277t180 -74q254 0 254 298q0 239 -270 369l148 227q392 -216 392 -599q0 -237 -139.5 -393t-384.5 -156q-165 0 -275.5 57.5t-172.5 174t-62 348.5v537z"/>
<glyph glyph-name="phi" horiz-adv-x="1632" unicode="φ" d="M947 857v-625q328 44 328 311q0 293 -328 314zM947 -23v-375h-272v376q-590 61 -590 568q0 171 107.5 320t301.5 242l76 -265q-213 -124 -213 -300q0 -138 74.5 -211t243.5 -100v877q77 7 139 7q342 0 537.5 -149.5t195.5 -420.5q0 -486 -600 -569z"/>
<glyph glyph-name="chi" d="M1100 1088l-381 -702l427 -784h-302l-273 530l-272 -530h-298l423 780l-384 706h302l230 -452l229 452h299z" unicode="χ"/>
<glyph glyph-name="psi" horiz-adv-x="1560" unicode="ψ" d="M916 -22v-376h-272v376q-534 60 -534 578v532h272v-460q0 -234 66.5 -302t195.5 -84v846h272v-847q163 23 212.5 106t49.5 281v460h272v-541q0 -507 -534 -569z"/>
<glyph glyph-name="endash" horiz-adv-x="1024" unicode="–" d="M-12 469v242h1048v-242h-1048z"/>
<glyph glyph-name="emdash" horiz-adv-x="2048" unicode="—" d="M-12 469v242h2072v-242h-2072z"/>
<glyph glyph-name="quoteleft" horiz-adv-x="573" unicode="‘" d="M419 947h-252v139q0 131 32.5 226.5t109.5 195.5l98 -77q-37 -54 -54.5 -93t-34.5 -104h101v-287z"/>
<glyph glyph-name="quotesinglbase" horiz-adv-x="573" unicode="‚" d="M155 286h252v-138q0 -132 -32.5 -227t-109.5 -195l-98 76q37 55 54.5 94t34.5 104h-101v286z"/>
<glyph glyph-name="quotedblleft" horiz-adv-x="983" unicode="“" d="M823 947h-252v139q0 131 32 226.5t110 195.5l98 -77q-37 -54 -54.5 -93t-34.5 -104h101v-287zM415 947h-252v139q0 131 32.5 226.5t109.5 195.5l98 -77q-37 -54 -54.5 -93t-34.5 -104h101v-287z"/>
<glyph glyph-name="quotedblright" horiz-adv-x="983" unicode="”" d="M160 1508h252v-138q0 -132 -32.5 -227t-109.5 -196l-98 77q37 54 54.5 93.5t34.5 104.5h-101v286zM568 1508h252v-138q0 -132 -32.5 -227t-110.5 -196l-97 77q37 54 54.5 93.5t33.5 104.5h-100v286z"/>
<glyph glyph-name="dagger" d="M442 1508h267l-48 -548l453 49v-271l-453 55l48 -1191h-267l50 1191l-452 -55v271l452 -49z" unicode="†"/>
<glyph glyph-name="daggerdbl" d="M439 1508h269l-51 -468l454 48v-269l-454 53l51 -324l-51 -321l454 55v-274l-454 53l51 -459h-269l49 459l-449 -53v274l449 -55l-49 321l49 324l-449 -53v269l449 -48z" unicode="‡"/>
<glyph glyph-name="ellipsis" horiz-adv-x="2048" unicode="…" d="M1706 285q65 0 111 -45.5t46 -110.5t-46 -111t-111 -46t-111 46t-46 111t46 110.5t111 45.5zM341 285q65 0 111 -45.5t46 -110.5t-46 -111t-111 -46t-111 46t-46 111t46 110.5t111 45.5zM1023 285q65 0 111 -45.5t46 -110.5t-46 -111t-111 -46t-110.5 46t-45.5 111 t45.5 110.5t110.5 45.5z"/>
<glyph glyph-name="perthousand" horiz-adv-x="2621" unicode="‰" d="M1366 482q-71 0 -120.5 -50t-49.5 -120t49.5 -120t120.5 -50q70 0 119.5 50t49.5 120t-49.5 120t-119.5 50zM1367 663q145 0 248 -103t103 -249q0 -145 -103 -248t-248 -103q-146 0 -248.5 103t-102.5 248q0 146 102.5 249t248.5 103zM2228 482q-70 0 -120 -50t-50 -120 t50 -120t120 -50q71 0 120.5 50t49.5 120t-49.5 120t-120.5 50zM2229 663q146 0 248.5 -103t102.5 -249q0 -145 -102.5 -248t-248.5 -103q-145 0 -248 103t-103 248q0 146 103 249t248 103zM392 1325q-70 0 -119.5 -49.5t-49.5 -118.5q0 -70 49.5 -119.5t119.5 -49.5 t119.5 49.5t49.5 119.5t-49.5 119t-119.5 49zM1351 1536h202l-1166 -1636h-202l997 1405q-90 -15 -169 -22.5t-146 -7.5q-69 0 -146 7q22 -70 22 -127q0 -146 -101.5 -248t-247.5 -102q-147 0 -250 102t-103 247q0 94 46 174.5t129.5 130t165.5 49.5q62 0 171 -24 q193 -42 340 -42q133 0 247.5 23.5t210.5 70.5z"/>
<glyph glyph-name="minute" horiz-adv-x="451" unicode="′" d="M287 1004h-156l16 504h266z"/>
<glyph glyph-name="second" horiz-adv-x="737" unicode="″" d="M225 1004h-156l16 504h267zM636 1004h-156l16 504h267z"/>
<glyph glyph-name="guilsinglleft" horiz-adv-x="491" unicode="‹" d="M210 1088h255l-185 -548l185 -540h-255l-183 540z"/>
<glyph glyph-name="guilsinglright" horiz-adv-x="491" unicode="›" d="M282 0h-255l185 548l-185 540h255l183 -540z"/>
<glyph glyph-name="radicalex" d="M-42 1869h1231v-74h-1231v74z" unicode="‾"/>
<glyph glyph-name="fraction" horiz-adv-x="328" unicode="⁄" d="M-235 -37l626 1545h171l-626 -1545h-171z"/>
<glyph glyph-name="fraction" horiz-adv-x="328" unicode="∕" d="M-235 -37l626 1545h171l-626 -1545h-171z"/>
<glyph glyph-name="Euro" d="M449 508q60 -132 182 -204.5t276 -72.5q99 0 203 41v-282q-92 -27 -207 -27q-273 0 -475 144t-274 401h-144l39 164h78q-2 19 -2 65q0 43 2 62h-117l41 164h105q75 254 282.5 399t468.5 145q102 0 203 -30l-61 -263q-77 25 -148 25q-144 0 -265 -73t-185 -203h538 l-37 -164h-549q-4 -40 -4 -62q0 -25 4 -65h519l-39 -164h-434z" unicode="€"/>
<glyph glyph-name="trademark" horiz-adv-x="2048" unicode="™" d="M809 1471v-147h-262v-693h-182v693h-264v147h708zM1905 1471v-840h-176v691l-275 -691h-88l-266 691v-691h-176v840h267l219 -540l230 540h265z"/>
<glyph glyph-name="arrowleft" horiz-adv-x="2048" unicode="←" d="M492 876h76q-81 -170 -195 -309h1595v-101h-1595q102 -102 198 -309h-78q-223 253 -414 341v45q177 71 413 333z"/>
<glyph glyph-name="arrowup" horiz-adv-x="1024" unicode="↑" d="M153 1050q262 236 333 413h46q87 -192 340 -415v-77q-207 96 -309 197v-1597h-101v1597q-139 -114 -309 -195v77z"/>
<glyph glyph-name="arrowright" horiz-adv-x="2048" unicode="→" d="M1555 876q237 -262 413 -333v-45q-191 -88 -414 -341h-77q95 207 197 309h-1595v101h1595q-114 139 -195 309h76z"/>
<glyph glyph-name="arrowdown" horiz-adv-x="1024" unicode="↓" d="M153 -16v76q170 -81 309 -195v1598h101v-1598q102 102 309 197v-77q-253 -223 -340 -414h-46q-71 176 -333 413z"/>
<glyph glyph-name="partialdiff" horiz-adv-x="1012" unicode="∂" d="M815 758l-44 1q-141 0 -256.5 -56t-178 -157t-62.5 -208q0 -76 41.5 -124.5t99.5 -48.5q130 0 245.5 151.5t154.5 441.5zM380 1123l-137 84q52 141 150 212.5t220 71.5q104 0 185 -57t130.5 -180t49.5 -311q0 -292 -102 -560q-77 -202 -218 -305t-302 -103 q-139 0 -225 92.5t-86 261.5q0 166 89.5 306.5t258.5 224t393 83.5l41 -1q-1 192 -62.5 279.5t-156.5 87.5q-67 0 -119 -38t-109 -148z"/>
<glyph glyph-name="product" horiz-adv-x="1685" unicode="∏" d="M162 1508h1362v-1906h-191v1732h-978v-1732h-193v1906z"/>
<glyph glyph-name="summation" horiz-adv-x="1460" unicode="∑" d="M139 1508h1237v-164h-988l607 -775l-649 -806h1040v-161h-1264v187l620 772l-603 772v175z"/>
<glyph glyph-name="minus" horiz-adv-x="1229" unicode="−" d="M115 860h999v-250h-999v250z"/>
<glyph glyph-name="radical" horiz-adv-x="1124" unicode="√" d="M1047 1869h74l-312 -1947l-496 1021l-198 -91l-34 64l301 151l405 -823z"/>
<glyph glyph-name="infinity" horiz-adv-x="1460" unicode="∞" d="M593 726q-100 141 -190 141q-47 0 -80 -37.5t-33 -102.5q0 -67 32.5 -105.5t80.5 -38.5q40 0 73 23q52 36 117 120zM772 724q84 -129 118 -158q53 -45 115 -45q75 0 116.5 58t41.5 147q0 92 -44 145t-111 53q-54 0 -105.5 -38.5t-130.5 -161.5zM679 843q77 126 155 177 t168 51q133 0 220 -94t87 -255t-87 -255t-220 -94q-90 0 -167.5 50.5t-155.5 177.5q-59 -82 -137 -127t-150 -45q-103 0 -172.5 80t-69.5 213t69.5 212.5t172.5 79.5q72 0 150 -44.5t137 -126.5z"/>
<glyph glyph-name="intersection" horiz-adv-x="1206" unicode="∩" d="M239 0h-110v621l2 238q1 116 18.5 209t58.5 169t106 135.5t139.5 89.5t149.5 30q118 0 225 -68.5t165 -174t71.5 -224t13.5 -404.5v-621h-110v628q0 243 -10 348.5t-52 190t-127.5 139.5t-175.5 55t-174.5 -55t-126 -137t-52.5 -189.5t-11 -351.5v-628z"/>
<glyph glyph-name="approxequal" horiz-adv-x="1124" unicode="≈" d="M47 323v319q152 74 250 74q64 0 140.5 -21.5t203.5 -83.5q83 -40 109 -47q35 -10 69 -10q111 0 258 113v-323q-126 -71 -247 -71q-66 0 -133 17.5t-218 84.5q-96 43 -128.5 51.5t-65.5 8.5q-50 0 -101 -22.5t-137 -89.5zM47 806v318q152 74 250 74q64 0 140.5 -21 t203.5 -83q83 -41 109 -48q35 -10 69 -10q111 0 258 113v-322q-126 -72 -247 -72q-66 0 -133 18t-218 85q-96 42 -128.5 51t-65.5 9q-50 0 -101 -22.5t-137 -89.5z"/>
<glyph glyph-name="notequal" horiz-adv-x="1124" unicode="≠" d="M803 1074h258v-250h-365l-76 -178h441v-250h-548l-186 -433h-193l186 433h-258v250h365l76 178h-441v250h548l186 434h193z"/>
<glyph glyph-name="equivalence" horiz-adv-x="1229" unicode="≡" d="M115 432h999v-250h-999v250zM115 860h999v-250h-999v250zM115 1288h999v-250h-999v250z"/>
<glyph glyph-name="lessequal" horiz-adv-x="1124" unicode="≤" d="M62 206h999v-250h-999v250zM1061 568v-250l-999 509v221l999 508v-249l-712 -370z"/>
<glyph glyph-name="greaterequal" horiz-adv-x="1124" unicode="≥" d="M1061 206v-250h-999v250h999zM62 568l713 369l-713 370v249l999 -508v-221l-999 -509v250z"/>
<glyph glyph-name="lozenge" horiz-adv-x="1012" unicode="◊" d="M495 1325l-340 -616l340 -615l359 615zM549 1422l418 -713l-418 -709h-111l-391 709l391 713h111z"/>
<glyph glyph-name="spade" horiz-adv-x="1092" unicode="♠" d="M547 1231q19 -82 65 -169t203 -230q121 -111 169 -181t48 -152q0 -96 -64 -160t-156 -64q-154 0 -254 190q0 -229 101 -325t277 -103l7 -37h-793l8 37q182 0 282 105t101 282v41q-90 -190 -262 -190q-91 0 -155 66t-64 155q0 150 188 305q262 215 299 430z"/>
<glyph glyph-name="club" horiz-adv-x="1354" unicode="♣" d="M1103 0h-848l8 34q153 32 219 68t126 139q58 103 58 228l-1 42q-55 -117 -143 -177t-184 -61q-114 0 -196 81t-82 199q0 111 72 193t170 82q64 0 163 -51q-67 106 -67 182q0 113 79 193t197 79q118 1 198 -79t81 -188q0 -94 -69 -187q106 53 162 53q105 0 176 -82 t71 -191q0 -119 -81 -201t-193 -82q-78 0 -167 50t-165 187q4 -157 48 -251q45 -94 123 -144q78 -51 237 -82z"/>
<glyph glyph-name="heart" horiz-adv-x="1210" unicode="♥" d="M607 -24q-33 122 -93 228t-275 390q-101 133 -140 212t-39 163q0 109 74 185t183 76q206 0 290 -251q33 129 113 191t172 61q110 0 184 -75t74 -177q0 -84 -40 -179t-174 -264q-284 -360 -329 -560z"/>
<glyph glyph-name="diamond" horiz-adv-x="1038" unicode="♦" d="M517 1231q193 -323 461 -627q-52 -52 -214 -265t-247 -363q-101 190 -457 628q324 383 457 627z"/>
<glyph glyph-name="foursuperior" horiz-adv-x="688" unicode="" d="M413 1023v269l-217 -269h217zM400 1508h182v-485h78v-140h-78v-150h-169v150h-395v148z"/>
</font>
</defs>
</svg>
