<?xml version="1.0" standalone="no"?>
<!DOCTYPE svg PUBLIC "-//W3C//DTD SVG 1.1//EN" "http://www.w3.org/Graphics/SVG/1.1/DTD/svg11.dtd" >
<svg xmlns="http://www.w3.org/2000/svg">
<metadata></metadata>
<defs>
<font id="cantarellbold" horiz-adv-x="1464" >
<font-face units-per-em="2048" ascent="1514" descent="-534" />
<missing-glyph horiz-adv-x="560" />
<glyph horiz-adv-x="0" />
<glyph unicode="&#xd;" horiz-adv-x="682" />
<glyph unicode=" "  horiz-adv-x="560" />
<glyph unicode="&#x09;" horiz-adv-x="560" />
<glyph unicode="&#xa0;" horiz-adv-x="560" />
<glyph unicode="!" horiz-adv-x="650" d="M184 -41v282h282v-282h-282zM199 417v1045h252v-1045h-252z" />
<glyph unicode="&#x22;" horiz-adv-x="795" d="M69 1042v510h267v-510h-267zM459 1042v510h267v-510h-267z" />
<glyph unicode="#" horiz-adv-x="1402" d="M4 839v232h318v391h242v-391h276v391h242v-391h316v-232h-316v-270h316v-232h-316v-408h-242v408h-276v-408h-242v408h-316v232h316v270h-318zM564 569h276v270h-276v-270z" />
<glyph unicode="$" horiz-adv-x="1364" d="M227 299l75 191l39 -15q92 -37 155 -50.5t138 -13.5q147 0 208.5 28t61.5 86q-2 26 -38.5 46t-93.5 35.5t-125 32.5t-135.5 41.5t-123.5 57.5t-91 87t-35 123q0 42 16 84t50 84.5t100 77.5t155 52v265h249v-248q79 -2 128.5 -10.5t123.5 -28.5l41 -11l-68 -192l-38 9 q-130 34 -253 34q-119 0 -181 -30t-62 -66q0 -25 35.5 -45.5t92.5 -37t126 -35t137.5 -44.5t125.5 -59.5t92.5 -86t35.5 -117.5q0 -47 -15 -92.5t-50.5 -92t-105 -83t-165.5 -52.5v-288h-249v277q-151 8 -319 73z" />
<glyph unicode="%" horiz-adv-x="1493" d="M85 0l1105 1421h271l-1104 -1421h-272zM135 1093q0 148 81 229.5t196 81.5q40 0 78 -7.5t78.5 -29.5t70.5 -55.5t49.5 -90t19.5 -129.5q0 -148 -84.5 -237.5t-212.5 -89.5q-55 0 -102.5 17t-87.5 53.5t-63 102.5t-23 155zM315 1094q0 -153 97 -153q98 0 98 148 q0 138 -99 138q-96 0 -96 -133zM841 352q0 147 87.5 229.5t208.5 82.5q40 0 76.5 -8t74 -30t64.5 -56.5t44.5 -90.5t17.5 -128q0 -149 -78 -237.5t-200 -88.5q-58 0 -108 17t-93.5 53t-68.5 102t-25 155zM1038 353q0 -153 99 -153q97 0 97 148q0 138 -98 138t-98 -133z" />
<glyph unicode="&#x26;" horiz-adv-x="1589" d="M139 282q0 72 22.5 141t52.5 118t77 99t78 76.5t73 58.5q-86 89 -133.5 168t-47.5 180q0 158 129.5 258t316.5 100q167 0 270.5 -87t103.5 -219q0 -43 -11 -84t-37 -80t-47.5 -66.5t-64.5 -66t-63.5 -55.5t-69.5 -55l288 -307l322 352l150 -152l-322 -359l322 -343h-315 l-178 184q-48 -46 -92 -80t-109.5 -72t-146.5 -58.5t-171 -20.5q-184 0 -290.5 105t-106.5 265zM388 327q0 -77 58 -131.5t147 -54.5q84 0 158.5 43.5t150.5 115.5l-305 316q-42 -33 -66 -53.5t-55 -52t-47.5 -57t-28.5 -58.5t-12 -68zM510 1114q0 -14 2.5 -26.5t10.5 -27 t14 -24t21 -26t22.5 -25t28.5 -29.5l30 -30q118 90 145 118q49 50 49 99q0 44 -38.5 78.5t-104.5 34.5q-75 0 -127.5 -43.5t-52.5 -98.5z" />
<glyph unicode="'" horiz-adv-x="405" d="M69 1042v510h267v-510h-267z" />
<glyph unicode="(" horiz-adv-x="742" d="M179 576q0 141 29 288t79 277t100 231.5t108 196.5l20 33l204 -107l-22 -37q-113 -188 -187 -414t-74 -470q0 -242 74.5 -467.5t186.5 -409.5l21 -34l-198 -128l-22 36q-58 95 -108.5 198t-101 234.5t-80 280.5t-29.5 292z" />
<glyph unicode=")" horiz-adv-x="742" d="M23 1495l204 107l20 -33q58 -95 108 -196.5t100 -231.5t79 -277t29 -288q0 -144 -30 -294.5t-81 -282.5t-101 -233.5t-107 -194.5l-22 -36l-198 128l21 34q112 184 186.5 409.5t74.5 467.5q0 243 -74.5 469.5t-186.5 414.5z" />
<glyph unicode="*" horiz-adv-x="1196" d="M123 860l251 127l-251 125l128 223l234 -154l-15 281h256l-15 -281l234 154l128 -223l-250 -125l250 -127l-128 -223l-234 154l15 -280h-256l15 280l-234 -154z" />
<glyph unicode="+" horiz-adv-x="1400" d="M84 548v220h501v506h230v-506h501v-220h-501v-506h-230v506h-501z" />
<glyph unicode="," horiz-adv-x="570" d="M-19 -261l191 472h269l-191 -472h-269z" />
<glyph unicode="-" horiz-adv-x="1210" d="M134 548v221h942v-221h-942z" />
<glyph unicode="." horiz-adv-x="570" d="M139 -41v292h292v-292h-292z" />
<glyph unicode="/" horiz-adv-x="726" d="M-17 -131l523 1593h257l-523 -1593h-257z" />
<glyph unicode="0" d="M111 727q0 114 20.5 212t56 170t85 129.5t104 94.5t116.5 61.5t120.5 35t117.5 10.5q84 0 166.5 -20.5t166.5 -73t146.5 -131t102.5 -205t40 -285.5q0 -166 -39.5 -298t-101.5 -214t-146 -136t-165.5 -75.5t-166.5 -21.5q-59 0 -118 11t-121.5 37t-117.5 65t-104.5 99 t-85 135t-56 177.5t-20.5 222.5zM362 728q0 -115 24.5 -207t63 -148.5t89.5 -94t99 -52t96 -14.5q47 0 95 14.5t98 51.5t88 92.5t62.5 146t24.5 204.5q0 108 -24.5 194t-63 139t-89 88t-98.5 49t-96 14t-95.5 -14t-98 -48.5t-88.5 -87t-62.5 -137t-24.5 -190.5z" />
<glyph unicode="1" d="M250 1272l415 149h288v-1190h344v-231h-992v231h359v942l-317 -108z" />
<glyph unicode="2" d="M188 1315l36 16q235 100 513 100q250 0 397 -108.5t147 -272.5q0 -71 -28.5 -133t-78 -112t-111 -97t-132 -97.5t-136.5 -103t-129.5 -124.5t-105.5 -151h747v-232h-1071v131q40 117 105.5 219t137 173t149.5 132.5t147 107t125 86t89 80t33 78.5q0 78 -93.5 136.5 t-228.5 58.5q-164 0 -397 -80l-38 -13z" />
<glyph unicode="3" d="M176 50l73 211l37 -10q212 -56 342 -56q161 0 274.5 62.5t113.5 161.5q0 30 -11 58t-43 59t-82.5 54t-138.5 38t-202 15h-47v228h47q93 0 166.5 12t117.5 30.5t72.5 43.5t39 48t10.5 47q0 65 -76 107.5t-198 42.5q-162 0 -342 -79l-39 -18l-86 210l34 17 q87 43 206.5 74.5t251.5 31.5q229 0 371.5 -100t142.5 -258q0 -92 -42 -170.5t-116 -128.5q113 -49 166.5 -135.5t53.5 -195.5q0 -223 -176.5 -359t-469.5 -136q-221 0 -414 80z" />
<glyph unicode="4" horiz-adv-x="1546" d="M120 303v158l635 960h341v-886h248v-232h-248v-303h-246v303h-730zM437 535h382v574z" />
<glyph unicode="5" d="M173 24l49 232l40 -9q148 -31 335 -31q106 0 188.5 16t130.5 41t79 58.5t42 64t11 62.5q0 31 -11 61.5t-41 64.5t-76.5 59.5t-124 42.5t-176.5 17q-122 0 -330 -24l-46 -5v747h1020v-232h-765v-260q102 8 185 8q124 0 224.5 -21t166.5 -58t114 -82.5t73.5 -99.5t37 -103 t11.5 -99q0 -45 -8.5 -89.5t-30 -94t-55.5 -93.5t-89.5 -84.5t-126 -69t-170 -46t-218.5 -17.5q-208 0 -398 36z" />
<glyph unicode="6" d="M169 584q0 193 45.5 341.5t123 243t189 155t233.5 84.5t267 24q57 0 130 -7l40 -4l-19 -230l-42 4q-52 6 -104 6q-114 0 -205 -17t-151 -45t-104.5 -68.5t-69 -81.5t-40.5 -91q134 75 308 75q236 0 378.5 -131.5t142.5 -340.5q0 -107 -40 -202.5t-112.5 -167.5t-182 -114 t-241.5 -42q-54 0 -104 7t-106 25t-103 47t-91 77t-74.5 109.5t-49 149.5t-18.5 194zM418 495q0 -115 92.5 -206.5t226.5 -91.5q125 0 216.5 85t91.5 202q0 120 -95 193.5t-225 73.5t-218.5 -72t-88.5 -184z" />
<glyph unicode="7" d="M131 1179v242h1202v-149l-761 -1272h-290l724 1179h-875z" />
<glyph unicode="8" d="M150 407q0 111 66 212.5t177 168.5q-91 62 -127 140t-36 149q0 155 132 259t362 104q256 0 383 -97t127 -270q0 -82 -41.5 -149t-123.5 -130q124 -67 184.5 -162t60.5 -207q0 -85 -37 -163.5t-106.5 -142t-182 -101.5t-250.5 -38q-255 0 -421.5 119.5t-166.5 307.5z M407 446q0 -94 93 -164t247 -70q141 0 224.5 65.5t83.5 160.5q0 59 -27.5 106t-80 80.5t-111.5 56.5t-138 43q-135 -38 -213 -115.5t-78 -162.5zM491 1056q0 -34 20 -63t46.5 -48.5t70.5 -38t75.5 -28.5t76.5 -22q108 61 152.5 101.5t44.5 89.5q0 80 -73 124t-180 44 q-100 0 -166.5 -48.5t-66.5 -110.5z" />
<glyph unicode="9" d="M171 939q0 102 42 193.5t116 159.5t183.5 108.5t237.5 40.5q54 0 103.5 -7t105 -25t102.5 -47.5t91 -77.5t74.5 -110t48.5 -150.5t18 -195.5q0 -138 -23.5 -253t-65.5 -201t-104 -153t-134 -111t-160 -72.5t-178.5 -40.5t-192.5 -12q-67 0 -130 6l-40 4l19 230l42 -4 q42 -5 105 -5q123 0 218 19.5t154.5 49.5t101 77t62 92t33.5 103q-136 -74 -306 -74q-232 0 -377.5 128.5t-145.5 327.5zM417 955q0 -104 96 -177t224 -73q127 0 217 70.5t90 168.5q0 100 -95.5 187.5t-223.5 87.5q-121 0 -214.5 -82t-93.5 -182z" />
<glyph unicode=":" horiz-adv-x="570" d="M139 -41v292h292v-292h-292zM139 742v292h292v-292h-292z" />
<glyph unicode=";" horiz-adv-x="570" d="M-19 -261l191 472h269l-191 -472h-269zM139 742v292h292v-292h-292z" />
<glyph unicode="&#x3c;" horiz-adv-x="1073" d="M59 507v217l955 470v-246l-647 -326l647 -311v-256z" />
<glyph unicode="=" horiz-adv-x="1400" d="M179 310v232h1042v-232h-1042zM179 763v232h1042v-232h-1042z" />
<glyph unicode="&#x3e;" horiz-adv-x="1073" d="M59 55v256l647 311l-647 326v246l955 -470v-217z" />
<glyph unicode="?" horiz-adv-x="1046" d="M47 1389l35 17q145 72 341 72q230 0 362 -97t132 -284q0 -86 -21 -154.5t-54.5 -113t-74 -82t-81 -71.5t-74 -71t-54.5 -91t-21 -122v-41h-252v41q0 90 21 163t55 121.5t75 89t82.5 73t75.5 64.5t55 74t21 92q0 24 -5.5 46t-23.5 48t-47 45t-80 32t-118 13 q-55 0 -120.5 -13t-107.5 -31l-38 -16zM270 -41v282h282v-282h-282z" />
<glyph unicode="@" horiz-adv-x="2100" d="M140 404q0 107 13.5 207.5t47 205.5t84.5 195t130.5 170t181 136.5t241 89t304.5 32.5q153 0 278.5 -29t213.5 -77.5t155 -120t107 -148.5t65 -171.5t34 -180.5t9 -183q0 -119 -17.5 -218.5t-46 -169t-68 -123.5t-81 -86t-87.5 -53t-84 -28.5t-75 -7.5q-87 0 -157.5 41.5 t-108.5 113.5q-121 -60 -250 -60q-204 0 -336.5 140t-132.5 373q0 243 136.5 397t357.5 154q112 0 222 -44l18 50h183v-757q0 -103 17 -147t71 -44q18 0 40 11t49 42t48.5 78.5t36.5 130.5t15 187q0 119 -17.5 215.5t-62.5 186.5t-117.5 151t-188 97.5t-268.5 36.5 q-119 0 -219.5 -26.5t-172 -71.5t-128 -107.5t-91.5 -129.5t-58 -143.5t-32 -144.5t-9 -136q0 -132 34.5 -244t94 -191.5t139.5 -136t171 -83.5t188 -27q146 0 274 63l36 17l101 -190l-37 -19q-183 -95 -399 -95q-66 0 -134.5 9t-154.5 34.5t-162.5 65.5t-151.5 108.5 t-129 156.5t-87 216.5t-33 281.5zM794 475q0 -155 81 -240t207 -85q80 0 158 36v581q-86 32 -163 32q-127 0 -205 -85t-78 -239z" />
<glyph unicode="A" horiz-adv-x="1547" d="M130 0l563 1421h276l562 -1421h-259l-159 372h-580l-159 -372h-244zM620 603h405l-202 527z" />
<glyph unicode="B" horiz-adv-x="1588" d="M290 0v1421h542q91 0 166.5 -14t127.5 -36.5t92.5 -54t64 -64t38.5 -69t20 -66t5 -58.5q0 -68 -37 -138t-93 -118q112 -46 179.5 -143.5t67.5 -213.5q0 -33 -6.5 -67.5t-25.5 -79.5t-49.5 -85.5t-82.5 -80.5t-120 -68.5t-167.5 -46.5t-218.5 -18h-503zM542 232h224 q40 0 68.5 0.5t78.5 4.5t86 11.5t79 22.5t69.5 36t45 53.5t18.5 73.5q0 103 -113.5 162t-306.5 59q-8 0 -249 -11v-412zM542 815q217 5 303 20q208 38 222 173q1 11 1 22q0 32 -11 59.5t-39.5 56.5t-90.5 46t-152 17h-233v-394z" />
<glyph unicode="C" horiz-adv-x="1615" d="M275 709q0 154 55 286t157 229t256 152t342 55q224 0 425 -79l37 -15l-79 -216l-38 13q-194 65 -351 65q-124 0 -229.5 -40.5t-175 -108.5t-108 -156t-38.5 -184q0 -99 41.5 -188.5t116 -157t187.5 -107t247 -39.5q164 0 328 58l37 13l82 -200l-37 -16q-217 -93 -458 -93 q-187 0 -339.5 57t-251.5 156.5t-152.5 231.5t-53.5 284z" />
<glyph unicode="D" horiz-adv-x="1770" d="M298 0v1421h504q134 0 247 -21t195 -57t146 -87t105 -109t67.5 -126t37 -133.5t10.5 -135.5q0 -92 -15 -177.5t-53 -174t-97.5 -159t-155 -127t-218.5 -83.5q-63 -14 -140 -21.5t-126.5 -8.5t-138.5 -1h-368zM550 232h183q69 0 114 2t118 14t124.5 33.5t107 65 t92.5 105.5q68 114 68 267q0 88 -24.5 162t-65 124.5t-95 88.5t-110.5 59t-115 29q-50 7 -138 7h-259v-957z" />
<glyph unicode="E" horiz-adv-x="1447" d="M290 0v1421h997v-232h-744v-341h689v-232h-689v-384h744v-232h-997z" />
<glyph unicode="F" horiz-adv-x="1412" d="M290 0v1421h987v-232h-734v-341h674v-232h-674v-616h-253z" />
<glyph unicode="G" horiz-adv-x="1755" d="M215 709q0 113 31 218t96.5 197t158 160.5t223.5 108t286 39.5q283 0 509 -126l35 -20l-105 -198l-36 19q-71 36 -178 64.5t-215 28.5q-106 0 -205 -33t-176.5 -93t-124 -152.5t-46.5 -202.5q0 -145 76 -261t210.5 -180.5t302.5 -64.5q184 0 301 83v273h-445v222h692 v-585q-207 -226 -592 -226q-164 0 -299.5 42.5t-226.5 113t-153.5 165.5t-90.5 197.5t-28 210.5z" />
<glyph unicode="H" horiz-adv-x="1764" d="M290 0v1421h252v-572h760v572h252v-1421h-252v617h-760v-617h-252z" />
<glyph unicode="I" horiz-adv-x="812" d="M320 0v1421h252v-1421h-252z" />
<glyph unicode="J" horiz-adv-x="1117" d="M110 18l42 222l42 -10q63 -15 132 -15q66 0 119.5 12.5t88 31t60 46.5t38 53t20 57.5t9 52.5t1.5 45v908h252v-910q0 -54 -4.5 -100t-19 -101.5t-38.5 -100t-67 -88.5t-100.5 -73t-142 -47t-188.5 -18q-107 0 -206 25z" />
<glyph unicode="K" horiz-adv-x="1581" d="M290 0v1421h252v-651l648 651h323l-683 -680l719 -741h-327l-680 688v-688h-252z" />
<glyph unicode="L" horiz-adv-x="1297" d="M290 0v1421h252v-1190h720v-231h-972z" />
<glyph unicode="M" horiz-adv-x="2048" d="M290 0v1421h306l472 -816l479 816h291v-1421h-252v1063l-404 -656h-238l-402 656v-1063h-252z" />
<glyph unicode="N" horiz-adv-x="1823" d="M290 0v1421h278l793 -1092v1092h252v-1421h-281l-790 1094v-1094h-252z" />
<glyph unicode="O" horiz-adv-x="1850" d="M215 707q0 219 96 385.5t266 255t389 88.5q217 0 386 -85t266 -247.5t97 -377.5q0 -218 -95 -386.5t-267 -261.5t-395 -93q-147 0 -279 45.5t-236.5 133t-166 227.5t-61.5 316zM473 727q0 -231 143 -371t357 -140q89 0 172.5 29t154.5 86t114 155t43 223q0 102 -30 186.5 t-79.5 140.5t-115 95t-135 56.5t-141.5 17.5t-140 -17.5t-130.5 -55t-109.5 -92.5t-75 -135.5t-28 -177.5z" />
<glyph unicode="P" horiz-adv-x="1503" d="M290 0v1421h510q44 0 75 -0.5t82.5 -4.5t89 -11.5t86 -21.5t83 -33.5t71 -50.5t58.5 -69.5t36.5 -91.5t14.5 -117q0 -90 -23.5 -162t-61 -121t-96 -84.5t-118 -55.5t-138.5 -31.5t-144.5 -15t-149.5 -3.5q-41 0 -123 4v-552h-252zM542 784q78 -5 141 -5q68 0 117.5 2.5 t106 9.5t95 22t71.5 38t49.5 59t16.5 84q0 43 -14 75.5t-42.5 53t-62 34.5t-81 20.5t-90.5 9t-100 2.5h-207v-405z" />
<glyph unicode="Q" horiz-adv-x="1870" d="M215 705q0 221 95.5 387.5t265.5 255t390 88.5q341 0 545 -198t204 -529q0 -273 -137 -461l184 -173l-147 -148l-200 182q-191 -124 -447 -124q-160 0 -297.5 49t-239 139t-159 227t-57.5 305zM473 723q0 -122 42 -219.5t113.5 -159.5t164.5 -95t197 -33q130 0 236 53 l-334 269l177 155l322 -271q62 106 62 265q0 119 -33.5 212t-85 149t-120.5 93t-133 50.5t-130 13.5q-69 0 -135.5 -17t-129 -54.5t-109.5 -92t-75.5 -137t-28.5 -181.5z" />
<glyph unicode="R" horiz-adv-x="1601" d="M290 0v1421h605q45 0 82.5 -2.5t91 -12t95 -25.5t86 -47t74 -72.5t48.5 -105t19 -142.5q0 -68 -16.5 -129.5t-52 -118.5t-97 -102t-145.5 -70l429 -594h-328l-398 551h-241v-551h-252zM542 783h232q60 0 106 4t95 16.5t80.5 34.5t52 61t20.5 92q0 199 -307 199h-279v-407 z" />
<glyph unicode="S" horiz-adv-x="1525" d="M240 93l85 242l39 -15q253 -90 417 -90q154 0 249.5 47t95.5 124q0 43 -29 77t-78 57.5t-112.5 43.5t-133.5 39t-140 41t-133.5 53t-112.5 70t-78 97.5t-29 130.5q0 180 176.5 302t470.5 122q199 0 393 -59l41 -12l-82 -232l-38 11q-181 50 -330 50q-147 0 -251.5 -48 t-104.5 -123q0 -49 46.5 -86t120.5 -62.5t163.5 -50.5t179.5 -58t164 -76t120.5 -114.5t46.5 -164.5q0 -60 -20.5 -118.5t-69 -115.5t-120 -99.5t-182 -69t-247.5 -26.5t-247 25.5t-233 73.5z" />
<glyph unicode="T" horiz-adv-x="1374" d="M85 1189v232h1284v-232h-516v-1189h-252v1189h-516z" />
<glyph unicode="U" horiz-adv-x="1737" d="M290 485v13v923h252v-901q0 -75 14.5 -125.5t58.5 -92.5q97 -93 294 -93q141 0 234 50t119 141q13 44 13 120v901h250q0 -312 0.5 -510.5t0.5 -254t0.5 -89.5t0.5 -56q0 -47 -2.5 -84.5t-16 -95.5t-37 -102.5t-70 -93.5t-110 -81t-161.5 -53t-221 -21q-566 0 -614 396 q-5 43 -5 109z" />
<glyph unicode="V" horiz-adv-x="1565" d="M140 1421h289l418 -1150l417 1150h274l-550 -1421h-299z" />
<glyph unicode="W" horiz-adv-x="2411" d="M140 1421h266l327 -1092l411 1092h232l338 -1092l400 1092h266l-545 -1421h-241l-342 1087l-402 -1087h-241z" />
<glyph unicode="X" horiz-adv-x="1532" d="M110 0l563 741l-501 680h304l381 -502l368 502h295l-500 -677l555 -744h-319l-418 566l-418 -566h-310z" />
<glyph unicode="Y" horiz-adv-x="1427" d="M100 1421h298l380 -551l388 551h288l-545 -757v-664h-283v664z" />
<glyph unicode="Z" horiz-adv-x="1522" d="M155 0v155l897 1034h-867v232h1250v-153l-918 -1036h945v-232h-1307z" />
<glyph unicode="[" horiz-adv-x="788" d="M209 -451v2003h540v-231h-294v-1541h294v-231h-540z" />
<glyph unicode="\" horiz-adv-x="726" d="M-37 1462h257l523 -1593h-257z" />
<glyph unicode="]" horiz-adv-x="778" d="M39 -220h294v1541h-294v231h540v-2003h-540v231z" />
<glyph unicode="^" horiz-adv-x="1479" d="M384 1244l342 357l312 -348l-152 -145l-174 194l-178 -193z" />
<glyph unicode="_" horiz-adv-x="1160" d="M109 -41v232h942v-232h-942z" />
<glyph unicode="`" horiz-adv-x="1122" d="M218 1448l113 195l574 -353l-104 -178z" />
<glyph unicode="a" horiz-adv-x="1233" d="M123 273q0 74 37.5 129t98.5 88t153 54t184.5 29t209.5 9v34q0 38 -6.5 63t-28.5 53t-73.5 42.5t-131.5 14.5q-112 0 -297 -44l-40 -11l-51 197l35 12q185 64 384 64q108 0 189.5 -19.5t131.5 -51.5t81 -80t42.5 -97.5t11.5 -110.5v-648h-184l-28 65q-133 -85 -303 -85 q-185 0 -300 87t-115 206zM383 291q0 -36 60 -68t147 -32q123 0 216 64v141h-24q-202 0 -300.5 -24t-98.5 -81z" />
<glyph unicode="b" horiz-adv-x="1347" d="M190 0v1511h246v-547q129 44 263 44q76 0 146.5 -14.5t139.5 -51.5t119.5 -92.5t82 -144t31.5 -200.5q0 -246 -149 -385.5t-404 -139.5q-151 0 -279 52l-14 -32h-182zM436 220q101 -29 201 -29q46 0 89 7t89.5 26.5t81 50.5t57 83.5t22.5 120.5q0 75 -23 133t-58 90.5 t-83 53.5t-90.5 27.5t-88.5 6.5q-99 0 -197 -33v-537z" />
<glyph unicode="c" horiz-adv-x="1165" d="M130 473q0 117 32 209.5t86.5 152t130 99t158 56t176.5 16.5q169 0 312 -62l35 -15l-65 -195l-39 13q-103 36 -218 36q-75 0 -136.5 -13t-115.5 -42.5t-84.5 -86.5t-30.5 -137q0 -307 389 -307q97 0 184 31l39 13l67 -189l-37 -14q-150 -58 -323 -58q-89 0 -166.5 14 t-151.5 49.5t-126.5 90t-84 141.5t-31.5 198z" />
<glyph unicode="d" horiz-adv-x="1352" d="M130 478q0 254 150.5 392t402.5 138q117 0 233 -34v537h246v-1511h-182l-20 46q-145 -66 -310 -66q-78 0 -150 15.5t-140.5 52.5t-118.5 92.5t-80.5 142.5t-30.5 195zM372 502q0 -72 22.5 -128t57.5 -88.5t82.5 -53.5t90.5 -28t88 -7q104 0 203 35v535q-106 30 -205 30 q-45 0 -87 -6.5t-89.5 -26t-82 -50.5t-57.5 -86t-23 -126z" />
<glyph unicode="e" horiz-adv-x="1266" d="M130 464q0 110 31.5 201.5t86 154t128 105.5t155.5 62.5t171 19.5q86 0 154.5 -18.5t113 -47t77 -74t49.5 -87t26.5 -99.5t11.5 -98t2 -95v-112h-743q21 -74 119 -128.5t258 -54.5q113 0 230 34l41 12l49 -190l-36 -12q-167 -57 -356 -57q-132 0 -234 29t-163.5 75 t-101 111t-54.5 130t-15 139zM395 582h499q-8 108 -68 154.5t-165 46.5q-115 0 -184 -57.5t-82 -143.5z" />
<glyph unicode="f" horiz-adv-x="984" d="M135 777v211h163v59q0 33 0.5 53t4.5 55t11.5 58t22 54.5t35 52t52.5 43t73 36t97 22t124 8.5q125 0 262 -41l36 -11l-41 -200l-42 10q-95 23 -148 23q-123 0 -182 -41t-59 -115v-66h395v-211h-395v-777h-246v777h-163z" />
<glyph unicode="g" horiz-adv-x="1340" d="M128 491q0 113 36.5 204t94 148t132.5 95.5t146.5 54t141.5 15.5q130 0 281 -63l15 43h185v-1009q0 -53 -7 -102.5t-25 -102.5t-46 -98t-72.5 -86t-102.5 -69.5t-138.5 -45t-177.5 -16.5q-190 0 -362 67l-37 16l75 194l41 -15q131 -43 258 -43q88 0 152.5 20.5t101.5 52 t59 78.5t28.5 90.5t6.5 96.5v9q-126 -45 -253 -45q-80 0 -154 16.5t-144 55.5t-121.5 96.5t-82.5 145.5t-31 197zM382 508q0 -136 86 -223.5t246 -87.5q100 0 200 36v522q-130 38 -223 38q-140 0 -224.5 -77.5t-84.5 -207.5z" />
<glyph unicode="h" horiz-adv-x="1341" d="M190 0v1511h246v-574q180 69 335 69q78 0 140 -17.5t102 -43.5t69 -66.5t44 -77t23.5 -85.5t10 -80.5t1.5 -73.5v-562h-244v577q0 201 -221 201q-115 0 -260 -55v-723h-246z" />
<glyph unicode="i" horiz-adv-x="606" d="M165 1150v271h276v-271h-276zM180 0v988h246v-988h-246z" />
<glyph unicode="j" horiz-adv-x="606" d="M18 -350l38 18q138 65 138 219v1101h246v-1084q0 -34 -1 -59t-7.5 -64.5t-17.5 -70t-32.5 -67.5t-51.5 -66.5t-76.5 -58.5t-104.5 -50l-34 -12zM179 1150v271h276v-271h-276z" />
<glyph unicode="k" horiz-adv-x="1237" d="M180 0v1511h246v-920l474 417h297l-510 -452l525 -556h-302l-484 492v-492h-246z" />
<glyph unicode="l" horiz-adv-x="646" d="M200 0v1511h246v-1511h-246z" />
<glyph unicode="m" horiz-adv-x="1980" d="M180 0v988h183l28 -65q177 84 349 84t269 -99q186 98 397 98q92 0 162 -22t112.5 -59t69 -92.5t36.5 -114t10 -132.5v-586h-246v583q0 94 -49.5 142.5t-159.5 48.5q-93 0 -240 -54q9 -52 9 -141v-579h-246v587q0 187 -204 187q-86 0 -234 -54v-720h-246z" />
<glyph unicode="n" horiz-adv-x="1326" d="M180 0v988h172l34 -68q206 88 383 88q96 0 166 -26t110 -65t63.5 -98.5t30.5 -113.5t7 -122v-583h-246v580q0 28 -2.5 48.5t-14.5 51t-33 50t-63.5 34t-100.5 14.5q-117 0 -260 -55v-723h-246z" />
<glyph unicode="o" horiz-adv-x="1375" d="M130 484q0 241 151.5 382t412.5 141q248 0 399.5 -130.5t151.5 -364.5q0 -246 -154.5 -389t-415.5 -143q-248 0 -396.5 134.5t-148.5 369.5zM372 509q0 -130 90 -218.5t234 -88.5q131 0 219 77t88 204q0 73 -29 132.5t-76 95.5t-104 55t-116 19q-77 0 -145 -29 t-114.5 -94t-46.5 -153z" />
<glyph unicode="p" horiz-adv-x="1341" d="M180 -531v1519h182l23 -47q153 66 314 66q75 0 145 -15t138 -51.5t118 -92t81 -144t31 -200.5q0 -245 -148 -384.5t-399 -139.5q-117 0 -229 34v-545h-256zM436 221q104 -30 201 -30q45 0 87 7t88 26.5t80 50.5t56 83.5t22 120.5q0 75 -22.5 132.5t-56.5 90t-81 53.5 t-89 27.5t-87 6.5q-99 0 -198 -35v-533z" />
<glyph unicode="q" horiz-adv-x="1330" d="M128 488q0 127 44.5 228.5t120 164t171.5 95t204 32.5q130 0 289 -63l18 43h175v-1519h-246v557q-131 -46 -262 -46q-77 0 -148 15.5t-138.5 52.5t-117 93.5t-80 145.5t-30.5 201zM370 503q0 -72 22.5 -128t56.5 -88.5t80.5 -53.5t89 -28t87.5 -7q99 0 198 35v522 q-132 38 -224 38q-141 0 -225.5 -77.5t-84.5 -212.5z" />
<glyph unicode="r" horiz-adv-x="947" d="M180 0v988h164l29 -53q156 72 333 72q113 0 206 -43l35 -16l-78 -205l-39 15q-70 27 -152 27q-131 0 -252 -47v-738h-246z" />
<glyph unicode="s" horiz-adv-x="1180" d="M130 73l74 200l38 -15q179 -67 317 -67q128 0 188 25.5t60 78.5q-2 25 -38.5 44t-93.5 34t-125 31t-135.5 39.5t-123.5 55t-91 83t-35 117.5q0 39 14.5 78.5t52.5 82t96 74.5t155 52.5t219 20.5q72 0 130 -7.5t82 -13.5t73 -21l41 -12l-68 -202l-38 10q-130 36 -253 36 q-62 0 -109 -8.5t-71.5 -20t-39.5 -27t-19 -26t-4 -19.5q0 -23 35.5 -42t92.5 -34.5t125.5 -33t137.5 -42.5t126 -57t92.5 -82t35.5 -112q0 -43 -12.5 -83t-48 -83t-91.5 -74.5t-151 -52t-218 -20.5q-192 0 -383 78z" />
<glyph unicode="t" horiz-adv-x="939" d="M70 777v211h153v283h246v-283h363v-211h-363v-443q0 -25 8.5 -48t27.5 -46t57 -36.5t90 -13.5q27 0 146 20l39 7l39 -189l-38 -10q-147 -38 -246 -38q-95 0 -163.5 19t-107.5 48.5t-61.5 76t-29.5 90.5t-7 103v460h-153z" />
<glyph unicode="u" horiz-adv-x="1341" d="M180 404v584h246v-582q0 -26 2.5 -46t14.5 -50.5t34 -50.5t66 -35t104 -15q120 0 268 55v724h246v-988h-183l-29 67q-201 -87 -387 -87q-97 0 -168 25.5t-111.5 65t-64.5 98.5t-31 113t-7 122z" />
<glyph unicode="v" horiz-adv-x="1157" d="M65 988h284l262 -728l257 728h258l-389 -988h-265z" />
<glyph unicode="w" horiz-adv-x="1931" d="M60 988h263l237 -733l307 733h221l234 -735l320 735h264l-473 -988h-224l-233 710l-312 -710h-224z" />
<glyph unicode="x" horiz-adv-x="1220" d="M65 988h291l299 -361l288 361h277l-408 -503l388 -485h-291l-285 340l-271 -340h-276l392 486z" />
<glyph unicode="y" horiz-adv-x="1224" d="M50 988h282l325 -759l296 759h259l-642 -1519h-300l244 523z" />
<glyph unicode="z" horiz-adv-x="1242" d="M150 0v127l557 650h-557v211h917v-127l-565 -650h590v-211h-942z" />
<glyph unicode="{" horiz-adv-x="828" d="M49 445v208l34 5q80 13 136.5 77t72.5 186q4 30 8.5 91.5t5.5 71.5q10 111 46 197t79.5 134t99.5 80t97 43t81 14l35 3l48 -208l-45 -6q-48 -7 -89.5 -34.5t-67.5 -66.5q-30 -46 -43.5 -118t-18 -145.5t-14.5 -149.5t-45 -150t-98 -128q63 -54 98.5 -128.5t45.5 -150.5 t14.5 -149t17.5 -144.5t43 -117.5q26 -39 67.5 -66.5t89.5 -34.5l45 -6l-48 -208l-35 3q-36 3 -75.5 13t-95.5 41t-101 77.5t-82.5 131t-48.5 192.5q-2 22 -6 83.5t-8.5 93t-16.5 78.5t-35.5 81.5t-59.5 60.5q-44 32 -97 41z" />
<glyph unicode="|" horiz-adv-x="884" d="M319 -349v1991h246v-1991h-246z" />
<glyph unicode="}" horiz-adv-x="828" d="M36 -248l45 6q48 7 89.5 34.5t67.5 66.5q30 46 43 117.5t17.5 144.5t14.5 149t45.5 150.5t98.5 128.5q-63 54 -98 128t-45 150t-14.5 149.5t-18 145.5t-43.5 118q-26 39 -67.5 66.5t-89.5 34.5l-45 6l48 208l35 -3q33 -3 66.5 -11.5t78.5 -27t85 -53.5t76.5 -83.5 t62 -124t34.5 -168.5q1 -10 5.5 -71.5t8.5 -91.5q15 -122 72 -186t137 -77l34 -5v-208l-34 -5q-53 -9 -97 -41q-36 -26 -59.5 -60.5t-35.5 -81.5t-16.5 -78.5t-8.5 -93t-6 -83.5q-11 -108 -48.5 -192.5t-82.5 -131t-101 -77.5t-95.5 -41t-75.5 -13l-35 -3z" />
<glyph unicode="~" horiz-adv-x="1400" d="M307 1221l9 43q2 9 7 36t8 41t10 41.5t13 43.5t17 40t22.5 38.5t28.5 31.5t36.5 26t45 15.5t54.5 6.5q63 -3 119.5 -32t89.5 -62.5t63 -61t46 -27.5q22 0 34 35t23 98q2 13 3 19l7 39l190 -30l-9 -42q-2 -8 -8 -40t-9.5 -47t-11.5 -46t-16.5 -48.5t-21.5 -43t-29.5 -40 t-37.5 -29.5t-48.5 -21.5t-59.5 -6.5q-63 3 -119.5 32t-89 62.5t-63 61t-46.5 27.5q-12 0 -21.5 -11.5t-16 -33t-11 -42t-9.5 -48.5q-1 -8 -2 -12l-7 -39z" />
<glyph unicode="&#xa1;" horiz-adv-x="650" d="M184 1080v282h282v-282h-282zM199 -451v1355h252v-1355h-252z" />
<glyph unicode="&#xa2;" horiz-adv-x="1021" d="M109 713q0 222 102 369.5t291 187.5v282h203v-272q99 -9 217 -59l35 -15l-65 -195l-39 13q-103 36 -204 36q-149 0 -224 -80.5t-75 -232.5q0 -70 13.5 -125.5t38 -92.5t54.5 -63t67.5 -39.5t72.5 -19.5t73 -6q85 0 172 31l39 13l67 -189l-37 -14q-114 -44 -205 -52v-296 h-203v300q-84 15 -153.5 53t-124 100t-85 155.5t-30.5 210.5z" />
<glyph unicode="&#xa3;" horiz-adv-x="1300" d="M111 -41v217h244v445h-176v217h176v100q0 121 31.5 215.5t82.5 153t121.5 97t141.5 53.5t150 15q120 0 247 -40l42 -13l-77 -197l-36 9q-87 23 -154 23q-74 0 -128.5 -18t-87.5 -48t-53 -75.5t-27 -93t-7 -108.5v-73h530v-217h-530v-445h588v-217h-1078z" />
<glyph unicode="&#xa4;" horiz-adv-x="1300" d="M127 1082l183 183l175 -175q79 38 165 38q87 0 166 -38l173 173l183 -183l-174 -173q38 -79 38 -165q0 -89 -37 -166l172 -172l-183 -183l-172 172q-79 -38 -167 -38q-90 0 -165 37l-173 -173l-183 183l173 173q-38 79 -38 166q0 88 38 167zM491 741q0 -68 46 -115.5 t112 -47.5q65 0 112 48t47 115q0 69 -46.5 116.5t-111.5 47.5t-112 -47.5t-47 -116.5z" />
<glyph unicode="&#xa5;" horiz-adv-x="1300" d="M72 1462h281l298 -558l307 558h271l-427 -722h251v-207h-289v-118h289v-207h-289v-249h-242v249h-275v207h275v118h-275v207h238z" />
<glyph unicode="&#xa6;" horiz-adv-x="884" d="M319 -349v850h246v-850h-246zM319 796v846h246v-846h-246z" />
<glyph unicode="&#xa7;" horiz-adv-x="1136" d="M108 22l74 199l38 -13q164 -58 290 -58q235 0 235 136q0 29 -25.5 51.5t-67 37.5t-94.5 32.5t-108.5 34t-108.5 44t-94.5 61t-67 86.5t-25.5 119q0 103 71 190q-71 75 -71 185q0 45 14.5 90t51 92.5t91 83.5t143 59t197.5 23q34 0 66 -2.5t52 -4.5t49.5 -8.5t39 -8.5 t40.5 -11t35 -10l42 -11l-72 -210l-38 12q-118 37 -239 37q-93 0 -152 -30.5t-59 -79.5q0 -27 26 -50.5t68 -40t96 -36t110.5 -38t110.5 -46.5t96 -61t68 -83t26 -111q0 -116 -68 -205q67 -72 67 -171q0 -40 -9.5 -79t-30 -81.5t-59 -78.5t-90.5 -65.5t-129.5 -46 t-172.5 -16.5h-13q-192 0 -366 68zM415 771q0 -19 14 -36.5t34 -30.5t54.5 -27t63.5 -24t74.5 -25t74.5 -25q15 24 15 59q0 24 -16 43.5t-51.5 35.5t-67 26.5t-87.5 27.5t-89 28q-19 -23 -19 -52z" />
<glyph unicode="&#xa8;" horiz-adv-x="1200" d="M242 1194v268h267v-268h-267zM691 1194v268h267v-268h-267z" />
<glyph unicode="&#xa9;" horiz-adv-x="1760" d="M129 683q0 145 57.5 280t156.5 236t239.5 161.5t297.5 60.5q155 0 294.5 -59.5t239.5 -159.5t158.5 -236t58.5 -283q0 -118 -37 -229.5t-106 -202.5t-161 -160.5t-207.5 -107.5t-239.5 -38q-206 0 -379.5 101t-272.5 270.5t-99 366.5zM344 683q0 -139 70.5 -259.5 t194.5 -192.5t271 -72t271 72t194.5 192.5t70.5 259.5t-70.5 259.5t-194.5 192.5t-271 72t-271 -72t-194.5 -192.5t-70.5 -259.5zM519 673q0 114 34.5 199t92 132t123 69.5t137.5 22.5q111 0 218 -47l34 -15l-56 -161l-39 13q-72 26 -144 26q-203 0 -203 -218 q0 -237 216 -237q61 0 124 22l38 13l57 -158l-37 -14q-107 -42 -219 -42q-54 0 -104.5 11.5t-101 40t-87.5 72t-60 113.5t-23 158z" />
<glyph unicode="&#xaa;" horiz-adv-x="766" d="M150 915q0 51 15.5 88t42.5 60.5t71.5 37.5t96 19.5t122.5 6.5q0 107 -117 107q-80 0 -163 -26l-25 -8l-30 119l21 7q104 38 208 38q50 0 90 -9t66 -22.5t45 -35t29 -40.5t15.5 -44.5t7 -43t1.5 -38.5v-396h-112l-14 36q-66 -54 -141 -54q-101 0 -165 52.5t-64 145.5z M297 917q0 -25 26 -47.5t71 -22.5q60 0 104 63v84h-3q-102 0 -150 -17.5t-48 -59.5z" />
<glyph unicode="&#xab;" horiz-adv-x="1078" d="M25 623l284 406h288l-305 -406l305 -406h-288zM496 623l284 406h288l-305 -406l305 -406h-288z" />
<glyph unicode="&#xac;" horiz-adv-x="1400" d="M84 542v231h1232v-532h-230v301h-1002z" />
<glyph unicode="&#xad;" horiz-adv-x="1074" d="M179 548v221h716v-221h-716z" />
<glyph unicode="&#xae;" horiz-adv-x="1232" d="M65 1043q0 148 74.5 273t201.5 197.5t275 72.5t275 -72.5t201.5 -197.5t74.5 -273t-74.5 -273t-201.5 -197.5t-275 -72.5q-113 0 -216 44t-176 117t-116 173t-43 209zM226 1043q0 -155 113.5 -268.5t276.5 -113.5q143 0 251 90h-150l-101 208h-71v-208h-143v594h247 q58 0 99.5 -16t63 -44.5t30.5 -59.5t9 -67q0 -124 -96 -173l117 -230q63 54 98.5 129t35.5 159q0 155 -113.5 268.5t-276.5 113.5q-162 0 -276 -113t-114 -269zM545 1086q29 0 41.5 -0.5t24.5 -0.5q56 0 79 14.5t23 47.5q0 38 -23 53t-74 15h-71v-129z" />
<glyph unicode="&#xaf;" horiz-adv-x="1400" d="M244 1450v231h912v-231h-912z" />
<glyph unicode="&#xb0;" horiz-adv-x="589" d="M34 1235q0 109 76.5 187t183.5 78t184 -77.5t77 -187.5t-76.5 -188t-183.5 -78t-184 78t-77 188zM206 1235q0 -38 25 -65.5t64 -27.5q36 0 61 28t25 65t-25 64.5t-61 27.5q-38 0 -63.5 -27t-25.5 -65z" />
<glyph unicode="&#xb1;" horiz-adv-x="1400" d="M179 109v219h1042v-219h-1042zM179 831v219h407v412h228v-412h407v-219h-407v-411h-228v411h-407z" />
<glyph unicode="&#xb2;" horiz-adv-x="800" d="M98 1473l21 10q130 66 251 66q115 0 193 -62.5t78 -161.5q0 -53 -23 -99t-61 -83.5t-78.5 -73t-84 -83.5t-69.5 -98h329v-155h-532v94q26 84 72 157.5t92.5 120.5t89.5 85t70 68t27 53q0 31 -33.5 58t-85.5 27q-56 0 -178 -49l-23 -9z" />
<glyph unicode="&#xb3;" horiz-adv-x="800" d="M94 780l48 140l23 -6q108 -30 165 -30q60 0 104 29.5t44 74.5q0 32 -17 53t-48 31t-62.5 13.5t-73.5 3.5h-25v153h25q171 0 171 82q0 25 -25.5 45t-74.5 20q-64 0 -160 -44l-23 -11l-58 140l21 11q129 61 231 61q107 0 180.5 -58.5t73.5 -149.5q0 -92 -64 -154 q95 -59 95 -179q0 -124 -90 -202t-227 -78q-98 0 -211 46z" />
<glyph unicode="&#xb4;" horiz-adv-x="1122" d="M219 1289l574 353l111 -195l-583 -336z" />
<glyph unicode="&#xb5;" horiz-adv-x="1187" d="M149 -451v1480h246v-599q0 -277 202 -277q75 0 205 62v814h246v-1070h-183l-21 49q-139 -76 -274 -76q-93 0 -175 43v-426h-246z" />
<glyph unicode="&#xb6;" horiz-adv-x="1326" d="M89 1133q0 66 13 122t33 96t52 72.5t63.5 53t73 35.5t74.5 22.5t75.5 11.5t68 5t59.5 1h576v-1593h-246v1361h-158v-1361h-247v687q-61 5 -118 21t-116.5 52.5t-103 89t-71.5 136.5t-28 188z" />
<glyph unicode="&#xb7;" horiz-adv-x="590" d="M149 587v292h292v-292h-292z" />
<glyph unicode="&#xb8;" horiz-adv-x="1101" d="M335 -474l49 170l40 -12q148 -45 194 -45q32 0 45.5 11.5t13.5 25.5q0 21 -29 34.5t-114 38.5q-36 11 -57 17l-38 11l77 286h211l-43 -170q175 -57 175 -207q0 -87 -67 -155.5t-178 -68.5q-18 0 -39 2.5t-35.5 5t-42 9.5t-38 10t-44.5 13.5t-41 12.5z" />
<glyph unicode="&#xb9;" horiz-adv-x="543" d="M30 1477l218 59h120v-801h-163v635l-138 -39z" />
<glyph unicode="&#xba;" horiz-adv-x="762" d="M42 1146q0 97 29 174.5t77.5 125.5t108.5 73t125 25q45 0 87.5 -9t89.5 -36t81.5 -69.5t57 -116t22.5 -168.5q0 -192 -96.5 -305t-243.5 -113q-53 0 -100 12.5t-91.5 43t-76.5 77.5t-51 120t-19 166zM206 1149q0 -83 17 -140t45.5 -84t55.5 -37.5t58 -10.5q24 0 45.5 5.5 t46 22.5t42 45t29 77.5t11.5 114.5q0 77 -17 130t-45.5 77t-55.5 33t-58 9q-30 0 -57 -9.5t-55.5 -33.5t-45 -75t-16.5 -124z" />
<glyph unicode="&#xbb;" horiz-adv-x="1078" d="M10 217l305 406l-305 406h288l284 -406l-284 -406h-288zM481 217l305 406l-305 406h288l284 -406l-284 -406h-288z" />
<glyph unicode="&#xbc;" horiz-adv-x="1800" d="M120 1387l218 59h140v-853h-183v665l-133 -37zM316 -25l850 1471h232l-849 -1471h-233zM1000 170v122l378 569h195v-531h107v-160h-107v-195h-183v195h-390zM1219 330h171v271z" />
<glyph unicode="&#xbd;" horiz-adv-x="1897" d="M120 1387l218 59h140v-863h-183v675l-133 -37zM316 -25l850 1471h232l-849 -1471h-233zM1156 785l21 11q149 71 275 71q125 0 210.5 -67.5t85.5 -175.5q0 -58 -25.5 -108.5t-67.5 -92t-87 -81t-93.5 -92.5t-76.5 -109h364v-166h-581v101q24 78 64 147.5t82 117t86 90.5 t78 71.5t55.5 56t21.5 49.5q0 35 -38 65t-96 30q-62 0 -195 -53l-23 -9z" />
<glyph unicode="&#xbe;" horiz-adv-x="1950" d="M163 636l52 150l23 -6q125 -34 182 -34q68 0 116.5 32.5t48.5 83.5q0 58 -53 86.5t-171 28.5h-25v163h25q50 0 90 7.5t70.5 29t30.5 56.5q0 28 -28.5 51t-83.5 23q-70 0 -176 -49l-24 -11l-63 150l21 10q138 68 254 68q117 0 196.5 -64t79.5 -163q0 -101 -72 -170 q107 -65 107 -196q0 -136 -99 -221t-248 -85q-104 0 -231 51zM476 -25l850 1471h232l-849 -1471h-233zM1150 170v122l378 569h195v-531h107v-160h-107v-195h-183v195h-390zM1369 330h171v271z" />
<glyph unicode="&#xbf;" horiz-adv-x="1047" d="M75 -73l83 195l37 -15q162 -66 270 -66q112 0 172.5 54.5t60.5 129.5q0 47 -21 84t-55 66t-75.5 60.5t-82.5 77t-75 104.5t-55 154.5t-21 216.5v41h252v-41q0 -96 21 -170t54.5 -119.5t74 -82t81 -69.5t74 -71t54.5 -97.5t21 -137.5q0 -89 -43.5 -170t-110.5 -135 t-146.5 -86t-153.5 -32q-107 0 -194.5 22.5t-186.5 69.5zM298 1179v283h282v-283h-282z" />
<glyph unicode="&#xc0;" horiz-adv-x="1547" d="M130 0l563 1421h276l562 -1421h-259l-159 372h-580l-159 -372h-244zM467 1750l122 195l632 -353l-113 -178zM620 603h405l-202 527z" />
<glyph unicode="&#xc1;" horiz-adv-x="1547" d="M130 0l563 1421h276l562 -1421h-259l-159 372h-580l-159 -372h-244zM439 1592l631 353l123 -195l-642 -336zM620 603h405l-202 527z" />
<glyph unicode="&#xc2;" horiz-adv-x="1547" d="M130 0l563 1421h276l562 -1421h-259l-159 372h-580l-159 -372h-244zM477 1586l377 357l343 -348l-167 -145l-192 194l-196 -191zM620 603h405l-202 527z" />
<glyph unicode="&#xc3;" horiz-adv-x="1547" d="M130 0l563 1421h276l562 -1421h-259l-159 372h-580l-159 -372h-244zM400 1513l9 43q2 8 7.5 36t8.5 41.5t11 41t15 43.5t19 40t25 38.5t31.5 31.5t40 26t49.5 15.5t60 6.5q56 -2 107.5 -21.5t87 -46t65 -52t52.5 -43.5t38 -18q6 0 11.5 2.5t10.5 7.5t8.5 11t7 16t6 18 t5.5 21.5l5 22.5t5.5 25t5.5 26l9 39l205 -30l-9 -42q-2 -8 -5 -26q-7 -35 -11 -54.5t-14.5 -55t-21.5 -57t-31 -48.5t-44 -42t-59 -26t-77 -11q-69 3 -131.5 32t-98.5 62t-69 60.5t-51 27.5q-33 0 -53 -83q-2 -9 -14 -66l-8 -38zM620 603h405l-202 527z" />
<glyph unicode="&#xc4;" horiz-adv-x="1547" d="M130 0l563 1421h276l562 -1421h-259l-159 372h-580l-159 -372h-244zM439 1630v267h294v-267h-294zM620 603h405l-202 527zM932 1630v267h294v-267h-294z" />
<glyph unicode="&#xc5;" horiz-adv-x="1547" d="M130 0l525 1337q-72 38 -114.5 101.5t-42.5 138.5q0 123 99 209.5t236 86.5t237 -86t100 -210q0 -76 -44 -140t-118 -102l523 -1335h-259l-159 372h-580l-159 -372h-244zM620 603h405l-202 527zM708 1577q0 -45 35 -78.5t92 -33.5q52 0 87 33.5t35 78.5q0 44 -34.5 77 t-87.5 33q-55 0 -91 -32.5t-36 -77.5z" />
<glyph unicode="&#xc6;" horiz-adv-x="2079" d="M130 0l610 1421h1198v-232h-643v-341h588v-232h-588v-384h643v-232h-911v373h-476l-171 -373h-250zM647 603h380v586h-122z" />
<glyph unicode="&#xc7;" horiz-adv-x="1615" d="M275 710q0 153 56 285.5t159 229t257 151.5t340 55q222 0 423 -79l37 -15l-79 -216l-38 13q-193 65 -348 65q-123 0 -227.5 -40.5t-173.5 -108.5t-107.5 -156t-38.5 -184q0 -99 41 -188.5t115.5 -157t186 -107t244.5 -39.5q162 0 326 58l37 13l82 -200l-37 -16 q-211 -91 -451 -93l-12 -46q32 -10 59.5 -23.5t59.5 -37.5t51 -62t19 -86q0 -93 -78.5 -162t-200.5 -69q-45 0 -89.5 8.5t-186.5 46.5l-43 11l59 183l43 -12q173 -48 223 -48q22 0 36 6t18 12.5t4 12.5q0 19 -42.5 35t-147.5 43q-24 6 -37 9l-43 11l60 197 q-266 64 -411 254.5t-145 446.5z" />
<glyph unicode="&#xc8;" horiz-adv-x="1447" d="M290 0v1421h997v-232h-744v-341h689v-232h-689v-384h744v-232h-997zM393 1770l113 195l656 -353l-104 -178z" />
<glyph unicode="&#xc9;" horiz-adv-x="1447" d="M290 0v1421h997v-232h-744v-341h689v-232h-689v-384h744v-232h-997zM434 1612l656 353l111 -195l-665 -336z" />
<glyph unicode="&#xca;" horiz-adv-x="1447" d="M290 0v1421h997v-232h-744v-341h689v-232h-689v-384h744v-232h-997zM420 1594l386 357l350 -349l-161 -144l-207 194l-212 -191z" />
<glyph unicode="&#xcb;" horiz-adv-x="1447" d="M290 0v1421h997v-232h-744v-341h689v-232h-689v-384h744v-232h-997zM390 1631v267h290v-267h-290zM897 1631v267h290v-267h-290z" />
<glyph unicode="&#xcc;" horiz-adv-x="812" d="M136 1748l113 195l574 -353l-104 -176zM335 0v1421h252v-1421h-252z" />
<glyph unicode="&#xcd;" horiz-adv-x="894" d="M127 1593l656 353l111 -195l-665 -337zM416 0v1421h252v-1421h-252z" />
<glyph unicode="&#xce;" horiz-adv-x="812" d="M140 1586l342 357l312 -349l-154 -144l-173 194l-177 -191zM338 0v1421h252v-1421h-252z" />
<glyph unicode="&#xcf;" horiz-adv-x="752" d="M88 1557v267h267v-267h-267zM290 0v1421h252v-1421h-252zM477 1557v267h267v-267h-267z" />
<glyph unicode="&#xd0;" horiz-adv-x="1769" d="M117 617v232h218v572h476q45 0 87 -2t107.5 -9.5t122.5 -20.5t125 -38t123 -58.5t108.5 -85t90 -114.5t58.5 -150.5t22 -190.5q0 -752 -908 -752h-412v617h-218zM587 232h166q65 0 116.5 3t122 14t124 30.5t109.5 56.5t92.5 87t60 125.5t23.5 170.5q0 65 -14 125.5 t-54 125t-102 111.5t-167 77.5t-240 30.5h-237v-340h261v-232h-261v-385z" />
<glyph unicode="&#xd1;" horiz-adv-x="1823" d="M290 0v1421h278l793 -1092v1092h252v-1421h-281l-790 1094v-1094h-252zM530 1513l9 43q2 8 7.5 36t8.5 41.5t11 41t15 43.5t19 40t25 38.5t31.5 31.5t40 26t49.5 15.5t60 6.5q56 -2 107.5 -21.5t87 -46t65 -52t52.5 -43.5t38 -18q6 0 11.5 2.5t10.5 7.5t8.5 11t7 16t6 18 t5.5 21.5l5 22.5t5.5 25t5.5 26l9 39l205 -30l-9 -42q-2 -8 -5 -26q-7 -35 -11 -54.5t-14.5 -55t-21.5 -57t-31 -48.5t-44 -42t-59 -26t-77 -11q-69 3 -131.5 32t-98.5 62t-69 60.5t-51 27.5q-33 0 -53 -83q-2 -9 -14 -66l-8 -38z" />
<glyph unicode="&#xd2;" horiz-adv-x="1850" d="M215 707q0 219 96 385.5t266 255t389 88.5q217 0 386 -85t266 -247.5t97 -377.5q0 -218 -95 -386.5t-267 -261.5t-395 -93q-147 0 -279 45.5t-236.5 133t-166 227.5t-61.5 316zM473 727q0 -231 143 -371t357 -140q89 0 172.5 29t154.5 86t114 155t43 223q0 126 -45 224.5 t-119 156t-160.5 86.5t-179.5 29q-70 0 -137 -17t-129.5 -55t-109.5 -92.5t-75.5 -135.5t-28.5 -178zM668 1753l122 195l625 -353l-113 -178z" />
<glyph unicode="&#xd3;" horiz-adv-x="1850" d="M215 707q0 219 96 385.5t266 255t389 88.5q217 0 386 -85t266 -247.5t97 -377.5q0 -218 -95 -386.5t-267 -261.5t-395 -93q-147 0 -279 45.5t-236.5 133t-166 227.5t-61.5 316zM473 727q0 -231 143 -371t357 -140q89 0 172.5 29t154.5 86t114 155t43 223q0 126 -45 224.5 t-119 156t-160.5 86.5t-179.5 29q-70 0 -137 -17t-129.5 -55t-109.5 -92.5t-75.5 -135.5t-28.5 -178zM600 1593l625 353l121 -195l-635 -337z" />
<glyph unicode="&#xd4;" horiz-adv-x="1850" d="M215 707q0 219 96 385.5t266 255t389 88.5q217 0 386 -85t266 -247.5t97 -377.5q0 -218 -95 -386.5t-267 -261.5t-395 -93q-147 0 -279 45.5t-236.5 133t-166 227.5t-61.5 316zM473 727q0 -231 143 -371t357 -140q89 0 172.5 29t154.5 86t114 155t43 223q0 126 -45 224.5 t-119 156t-160.5 86.5t-179.5 29q-70 0 -137 -17t-129.5 -55t-109.5 -92.5t-75.5 -135.5t-28.5 -178zM625 1586l373 357l339 -348l-166 -145l-189 194l-194 -191z" />
<glyph unicode="&#xd5;" horiz-adv-x="1850" d="M215 707q0 219 96 385.5t266 255t389 88.5q217 0 386 -85t266 -247.5t97 -377.5q0 -218 -95 -386.5t-267 -261.5t-395 -93q-147 0 -279 45.5t-236.5 133t-166 227.5t-61.5 316zM473 727q0 -231 143 -371t357 -140q89 0 172.5 29t154.5 86t114 155t43 223 q0 101 -29.5 185.5t-78.5 141t-115 95.5t-136.5 56.5t-144.5 17.5q-70 0 -137 -17t-129.5 -55t-109.5 -92.5t-75.5 -135.5t-28.5 -178zM542 1513l9 43q2 8 7.5 36t8.5 41.5t11 41t15 43.5t19 40t25 38.5t31.5 31.5t40 26t49.5 15.5t60 6.5q56 -2 107.5 -21.5t87 -46t65 -52 t52.5 -43.5t38 -18q6 0 11.5 2.5t10.5 7.5t8.5 11t7 16t6 18t5.5 21.5l5 22.5t5.5 25t5.5 26l9 39l205 -30l-9 -42q-2 -8 -5 -26q-7 -35 -11 -54.5t-14.5 -55t-21.5 -57t-31 -48.5t-44 -42t-59 -26t-77 -11q-69 3 -131.5 32t-98.5 62t-69 60.5t-51 27.5q-33 0 -53 -83 q-2 -9 -14 -66l-8 -38z" />
<glyph unicode="&#xd6;" horiz-adv-x="1850" d="M215 707q0 219 96 385.5t266 255t389 88.5q217 0 386 -85t266 -247.5t97 -377.5q0 -218 -95 -386.5t-267 -261.5t-395 -93q-147 0 -279 45.5t-236.5 133t-166 227.5t-61.5 316zM473 727q0 -231 143 -371t357 -140q89 0 172.5 29t154.5 86t114 155t43 223q0 126 -45 224.5 t-119 156t-160.5 86.5t-179.5 29q-70 0 -137 -17t-129.5 -55t-109.5 -92.5t-75.5 -135.5t-28.5 -178zM586 1631v267h291v-267h-291zM1075 1631v267h291v-267h-291z" />
<glyph unicode="&#xd7;" horiz-adv-x="1463" d="M182 328l371 326l-363 317l163 163l403 -332l394 326l163 -164l-369 -325l362 -318l-163 -163l-403 332l-394 -325z" />
<glyph unicode="&#xd8;" horiz-adv-x="1920" d="M159 128l193 161q-117 175 -117 418q0 219 96 385.5t266 255t389 88.5q317 0 522 -177l188 158l108 -128l-185 -155q116 -172 116 -408q0 -218 -95 -386.5t-267 -261.5t-395 -93q-147 0 -280.5 45t-234.5 133l-196 -164zM493 727q0 -150 64 -266l752 632 q-140 112 -333 112q-72 0 -140 -17.5t-130.5 -55t-109.5 -92.5t-75 -135.5t-28 -177.5zM663 331q137 -115 330 -115q89 0 172.5 29t154.5 86t114 155t43 223q0 146 -60 255z" />
<glyph unicode="&#xd9;" horiz-adv-x="1744" d="M290 495v926h252v-901q0 -51 7.5 -92t31.5 -83.5t63 -71t107.5 -46.5t160.5 -18q107 0 182 23t114.5 67.5t56.5 97.5t17 123v901h252v-926q0 -34 -1 -57t-7 -66.5t-16.5 -75.5t-33 -75.5t-53 -74.5t-79 -64.5t-109 -54t-145.5 -34t-186 -13.5q-98 0 -181 13.5t-142 34.5 t-106.5 54t-77 64.5t-51.5 74.5t-32.5 75.5t-16 76t-6.5 66.5t-1 56zM538 1778l126 195l643 -353l-114 -176z" />
<glyph unicode="&#xda;" horiz-adv-x="1744" d="M290 495v926h252v-901q0 -51 7.5 -92t31.5 -83.5t63 -71t107.5 -46.5t160.5 -18q107 0 182 23t114.5 67.5t56.5 97.5t17 123v901h252v-926q0 -34 -1 -57t-7 -66.5t-16.5 -75.5t-33 -75.5t-53 -74.5t-79 -64.5t-109 -54t-145.5 -34t-186 -13.5q-98 0 -181 13.5t-142 34.5 t-106.5 54t-77 64.5t-51.5 74.5t-32.5 75.5t-16 76t-6.5 66.5t-1 56zM546 1623l646 353l121 -195l-652 -337z" />
<glyph unicode="&#xdb;" horiz-adv-x="1744" d="M290 495v926h252v-901q0 -51 7.5 -92t31.5 -83.5t63 -71t107.5 -46.5t160.5 -18q107 0 182 23t114.5 67.5t56.5 97.5t17 123v901h252v-926q0 -34 -1 -57t-7 -66.5t-16.5 -75.5t-33 -75.5t-53 -74.5t-79 -64.5t-109 -54t-145.5 -34t-186 -13.5q-98 0 -181 13.5t-142 34.5 t-106.5 54t-77 64.5t-51.5 74.5t-32.5 75.5t-16 76t-6.5 66.5t-1 56zM544 1586l385 357l351 -349l-173 -144l-195 194l-199 -191z" />
<glyph unicode="&#xdc;" horiz-adv-x="1744" d="M290 495v926h252v-901q0 -51 7.5 -92t31.5 -83.5t63 -71t107.5 -46.5t160.5 -18q107 0 182 23t114.5 67.5t56.5 97.5t17 123v901h252v-926q0 -34 -1 -57t-7 -66.5t-16.5 -75.5t-33 -75.5t-53 -74.5t-79 -64.5t-109 -54t-145.5 -34t-186 -13.5q-98 0 -181 13.5t-142 34.5 t-106.5 54t-77 64.5t-51.5 74.5t-32.5 75.5t-16 76t-6.5 66.5t-1 56zM513 1631v267h297v-267h-297zM1014 1631v267h297v-267h-297z" />
<glyph unicode="&#xdd;" horiz-adv-x="1427" d="M100 1421h298l380 -551l388 551h288l-545 -757v-664h-283v664zM386 1623l641 353l124 -195l-652 -337z" />
<glyph unicode="&#xde;" horiz-adv-x="1490" d="M290 0v1421h252v-261q130 9 263 9q107 0 192 -10.5t162.5 -38t129 -71t81.5 -113.5t30 -163q0 -66 -15 -130t-49 -130.5t-100.5 -118.5t-159.5 -77q-132 -32 -392 -32q-72 0 -142 3v-288h-252zM542 521q104 -6 178 -6h32q68 0 116.5 3.5t104.5 17.5t90.5 38.5t57.5 69.5 t23 108q0 55 -22 95t-56.5 62.5t-88.5 36t-105.5 17.5t-120.5 4q-112 0 -209 -7v-439z" />
<glyph unicode="&#xdf;" horiz-adv-x="1422" d="M200 0v982q0 93 26 169t70 127t104 86t126 50.5t138 15.5q106 0 193 -34.5t139 -89.5t80 -119t28 -127q0 -55 -21.5 -101.5t-54.5 -77t-70.5 -58t-70.5 -46t-54.5 -39.5t-21.5 -40q0 -25 27 -43.5t70.5 -32.5t95.5 -29.5t104.5 -39.5t96 -57t70.5 -89t27 -128 q0 -39 -10.5 -78.5t-39 -81t-71 -73t-112.5 -52t-159 -20.5q-172 0 -365 49l-45 11l60 192l43 -8q173 -30 268 -30q99 0 137 25t38 76q0 37 -28.5 63t-74.5 42.5t-101 31.5t-110 35.5t-101 48t-74.5 75.5t-28.5 113q0 61 31.5 109.5t76 78.5t89 55.5t76 52.5t31.5 56 q0 65 -59.5 108t-128.5 43q-18 0 -38 -3t-50 -16.5t-53 -35.5t-40 -65t-17 -100v-981h-246z" />
<glyph unicode="&#xe0;" horiz-adv-x="1233" d="M123 273q0 74 36.5 129t96 88t151 53.5t185 28.5t214.5 9v35q0 29 -3.5 50t-17.5 46t-39.5 40.5t-73.5 26t-115 10.5q-122 0 -288 -44l-40 -11l-51 197l35 12q169 63 376 63q111 0 194 -19.5t134 -52t82 -80.5t42.5 -98t11.5 -112v-644h-184l-28 65q-134 -85 -313 -85 q-178 0 -291.5 87.5t-113.5 205.5zM336 1384l172 173l480 -378l-130 -163zM369 291q0 -37 61.5 -68.5t151.5 -31.5q127 0 224 64v141h-25q-209 0 -310.5 -24t-101.5 -81z" />
<glyph unicode="&#xe1;" horiz-adv-x="1233" d="M123 273q0 74 36.5 129t96 88t151 53.5t185 28.5t214.5 9v35q0 29 -3.5 50t-17.5 46t-39.5 40.5t-73.5 26t-115 10.5q-122 0 -288 -44l-40 -11l-51 197l35 12q169 63 376 63q111 0 194 -19.5t134 -52t82 -80.5t42.5 -98t11.5 -112v-644h-184l-28 65q-134 -85 -313 -85 q-178 0 -291.5 87.5t-113.5 205.5zM297 1189l505 378l147 -173l-508 -368zM369 291q0 -37 61.5 -68.5t151.5 -31.5q127 0 224 64v141h-25q-209 0 -310.5 -24t-101.5 -81z" />
<glyph unicode="&#xe2;" horiz-adv-x="1233" d="M123 273q0 74 36.5 129t96 88t151 53.5t185 28.5t214.5 9v35q0 29 -3.5 50t-17.5 46t-39.5 40.5t-73.5 26t-115 10.5q-122 0 -288 -44l-40 -11l-51 197l35 12q169 63 376 63q111 0 194 -19.5t134 -52t82 -80.5t42.5 -98t11.5 -112v-644h-184l-28 65q-134 -85 -313 -85 q-178 0 -291.5 87.5t-113.5 205.5zM244 1152l392 357l344 -348l-152 -145l-209 194l-220 -191zM369 291q0 -37 61.5 -68.5t151.5 -31.5q127 0 224 64v141h-25q-209 0 -310.5 -24t-101.5 -81z" />
<glyph unicode="&#xe3;" horiz-adv-x="1233" d="M123 273q0 62 24 110.5t71 81t106 55.5t138.5 35.5t159.5 18.5t178 7v35q0 24 -2.5 41.5t-10 39.5t-24.5 37t-42.5 28t-68 20t-97.5 7q-120 0 -286 -44l-40 -11l-51 197l35 12q169 63 373 63q111 0 195 -19.5t135 -52t82.5 -80.5t43 -98t11.5 -112v-644h-184l-28 65 q-145 -85 -315 -85q-176 0 -289.5 87.5t-113.5 205.5zM174 1079l26 128q19 89 50 137q63 98 187 98q75 -3 144 -32t109 -62t77 -60.5t55 -27.5q10 0 18 6.5t13 16t9.5 22.5t6.5 22.5t4 20t2 11.5l17 91l190 -30l-26 -127q-44 -235 -226 -235q-62 2 -119 21.5t-96 46 t-70.5 52t-57 43.5t-42.5 18q-41 0 -60 -93q-1 -3 -1 -5l-20 -88zM369 291q0 -37 60.5 -68.5t149.5 -31.5q126 0 221 64v141h-25q-206 0 -306 -24t-100 -81z" />
<glyph unicode="&#xe4;" horiz-adv-x="1233" d="M123 273q0 62 24 110.5t71 81t106.5 55.5t140 35.5t161 18.5t179.5 7v35q0 30 -3.5 50.5t-17.5 45.5t-39.5 40.5t-73 26t-114.5 10.5q-122 0 -288 -44l-40 -11l-51 197l35 12q169 63 376 63q111 0 194.5 -19.5t134 -52t81.5 -80.5t42.5 -98t11.5 -112v-644h-184l-28 65 q-136 -85 -314 -85t-291 87.5t-113 205.5zM259 1153v268h303v-268h-303zM369 291q0 -37 61.5 -68.5t150.5 -31.5q127 0 224 64v141h-25q-209 0 -310 -24t-101 -81zM785 1153v268h272v-268h-272z" />
<glyph unicode="&#xe5;" horiz-adv-x="1233" d="M123 273q0 74 36.5 129t96 88t151 53.5t185 28.5t214.5 9v35q0 29 -3.5 50t-17.5 46t-39.5 40.5t-73.5 26t-115 10.5q-122 0 -288 -44l-40 -11l-51 197l35 12q169 63 376 63q111 0 194 -19.5t134 -52t82 -80.5t42.5 -98t11.5 -112v-644h-184l-28 65q-134 -85 -313 -85 q-178 0 -291.5 87.5t-113.5 205.5zM331 1308q0 110 90 187.5t221 77.5q128 0 210 -76t82 -189q0 -112 -81.5 -189t-209.5 -77q-131 0 -221.5 77.5t-90.5 188.5zM369 291q0 -37 61.5 -68.5t151.5 -31.5q127 0 224 64v141h-25q-209 0 -310.5 -24t-101.5 -81zM534 1308 q0 -38 30.5 -65.5t78.5 -27.5q44 0 75 28t31 65t-31 64.5t-75 27.5q-47 0 -78 -27t-31 -65z" />
<glyph unicode="&#xe6;" horiz-adv-x="1838" d="M123 283q0 121 105 203t304 100q75 7 221 9v9q0 40 -10 73.5t-34 63t-69 46.5t-108 17q-96 0 -253 -39l-37 -10l-67 178l38 13q175 60 365 60q237 0 348 -146q75 68 172.5 107t203.5 39q86 0 153 -24t110 -68t72 -96.5t44 -121t20.5 -129t5.5 -131.5v-41h-684 q18 -87 113.5 -144t232.5 -57q89 0 201 34l42 13l45 -190l-34 -12q-161 -59 -322 -59q-246 0 -397 131q-137 -131 -378 -131q-163 0 -283 86.5t-120 216.5zM368 315q0 -47 58 -84.5t135 -37.5q110 0 192 72v171q-102 -1 -175 -9t-113 -19t-62.5 -27.5t-28.5 -31t-6 -34.5z M1031 601h436q-3 35 -14 64.5t-32 57t-59 43.5t-90 16q-100 0 -164 -51.5t-77 -129.5z" />
<glyph unicode="&#xe7;" horiz-adv-x="1165" d="M130 466q0 116 33.5 209t89.5 152.5t133 99t158.5 56t172.5 16.5q165 0 308 -62l35 -15l-65 -195l-39 13q-103 36 -215 36q-57 0 -105.5 -7.5t-96 -27t-80.5 -50t-53 -80t-20 -114.5q0 -307 376 -307q95 0 182 31l39 13l67 -189l-37 -14q-120 -46 -241 -55l-13 -43 q184 -53 184 -207q0 -89 -70.5 -156.5t-195.5 -67.5q-22 0 -46.5 2.5t-42 5t-49.5 9.5t-44.5 10t-52.5 13.5t-49 12.5l-47 11l58 170l47 -12q177 -45 227 -45h3q33 1 52 11.5t19 25.5q0 21 -34 34t-129 37q-48 12 -75 19l-45 11l55 172q-84 16 -152 49t-124 88t-87 141.5 t-31 198.5z" />
<glyph unicode="&#xe8;" horiz-adv-x="1266" d="M130 464q0 137 46 243.5t126 170.5t180 96.5t215 32.5q87 0 156.5 -18.5t114.5 -47t78 -74t50 -87t26.5 -99.5t11.5 -98t2 -95v-112h-756q22 -74 122.5 -128.5t264.5 -54.5q116 0 233 34l41 12l49 -190l-36 -12q-167 -57 -360 -57q-130 0 -231 29t-162.5 75t-101 111 t-54.5 130t-15 139zM351 1394l169 173l483 -378l-133 -163zM382 582h512q-8 109 -69 155t-169 46q-118 0 -189.5 -58t-84.5 -143z" />
<glyph unicode="&#xe9;" horiz-adv-x="1266" d="M130 464q0 137 46 243.5t126 170.5t180 96.5t215 32.5q87 0 156.5 -18.5t114.5 -47t78 -74t50 -87t26.5 -99.5t11.5 -98t2 -95v-112h-756q22 -74 122.5 -128.5t264.5 -54.5q116 0 233 34l41 12l49 -190l-36 -12q-167 -57 -360 -57q-130 0 -231 29t-162.5 75t-101 111 t-54.5 130t-15 139zM382 582h512q-8 109 -69 155t-169 46q-118 0 -189.5 -58t-84.5 -143zM401 1189l502 378l146 -173l-493 -368z" />
<glyph unicode="&#xea;" horiz-adv-x="1266" d="M130 464q0 137 46 243.5t126 170.5t180 96.5t215 32.5q87 0 156.5 -18.5t114.5 -47t78 -74t50 -87t26.5 -99.5t11.5 -98t2 -95v-112h-756q22 -74 122.5 -128.5t264.5 -54.5q116 0 233 34l41 12l49 -190l-36 -12q-167 -57 -360 -57q-130 0 -231 29t-162.5 75t-101 111 t-54.5 130t-15 139zM331 1152l398 357l338 -348l-152 -145l-203 194l-211 -191zM382 582h512q-8 109 -69 155t-169 46q-118 0 -189.5 -58t-84.5 -143z" />
<glyph unicode="&#xeb;" horiz-adv-x="1266" d="M130 464q0 137 46 243.5t126 170.5t180 96.5t215 32.5q87 0 156.5 -18.5t114.5 -47t78 -74t50 -87t26.5 -99.5t11.5 -98t2 -95v-112h-754q21 -74 121 -128.5t264 -54.5q116 0 233 34l41 12l49 -190l-36 -12q-167 -57 -360 -57q-130 0 -231 29t-162.5 75t-101 111 t-54.5 130t-15 139zM295 1153v268h302v-268h-302zM380 582h514q-8 109 -69 155t-169 46q-119 0 -191 -58t-85 -143zM814 1153v268h279v-268h-279z" />
<glyph unicode="&#xec;" horiz-adv-x="606" d="M0 1394l146 173l424 -378l-130 -163zM197 0v988h246v-988h-246z" />
<glyph unicode="&#xed;" horiz-adv-x="606" d="M112 1189l424 378l146 -173l-440 -368zM195 0v988h246v-988h-246z" />
<glyph unicode="&#xee;" horiz-adv-x="612" d="M17 1150l309 364l281 -355l-153 -145l-143 181l-145 -178zM196 0v988h246v-988h-246z" />
<glyph unicode="&#xef;" horiz-adv-x="606" d="M-15 1154v267h267v-267h-267zM180 0v988h246v-988h-246zM354 1154v267h267v-267h-267z" />
<glyph unicode="&#xf0;" horiz-adv-x="1416" d="M130 435q0 105 35.5 198.5t100.5 164t163 112t216 41.5q148 0 323 -68q-34 99 -124 178l-216 -108l-109 166l137 69q-70 34 -161 62l-51 15l112 201l38 -9q181 -43 331 -136l203 112l96 -166l-144 -83q88 -102 122 -224t34 -280q0 -82 -5.5 -150t-21.5 -142t-42 -132 t-69.5 -111t-101.5 -88t-141 -56t-185 -21q-248 0 -394 122t-146 333zM371 522q0 -140 93.5 -233t223.5 -93q42 0 83 11.5t87 40t80.5 89t47.5 145.5q10 73 10 188v39q-188 98 -327 98q-129 0 -213.5 -79t-84.5 -206z" />
<glyph unicode="&#xf1;" horiz-adv-x="1341" d="M180 0v988h183l29 -68q204 88 387 88q97 0 168 -26t111.5 -65t64.5 -98.5t31 -113.5t7 -122v-583h-247v580q0 19 -1 33.5t-6 36t-13 38t-24.5 34.5t-39.5 29.5t-57.5 19t-78.5 7.5q-120 0 -268 -55v-723h-246zM259 1085l26 127q20 96 58 147q65 87 184 87 q61 -2 117.5 -21.5t95 -46t70 -52t56.5 -43.5t40 -18q11 0 20 8t15 22t9.5 25.5t6 26.5t3.5 17l17 91l190 -30l-26 -127q-46 -236 -225 -236q-62 2 -118 21.5t-94.5 46t-70 52t-56.5 43.5t-42 18q-40 0 -61 -97l-21 -89z" />
<glyph unicode="&#xf2;" horiz-adv-x="1375" d="M130 484q0 241 151.5 382t412.5 141q248 0 399.5 -130.5t151.5 -364.5q0 -246 -154.5 -389t-415.5 -143q-248 0 -396.5 134.5t-148.5 369.5zM372 509q0 -130 90 -218.5t234 -88.5q131 0 219 77t88 204q0 73 -29 132.5t-76 95.5t-104 55t-116 19q-77 0 -145 -29 t-114.5 -94t-46.5 -153zM427 1394l168 173l477 -378l-139 -163z" />
<glyph unicode="&#xf3;" horiz-adv-x="1375" d="M130 484q0 241 151.5 382t412.5 141q248 0 399.5 -130.5t151.5 -364.5q0 -246 -154.5 -389t-415.5 -143q-248 0 -396.5 134.5t-148.5 369.5zM327 1189l481 378l168 -173l-506 -368zM372 509q0 -130 90 -218.5t234 -88.5q131 0 219 77t88 204q0 73 -29 132.5t-76 95.5 t-104 55t-116 19q-77 0 -145 -29t-114.5 -94t-46.5 -153z" />
<glyph unicode="&#xf4;" horiz-adv-x="1375" d="M130 484q0 241 151.5 382t412.5 141q248 0 399.5 -130.5t151.5 -364.5q0 -246 -154.5 -389t-415.5 -143q-248 0 -396.5 134.5t-148.5 369.5zM324 1152l386 357l350 -348l-165 -145l-201 194l-205 -191zM372 509q0 -130 90 -218.5t234 -88.5q131 0 219 77t88 204 q0 73 -29 132.5t-76 95.5t-104 55t-116 19q-77 0 -145 -29t-114.5 -94t-46.5 -153z" />
<glyph unicode="&#xf5;" horiz-adv-x="1375" d="M130 484q0 241 151.5 382t412.5 141q248 0 399.5 -130.5t151.5 -364.5q0 -246 -154.5 -389t-415.5 -143q-248 0 -396.5 134.5t-148.5 369.5zM239 1083l26 128q19 89 50 137q63 98 187 98q75 -3 144 -32t109 -62t77 -60.5t55 -27.5q10 0 18 6.5t13 16t9.5 22.5t6.5 22.5 t4 20t2 11.5l17 91l190 -30l-26 -127q-44 -235 -226 -235q-62 2 -119 21.5t-96 46t-70.5 52t-57 43.5t-42.5 18q-41 0 -60 -93q-1 -3 -1 -5l-20 -88zM372 509q0 -130 90 -218.5t234 -88.5q131 0 219 77t88 204q0 73 -29 132.5t-76 95.5t-104 55t-116 19q-77 0 -145 -29 t-114.5 -94t-46.5 -153z" />
<glyph unicode="&#xf6;" horiz-adv-x="1375" d="M130 484q0 241 151.5 382t412.5 141q248 0 399.5 -130.5t151.5 -364.5q0 -246 -154.5 -389t-415.5 -143q-248 0 -396.5 134.5t-148.5 369.5zM319 1153v268h299v-268h-299zM372 509q0 -130 90 -218.5t234 -88.5q131 0 219 77t88 204q0 73 -29 132.5t-76 95.5t-104 55 t-116 19q-77 0 -145 -29t-114.5 -94t-46.5 -153zM827 1153v268h290v-268h-290z" />
<glyph unicode="&#xf7;" horiz-adv-x="1564" d="M125 547v221h1314v-221h-1314zM628 83v277h307v-277h-307zM628 956v277h307v-277h-307z" />
<glyph unicode="&#xf8;" horiz-adv-x="1375" d="M122 64l111 99q-103 128 -103 321q0 241 151.5 382t412.5 141q220 0 363 -102l127 115l107 -119l-123 -111q77 -118 77 -278q0 -246 -154.5 -389t-415.5 -143q-187 0 -320 78l-125 -113zM372 509q0 -98 52 -173l442 397q-83 52 -188 52q-77 0 -145 -29t-114.5 -94 t-46.5 -153zM548 232q68 -30 148 -30q131 0 219 77t88 204q0 71 -29 132z" />
<glyph unicode="&#xf9;" horiz-adv-x="1341" d="M180 404v584h246v-582q0 -26 2.5 -46t14.5 -50.5t34 -50.5t66 -35t104 -15q120 0 268 55v724h246v-988h-183l-29 67q-201 -87 -387 -87q-97 0 -168 25.5t-111.5 65t-64.5 98.5t-31 113t-7 122zM368 1394l164 173l488 -378l-135 -163z" />
<glyph unicode="&#xfa;" horiz-adv-x="1341" d="M180 404v584h246v-582q0 -26 2.5 -46t14.5 -50.5t34 -50.5t66 -35t104 -15q120 0 268 55v724h246v-988h-183l-29 67q-201 -87 -387 -87q-97 0 -168 25.5t-111.5 65t-64.5 98.5t-31 113t-7 122zM387 1189l502 378l150 -173l-503 -368z" />
<glyph unicode="&#xfb;" horiz-adv-x="1341" d="M180 404v584h246v-582q0 -26 2.5 -46t14.5 -50.5t34 -50.5t66 -35t104 -15q120 0 268 55v724h246v-988h-183l-29 67q-201 -87 -387 -87q-97 0 -168 25.5t-111.5 65t-64.5 98.5t-31 113t-7 122zM311 1152l388 357l348 -348l-156 -145l-210 194l-213 -191z" />
<glyph unicode="&#xfc;" horiz-adv-x="1341" d="M180 404v584h246v-582q0 -26 2.5 -46t14.5 -50.5t34 -50.5t66 -35t104 -15q120 0 268 55v724h246v-988h-183l-29 67q-201 -87 -387 -87q-97 0 -168 25.5t-111.5 65t-64.5 98.5t-31 113t-7 122zM276 1153v268h291v-268h-291zM784 1153v268h289v-268h-289z" />
<glyph unicode="&#xfd;" horiz-adv-x="1214" d="M50 988h259l329 -759l305 759h259l-652 -1519h-296l245 534zM421 1189l487 378l150 -173l-488 -368z" />
<glyph unicode="&#xfe;" horiz-adv-x="1385" d="M190 -531v1952h258v-488q120 70 278 70q152 0 271 -58t188.5 -171.5t69.5 -264.5q0 -152 -66.5 -273t-190 -190t-282.5 -69q-144 0 -268 66v-574h-258zM437 470q0 -39 4.5 -72t20.5 -71.5t43.5 -65t77 -44.5t116.5 -18q40 0 80.5 8.5t83.5 29.5t75.5 52t53.5 81t21 112 q0 72 -28.5 130.5t-75.5 94t-102.5 54.5t-112.5 19q-126 0 -191.5 -71t-65.5 -239z" />
<glyph unicode="&#xff;" horiz-adv-x="1214" d="M50 988h259l329 -759l305 759h259l-652 -1519h-296l245 534zM240 1153v268h297v-268h-297zM746 1153v268h292v-268h-292z" />
<glyph unicode="&#x152;" horiz-adv-x="2162" d="M215 703q0 336 187 520q59 55 134.5 94t143.5 59t160.5 30.5t152.5 12.5t153 2h856v-232h-643v-341h588v-232h-588v-384h643v-232h-951q-134 0 -238 11t-199 47q-187 72 -293 234.5t-106 410.5zM467 702q0 -76 18 -141t45.5 -110t65.5 -82t73 -58.5t73 -37.5 q61 -26 118.5 -33.5t138.5 -7.5h91v957h-17q-124 0 -194 -9q-196 -27 -304 -152.5t-108 -325.5z" />
<glyph unicode="&#x153;" horiz-adv-x="1967" d="M130 486q0 237 142 376.5t382 139.5q256 0 394 -167q46 51 102 85.5t110.5 50t94.5 21t78 5.5q79 0 142 -18t104.5 -46.5t72 -73t46.5 -87t25 -99.5t11.5 -99.5t2.5 -97.5v-110h-676q19 -78 105 -135.5t231 -57.5q89 0 203 30l42 11l45 -168l-34 -11q-157 -58 -325 -58 q-269 0 -408 156q-145 -153 -386 -153q-230 0 -367 137t-137 369zM372 501q0 -127 79 -214t203 -87q107 0 180 71.5t73 204.5q0 79 -24.5 140t-64.5 95.5t-86.5 51.5t-95.5 17q-118 0 -191 -78.5t-73 -200.5zM1163 572h434q-6 131 -57.5 186.5t-142.5 55.5q-101 0 -162 -70 t-72 -172z" />
<glyph unicode="&#x178;" horiz-adv-x="1427" d="M100 1421h298l380 -551l388 551h288l-545 -757v-664h-283v664zM376 1631v267h296v-267h-296zM877 1631v267h298v-267h-298z" />
<glyph unicode="&#x2c6;" horiz-adv-x="1479" d="M384 1244l342 357l312 -348l-152 -145l-175 194l-177 -191z" />
<glyph unicode="&#x2dc;" horiz-adv-x="1400" d="M251 1264l18 38q4 8 16.5 35t19.5 41t21.5 40.5t26.5 42t29.5 38t35.5 35t40 25.5t48 19t54 6q52 -3 98 -22.5t77.5 -45.5t57 -52t48 -44t39.5 -18q9 0 17 4t16.5 13.5t15 19t15 25.5t15 28.5t16.5 33.5t17 35l18 35l179 -80l-18 -38q-3 -7 -16.5 -35t-20 -41t-21 -40 t-26 -42t-29.5 -37.5t-36 -34.5t-40 -25.5t-48 -19t-54 -5.5q-52 3 -98 22.5t-77.5 45.5t-57.5 52t-48 44t-39 18q-12 0 -23 -7t-23 -26t-19 -32.5t-23 -46.5t-24 -49l-18 -35z" />
<glyph unicode="&#x2000;" horiz-adv-x="988" />
<glyph unicode="&#x2001;" horiz-adv-x="1976" />
<glyph unicode="&#x2002;" horiz-adv-x="988" />
<glyph unicode="&#x2003;" horiz-adv-x="1976" />
<glyph unicode="&#x2004;" horiz-adv-x="658" />
<glyph unicode="&#x2005;" horiz-adv-x="494" />
<glyph unicode="&#x2006;" horiz-adv-x="329" />
<glyph unicode="&#x2007;" horiz-adv-x="329" />
<glyph unicode="&#x2008;" horiz-adv-x="247" />
<glyph unicode="&#x2009;" horiz-adv-x="395" />
<glyph unicode="&#x200a;" horiz-adv-x="109" />
<glyph unicode="&#x2010;" horiz-adv-x="1210" d="M134 548v221h942v-221h-942z" />
<glyph unicode="&#x2011;" horiz-adv-x="1210" d="M134 548v221h942v-221h-942z" />
<glyph unicode="&#x2012;" horiz-adv-x="1210" d="M134 548v221h942v-221h-942z" />
<glyph unicode="&#x2013;" horiz-adv-x="1241" d="M0 548v221h1241v-221h-1241z" />
<glyph unicode="&#x2014;" horiz-adv-x="1466" d="M0 548v221h1466v-221h-1466z" />
<glyph unicode="&#x2018;" horiz-adv-x="450" d="M35 1552h281l149 -515h-281z" />
<glyph unicode="&#x2019;" horiz-adv-x="450" d="M-15 1037l149 515h281l-149 -515h-281z" />
<glyph unicode="&#x201a;" horiz-adv-x="450" d="M-15 -257l149 515h281l-149 -515h-281z" />
<glyph unicode="&#x201c;" horiz-adv-x="830" d="M-15 1037l149 515h281l-149 -515h-281zM365 1037l149 515h281l-149 -515h-281z" />
<glyph unicode="&#x201d;" horiz-adv-x="830" d="M-15 1037l149 515h281l-149 -515h-281zM365 1037l149 515h281l-149 -515h-281z" />
<glyph unicode="&#x201e;" horiz-adv-x="830" d="M-15 -260l149 515h281l-149 -515h-281zM365 -260l149 515h281l-149 -515h-281z" />
<glyph unicode="&#x2022;" horiz-adv-x="640" d="M149 562v342h342v-342h-342z" />
<glyph unicode="&#x2026;" horiz-adv-x="1720" d="M139 -41v292h292v-292h-292zM704 -41v292h292v-292h-292zM1269 -41v292h292v-292h-292z" />
<glyph unicode="&#x202f;" horiz-adv-x="395" />
<glyph unicode="&#x2039;" horiz-adv-x="607" d="M25 623l283 406h289l-305 -406l305 -406h-288z" />
<glyph unicode="&#x203a;" horiz-adv-x="607" d="M10 217l305 406l-305 406h288l284 -406l-283 -406h-289z" />
<glyph unicode="&#x205f;" horiz-adv-x="494" />
<glyph unicode="&#x20ac;" horiz-adv-x="1335" d="M9 463v212h202q-1 10 -1 33q0 44 5 99h-142v212h187q74 210 240 331.5t390 121.5q182 0 364 -79l35 -15l-73 -218l-40 16q-167 64 -289 64q-117 0 -211 -59t-153 -162h426v-212h-497q-7 -45 -7 -99q0 -22 1 -33h439v-212h-390q56 -129 165 -207.5t258 -78.5q129 0 275 57 l39 15l74 -200l-33 -16q-196 -94 -393 -94q-238 0 -408.5 143t-231.5 381h-231z" />
<glyph unicode="&#x2122;" horiz-adv-x="1424" d="M85 1406v130h498v-130h-175v-488h-148v488h-175zM665 918v618h156l157 -289l151 289h160v-618h-148v373l-120 -221h-98l-110 218v-370h-148z" />
<glyph unicode="&#x25fc;" horiz-adv-x="990" d="M0 0v990h990v-990h-990z" />
<glyph unicode="&#xfb01;" horiz-adv-x="1590" d="M135 777v211h163v59q0 33 0.5 53t4.5 55t11.5 58t22 54.5t35 52t52.5 43t73 36t97 22t124 8.5q125 0 262 -41l36 -11l-41 -200l-42 10q-95 23 -148 23q-123 0 -182 -41t-59 -115v-66h395v-211h-395v-777h-246v777h-163zM1149 1150v271h276v-271h-276zM1164 0v988h246 v-988h-246z" />
<glyph unicode="&#xfb02;" horiz-adv-x="1630" d="M135 777v211h163v59q0 33 0.5 53t4.5 55t11.5 58t22 54.5t35 52t52.5 43t73 36t97 22t124 8.5q125 0 262 -41l36 -11l-41 -200l-42 10q-95 23 -148 23q-123 0 -182 -41t-59 -115v-66h395v-211h-395v-777h-246v777h-163zM1184 0v1511h246v-1511h-246z" />
<glyph unicode="&#xfb03;" horiz-adv-x="2574" d="M135 777v211h163v59q0 33 0.5 53t4.5 55t11.5 58t22 54.5t35 52t52.5 43t73 36t97 22t124 8.5q125 0 262 -41l36 -11l-41 -200l-42 10q-95 23 -148 23q-123 0 -182 -41t-59 -115v-66h738v59q0 33 0.5 53t4.5 55t11.5 58t22 54.5t35 52t52.5 43t73 36t97 22t124 8.5 q125 0 262 -41l36 -11l-41 -200l-42 10q-95 23 -148 23q-123 0 -182 -41t-59 -115v-66h395v-211h-395v-777h-246v777h-738v-777h-246v777h-163zM2133 1150v271h276v-271h-276zM2148 0v988h246v-988h-246z" />
<glyph unicode="&#xfb04;" horiz-adv-x="2614" d="M135 777v211h163v59q0 33 0.5 53t4.5 55t11.5 58t22 54.5t35 52t52.5 43t73 36t97 22t124 8.5q125 0 262 -41l36 -11l-41 -200l-42 10q-95 23 -148 23q-123 0 -182 -41t-59 -115v-66h738v59q0 33 0.5 53t4.5 55t11.5 58t22 54.5t35 52t52.5 43t73 36t97 22t124 8.5 q125 0 262 -41l36 -11l-41 -200l-42 10q-95 23 -148 23q-123 0 -182 -41t-59 -115v-66h395v-211h-395v-777h-246v777h-738v-777h-246v777h-163zM2168 0v1511h246v-1511h-246z" />
</font>
</defs>
</svg>
