<?xml version="1.0" encoding="UTF-8" standalone="no"?>
<!DOCTYPE svg  PUBLIC '-//W3C//DTD SVG 1.1//EN'  'http://www.w3.org/Graphics/SVG/1.1/DTD/svg11.dtd'>
<svg xmlns="http://www.w3.org/2000/svg">
<defs>
<font id="LaoUI-Regular" horiz-adv-x="1104">
<font-face underline-position="-119" font-weight="400" descent="-410" panose-1="2 11 5 2 4 2 4 2 2 3" units-per-em="2048" unicode-range="U+000D-25CA" bbox="-312 -482 2398 1899" x-height="1024" underline-thickness="119" font-family="LaoUI" ascent="1638" cap-height="1434"/>
<missing-glyph horiz-adv-x="2048"/>
<glyph glyph-name=".notdef" horiz-adv-x="2048"/>
<glyph glyph-name=".null" horiz-adv-x="0"/>
<glyph glyph-name="uni000D" horiz-adv-x="0" unicode=""/>
<glyph glyph-name="space" horiz-adv-x="561" unicode=" "/>
<glyph glyph-name="exclam" horiz-adv-x="582" unicode="!" d="M291 -18q-46 0 -78.5 32t-32.5 78t32.5 78.5t78.5 32.5q45 0 78 -32.5t33 -78.5t-33 -78t-78 -32zM375 1434l-19 -1030h-135l-18 1030h172z"/>
<glyph glyph-name="quotedbl" horiz-adv-x="803" unicode='&quot;' d="M655 1434l-30 -447h-115l-30 447h175zM323 1434l-30 -447h-115l-30 447h175z"/>
<glyph glyph-name="numbersign" horiz-adv-x="1210" unicode="#" d="M758 926h-252l-66 -300h254zM1166 1032l-23 -106h-261l-63 -300h281l-27 -106h-275l-88 -397h-126l86 397h-250l-84 -397h-125l84 397h-262l20 106h265l61 300h-277l21 106h277l84 402h126l-84 -402h252l86 402h123l-84 -402h263z"/>
<glyph glyph-name="dollar" d="M616 600v-452q193 42 193 208q0 138 -193 244zM512 828v466q-84 -17 -133 -74.5t-49 -139.5q0 -86 40 -141t142 -111zM616 8v-217h-104v209q-213 0 -346 86v174q58 -51 158.5 -85.5t187.5 -34.5v512q-220 106 -285 195.5t-65 211.5q0 145 99 250.5t251 126.5v180h104 v-176q196 -6 271 -56v-170q-102 80 -271 86v-528q208 -99 284.5 -191.5t76.5 -210.5q0 -142 -95.5 -238.5t-265.5 -123.5z" unicode="$"/>
<glyph glyph-name="percent" horiz-adv-x="1676" unicode="%" d="M1272 608q-96 0 -150.5 -70t-54.5 -194q0 -119 54 -186.5t147 -67.5q94 0 147 70.5t53 193.5q0 122 -52.5 188t-143.5 66zM1258 -22q-148 0 -236 98t-88 260q0 178 94 281.5t250 103.5q152 0 237 -96t85 -269q0 -171 -94.5 -274.5t-247.5 -103.5zM1364 1434l-920 -1444 h-143l919 1444h144zM418 1346q-95 0 -150 -70.5t-55 -193.5q0 -121 54 -188.5t147 -67.5q94 0 147 70t53 194q0 121 -52.5 188.5t-143.5 67.5zM404 715q-148 0 -236 97.5t-88 260.5q0 178 93 280.5t251 102.5q153 0 237.5 -95t84.5 -267t-94.5 -275.5t-247.5 -103.5z"/>
<glyph glyph-name="ampersand" horiz-adv-x="1639" unicode="&amp;" d="M856 1140q0 50 -18.5 85t-47 58t-63.5 33.5t-69 10.5q-98 0 -156.5 -53t-59.5 -144q0 -41 12.5 -77t35 -67t52.5 -55t64 -41q126 44 188 102.5t62 147.5zM606 119q76 0 140 16.5t118 44t98 64t80 76.5q-61 95 -112.5 162.5t-104 116.5t-112 84t-137.5 65 q-63 -25 -116 -55.5t-91.5 -72t-60.5 -96.5t-22 -129q0 -68 25 -120t68.5 -86.5t101.5 -52t125 -17.5zM1445 -23q-57 0 -100.5 15.5t-80.5 44t-71.5 69.5t-72.5 93q-40 -43 -92.5 -83t-116.5 -71t-140 -49.5t-165 -18.5q-108 0 -198 27t-154 79.5t-99.5 129.5t-35.5 177 q0 153 87 261.5t246 177.5q-30 22 -60 51.5t-53.5 67t-38 83t-14.5 99.5q0 79 28.5 140t78.5 103t118 63.5t147 21.5q78 0 142.5 -21.5t111 -61.5t72.5 -96t26 -125q0 -120 -68.5 -199.5t-205.5 -135.5q69 -27 125 -66t103.5 -87t88.5 -103t81 -114q81 113 122 249t41 285 q0 38 -4.5 71.5t-12.5 66.5h159q8 -33 9.5 -62.5t3.5 -70.5q0 -91 -19 -183t-51 -178.5t-74.5 -164.5t-89.5 -143q35 -48 64 -83.5t58.5 -59.5t61 -35.5t71.5 -11.5q30 0 61 8t64 20v-152q-36 -14 -75.5 -21t-77.5 -7z"/>
<glyph glyph-name="quotesingle" horiz-adv-x="471" unicode="&apos;" d="M323 1434l-30 -447h-115l-30 447h175z"/>
<glyph glyph-name="parenleft" horiz-adv-x="618" unicode="(" d="M596 -326h-146q-310 354 -310 873q0 521 310 887h148q-314 -380 -314 -885q0 -501 312 -875z"/>
<glyph glyph-name="parenright" horiz-adv-x="618" unicode=")" d="M170 -326h-146q312 374 312 875q0 505 -314 885h148q312 -366 312 -887q0 -519 -312 -873z"/>
<glyph glyph-name="asterisk" horiz-adv-x="854" unicode="*" d="M780 1104l-274 -56l190 -243l-110 -76l-156 265l-158 -265l-110 76l190 243l-276 56l45 125l262 -99l-23 304h138l-23 -304l263 99z"/>
<glyph glyph-name="plus" horiz-adv-x="1401" unicode="+" d="M1172 530h-404v-403h-133v403h-403v134h403v403h133v-403h404v-134z"/>
<glyph glyph-name="comma" horiz-adv-x="444" unicode="," d="M316 228l-160 -492h-117l117 492h160z"/>
<glyph glyph-name="hyphen" horiz-adv-x="819" unicode="-" d="M690 506h-546v129h546v-129z"/>
<glyph glyph-name="period" horiz-adv-x="444" unicode="." d="M223 -22q-46 0 -78.5 33t-32.5 79t32.5 79.5t78.5 33.5q47 0 80 -33.5t33 -79.5t-33 -79t-80 -33z"/>
<glyph glyph-name="slash" horiz-adv-x="798" unicode="/" d="M813 1434l-688 -1672h-153l686 1672h155z"/>
<glyph glyph-name="zero" d="M561 1319q-307 0 -307 -623q0 -582 301 -582q297 0 297 592q0 613 -291 613zM538 -24q-213 0 -332.5 183t-119.5 529q0 380 124.5 575t359.5 195q450 0 450 -735q0 -364 -127 -555.5t-355 -191.5z" unicode="0"/>
<glyph glyph-name="one" d="M987 0h-811v144h324v1114l-332 -99v156l496 151v-1322h323v-144z" unicode="1"/>
<glyph glyph-name="two" d="M960 0h-864v146l418 419q160 160 228.5 266.5t68.5 227.5q0 124 -71 192t-202 68q-192 0 -368 -164v172q168 131 391 131q192 0 302 -104t110 -279q0 -138 -76 -269.5t-273 -326.5l-331 -327v-4h667v-148z" unicode="2"/>
<glyph glyph-name="three" d="M131 53v177q147 -116 332 -116q150 0 239.5 75t89.5 202q0 281 -399 281h-119v139h113q355 0 355 264q0 244 -271 244q-151 0 -285 -103v160q138 82 326 82q181 0 289.5 -96t108.5 -246q0 -283 -288 -364v-4q155 -15 246.5 -108.5t91.5 -233.5q0 -193 -138.5 -311.5 t-365.5 -118.5q-204 0 -325 77z" unicode="3"/>
<glyph glyph-name="four" d="M688 514v620q0 66 4 148h-4q-14 -36 -55 -110l-441 -658h496zM1034 381h-184v-381h-162v381h-674v107l638 946h198v-920h184v-133z" unicode="4"/>
<glyph glyph-name="five" d="M164 35v174q147 -95 299 -95t245 86t93 228q0 141 -95 220t-272 79q-60 0 -225 -12v719h694v-148h-539v-420q66 4 122 4q230 0 356 -115.5t126 -316.5q0 -208 -135.5 -335t-371.5 -127q-199 0 -297 59z" unicode="5"/>
<glyph glyph-name="six" d="M576 758q-127 0 -206 -86t-79 -203q0 -147 78.5 -251t208.5 -104q124 0 200 90.5t76 229.5q0 152 -73 238t-205 86zM934 1417v-155q-111 57 -234 57q-191 0 -305.5 -170t-114.5 -455h4q100 203 328 203q188 0 299 -120.5t111 -322.5q0 -211 -127 -344.5t-323 -133.5 q-216 0 -339 172t-123 483q0 377 161 602t425 225q150 0 238 -41z" unicode="6"/>
<glyph glyph-name="seven" d="M1010 1382l-568 -1382h-170l537 1286h-723v148h924v-52z" unicode="7"/>
<glyph glyph-name="eight" d="M542 674q-274 -109 -274 -316q0 -107 79.5 -175.5t209.5 -68.5q124 0 202.5 67.5t78.5 170.5q0 216 -296 322zM790 1106q0 99 -62 156t-169 57q-100 0 -169.5 -59.5t-69.5 -151.5q0 -187 233 -282q237 98 237 280zM410 752v4q-258 120 -258 348q0 155 118 254.5t304 99.5 q168 0 276 -93t108 -239q0 -238 -266 -370v-4q314 -112 314 -388q0 -178 -128 -283t-356 -105q-184 0 -303 104t-119 270q0 276 310 402z" unicode="8"/>
<glyph glyph-name="nine" d="M540 1319q-119 0 -198.5 -89.5t-79.5 -227.5q0 -151 78 -237.5t211 -86.5q116 0 196.5 79t80.5 193q0 163 -80 266t-208 103zM172 24v158q120 -68 254 -68q195 0 303.5 157t108.5 446q-2 -1 -4 0q-92 -185 -320 -185q-184 0 -302 125t-118 322q0 210 129.5 344.5 t331.5 134.5q212 0 330.5 -167.5t118.5 -487.5q0 -397 -154 -612t-428 -215q-144 0 -250 48z" unicode="9"/>
<glyph glyph-name="colon" horiz-adv-x="444" unicode=":" d="M223 -22q-46 0 -78.5 33t-32.5 79t32.5 79.5t78.5 33.5q47 0 80 -33.5t33 -79.5t-33 -79t-80 -33zM223 824q-46 0 -78.5 33t-32.5 79t32.5 78t78.5 32q47 0 80 -32t33 -78t-33 -79t-80 -33z"/>
<glyph glyph-name="semicolon" horiz-adv-x="444" unicode=";" d="M316 228l-160 -492h-117l117 492h160zM226 824q-47 0 -79.5 33t-32.5 79t32.5 78t79.5 32q46 0 79 -32t33 -78t-33 -79t-79 -33z"/>
<glyph glyph-name="less" horiz-adv-x="1401" unicode="&lt;" d="M1132 127l-860 432v59l860 482v-150l-642 -356v-4l642 -314v-149z"/>
<glyph glyph-name="equal" horiz-adv-x="1401" unicode="=" d="M1172 318h-940v132h940v-132zM1172 744h-940v132h940v-132z"/>
<glyph glyph-name="greater" horiz-adv-x="1401" unicode="&gt;" d="M1132 559l-860 -432v149l644 312v6l-644 356v150l860 -482v-59z"/>
<glyph glyph-name="question" horiz-adv-x="918" unicode="?" d="M425 -18q-44 0 -78 32q-33 32 -33 78q0 47 33 78q33 33 78 33t78 -33q33 -31 33 -78q0 -46 -33 -78q-34 -32 -78 -32zM335 398q-9 26 -16 67.5t-7 82.5q0 64 25.5 115.5t63.5 96.5t83 86.5t83 84t63.5 89t25.5 102.5q0 48 -18.5 85t-50.5 62t-74 37.5t-89 12.5 q-169 0 -293 -133v176q153 96 317 96q76 0 143 -20t117.5 -59.5t79.5 -98.5t29 -137q0 -74 -26 -132t-65.5 -106.5t-85.5 -90.5t-85.5 -83.5t-65.5 -86.5t-26 -99q0 -46 11 -83.5t22 -63.5h-161z"/>
<glyph glyph-name="at" horiz-adv-x="1956" unicode="@" d="M985 964q-124 0 -200.5 -118t-76.5 -293q0 -118 51.5 -186t137.5 -68q124 0 196.5 123.5t72.5 327.5q0 214 -181 214zM1164 420h-5q-73 -238 -287 -238q-137 0 -220.5 101t-83.5 272q0 226 115.5 375.5t303.5 149.5q72 0 128.5 -37t72.5 -93h4q2 28 10 115h125 q-47 -551 -47 -561q0 -207 119 -207q108 0 179.5 117t71.5 303q0 275 -174 449t-482 174q-297 0 -491 -208t-194 -520q0 -307 184.5 -495.5t497.5 -188.5q247 0 422 82v-124q-173 -74 -432 -74q-364 0 -586.5 219.5t-222.5 574.5q0 366 233.5 607t596.5 241q340 0 563 -202 t223 -527q0 -238 -117.5 -390.5t-286.5 -152.5q-219 0 -220 238z"/>
<glyph glyph-name="A" horiz-adv-x="1321" unicode="A" d="M905 553l-225 611q-11 30 -22 96h-4q-10 -61 -23 -96l-223 -611h497zM1298 0h-186l-152 402h-608l-143 -402h-187l550 1434h174z"/>
<glyph glyph-name="B" horiz-adv-x="1174" unicode="B" d="M356 668v-516h228q148 0 229.5 70t81.5 192q0 254 -346 254h-193zM356 1282v-463h172q138 0 217 66.5t79 187.5q0 209 -275 209h-193zM188 0v1434h408q186 0 295 -91t109 -237q0 -122 -66 -212t-182 -128v-4q145 -17 232 -109.5t87 -240.5q0 -184 -132 -298t-333 -114 h-418z"/>
<glyph glyph-name="C" horiz-adv-x="1268" unicode="C" d="M1164 60q-159 -84 -396 -84q-306 0 -490 197t-184 517q0 344 207 556t525 212q204 0 338 -59v-179q-154 86 -340 86q-247 0 -400.5 -165t-153.5 -441q0 -262 143.5 -417.5t376.5 -155.5q216 0 374 96v-163z"/>
<glyph glyph-name="D" horiz-adv-x="1436" unicode="D" d="M356 1282v-1130h214q282 0 439 151t157 428q0 551 -586 551h-224zM188 0v1434h396q758 0 758 -699q0 -332 -210.5 -533.5t-563.5 -201.5h-380z"/>
<glyph glyph-name="E" horiz-adv-x="1036" unicode="E" d="M948 0h-760v1434h728v-152h-560v-477h518v-151h-518v-502h592v-152z"/>
<glyph glyph-name="F" horiz-adv-x="1000" unicode="F" d="M916 1282h-560v-496h518v-151h-518v-635h-168v1434h728v-152z"/>
<glyph glyph-name="G" horiz-adv-x="1405" unicode="G" d="M1260 98q-216 -122 -480 -122q-307 0 -496.5 198t-189.5 524q0 333 210.5 546.5t533.5 213.5q234 0 393 -76v-186q-174 110 -412 110q-241 0 -395 -166t-154 -430q0 -272 143 -427.5t388 -155.5q168 0 291 67v402h-314v152h482v-650z"/>
<glyph glyph-name="H" horiz-adv-x="1454" unicode="H" d="M1266 0h-168v654h-742v-654h-168v1434h168v-629h742v629h168v-1434z"/>
<glyph glyph-name="I" horiz-adv-x="545" unicode="I" d="M496 1434v-144h-140v-1146h140v-144h-448v144h140v1146h-140v144h448z"/>
<glyph glyph-name="J" horiz-adv-x="731" unicode="J" d="M555 514q0 -255 -108 -396.5t-289 -141.5q-84 0 -138 24v166q54 -39 140 -39q227 0 227 385v922h168v-920z"/>
<glyph glyph-name="K" horiz-adv-x="1188" unicode="K" d="M1186 0h-234l-554 656q-31 37 -38 50h-4v-706h-168v1434h168v-674h4q14 22 38 49l536 625h209l-615 -688z"/>
<glyph glyph-name="L" horiz-adv-x="964" unicode="L" d="M932 0h-744v1434h168v-1282h576v-152z"/>
<glyph glyph-name="M" horiz-adv-x="1839" unicode="M" d="M1650 0h-167v962q0 114 14 279h-4q-24 -97 -43 -139l-490 -1102h-82l-489 1094q-21 48 -43 147h-4q8 -86 8 -281v-960h-162v1434h222l440 -1000q51 -115 66 -172h6q43 118 69 176l449 996h210v-1434z"/>
<glyph glyph-name="N" horiz-adv-x="1532" unicode="N" d="M1344 0h-206l-738 1143q-28 43 -46 90h-6q8 -46 8 -197v-1036h-168v1434h218l718 -1125q45 -70 58 -96h4q-10 62 -10 211v1010h168v-1434z"/>
<glyph glyph-name="O" horiz-adv-x="1544" unicode="O" d="M778 1306q-226 0 -367 -163t-141 -428t137.5 -426.5t358.5 -161.5q236 0 372 154t136 431q0 284 -132 439t-364 155zM766 -24q-305 0 -488.5 201t-183.5 523q0 346 187 552t509 206q297 0 478.5 -200t181.5 -523q0 -351 -186 -555t-498 -204z"/>
<glyph glyph-name="P" horiz-adv-x="1147" unicode="P" d="M356 1282v-588h176q174 0 265.5 79.5t91.5 224.5q0 284 -336 284h-197zM356 542v-542h-168v1434h394q230 0 356.5 -112t126.5 -316t-140.5 -334t-379.5 -130h-189z"/>
<glyph glyph-name="Q" horiz-adv-x="1544" unicode="Q" d="M778 1306q-226 0 -367 -163t-141 -428q0 -264 137 -427q138 -161 359 -161q236 0 372 154t136 431q0 285 -132 439q-132 155 -364 155zM756 -24q-64 0 -130 12.5t-128 38t-118.5 63t-102.5 87.5q-183 200 -183 523q0 347 186 552q188 206 514 206q292 0 474 -200 t182 -523q0 -136 -30.5 -256.5t-92.5 -217.5t-156 -164.5t-222 -96.5q52 -56 97.5 -99t91 -72.5t94.5 -44.5t108 -15q16 0 35 1.5t38.5 5t37.5 8t33 10.5v-162q-16 -5 -36 -8.5t-40.5 -6t-40.5 -4t-37 -1.5q-96 0 -172.5 28.5t-143 78t-128.5 115.5t-130 142z"/>
<glyph glyph-name="R" horiz-adv-x="1225" unicode="R" d="M356 1282v-520h228q63 0 116.5 19t92.5 54.5t61 87t22 115.5q0 115 -74.5 179.5t-215.5 64.5h-230zM1216 0h-200l-240 402q-33 56 -64 95.5t-63.5 64.5t-70 36.5t-84.5 11.5h-138v-610h-168v1434h428q94 0 173.5 -23.5t138 -71.5t91.5 -119.5t33 -167.5 q0 -75 -22.5 -137.5t-64 -111.5t-100 -83.5t-131.5 -53.5v-4q36 -16 62.5 -36.5t50.5 -48.5t47.5 -63.5t52.5 -82.5z"/>
<glyph glyph-name="S" horiz-adv-x="1088" unicode="S" d="M121 58v198q34 -30 81.5 -54t100 -40.5t105.5 -25.5t98 -9q155 0 231.5 57.5t76.5 165.5q0 58 -25.5 101t-70.5 78.5t-106.5 68t-132.5 68.5q-75 38 -140 77t-113 86t-75.5 106.5t-27.5 139.5q0 98 43 170.5t113 119.5t159.5 70t182.5 23q212 0 309 -51v-189 q-127 88 -326 88q-55 0 -110 -11.5t-98 -37.5t-70 -67t-27 -100q0 -55 20.5 -95t60.5 -73t97.5 -64t132.5 -68q77 -38 146 -80t121 -93t82.5 -113t30.5 -142q0 -106 -41.5 -179.5t-112 -119.5t-162.5 -66.5t-194 -20.5q-34 0 -84 5.5t-102 16t-98.5 26t-74.5 34.5z"/>
<glyph glyph-name="T" horiz-adv-x="1073" unicode="T" d="M1036 1282h-414v-1282h-168v1282h-413v152h995v-152z"/>
<glyph glyph-name="U" horiz-adv-x="1407" unicode="U" d="M1237 580q0 -604 -545 -604q-522 0 -522 581v877h168v-866q0 -441 372 -441q359 0 359 426v881h168v-854z"/>
<glyph glyph-name="V" horiz-adv-x="1272" unicode="V" d="M1254 1434l-531 -1434h-185l-520 1434h187l397 -1137q19 -55 29 -127h4q8 60 33 129l405 1135h181z"/>
<glyph glyph-name="W" horiz-adv-x="1913" unicode="W" d="M1888 1434l-405 -1434h-197l-295 1048q-19 67 -23 146h-4q-6 -74 -26 -144l-297 -1050h-195l-420 1434h185l305 -1100q19 -69 24 -144h5q5 53 31 144l317 1100h161l304 -1108q16 -57 24 -134h4q4 52 27 138l293 1104h182z"/>
<glyph glyph-name="X" horiz-adv-x="1208" unicode="X" d="M1178 0h-205l-330 549q-15 25 -33 71h-4q-10 -23 -34 -71l-340 -549h-206l480 721l-442 713h206l293 -504q29 -50 51 -100h4q32 66 56 104l305 500h193l-451 -711z"/>
<glyph glyph-name="Y" horiz-adv-x="1132" unicode="Y" d="M1120 1434l-473 -904v-530h-168v526l-461 908h191l321 -648q6 -12 35 -88h3q10 34 38 88l336 648h178z"/>
<glyph glyph-name="Z" horiz-adv-x="1168" unicode="Z" d="M1124 1394l-840 -1242h820v-152h-1071v47l833 1235h-766v152h1024v-40z"/>
<glyph glyph-name="bracketleft" horiz-adv-x="618" unicode="[" d="M568 -326h-368v1760h368v-119h-222v-1522h222v-119z"/>
<glyph glyph-name="backslash" horiz-adv-x="776" unicode="\" d="M798 -240h-151l-673 1674h155z"/>
<glyph glyph-name="bracketright" horiz-adv-x="618" unicode="]" d="M420 -326h-367v119h221v1522h-221v119h367v-1760z"/>
<glyph glyph-name="asciicircum" horiz-adv-x="1401" unicode="^" d="M1174 624h-150l-332 619h-6l-309 -619h-147l422 834h65z"/>
<glyph glyph-name="underscore" horiz-adv-x="850" unicode="_" d="M850 -297h-850v119h850v-119z"/>
<glyph glyph-name="grave" horiz-adv-x="549" unicode="`" d="M471 1218h-127l-262 328h168z"/>
<glyph glyph-name="a" horiz-adv-x="1042" unicode="a" d="M735 518l-247 -34q-114 -16 -172 -56.5t-58 -143.5q0 -75 53.5 -122.5t142.5 -47.5q122 0 201.5 85.5t79.5 216.5v102zM899 0h-164v160h-4q-107 -184 -315 -184q-153 0 -239.5 81t-86.5 215q0 287 338 334l307 43q0 261 -211 261q-185 0 -334 -126v168q151 96 348 96 q361 0 361 -382v-666z"/>
<glyph glyph-name="b" horiz-adv-x="1204" unicode="b" d="M330 561v-143q0 -127 82.5 -215.5t209.5 -88.5q149 0 233.5 114t84.5 317q0 171 -79 268t-214 97q-143 0 -230 -99.5t-87 -249.5zM334 148h-4v-148h-164v1516h164v-672h4q121 204 354 204q197 0 308.5 -137.5t111.5 -368.5q0 -257 -125 -411.5t-342 -154.5 q-203 0 -307 172z"/>
<glyph glyph-name="c" horiz-adv-x="946" unicode="c" d="M864 47q-118 -71 -280 -71q-219 0 -353.5 142.5t-134.5 369.5q0 253 145 406.5t387 153.5q135 0 238 -50v-168q-114 80 -244 80q-157 0 -257.5 -112.5t-100.5 -295.5q0 -180 94.5 -284t253.5 -104q134 0 252 89v-156z"/>
<glyph glyph-name="d" horiz-adv-x="1206" unicode="d" d="M876 463v151q0 124 -82 210t-208 86q-150 0 -236 -110t-86 -304q0 -177 82.5 -279.5t221.5 -102.5q137 0 222.5 99t85.5 250zM1040 0h-164v174h-4q-114 -198 -352 -198q-193 0 -308.5 137.5t-115.5 374.5q0 254 128 407t341 153q211 0 307 -166h4v634h164v-1516z"/>
<glyph glyph-name="e" horiz-adv-x="1071" unicode="e" d="M821 610q-1 142 -68.5 221t-187.5 79q-116 0 -197 -83t-100 -217h553zM989 471h-723q4 -171 92 -264t242 -93q173 0 318 114v-154q-135 -98 -357 -98q-217 0 -341 139.5t-124 392.5q0 239 135.5 389.5t336.5 150.5t311 -130t110 -361v-86z"/>
<glyph glyph-name="f" horiz-adv-x="641" unicode="f" d="M672 1372q-48 27 -109 27q-172 0 -172 -217v-158h240v-140h-240v-884h-163v884h-175v140h175v166q0 161 93 254.5t232 93.5q75 0 119 -18v-148z"/>
<glyph glyph-name="g" horiz-adv-x="1206" unicode="g" d="M876 463v151q0 122 -82.5 209t-205.5 87q-152 0 -238 -110.5t-86 -309.5q0 -171 82.5 -273.5t218.5 -102.5q138 0 224.5 98t86.5 251zM1040 82q0 -564 -540 -564q-190 0 -332 72v164q173 -96 330 -96q378 0 378 402v112h-4q-117 -196 -352 -196q-191 0 -307.5 136.5 t-116.5 366.5q0 261 125.5 415t343.5 154q207 0 307 -166h4v142h164v-942z"/>
<glyph glyph-name="h" horiz-adv-x="1159" unicode="h" d="M1016 0h-164v590q0 320 -238 320q-120 0 -202 -92.5t-82 -237.5v-580h-164v1516h164v-662h4q118 194 336 194q346 0 346 -417v-631z"/>
<glyph glyph-name="i" horiz-adv-x="496" unicode="i" d="M330 0h-164v1024h164v-1024zM250 1284q-44 0 -75 30t-31 76t31 76.5t75 30.5q45 0 76.5 -30.5t31.5 -76.5q0 -44 -31.5 -75t-76.5 -31z"/>
<glyph glyph-name="j" horiz-adv-x="496" unicode="j" d="M250 1284q-44 0 -75 30t-31 76t31 76.5t75 30.5q45 0 76.5 -30.5t31.5 -76.5q0 -44 -31.5 -75t-76.5 -31zM330 43q0 -252 -101.5 -388.5t-290.5 -136.5q-70 0 -136 32v153q74 -45 140 -45q224 0 224 358v1008h164v-981z"/>
<glyph glyph-name="k" horiz-adv-x="1018" unicode="k" d="M1016 0h-230l-452 492h-4v-492h-164v1516h164v-961h4l430 469h215l-475 -494z"/>
<glyph glyph-name="l" horiz-adv-x="496" unicode="l" d="M330 0h-164v1516h164v-1516z"/>
<glyph glyph-name="m" horiz-adv-x="1764" unicode="m" d="M1620 0h-164v588q0 170 -52.5 246t-176.5 76q-105 0 -178.5 -96t-73.5 -230v-584h-164v608q0 302 -233 302q-108 0 -178 -90.5t-70 -235.5v-584h-164v1024h164v-162h4q109 186 318 186q105 0 183 -58.5t107 -153.5q114 212 340 212q338 0 338 -417v-631z"/>
<glyph glyph-name="n" horiz-adv-x="1159" unicode="n" d="M1016 0h-164v584q0 326 -238 326q-123 0 -203.5 -92.5t-80.5 -233.5v-584h-164v1024h164v-170h4q116 194 336 194q168 0 257 -108.5t89 -313.5v-626z"/>
<glyph glyph-name="o" horiz-adv-x="1200" unicode="o" d="M606 910q-158 0 -250 -107.5t-92 -296.5q0 -182 93 -287t249 -105q159 0 244.5 103t85.5 293q0 192 -85.5 296t-244.5 104zM594 -24q-227 0 -362.5 143.5t-135.5 380.5q0 258 141 403t381 145q229 0 357.5 -141t128.5 -391q0 -245 -138.5 -392.5t-371.5 -147.5z"/>
<glyph glyph-name="p" horiz-adv-x="1204" unicode="p" d="M330 561v-143q0 -127 82.5 -215.5t209.5 -88.5q149 0 233.5 114t84.5 317q0 171 -79 268t-214 97q-143 0 -230 -99.5t-87 -249.5zM334 148h-4v-619h-164v1495h164v-180h4q121 204 354 204q198 0 309 -137.5t111 -368.5q0 -257 -125 -411.5t-342 -154.5q-199 0 -307 172z "/>
<glyph glyph-name="q" horiz-adv-x="1206" unicode="q" d="M876 461v149q0 126 -82.5 213t-209.5 87q-148 0 -234 -109.5t-86 -308.5q0 -177 83 -277.5t214 -100.5q144 0 229.5 98.5t85.5 248.5zM1040 -471h-164v647h-4q-107 -200 -350 -200q-193 0 -309.5 137.5t-116.5 374.5q0 255 128 407.5t344 152.5q210 0 304 -166h4v142h164 v-1495z"/>
<glyph glyph-name="r" horiz-adv-x="712" unicode="r" d="M700 858q-43 33 -124 33q-105 0 -175.5 -99t-70.5 -270v-522h-164v1024h164v-211h4q35 108 107 168.5t161 60.5q64 0 98 -14v-170z"/>
<glyph glyph-name="s" horiz-adv-x="869" unicode="s" d="M104 37v176q134 -99 295 -99q216 0 216 144q0 41 -18.5 69.5t-50 50.5t-74 39.5t-91.5 36.5q-68 27 -119.5 54.5t-86 62t-52 78.5t-17.5 103q0 72 33 127.5t88 93t125.5 56.5t145.5 19q133 0 238 -46v-166q-113 74 -260 74q-46 0 -83 -10.5t-63.5 -29.5t-41 -45.5 t-14.5 -58.5q0 -40 14.5 -67t42.5 -48t68 -38t91 -37q68 -26 122 -53.5t92 -62t58.5 -79.5t20.5 -107q0 -76 -33.5 -132t-89.5 -93t-129 -55t-153 -18q-158 0 -274 61z"/>
<glyph glyph-name="t" horiz-adv-x="694" unicode="t" d="M641 10q-58 -32 -153 -32q-269 0 -269 300v606h-176v140h176v250l164 53v-303h258v-140h-258v-577q0 -103 35 -147t116 -44q62 0 107 34v-140z"/>
<glyph glyph-name="u" horiz-adv-x="1159" unicode="u" d="M994 0h-164v162h-4q-102 -186 -316 -186q-366 0 -366 436v612h163v-586q0 -324 248 -324q120 0 197.5 88.5t77.5 231.5v590h164v-1024z"/>
<glyph glyph-name="v" horiz-adv-x="981" unicode="v" d="M971 1024l-408 -1024h-161l-388 1024h180l260 -744q29 -82 36 -143h4q10 77 32 139l272 748h173z"/>
<glyph glyph-name="w" horiz-adv-x="1480" unicode="w" d="M1456 1024l-307 -1024h-170l-211 733q-12 42 -16 95h-4q-3 -36 -21 -93l-229 -735h-164l-310 1024h172l212 -770q10 -35 14 -92h8q3 44 18 94l236 768h150l212 -772q10 -37 15 -92h8q2 39 17 92l208 772h162z"/>
<glyph glyph-name="x" horiz-adv-x="940" unicode="x" d="M914 1024l-344 -518l338 -506h-191l-201 332q-19 31 -45 78h-4q-5 -9 -47 -78l-205 -332h-189l349 502l-334 522h191l198 -350q22 -39 43 -80h4l256 430h181z"/>
<glyph glyph-name="y" horiz-adv-x="991" unicode="y" d="M981 1024l-471 -1188q-126 -318 -354 -318q-64 0 -107 13v147q53 -18 97 -18q124 0 186 148l82 194l-400 1022h182l277 -788q5 -15 21 -78h6q5 24 20 76l291 790h170z"/>
<glyph glyph-name="z" horiz-adv-x="926" unicode="z" d="M880 977l-606 -837h600v-140h-841v51l606 833h-549v140h790v-47z"/>
<glyph glyph-name="braceleft" horiz-adv-x="618" unicode="{" d="M555 -326q-307 4 -307 310v300q0 202 -156 212v116q156 10 156 216v292q0 310 307 314v-128q-159 -4 -159 -198v-293q0 -210 -150 -258v-4q150 -45 150 -256v-289q0 -111 35.5 -158.5t123.5 -49.5v-126z"/>
<glyph glyph-name="bar" horiz-adv-x="490" unicode="|" d="M320 -482h-148v2048h148v-2048z"/>
<glyph glyph-name="braceright" horiz-adv-x="618" unicode="}" d="M528 496q-156 -10 -156 -212v-300q0 -306 -306 -310v126q87 2 123.5 50t36.5 158v289q0 211 149 256v4q-149 48 -149 258v293q0 194 -160 198v128q306 -4 306 -314v-292q0 -206 156 -216v-116z"/>
<glyph glyph-name="asciitilde" horiz-adv-x="1401" unicode="~" d="M1194 750q-7 -148 -80.5 -229t-199.5 -81q-109 0 -265 109q-97 67 -159 67q-140 0 -146 -176h-135q5 143 79.5 226.5t201.5 83.5q106 0 235 -88q132 -90 197 -90q61 0 98 49t39 129h135z"/>
<glyph glyph-name="uni00A0" horiz-adv-x="561" unicode=" "/>
<glyph glyph-name="exclamdown" horiz-adv-x="582" unicode="¡" d="M379 -406h-172l19 1030h134zM291 826q-46 0 -78.5 32t-32.5 78t32.5 78t78.5 32q45 0 78 -32t33 -78t-33 -78t-78 -32z"/>
<glyph glyph-name="cent" d="M606 291v761q-119 -31 -186.5 -133.5t-67.5 -252.5t68 -249t186 -126zM952 209q-96 -59 -221 -69v-189h-125v191q-193 22 -307.5 161t-114.5 346q0 219 114.5 366.5t307.5 184.5v213h125v-203q123 -2 221 -51v-172q-101 71 -221 78v-785q122 12 221 86v-157z" unicode="¢"/>
<glyph glyph-name="sterling" d="M1006 0h-900v135q218 69 218 313v187h-197v141h197v254q0 188 109 308t282 120q117 0 213 -41v-155q-100 57 -211 57q-229 0 -229 -307v-236h296v-141h-296v-156q0 -242 -193 -339h711v-140z" unicode="£"/>
<glyph glyph-name="currency" horiz-adv-x="1138" unicode="¤" d="M570 1002q-116 0 -195.5 -81t-79.5 -194t80.5 -194t194.5 -81q113 0 194.5 81t81.5 194t-83 194t-193 81zM1038 354l-92 -96l-137 138q-105 -76 -239 -76q-136 0 -240 76l-138 -138l-92 96l138 134q-76 113 -76 237q0 129 76 237l-138 136l92 96l138 -137q110 77 240 77 q129 0 237 -77l139 137l92 -96l-137 -136q78 -112 78 -237q0 -121 -78 -237z"/>
<glyph glyph-name="yen" d="M1042 1434l-356 -656h285v-139h-334v-207h334v-139h-334v-293h-164v293h-344v139h344v207h-344v139h291l-352 656h192l250 -514q28 -58 47 -111h4q13 42 49 117l252 508h180z" unicode="¥"/>
<glyph glyph-name="brokenbar" horiz-adv-x="490" unicode="¦" d="M320 -482h-148v852h148v-852zM320 715h-148v851h148v-851z"/>
<glyph glyph-name="section" horiz-adv-x="918" unicode="§" d="M398 905q-101 -51 -101 -159q0 -72 56.5 -126.5t197.5 -117.5q88 68 88 172q0 72 -52.5 122.5t-188.5 108.5zM658 416q90 -74 90 -186q0 -132 -100 -214t-255 -82q-131 0 -239 56v158q130 -74 250 -74q84 0 130 39.5t46 99.5q0 53 -35.5 89.5t-180.5 113.5 q-233 122 -233 317q0 163 147 244q-106 83 -106 223q0 127 93.5 209t246.5 82q130 0 219 -43v-158q-101 62 -223 62q-168 0 -168 -144q0 -55 40.5 -100t203.5 -123q223 -107 223 -293q0 -170 -149 -276z"/>
<glyph glyph-name="dieresis" horiz-adv-x="848" unicode="¨" d="M226 1218q-42 0 -71.5 29.5t-29.5 69.5q0 42 28.5 70t69.5 28t71 -28.5t30 -69.5t-29 -70t-69 -29zM610 1218q-40 0 -69 28t-29 71q0 42 28 70t68 28q42 0 71 -28.5t29 -69.5t-28 -70t-70 -29z"/>
<glyph glyph-name="copyright" horiz-adv-x="1823" unicode="©" d="M1213 266q-114 -69 -269 -69q-209 0 -350 141.5t-141 353.5q0 247 144.5 394t375.5 147q132 0 236 -53v-150q-95 72 -254 72q-156 0 -257.5 -106.5t-101.5 -286.5q0 -174 103.5 -279.5t263.5 -105.5q146 0 250 78v-136zM912 1379q-274 0 -468 -194t-194 -468t194 -467.5 t468 -193.5t467.5 193.5t193.5 467.5t-193.5 468t-467.5 194zM912 -33q-311 0 -530.5 219.5t-219.5 530.5t219.5 530.5t530.5 219.5q310 0 529.5 -219.5t219.5 -530.5t-219.5 -530.5t-529.5 -219.5z"/>
<glyph glyph-name="ordfeminine" horiz-adv-x="803" unicode="ª" d="M559 1075l-180 -25q-168 -23 -168 -134q0 -51 38.5 -83t102.5 -32q82 0 144.5 61t62.5 146v67zM688 717h-129v100h-4q-79 -119 -231 -119q-109 0 -175.5 59.5t-66.5 152.5q0 202 248 235l229 31q0 168 -151 168q-136 0 -254 -86v128q111 70 266 70q126 0 197 -72t71 -202 v-465z"/>
<glyph glyph-name="logicalnot" horiz-adv-x="1401" unicode="¬" d="M1172 254h-132v430h-808v133h940v-563z"/>
<glyph glyph-name="uni00AD" horiz-adv-x="819" unicode="­" d="M690 506h-546v129h546v-129z"/>
<glyph glyph-name="registered" horiz-adv-x="1823" unicode="®" d="M752 1088v-326h143q197 0 197 164q0 88 -53 125t-168 37h-119zM1276 248h-162l-104 229q-79 172 -170 172h-88v-401h-133v954h268q167 0 257.5 -70t90.5 -190q0 -98 -63.5 -167t-177.5 -93v-4q79 -17 157 -176zM912 1379q-274 0 -468 -194t-194 -468t194 -467.5 t468 -193.5t467.5 193.5t193.5 467.5t-193.5 468t-467.5 194zM912 -33q-311 0 -530.5 219.5t-219.5 530.5t219.5 530.5t530.5 219.5q310 0 529.5 -219.5t219.5 -530.5t-219.5 -530.5t-529.5 -219.5z"/>
<glyph glyph-name="degree" horiz-adv-x="772" unicode="°" d="M385 1333q-65 0 -111 -46t-46 -111q0 -67 45 -114.5t110 -47.5t112 48t47 114t-46 111.5t-111 45.5zM385 897q-115 0 -196 81.5t-81 197.5q0 115 80 194.5t195 79.5q116 0 197.5 -80t81.5 -194q0 -116 -81 -197.5t-196 -81.5z"/>
<glyph glyph-name="plusminus" horiz-adv-x="1401" unicode="±" d="M1172 0h-940v133h940v-133zM1172 652h-404v-404h-131v404h-405v132h405v404h131v-404h404v-132z"/>
<glyph glyph-name="uni00B2" horiz-adv-x="750" unicode="²" d="M658 584h-554v114l240 236q104 102 132 156.5t28 109.5q0 58 -38 94.5t-100 36.5q-118 0 -216 -102v149q84 76 235 76q118 0 187 -66t69 -174q0 -153 -205 -348l-164 -156v-4h386v-122z"/>
<glyph glyph-name="uni00B3" horiz-adv-x="750" unicode="³" d="M129 616v142q103 -76 217 -76q80 0 126 37.5t46 101.5q0 141 -219 141h-84v118h80q197 0 197 134q0 119 -144 119q-94 0 -186 -69v139q87 51 213 51q113 0 180 -59.5t67 -155.5q0 -151 -145 -205v-4q177 -42 177 -202q0 -117 -85 -191t-227 -74q-137 0 -213 53z"/>
<glyph glyph-name="acute" horiz-adv-x="578" unicode="´" d="M524 1546l-262 -328h-127l223 328h166z"/>
<glyph glyph-name="uni00B5" horiz-adv-x="1182" unicode="µ" d="M1048 0h-170q-23 72 -23 168h-5q-84 -191 -279 -191q-167 0 -238 123h-4v-496h-163v1420h163v-626q0 -127 69 -202t180 -75q121 0 196.5 86t75.5 231v586h166v-759q0 -188 32 -265z"/>
<glyph glyph-name="paragraph" horiz-adv-x="938" unicode="¶" d="M834 1331h-128v-1331h-106v1331h-158v-1331h-108v903q-108 0 -179 76t-71 191q0 117 74.5 190.5t181.5 73.5h494v-103z"/>
<glyph glyph-name="periodcentered" horiz-adv-x="444" unicode="·" d="M223 510q-46 0 -78.5 33t-32.5 79q0 47 32.5 80t78.5 33q47 0 80 -33t33 -80q0 -46 -33 -79t-80 -33z"/>
<glyph glyph-name="cedilla" horiz-adv-x="420" unicode="¸" d="M391 -256q0 -176 -275 -176q-38 0 -65 2v90q43 -6 70 -6q141 0 141 90q0 78 -129 78q-10 0 -41 -4v182h108v-104q88 0 139.5 -40t51.5 -112z"/>
<glyph glyph-name="uni00B9" horiz-adv-x="719" unicode="¹" d="M639 584h-504v112h185v594l-193 -55v125l323 96v-760h189v-112z"/>
<glyph glyph-name="ordmasculine" horiz-adv-x="882" unicode="º" d="M444 1344q-106 0 -168.5 -72t-62.5 -199q0 -124 59.5 -194t169.5 -70q105 0 166.5 71.5t61.5 194.5q0 126 -60.5 197.5t-165.5 71.5zM436 696q-167 0 -262.5 100.5t-95.5 272.5q0 181 102.5 283t271.5 102q163 0 257 -99.5t94 -270.5q0 -178 -99.5 -283t-267.5 -105z"/>
<glyph glyph-name="onequarter" horiz-adv-x="1856" unicode="¼" d="M639 584h-504v112h185v594l-193 -55v125l323 96v-760h189v-112zM1393 1434l-858 -1434h-144l859 1434h143zM1468 724h-4q-12 -31 -38 -73l-218 -338h256v323q0 32 4 88zM1706 204h-110v-204h-132v204h-393v92l369 554h156v-537h110v-109z"/>
<glyph glyph-name="onehalf" horiz-adv-x="1906" unicode="½" d="M639 584h-504v112h185v594l-193 -55v125l323 96v-760h189v-112zM1393 1434l-858 -1434h-144l859 1434h143zM1748 1h-554v114l240 236q104 102 132 156.5t28 109.5q0 58 -38 94.5t-100 36.5q-118 0 -216 -102v149q84 76 235 76q118 0 187 -66t69 -174q0 -153 -205 -348 l-164 -156v-4h386v-122z"/>
<glyph glyph-name="threequarters" horiz-adv-x="1950" unicode="¾" d="M129 616v142q103 -76 217 -76q80 0 126 37.5t46 101.5q0 141 -219 141h-84v118h80q197 0 197 134q0 119 -144 119q-94 0 -186 -69v139q87 51 213 51q113 0 180 -59.5t67 -155.5q0 -151 -145 -205v-4q177 -42 177 -202q0 -117 -85 -191t-227 -74q-137 0 -213 53z M1464 1434l-858 -1434h-144l859 1434h143zM1533 724h-4q-12 -31 -38 -73l-218 -338h256v323q0 32 4 88zM1771 204h-110v-204h-132v204h-393v92l369 554h156v-537h110v-109z"/>
<glyph glyph-name="questiondown" horiz-adv-x="918" unicode="¿" d="M535 1046q44 0 78 -32q33 -31 33 -78q0 -46 -33 -78q-33 -33 -78 -33t-78 33q-33 32 -33 78q0 47 33 78q34 32 78 32zM625 630q9 -26 16 -67.5t7 -82.5q0 -64 -25.5 -115.5t-63.5 -96.5t-83 -86.5t-83 -84t-63.5 -89t-25.5 -102.5q0 -48 18.5 -85t50.5 -62t74 -37.5 t89 -12.5q169 0 293 133v-176q-153 -96 -317 -96q-76 0 -143 20t-117 59.5t-79.5 98.5t-29.5 137q0 74 26 132t65.5 106.5t85.5 90.5t85.5 83.5t65.5 86.5t26 99q0 46 -11 83.5t-22 63.5h161z"/>
<glyph glyph-name="Agrave" horiz-adv-x="1321" unicode="À" d="M905 553l-225 611q-11 30 -22 96h-4q-10 -61 -23 -96l-223 -611h497zM1298 0h-186l-152 402h-608l-143 -402h-187l550 1434h174zM758 1566h-127l-262 328h168z"/>
<glyph glyph-name="Aacute" horiz-adv-x="1321" unicode="Á" d="M905 553l-225 611q-11 30 -22 96h-4q-10 -61 -23 -96l-223 -611h497zM1298 0h-186l-152 402h-608l-143 -402h-187l550 1434h174zM867 1894l-262 -328h-127l223 328h166z"/>
<glyph glyph-name="Acircumflex" horiz-adv-x="1321" unicode="Â" d="M905 553l-225 611q-11 30 -22 96h-4q-10 -61 -23 -96l-223 -611h497zM1298 0h-186l-152 402h-608l-143 -402h-187l550 1434h174zM927 1565h-122l-164 230l-165 -230h-113l215 332h133z"/>
<glyph glyph-name="Atilde" horiz-adv-x="1321" unicode="Ã" d="M905 553l-225 611q-11 30 -22 96h-4q-10 -61 -23 -96l-223 -611h497zM1298 0h-186l-152 402h-608l-143 -402h-187l550 1434h174zM977 1803q0 -105 -48 -171.5t-130 -66.5q-71 0 -162 52q-77 43 -119 43q-88 0 -88 -113h-94q0 107 48 171.5t134 64.5q65 0 149 -52 q74 -44 128 -44q84 0 84 116h98z"/>
<glyph glyph-name="Adieresis" horiz-adv-x="1321" unicode="Ä" d="M905 553l-225 611q-11 30 -22 96h-4q-10 -61 -23 -96l-223 -611h497zM1298 0h-186l-152 402h-608l-143 -402h-187l550 1434h174zM456 1565q-42 0 -71.5 29.5t-29.5 69.5q0 42 28.5 70t69.5 28t71 -28.5t30 -69.5t-29 -70t-69 -29zM840 1565q-40 0 -69 28t-29 71 q0 42 28 70t68 28q42 0 71 -28.5t29 -69.5t-28 -70t-70 -29z"/>
<glyph glyph-name="Aring" horiz-adv-x="1321" unicode="Å" d="M905 553l-225 611q-11 30 -22 96h-4q-10 -61 -23 -96l-223 -611h497zM656 1659q-50 0 -82 -31.5t-32 -79.5q0 -114 114 -114q48 0 81 33t33 81q0 49 -33 80t-81 31zM1298 0h-186l-152 402h-608l-143 -402h-187l529 1378q-101 52 -101 164q0 89 60 144t152 55 q88 0 144 -54.5t56 -138.5q0 -112 -96 -166z"/>
<glyph glyph-name="AE" horiz-adv-x="1762" unicode="Æ" d="M908 553v729h-95l-346 -729h441zM1667 0h-759v402h-510l-193 -402h-195l700 1434h924v-152h-559v-477h519v-151h-519v-502h592v-152z"/>
<glyph glyph-name="Ccedilla" horiz-adv-x="1268" unicode="Ç" d="M1164 60q-159 -84 -396 -84q-306 0 -490 197t-184 517q0 344 207 556t525 212q204 0 338 -59v-179q-154 86 -340 86q-247 0 -400.5 -165t-153.5 -441q0 -262 143.5 -417.5t376.5 -155.5q216 0 374 96v-163zM960 -256q0 -176 -275 -176q-38 0 -65 2v90q43 -6 70 -6 q141 0 141 90q0 78 -129 78q-10 0 -41 -4v182h108v-104q88 0 139.5 -40t51.5 -112z"/>
<glyph glyph-name="Egrave" horiz-adv-x="1036" unicode="È" d="M948 0h-760v1434h728v-152h-560v-477h518v-151h-518v-502h592v-152zM703 1566h-127l-262 328h168z"/>
<glyph glyph-name="Eacute" horiz-adv-x="1036" unicode="É" d="M948 0h-760v1434h728v-152h-560v-477h518v-151h-518v-502h592v-152zM803 1893l-262 -328h-127l223 328h166z"/>
<glyph glyph-name="Ecircumflex" horiz-adv-x="1036" unicode="Ê" d="M948 0h-760v1434h728v-152h-560v-477h518v-151h-518v-502h592v-152zM827 1567h-122l-164 230l-165 -230h-113l215 332h133z"/>
<glyph glyph-name="Edieresis" horiz-adv-x="1036" unicode="Ë" d="M948 0h-760v1434h728v-152h-560v-477h518v-151h-518v-502h592v-152zM365 1566q-42 0 -71.5 29.5t-29.5 69.5q0 42 28.5 70t69.5 28t71 -28.5t30 -69.5t-29 -70t-69 -29zM749 1566q-40 0 -69 28t-29 71q0 42 28 70t68 28q42 0 71 -28.5t29 -69.5t-28 -70t-70 -29z"/>
<glyph glyph-name="Igrave" horiz-adv-x="545" unicode="Ì" d="M496 1434v-144h-140v-1146h140v-144h-448v144h140v1146h-140v144h448zM416 1566h-127l-262 328h168z"/>
<glyph glyph-name="Iacute" horiz-adv-x="545" unicode="Í" d="M496 1434v-144h-140v-1146h140v-144h-448v144h140v1146h-140v144h448zM509 1894l-262 -328h-127l223 328h166z"/>
<glyph glyph-name="Icircumflex" horiz-adv-x="545" unicode="Î" d="M496 1434v-144h-140v-1146h140v-144h-448v144h140v1146h-140v144h448zM560 1567h-122l-164 230l-165 -230h-113l215 332h133z"/>
<glyph glyph-name="Idieresis" horiz-adv-x="545" unicode="Ï" d="M496 1434v-144h-140v-1146h140v-144h-448v144h140v1146h-140v144h448zM86 1566q-42 0 -71.5 29.5t-29.5 69.5q0 42 28.5 70t69.5 28t71 -28.5t30 -69.5t-29 -70t-69 -29zM470 1566q-40 0 -69 28t-29 71q0 42 28 70t68 28q42 0 71 -28.5t29 -69.5t-28 -70t-70 -29z"/>
<glyph glyph-name="Eth" horiz-adv-x="1436" unicode="Ð" d="M356 1282v-486h336v-155h-336v-489h214q282 0 439 151t157 428q0 551 -586 551h-224zM188 0v641h-160v155h160v638h396q758 0 758 -699q0 -334 -210.5 -534.5t-563.5 -200.5h-380z"/>
<glyph glyph-name="Ntilde" horiz-adv-x="1532" unicode="Ñ" d="M1344 0h-206l-738 1143q-28 43 -46 90h-6q8 -46 8 -197v-1036h-168v1434h218l718 -1125q45 -70 58 -96h4q-10 62 -10 211v1010h168v-1434zM1113 1803q0 -105 -48 -171.5t-130 -66.5q-71 0 -162 52q-77 43 -119 43q-88 0 -88 -113h-94q0 107 48 171.5t134 64.5 q65 0 149 -52q74 -44 128 -44q84 0 84 116h98z"/>
<glyph glyph-name="Ograve" horiz-adv-x="1544" unicode="Ò" d="M778 1306q-226 0 -367 -163t-141 -428t137.5 -426.5t358.5 -161.5q236 0 372 154t136 431q0 284 -132 439t-364 155zM766 -24q-305 0 -488.5 201t-183.5 523q0 346 187 552t509 206q297 0 478.5 -200t181.5 -523q0 -351 -186 -555t-498 -204zM880 1566h-127l-262 328h168 z"/>
<glyph glyph-name="Oacute" horiz-adv-x="1544" unicode="Ó" d="M778 1306q-226 0 -367 -163t-141 -428t137.5 -426.5t358.5 -161.5q236 0 372 154t136 431q0 284 -132 439t-364 155zM766 -24q-305 0 -488.5 201t-183.5 523q0 346 187 552t509 206q297 0 478.5 -200t181.5 -523q0 -351 -186 -555t-498 -204zM1028 1894l-262 -328h-127 l223 328h166z"/>
<glyph glyph-name="Ocircumflex" horiz-adv-x="1544" unicode="Ô" d="M778 1306q-226 0 -367 -163t-141 -428t137.5 -426.5t358.5 -161.5q236 0 372 154t136 431q0 284 -132 439t-364 155zM766 -24q-305 0 -488.5 201t-183.5 523q0 346 187 552t509 206q297 0 478.5 -200t181.5 -523q0 -351 -186 -555t-498 -204zM1063 1566h-122l-164 230 l-165 -230h-113l215 332h133z"/>
<glyph glyph-name="Otilde" horiz-adv-x="1544" unicode="Õ" d="M778 1306q-226 0 -367 -163t-141 -428t137.5 -426.5t358.5 -161.5q236 0 372 154t136 431q0 284 -132 439t-364 155zM766 -24q-305 0 -488.5 201t-183.5 523q0 346 187 552t509 206q297 0 478.5 -200t181.5 -523q0 -351 -186 -555t-498 -204zM1103 1802 q0 -105 -48 -171.5t-130 -66.5q-71 0 -162 52q-77 43 -119 43q-88 0 -88 -113h-94q0 107 48 171.5t134 64.5q65 0 149 -52q74 -44 128 -44q84 0 84 116h98z"/>
<glyph glyph-name="Odieresis" horiz-adv-x="1544" unicode="Ö" d="M778 1306q-226 0 -367 -163t-141 -428t137.5 -426.5t358.5 -161.5q236 0 372 154t136 431q0 284 -132 439t-364 155zM766 -24q-305 0 -488.5 201t-183.5 523q0 346 187 552t509 206q297 0 478.5 -200t181.5 -523q0 -351 -186 -555t-498 -204zM584 1563q-42 0 -71.5 29.5 t-29.5 69.5q0 42 28.5 70t69.5 28t71 -28.5t30 -69.5t-29 -70t-69 -29zM968 1563q-40 0 -69 28t-29 71q0 42 28 70t68 28q42 0 71 -28.5t29 -69.5t-28 -70t-70 -29z"/>
<glyph glyph-name="multiply" horiz-adv-x="1401" unicode="×" d="M1134 258l-94 -94l-340 340l-338 -340l-94 94l340 338l-340 340l94 94l338 -340l340 340l94 -94l-340 -340z"/>
<glyph glyph-name="Oslash" horiz-adv-x="1544" unicode="Ø" d="M1157 1130l-725 -866q131 -137 334 -137q236 0 372 154.5t136 430.5q0 260 -117 418zM1090 1204q-126 102 -312 102q-227 0 -367.5 -164t-140.5 -427q0 -223 98 -373zM324 131l-152 -182l-78 65l158 191q-158 195 -158 495q0 343 186.5 550.5t509.5 207.5q234 0 402 -129 l135 162l78 -63l-139 -166q184 -200 184 -527q0 -351 -186 -555t-498 -204q-266 0 -442 155z"/>
<glyph glyph-name="Ugrave" horiz-adv-x="1407" unicode="Ù" d="M1237 580q0 -604 -545 -604q-522 0 -522 581v877h168v-866q0 -441 372 -441q359 0 359 426v881h168v-854zM830 1566h-127l-262 328h168z"/>
<glyph glyph-name="Uacute" horiz-adv-x="1407" unicode="Ú" d="M1237 580q0 -604 -545 -604q-522 0 -522 581v877h168v-866q0 -441 372 -441q359 0 359 426v881h168v-854zM960 1893l-262 -328h-127l223 328h166z"/>
<glyph glyph-name="Ucircumflex" horiz-adv-x="1407" unicode="Û" d="M1237 580q0 -604 -545 -604q-522 0 -522 581v877h168v-866q0 -441 372 -441q359 0 359 426v881h168v-854zM987 1567h-122l-164 230l-165 -230h-113l215 332h133z"/>
<glyph glyph-name="Udieresis" horiz-adv-x="1407" unicode="Ü" d="M1237 580q0 -604 -545 -604q-522 0 -522 581v877h168v-866q0 -441 372 -441q359 0 359 426v881h168v-854zM511 1567q-42 0 -71.5 29.5t-29.5 69.5q0 42 28.5 70t69.5 28t71 -28.5t30 -69.5t-29 -70t-69 -29zM895 1567q-40 0 -69 28t-29 71q0 42 28 70t68 28 q42 0 71 -28.5t29 -69.5t-28 -70t-70 -29z"/>
<glyph glyph-name="Yacute" horiz-adv-x="1132" unicode="Ý" d="M1120 1434l-473 -904v-530h-168v526l-461 908h191l321 -648q6 -12 35 -88h3q10 34 38 88l336 648h178zM831 1894l-262 -328h-127l223 328h166z"/>
<glyph glyph-name="Thorn" horiz-adv-x="1147" unicode="Þ" d="M356 1057v-588h176q173 0 265 78t92 223q0 287 -336 287h-197zM356 318v-318h-168v1434h168v-226h226q232 0 357.5 -111.5t125.5 -316.5q0 -204 -141.5 -333t-381.5 -129h-186z"/>
<glyph glyph-name="germandbls" horiz-adv-x="1114" unicode="ß" d="M461 2v160q75 -48 170 -48q109 0 177 73.5t68 197.5q0 150 -100 243.5t-278 113.5v130q118 20 194 103t76 197q0 108 -55 167.5t-152 59.5q-231 0 -231 -309v-1090h-164v1114q0 192 110 308t296 116q166 0 265 -95t99 -251q0 -127 -75 -228t-195 -140v-5 q378 -75 378 -426q0 -177 -111 -297t-294 -120q-101 0 -178 26z"/>
<glyph glyph-name="agrave" horiz-adv-x="1042" unicode="à" d="M735 518l-247 -34q-114 -16 -172 -56.5t-58 -143.5q0 -75 53.5 -122.5t142.5 -47.5q122 0 201.5 85.5t79.5 216.5v102zM899 0h-164v160h-4q-107 -184 -315 -184q-153 0 -239.5 81t-86.5 215q0 287 338 334l307 43q0 261 -211 261q-185 0 -334 -126v168q151 96 348 96 q361 0 361 -382v-666zM674 1218h-127l-262 328h168z"/>
<glyph glyph-name="aacute" horiz-adv-x="1042" unicode="á" d="M735 518l-247 -34q-114 -16 -172 -56.5t-58 -143.5q0 -75 53.5 -122.5t142.5 -47.5q122 0 201.5 85.5t79.5 216.5v102zM899 0h-164v160h-4q-107 -184 -315 -184q-153 0 -239.5 81t-86.5 215q0 287 338 334l307 43q0 261 -211 261q-185 0 -334 -126v168q151 96 348 96 q361 0 361 -382v-666zM757 1546l-262 -328h-127l223 328h166z"/>
<glyph glyph-name="acircumflex" horiz-adv-x="1042" unicode="â" d="M735 518l-247 -34q-114 -16 -172 -56.5t-58 -143.5q0 -75 53.5 -122.5t142.5 -47.5q122 0 201.5 85.5t79.5 216.5v102zM899 0h-164v160h-4q-107 -184 -315 -184q-153 0 -239.5 81t-86.5 215q0 287 338 334l307 43q0 261 -211 261q-185 0 -334 -126v168q151 96 348 96 q361 0 361 -382v-666zM806 1218h-122l-164 230l-165 -230h-113l215 332h133z"/>
<glyph glyph-name="atilde" horiz-adv-x="1042" unicode="ã" d="M735 518l-247 -34q-114 -16 -172 -56.5t-58 -143.5q0 -75 53.5 -122.5t142.5 -47.5q122 0 201.5 85.5t79.5 216.5v102zM899 0h-164v160h-4q-107 -184 -315 -184q-153 0 -239.5 81t-86.5 215q0 287 338 334l307 43q0 261 -211 261q-185 0 -334 -126v168q151 96 348 96 q361 0 361 -382v-666zM844 1458q0 -105 -48 -171.5t-130 -66.5q-71 0 -162 52q-77 43 -119 43q-88 0 -88 -113h-94q0 107 48 171.5t134 64.5q65 0 149 -52q74 -44 128 -44q84 0 84 116h98z"/>
<glyph glyph-name="adieresis" horiz-adv-x="1042" unicode="ä" d="M735 518l-247 -34q-114 -16 -172 -56.5t-58 -143.5q0 -75 53.5 -122.5t142.5 -47.5q122 0 201.5 85.5t79.5 216.5v102zM899 0h-164v160h-4q-107 -184 -315 -184q-153 0 -239.5 81t-86.5 215q0 287 338 334l307 43q0 261 -211 261q-185 0 -334 -126v168q151 96 348 96 q361 0 361 -382v-666zM324 1218q-42 0 -71.5 29.5t-29.5 69.5q0 42 28.5 70t69.5 28t71 -28.5t30 -69.5t-29 -70t-69 -29zM708 1218q-40 0 -69 28t-29 71q0 42 28 70t68 28q42 0 71 -28.5t29 -69.5t-28 -70t-70 -29z"/>
<glyph glyph-name="aring" horiz-adv-x="1042" unicode="å" d="M735 518l-247 -34q-114 -16 -172 -56.5t-58 -143.5q0 -75 53.5 -122.5t142.5 -47.5q122 0 201.5 85.5t79.5 216.5v102zM899 0h-164v160h-4q-107 -184 -315 -184q-153 0 -239.5 81t-86.5 215q0 287 338 334l307 43q0 261 -211 261q-185 0 -334 -126v168q151 96 348 96 q361 0 361 -382v-666zM517 1483q-48 0 -80 -32.5t-32 -80.5q0 -112 112 -112q50 0 83 32t33 80q0 49 -33 81t-83 32zM517 1176q-87 0 -144.5 52.5t-57.5 137.5q0 90 59 144t150 54q89 0 146 -54t57 -138t-61 -140t-149 -56z"/>
<glyph glyph-name="ae" horiz-adv-x="1704" unicode="æ" d="M735 410v63l-203 -12q-139 -8 -207.5 -49t-68.5 -136q0 -73 53 -117.5t143 -44.5q119 0 201 84.5t82 211.5zM1454 610q-2 144 -68.5 222t-185.5 78q-116 0 -199 -82t-102 -218h555zM1622 471h-725q3 -171 91 -264t241 -93q177 0 321 114v-154q-132 -98 -358 -98 q-270 0 -383 229h-4q-145 -229 -387 -229q-153 0 -240.5 80.5t-87.5 215.5q0 300 383 324l262 16q0 298 -215 298q-175 0 -330 -122v164q148 96 348 96q232 0 300 -200h4q116 200 356 200q202 0 313 -130.5t111 -362.5v-84z"/>
<glyph glyph-name="ccedilla" horiz-adv-x="946" unicode="ç" d="M864 47q-118 -71 -280 -71q-219 0 -353.5 142.5t-134.5 369.5q0 253 145 406.5t387 153.5q135 0 238 -50v-168q-114 80 -244 80q-157 0 -257.5 -112.5t-100.5 -295.5q0 -180 94.5 -284t253.5 -104q134 0 252 89v-156zM778 -256q0 -176 -275 -176q-38 0 -65 2v90 q43 -6 70 -6q141 0 141 90q0 78 -129 78q-10 0 -41 -4v182h108v-104q88 0 139.5 -40t51.5 -112z"/>
<glyph glyph-name="egrave" horiz-adv-x="1071" unicode="è" d="M821 610q-1 142 -68.5 221t-187.5 79q-116 0 -197 -83t-100 -217h553zM989 471h-723q4 -171 92 -264t242 -93q173 0 318 114v-154q-135 -98 -357 -98q-217 0 -341 139.5t-124 392.5q0 239 135.5 389.5t336.5 150.5t311 -130t110 -361v-86zM725 1218h-127l-262 328h168z "/>
<glyph glyph-name="eacute" horiz-adv-x="1071" unicode="é" d="M821 610q-1 142 -68.5 221t-187.5 79q-116 0 -197 -83t-100 -217h553zM989 471h-723q4 -171 92 -264t242 -93q173 0 318 114v-154q-135 -98 -357 -98q-217 0 -341 139.5t-124 392.5q0 239 135.5 389.5t336.5 150.5t311 -130t110 -361v-86zM795 1546l-262 -328h-127 l223 328h166z"/>
<glyph glyph-name="ecircumflex" horiz-adv-x="1071" unicode="ê" d="M821 610q-1 142 -68.5 221t-187.5 79q-116 0 -197 -83t-100 -217h553zM989 471h-723q4 -171 92 -264t242 -93q173 0 318 114v-154q-135 -98 -357 -98q-217 0 -341 139.5t-124 392.5q0 239 135.5 389.5t336.5 150.5t311 -130t110 -361v-86zM840 1218h-122l-164 230 l-165 -230h-113l215 332h133z"/>
<glyph glyph-name="edieresis" horiz-adv-x="1071" unicode="ë" d="M821 610q-1 142 -68.5 221t-187.5 79q-116 0 -197 -83t-100 -217h553zM989 471h-723q4 -171 92 -264t242 -93q173 0 318 114v-154q-135 -98 -357 -98q-217 0 -341 139.5t-124 392.5q0 239 135.5 389.5t336.5 150.5t311 -130t110 -361v-86zM362 1218q-42 0 -71.5 29.5 t-29.5 69.5q0 42 28.5 70t69.5 28t71 -28.5t30 -69.5t-29 -70t-69 -29zM746 1218q-40 0 -69 28t-29 71q0 42 28 70t68 28q42 0 71 -28.5t29 -69.5t-28 -70t-70 -29z"/>
<glyph glyph-name="igrave" horiz-adv-x="496" unicode="ì" d="M330 0h-164v1024h164v-1024zM369 1218h-127l-262 328h168z"/>
<glyph glyph-name="iacute" horiz-adv-x="496" unicode="í" d="M330 0h-164v1024h164v-1024zM477 1546l-262 -328h-127l223 328h166z"/>
<glyph glyph-name="icircumflex" horiz-adv-x="496" unicode="î" d="M330 0h-164v1024h164v-1024zM519 1218h-122l-164 230l-165 -230h-113l215 332h133z"/>
<glyph glyph-name="idieresis" horiz-adv-x="496" unicode="ï" d="M330 0h-164v1024h164v-1024zM46 1218q-42 0 -71.5 29.5t-29.5 69.5q0 42 28.5 70t69.5 28t71 -28.5t30 -69.5t-29 -70t-69 -29zM430 1218q-40 0 -69 28t-29 71q0 42 28 70t68 28q42 0 71 -28.5t29 -69.5t-28 -70t-70 -29z"/>
<glyph glyph-name="eth" horiz-adv-x="1145" unicode="ð" d="M582 910q-148 0 -233 -108.5t-85 -295.5q0 -181 83 -286.5t231 -105.5q139 0 220.5 108t81.5 288q0 400 -298 400zM786 968l4 3q-90 162 -198 266l-299 -151l-51 98l270 131q-118 105 -264 201h221q75 -52 172 -136l289 144l55 -94l-264 -130q327 -307 327 -774 q0 -240 -129 -394t-351 -154t-347 140t-125 382q0 243 130 394.5t350 151.5q123 0 210 -78z"/>
<glyph glyph-name="ntilde" horiz-adv-x="1159" unicode="ñ" d="M1016 0h-164v584q0 326 -238 326q-123 0 -203.5 -92.5t-80.5 -233.5v-584h-164v1024h164v-170h4q116 194 336 194q168 0 257 -108.5t89 -313.5v-626zM908 1458q0 -105 -48 -171.5t-130 -66.5q-71 0 -162 52q-77 43 -119 43q-88 0 -88 -113h-94q0 107 48 171.5t134 64.5 q65 0 149 -52q74 -44 128 -44q84 0 84 116h98z"/>
<glyph glyph-name="ograve" horiz-adv-x="1200" unicode="ò" d="M606 910q-158 0 -250 -107.5t-92 -296.5q0 -182 93 -287t249 -105q159 0 244.5 103t85.5 293q0 192 -85.5 296t-244.5 104zM594 -24q-227 0 -362.5 143.5t-135.5 380.5q0 258 141 403t381 145q229 0 357.5 -141t128.5 -391q0 -245 -138.5 -392.5t-371.5 -147.5zM747 1218 h-127l-262 328h168z"/>
<glyph glyph-name="oacute" horiz-adv-x="1200" unicode="ó" d="M606 910q-158 0 -250 -107.5t-92 -296.5q0 -182 93 -287t249 -105q159 0 244.5 103t85.5 293q0 192 -85.5 296t-244.5 104zM594 -24q-227 0 -362.5 143.5t-135.5 380.5q0 258 141 403t381 145q229 0 357.5 -141t128.5 -391q0 -245 -138.5 -392.5t-371.5 -147.5zM846 1546 l-262 -328h-127l223 328h166z"/>
<glyph glyph-name="ocircumflex" horiz-adv-x="1200" unicode="ô" d="M606 910q-158 0 -250 -107.5t-92 -296.5q0 -182 93 -287t249 -105q159 0 244.5 103t85.5 293q0 192 -85.5 296t-244.5 104zM594 -24q-227 0 -362.5 143.5t-135.5 380.5q0 258 141 403t381 145q229 0 357.5 -141t128.5 -391q0 -245 -138.5 -392.5t-371.5 -147.5zM885 1218 h-122l-164 230l-165 -230h-113l215 332h133z"/>
<glyph glyph-name="otilde" horiz-adv-x="1200" unicode="õ" d="M606 910q-158 0 -250 -107.5t-92 -296.5q0 -182 93 -287t249 -105q159 0 244.5 103t85.5 293q0 192 -85.5 296t-244.5 104zM594 -24q-227 0 -362.5 143.5t-135.5 380.5q0 258 141 403t381 145q229 0 357.5 -141t128.5 -391q0 -245 -138.5 -392.5t-371.5 -147.5zM931 1458 q0 -105 -48 -171.5t-130 -66.5q-71 0 -162 52q-77 43 -119 43q-88 0 -88 -113h-94q0 107 48 171.5t134 64.5q65 0 149 -52q74 -44 128 -44q84 0 84 116h98z"/>
<glyph glyph-name="odieresis" horiz-adv-x="1200" unicode="ö" d="M606 910q-158 0 -250 -107.5t-92 -296.5q0 -182 93 -287t249 -105q159 0 244.5 103t85.5 293q0 192 -85.5 296t-244.5 104zM594 -24q-227 0 -362.5 143.5t-135.5 380.5q0 258 141 403t381 145q229 0 357.5 -141t128.5 -391q0 -245 -138.5 -392.5t-371.5 -147.5zM409 1218 q-42 0 -71.5 29.5t-29.5 69.5q0 42 28.5 70t69.5 28t71 -28.5t30 -69.5t-29 -70t-69 -29zM793 1218q-40 0 -69 28t-29 71q0 42 28 70t68 28q42 0 71 -28.5t29 -69.5t-28 -70t-70 -29z"/>
<glyph glyph-name="divide" horiz-adv-x="1401" unicode="÷" d="M704 112q-44 0 -75 30t-31 73q0 45 30 78t76 33q101 0 101 -109q0 -45 -29 -75t-72 -30zM1172 530h-940v134h940v-134zM708 868q-44 0 -74 30.5t-30 74.5q0 45 29 77t75 32q103 0 103 -107q0 -47 -30.5 -77t-72.5 -30z"/>
<glyph glyph-name="oslash" horiz-adv-x="1200" unicode="ø" d="M891 742l-508 -552q87 -76 221 -76q163 0 248.5 104t85.5 294q0 134 -47 230zM821 836q-79 74 -215 74q-159 0 -250.5 -107.5t-91.5 -296.5q0 -132 50 -224zM1174 1048l-168 -180q98 -138 98 -346q0 -252 -139 -399t-371 -147q-192 0 -318 102l-145 -160l-82 78l149 164 q-102 137 -102 340q0 258 142 403t382 145q184 0 308 -98l162 176z"/>
<glyph glyph-name="ugrave" horiz-adv-x="1159" unicode="ù" d="M994 0h-164v162h-4q-102 -186 -316 -186q-366 0 -366 436v612h163v-586q0 -324 248 -324q120 0 197.5 88.5t77.5 231.5v590h164v-1024zM705 1218h-127l-262 328h168z"/>
<glyph glyph-name="uacute" horiz-adv-x="1159" unicode="ú" d="M994 0h-164v162h-4q-102 -186 -316 -186q-366 0 -366 436v612h163v-586q0 -324 248 -324q120 0 197.5 88.5t77.5 231.5v590h164v-1024zM840 1546l-262 -328h-127l223 328h166z"/>
<glyph glyph-name="ucircumflex" horiz-adv-x="1159" unicode="û" d="M994 0h-164v162h-4q-102 -186 -316 -186q-366 0 -366 436v612h163v-586q0 -324 248 -324q120 0 197.5 88.5t77.5 231.5v590h164v-1024zM854 1218h-122l-164 230l-165 -230h-113l215 332h133z"/>
<glyph glyph-name="udieresis" horiz-adv-x="1159" unicode="ü" d="M994 0h-164v162h-4q-102 -186 -316 -186q-366 0 -366 436v612h163v-586q0 -324 248 -324q120 0 197.5 88.5t77.5 231.5v590h164v-1024zM386 1218q-42 0 -71.5 29.5t-29.5 69.5q0 42 28.5 70t69.5 28t71 -28.5t30 -69.5t-29 -70t-69 -29zM770 1218q-40 0 -69 28t-29 71 q0 42 28 70t68 28q42 0 71 -28.5t29 -69.5t-28 -70t-70 -29z"/>
<glyph glyph-name="yacute" horiz-adv-x="991" unicode="ý" d="M981 1024l-471 -1188q-126 -318 -354 -318q-64 0 -107 13v147q53 -18 97 -18q124 0 186 148l82 194l-400 1022h182l277 -788q5 -15 21 -78h6q5 24 20 76l291 790h170zM762 1546l-262 -328h-127l223 328h166z"/>
<glyph glyph-name="thorn" horiz-adv-x="1204" unicode="þ" d="M330 561v-143q0 -127 82.5 -215.5t209.5 -88.5q149 0 233.5 114t84.5 317q0 171 -79 268t-214 97q-143 0 -230 -99.5t-87 -249.5zM334 148h-4v-619h-164v1987h164v-672h4q121 204 354 204q198 0 309 -137.5t111 -368.5q0 -257 -125 -411.5t-342 -154.5q-199 0 -307 172z "/>
<glyph glyph-name="dotlessi" horiz-adv-x="496" unicode="ı" d="M330 0h-164v1024h164v-1024z"/>
<glyph glyph-name="OE" horiz-adv-x="1906" unicode="Œ" d="M1050 160v1118q-160 28 -268 28q-229 0 -370.5 -166t-141.5 -425q0 -258 139.5 -423t366.5 -165q116 0 274 33zM1810 0h-720q-16 0 -138 -14q-98 -10 -182 -10q-312 0 -494 201t-182 523q0 346 189.5 552t514.5 206q90 0 178 -10q112 -14 114 -14h688v-152h-560v-477h518 v-151h-518v-502h592v-152z"/>
<glyph glyph-name="oe" horiz-adv-x="1900" unicode="œ" d="M606 910q-158 0 -250 -108.5t-92 -299.5q0 -180 92 -284t248 -104q159 0 245.5 102.5t86.5 291.5q0 194 -86.5 298t-243.5 104zM1657 610q-2 142 -69 221t-183 79q-120 0 -203.5 -85.5t-99.5 -214.5h555zM1825 471h-725q3 -171 91.5 -264t242.5 -93q175 0 319 114v-154 q-136 -98 -357 -98q-270 0 -382 237h-4q-131 -237 -416 -237q-229 0 -363.5 143t-134.5 379q0 258 142 404t382 146q294 0 402 -235h4q119 235 385 235q196 0 305 -131.5t109 -357.5v-88z"/>
<glyph glyph-name="Scaron" horiz-adv-x="1088" unicode="Š" d="M121 58v198q34 -30 81.5 -54t100 -40.5t105.5 -25.5t98 -9q155 0 231.5 57.5t76.5 165.5q0 58 -25.5 101t-70.5 78.5t-106.5 68t-132.5 68.5q-75 38 -140 77t-113 86t-75.5 106.5t-27.5 139.5q0 98 43 170.5t113 119.5t159.5 70t182.5 23q212 0 309 -51v-189 q-127 88 -326 88q-55 0 -110 -11.5t-98 -37.5t-70 -67t-27 -100q0 -55 20.5 -95t60.5 -73t97.5 -64t132.5 -68q77 -38 146 -80t121 -93t82.5 -113t30.5 -142q0 -106 -41.5 -179.5t-112 -119.5t-162.5 -66.5t-194 -20.5q-34 0 -84 5.5t-102 16t-98.5 26t-74.5 34.5zM826 1898 l-214 -330h-132l-216 330h115l164 -229l164 229h119z"/>
<glyph glyph-name="scaron" horiz-adv-x="869" unicode="š" d="M104 37v176q134 -99 295 -99q216 0 216 144q0 41 -18.5 69.5t-50 50.5t-74 39.5t-91.5 36.5q-68 27 -119.5 54.5t-86 62t-52 78.5t-17.5 103q0 72 33 127.5t88 93t125.5 56.5t145.5 19q133 0 238 -46v-166q-113 74 -260 74q-46 0 -83 -10.5t-63.5 -29.5t-41 -45.5 t-14.5 -58.5q0 -40 14.5 -67t42.5 -48t68 -38t91 -37q68 -26 122 -53.5t92 -62t58.5 -79.5t20.5 -107q0 -76 -33.5 -132t-89.5 -93t-129 -55t-153 -18q-158 0 -274 61zM682 1548l-214 -330h-132l-216 330h115l164 -229l164 229h119z"/>
<glyph glyph-name="Ydieresis" horiz-adv-x="1132" unicode="Ÿ" d="M1120 1434l-473 -904v-530h-168v526l-461 908h191l321 -648q6 -12 35 -88h3q10 34 38 88l336 648h178zM375 1565q-42 0 -71.5 29.5t-29.5 69.5q0 42 28.5 70t69.5 28t71 -28.5t30 -69.5t-29 -70t-69 -29zM759 1565q-40 0 -69 28t-29 71q0 42 28 70t68 28q42 0 71 -28.5 t29 -69.5t-28 -70t-70 -29z"/>
<glyph glyph-name="circumflex" horiz-adv-x="760" unicode="ˆ" d="M656 1218h-122l-164 230l-165 -230h-113l215 332h133z"/>
<glyph glyph-name="caron" horiz-adv-x="760" unicode="ˇ" d="M664 1548l-214 -330h-132l-216 330h115l164 -229l164 229h119z"/>
<glyph glyph-name="ring" horiz-adv-x="574" unicode="˚" d="M284 1483q-48 0 -80 -32.5t-32 -80.5q0 -112 112 -112q50 0 83 32t33 80q0 49 -33 81t-83 32zM284 1176q-87 0 -144.5 52.5t-57.5 137.5q0 90 59 144t150 54q89 0 146 -54t57 -138t-61 -140t-149 -56z"/>
<glyph glyph-name="tilde" horiz-adv-x="690" unicode="˜" d="M676 1458q0 -105 -48 -171.5t-130 -66.5q-71 0 -162 52q-77 43 -119 43q-88 0 -88 -113h-94q0 107 48 171.5t134 64.5q65 0 149 -52q74 -44 128 -44q84 0 84 116h98z"/>
<glyph glyph-name="endash" horiz-adv-x="1024" unicode="–" d="M1024 506h-1024v129h1024v-129z"/>
<glyph glyph-name="emdash" horiz-adv-x="2048" unicode="—" d="M2048 506h-2048v129h2048v-129z"/>
<glyph glyph-name="quoteleft" horiz-adv-x="469" unicode="‘" d="M364 1458l-108 -446h-150l140 446h118z"/>
<glyph glyph-name="quotesinglbase" horiz-adv-x="469" unicode="‚" d="M346 217l-141 -445h-117l110 445h148z"/>
<glyph glyph-name="quotedblleft" horiz-adv-x="772" unicode="“" d="M364 1458l-108 -446h-150l140 446h118zM668 1458l-111 -446h-147l141 446h117z"/>
<glyph glyph-name="quotedblright" horiz-adv-x="772" unicode="”" d="M368 1458l-140 -446h-118l111 446h147zM672 1458l-140 -446h-118l108 446h150z"/>
<glyph glyph-name="dagger" horiz-adv-x="768" unicode="†" d="M728 893l-262 30l-40 -694h-76l-40 694l-262 -30v150l302 -20l-40 410h156l-40 -410l302 20v-150z"/>
<glyph glyph-name="daggerdbl" horiz-adv-x="768" unicode="‡" d="M728 519l-302 20l40 -310h-156l40 310l-302 -20v150l262 -30l58 192l-58 192l-262 -30v150l302 -20l-40 310h156l-40 -310l302 20v-150l-262 30l-58 -192l58 -192l262 30v-150z"/>
<glyph glyph-name="ellipsis" horiz-adv-x="1501" unicode="…" d="M248 -18q-46 0 -77 32t-31 78t31 79.5t77 33.5q45 0 77.5 -33.5t32.5 -79.5t-32 -78t-78 -32zM750 -18q-46 0 -78.5 32t-32.5 78t32.5 79.5t78.5 33.5q45 0 77.5 -33.5t32.5 -79.5t-32.5 -78t-77.5 -32zM1252 -18q-46 0 -77.5 32t-31.5 78t31.5 79.5t77.5 33.5 q45 0 77.5 -33.5t32.5 -79.5t-32.5 -78t-77.5 -32z"/>
<glyph glyph-name="perthousand" horiz-adv-x="2478" unicode="‰" d="M1272 608q-96 0 -150.5 -70t-54.5 -194q0 -119 54 -186.5t147 -67.5q94 0 147 70.5t53 193.5q0 122 -52.5 188t-143.5 66zM1258 -22q-148 0 -236 98t-88 260q0 178 94 281.5t250 103.5q152 0 237 -96t85 -269q0 -171 -94.5 -274.5t-247.5 -103.5zM2070 608 q-96 0 -150 -70.5t-54 -193.5q0 -120 53.5 -187t146.5 -67q95 0 148 70.5t53 193.5q0 121 -53 187.5t-144 66.5zM2056 -22q-148 0 -236 98t-88 260q0 177 94.5 281t249.5 104q153 0 237.5 -95.5t84.5 -269.5q0 -171 -94 -274.5t-248 -103.5zM1366 1434l-922 -1444h-143 l921 1444h144zM418 1346q-95 0 -150 -70.5t-55 -193.5q0 -121 54 -188.5t147 -67.5q94 0 147 70t53 194q0 121 -52.5 188.5t-143.5 67.5zM404 715q-148 0 -236 97.5t-88 260.5q0 178 93 280.5t251 102.5q153 0 237.5 -95t84.5 -267t-94.5 -275.5t-247.5 -103.5z"/>
<glyph glyph-name="guilsinglleft" horiz-adv-x="647" unicode="‹" d="M557 200h-166l-299 336l299 344h168l-305 -344z"/>
<glyph glyph-name="guilsinglright" horiz-adv-x="647" unicode="›" d="M559 538l-301 -338h-166l304 338l-304 342h166z"/>
<glyph glyph-name="uni2074" horiz-adv-x="719" unicode="⁴" d="M444 1308h-4q-12 -31 -38 -73l-218 -338h256v323q0 32 4 88zM682 788h-110v-204h-132v204h-393v92l369 554h156v-537h110v-109z"/>
<glyph glyph-name="Euro" d="M1014 50q-133 -74 -282 -74q-427 0 -509 506h-121v140h108q-4 31 -4 77q0 48 6 108h-110v140h131q51 240 192.5 375.5t343.5 135.5q137 0 245 -56v-162q-114 78 -256 78q-125 0 -222.5 -100.5t-136.5 -270.5h497v-140h-519q-4 -53 -4 -102q0 -43 3 -83h520v-140h-504 q72 -366 350 -366q131 0 272 87v-153z" unicode="€"/>
<glyph glyph-name="trademark" horiz-adv-x="1583" unicode="™" d="M602 1336h-209v-564h-111v564h-206v98h526v-98zM1396 772h-108v478h-4l-219 -478h-59l-214 478h-4v-478h-102v662h127l225 -496h4l228 496h126v-662z"/>
<glyph glyph-name="partialdiff" horiz-adv-x="1096" unicode="∂" d="M850 692q-58 209 -230 209q-160 0 -267 -157t-107 -367q0 -122 56.5 -192.5t153.5 -70.5q151 0 259 159.5t135 418.5zM862 872h4q2 39 2 75q0 401 -268 401q-123 0 -246 -80l39 156q119 65 248 65q194 0 290.5 -132t96.5 -423q0 -221 -65 -461t-200 -368.5t-319 -128.5 q-166 0 -266 106.5t-100 287.5q0 272 147.5 471t374.5 199q178 0 262 -168z"/>
<glyph glyph-name="product" horiz-adv-x="1544" unicode="∏" d="M1362 -469h-168v1749h-838v-1749h-168v1903h1174v-1903z"/>
<glyph glyph-name="summation" horiz-adv-x="1263" unicode="∑" d="M1210 -469h-1159v78l676 883l-639 852v90h1082v-154h-836l594 -784l-625 -812h907v-153z"/>
<glyph glyph-name="minus" horiz-adv-x="1401" unicode="−" d="M1172 530h-940v134h940v-134z"/>
<glyph glyph-name="uni2215" horiz-adv-x="354" unicode="∕" d="M690 1434l-858 -1434h-144l859 1434h143z"/>
<glyph glyph-name="radical" horiz-adv-x="1331" unicode="√" d="M1114 1516l-389 -1516h-113l-319 750h-170v120h264l275 -661l334 1307h118z"/>
<glyph glyph-name="infinity" horiz-adv-x="1673" unicode="∞" d="M774 598q-132 262 -320 262q-110 0 -175.5 -75t-65.5 -193q0 -110 67.5 -183t173.5 -73q176 0 320 262zM901 596q131 -260 319 -260q109 0 174.5 72.5t65.5 191.5q0 112 -68 186t-172 74q-173 0 -319 -264zM836 482q-168 -275 -382 -275q-165 0 -268.5 106.5 t-103.5 278.5q0 162 108 277.5t264 115.5q236 0 386 -273q164 273 380 273q166 0 270 -106.5t104 -278.5q0 -161 -108 -277t-266 -116q-226 0 -384 275z"/>
<glyph glyph-name="approxequal" horiz-adv-x="1403" unicode="≈" d="M1194 549q-7 -147 -80.5 -228t-199.5 -81q-109 0 -265 108q-94 66 -159 66q-140 0 -146 -174h-135q5 143 79.5 226t201.5 83q106 0 235 -88q132 -91 197 -91q61 0 98 50t39 129h135zM1194 960q-7 -146 -80.5 -227t-199.5 -81q-109 0 -265 108q-97 68 -159 68 q-140 0 -146 -176h-135q5 144 79.5 226t201.5 82q106 0 235 -88q132 -90 197 -90q61 0 98 49t39 129h135z"/>
<glyph glyph-name="notequal" horiz-adv-x="1403" unicode="≠" d="M1172 318h-550l-163 -318h-141l164 318h-250v132h319l149 294h-468v132h538l158 312h141l-159 -312h262v-132h-330l-152 -294h482v-132z"/>
<glyph glyph-name="lessequal" horiz-adv-x="1403" unicode="≤" d="M1172 0h-940v133h940v-133zM1132 254l-860 434v58l860 481v-150l-642 -354v-4l642 -313v-152z"/>
<glyph glyph-name="greaterequal" horiz-adv-x="1403" unicode="≥" d="M1172 0h-940v133h940v-133zM1132 690l-860 -434v152l644 309v6l-644 357v149l860 -481v-58z"/>
<glyph glyph-name="lozenge" horiz-adv-x="1195" unicode="◊" d="M954 717l-356 575l-356 -575l356 -577zM1088 717l-453 -717h-76l-451 715l451 719h76z"/>
</font>
</defs>
</svg>
