<?xml version="1.0" standalone="no"?>
<!DOCTYPE svg PUBLIC "-//W3C//DTD SVG 1.1//EN" "http://www.w3.org/Graphics/SVG/1.1/DTD/svg11.dtd" >
<svg xmlns="http://www.w3.org/2000/svg" xmlns:xlink="http://www.w3.org/1999/xlink" version="1.1">
<metadata>
Created by FontForge 20161003 at Tue Dec  6 05:10:03 2016
 By www-data
Designed by Paul van der Laan, Pieter van Rosmalen &#38; Mike Abbink 2013. Produced by Bold Monday. FOR EXCLUSIVE USE BY GENERAL ELECTRIC COMPANY AND ITS AFFILIATES ONLY.
</metadata>
<defs>
<font id="GEInspiraSansBoldv01" horiz-adv-x="1200" >
  <font-face 
    font-family="GEInspiraSansBoldv01"
    font-weight="700"
    font-stretch="normal"
    units-per-em="2048"
    panose-1="2 11 8 3 6 0 0 0 0 3"
    ascent="1588"
    descent="-460"
    x-height="980"
    cap-height="1324"
    bbox="-390 -468 2582 1906"
    underline-thickness="204"
    underline-position="-432"
    unicode-range="U+0020-FB02"
  />
<missing-glyph horiz-adv-x="410" 
d="M144 -380q-44 0 -44 44v1752q0 44 44 44h122q44 0 44 -44v-1752q0 -44 -44 -44h-122z" />
    <glyph glyph-name="f_b" unicode="fb" horiz-adv-x="1862" 
d="M1090 310q20 -31 44 -51.5t49.5 -32.5t51 -17t49.5 -5q47 0 86 17.5t66.5 53t42.5 89t15 126.5t-15 126.5t-42.5 89t-66.5 53t-86 17.5q-24 0 -49.5 -5t-51 -17t-49.5 -32.5t-44 -51.5v-360zM190 990q0 127 33.5 216t93.5 144.5t142 80.5t179 25q50 0 89 -5.5t71 -14.5
h248q44 0 44 -44v-522q19 25 45 48.5t61.5 41.5t80.5 29t101 11q94 0 171 -33.5t131.5 -98t84 -159t29.5 -215.5t-29 -216.5t-83.5 -161.5t-132.5 -101t-175 -35q-56 0 -102 11t-82.5 30.5t-64.5 46t-49 56.5v-80q0 -44 -44 -44h-190q-44 0 -44 44v1166q-51 24 -122 24
q-44 0 -80 -10.5t-61.5 -34.5t-39 -64.5t-13.5 -100.5v-44h130q44 0 44 -44v-128q0 -44 -44 -44h-130v-720q0 -44 -44 -44h-204q-44 0 -44 44v720h-126q-44 0 -44 44v128q0 44 44 44h126v10z" />
    <glyph glyph-name="f_f" unicode="ff" horiz-adv-x="1312" 
d="M482 980h316v40q0 53 5 99t17 85q-30 15 -65.5 24.5t-80.5 9.5q-44 0 -79 -10.5t-60.5 -34.5t-39 -64.5t-13.5 -100.5v-48zM190 990q0 127 34 216t94 144.5t142.5 80.5t179.5 25t168 -21t124 -53q50 39 115 56.5t143 17.5q72 0 130 -14t102 -40q36 -21 18 -60l-58 -122
q-12 -23 -24.5 -27t-33.5 7q-23 12 -49 19t-55 7q-31 0 -55 -9t-40.5 -30.5t-25.5 -57.5t-9 -89v-60h184q44 0 44 -44v-128q0 -44 -44 -44h-184v-720q0 -44 -44 -44h-204q-44 0 -44 44v720h-316v-720q0 -44 -44 -44h-204q-44 0 -44 44v720h-126q-44 0 -44 44v128q0 44 44 44
h126v10z" />
    <glyph glyph-name="f_h" unicode="fh" horiz-adv-x="1834" 
d="M190 990q0 127 33.5 216t93.5 144.5t142 80.5t179 25q50 0 89 -5.5t71 -14.5h248q44 0 44 -44v-514q20 23 46.5 45t61 39t77 27.5t95.5 10.5q90 0 153.5 -30.5t103.5 -82.5t58.5 -121.5t18.5 -147.5v-574q0 -44 -44 -44h-204q-44 0 -44 44v544q0 31 -6 64t-22.5 60
t-44.5 44.5t-71 17.5q-22 0 -45.5 -5t-47 -15.5t-45.5 -28.5t-40 -43v-638q0 -44 -44 -44h-204q-44 0 -44 44v1166q-51 24 -122 24q-44 0 -80 -10.5t-61.5 -34.5t-39 -64.5t-13.5 -100.5v-44h130q44 0 44 -44v-128q0 -44 -44 -44h-130v-720q0 -44 -44 -44h-204q-44 0 -44 44
v720h-126q-44 0 -44 44v128q0 44 44 44h126v10z" />
    <glyph glyph-name="f_i" unicode="fi" horiz-adv-x="1224" 
d="M20 936q0 44 44 44h126v10q0 127 34 216t95.5 144.5t148 80.5t190.5 25q100 0 181 -20t135 -56q38 -22 16 -60l-74 -128q-12 -21 -25 -23.5t-33 9.5q-35 24 -77 38t-99 14q-45 0 -82 -10.5t-63 -34.5t-40.5 -64.5t-14.5 -100.5v-40h564q44 0 44 -44v-892q0 -44 -44 -44
h-204q-44 0 -44 44v720h-316v-720q0 -44 -44 -44h-204q-44 0 -44 44v720h-126q-44 0 -44 44v128z" />
    <glyph glyph-name="f_j" unicode="fj" horiz-adv-x="1224" 
d="M20 936q0 44 44 44h126v10q0 127 34 216t95.5 144.5t148 80.5t190.5 25q100 0 181 -20t135 -56q38 -22 16 -60l-74 -128q-12 -21 -25 -23.5t-33 9.5q-35 24 -77 38t-99 14q-45 0 -82 -10.5t-63 -34.5t-40.5 -64.5t-14.5 -100.5v-40h564q44 0 44 -44v-984
q0 -86 -23 -154.5t-69 -117t-114 -74.5t-158 -26q-45 0 -95 8t-95 28q-39 18 -24 60l48 122q9 23 21 28t35 -4q34 -14 68 -14q32 0 54 12t35.5 33.5t19 52t5.5 68.5v790h-316v-720q0 -44 -44 -44h-204q-44 0 -44 44v720h-126q-44 0 -44 44v128z" />
    <glyph glyph-name="f_k" unicode="fk" horiz-adv-x="1764" 
d="M20 936q0 44 44 44h126v10q0 127 33.5 216t93.5 144.5t142 80.5t179 25q50 0 89 -5.5t71 -14.5h248q44 0 44 -44v-820q45 40 89 87t84.5 95t76 96t62.5 92q14 21 28 29.5t40 8.5h206q20 0 26 -10t-6 -28q-57 -91 -129 -180.5t-155 -175.5q47 -58 93 -125.5t87 -138.5
t76.5 -142.5t61.5 -137.5q15 -42 -28 -42h-232q-24 0 -37.5 8.5t-22.5 31.5q-19 45 -41 92.5t-47.5 94t-53 91.5t-56.5 86q-30 -24 -60 -47.5t-62 -46.5v-266q0 -44 -44 -44h-204q-44 0 -44 44v1166q-51 24 -122 24q-44 0 -80 -10.5t-61.5 -34.5t-39 -64.5t-13.5 -100.5v-44
h130q44 0 44 -44v-128q0 -44 -44 -44h-130v-720q0 -44 -44 -44h-204q-44 0 -44 44v720h-126q-44 0 -44 44v128z" />
    <glyph glyph-name="f_l" unicode="fl" horiz-adv-x="1226" 
d="M20 936q0 44 44 44h126v10q0 127 33.5 216t93.5 144.5t142 80.5t179 25q50 0 89 -5.5t71 -14.5h248q44 0 44 -44v-1348q0 -44 -44 -44h-204q-44 0 -44 44v1166q-51 24 -122 24q-44 0 -80 -10.5t-61.5 -34.5t-39 -64.5t-13.5 -100.5v-44h130q44 0 44 -44v-128
q0 -44 -44 -44h-130v-720q0 -44 -44 -44h-204q-44 0 -44 44v720h-126q-44 0 -44 44v128z" />
    <glyph glyph-name="f_f_b" unicode="ffb" horiz-adv-x="2470" 
d="M20 936q0 44 44 44h126v10q0 127 34.5 216t96 144.5t145.5 80.5t182 25q103 0 177.5 -22.5t130.5 -57.5q57 42 130.5 61t159.5 19q50 0 89 -5.5t71 -14.5h248q44 0 44 -44v-522q19 25 45.5 48.5t61.5 41.5t79.5 29t99.5 11q96 0 173.5 -33.5t131.5 -98t83.5 -159.5
t29.5 -217q0 -120 -29.5 -215t-83.5 -161t-131.5 -101t-173.5 -35q-57 0 -103 11t-83 30.5t-65 46t-49 56.5v-80q0 -44 -44 -44h-190q-44 0 -44 44v1166q-51 24 -122 24q-44 0 -80 -10.5t-61.5 -34.5t-39 -64.5t-13.5 -100.5v-44h130q44 0 44 -44v-128q0 -44 -44 -44h-130
v-720q0 -44 -44 -44h-204q-44 0 -44 44v720h-316v-720q0 -44 -44 -44h-204q-44 0 -44 44v720h-126q-44 0 -44 44v128zM1698 310q20 -31 44 -51.5t49 -32.5t50.5 -17t48.5 -5q48 0 87 17.5t67 53t43 89t15 126.5q0 145 -58 215.5t-154 70.5q-23 0 -48.5 -5t-50.5 -17
t-49 -32.5t-44 -51.5v-360zM482 980h316v10q0 66 7.5 117t22.5 93q-30 17 -68 27.5t-86 10.5q-44 0 -79 -10.5t-60.5 -34.5t-39 -64.5t-13.5 -100.5v-48z" />
    <glyph glyph-name="f_f_h" unicode="ffh" horiz-adv-x="2442" 
d="M20 936q0 44 44 44h126v10q0 127 34.5 216t96 144.5t145.5 80.5t182 25q103 0 177.5 -22.5t130.5 -57.5q57 42 130.5 61t159.5 19q50 0 89 -5.5t71 -14.5h248q44 0 44 -44v-514q20 23 46.5 45t61 39t77 27.5t95.5 10.5q90 0 153.5 -30.5t103.5 -82.5t58.5 -121.5
t18.5 -147.5v-574q0 -44 -44 -44h-204q-44 0 -44 44v544q0 31 -6 64t-22.5 60t-44.5 44.5t-71 17.5q-22 0 -45.5 -5t-47 -15.5t-45.5 -28.5t-40 -43v-638q0 -44 -44 -44h-204q-44 0 -44 44v1166q-51 24 -122 24q-44 0 -80 -10.5t-61.5 -34.5t-39 -64.5t-13.5 -100.5v-44h130
q44 0 44 -44v-128q0 -44 -44 -44h-130v-720q0 -44 -44 -44h-204q-44 0 -44 44v720h-316v-720q0 -44 -44 -44h-204q-44 0 -44 44v720h-126q-44 0 -44 44v128zM482 980h316v10q0 66 7.5 117t22.5 93q-30 17 -68 27.5t-86 10.5q-44 0 -79 -10.5t-60.5 -34.5t-39 -64.5
t-13.5 -100.5v-48z" />
    <glyph glyph-name="f_f_i" unicode="ffi" horiz-adv-x="1832" 
d="M20 936q0 44 44 44h126v10q0 127 34.5 216t96 144.5t145.5 80.5t182 25q104 0 179 -22.5t131 -57.5q60 42 137 61t169 19q101 0 182.5 -20t135.5 -56q38 -22 16 -60l-74 -128q-12 -21 -25 -23.5t-33 9.5q-35 24 -77 38t-99 14q-45 0 -82 -10.5t-63 -34.5t-40.5 -64.5
t-14.5 -100.5v-40h564q44 0 44 -44v-892q0 -44 -44 -44h-204q-44 0 -44 44v720h-316v-720q0 -44 -44 -44h-204q-44 0 -44 44v720h-316v-720q0 -44 -44 -44h-204q-44 0 -44 44v720h-126q-44 0 -44 44v128zM482 980h316v10q0 66 7.5 117t22.5 93q-30 17 -68 27.5t-86 10.5
q-44 0 -79 -10.5t-60.5 -34.5t-39 -64.5t-13.5 -100.5v-48z" />
    <glyph glyph-name="f_f_j" unicode="ffj" horiz-adv-x="1832" 
d="M20 936q0 44 44 44h126v10q0 127 34.5 216t96 144.5t145.5 80.5t182 25q104 0 179 -22.5t131 -57.5q60 42 137 61t169 19q101 0 182.5 -20t135.5 -56q38 -22 16 -60l-74 -128q-12 -21 -25 -23.5t-33 9.5q-35 24 -77 38t-99 14q-45 0 -82 -10.5t-63 -34.5t-40.5 -64.5
t-14.5 -100.5v-40h564q44 0 44 -44v-984q0 -86 -23 -154.5t-69 -117t-114 -74.5t-158 -26q-45 0 -95 8t-95 28q-39 18 -24 60l48 122q9 23 21 28t35 -4q34 -14 68 -14q32 0 54 12t35.5 33.5t19 52t5.5 68.5v790h-316v-720q0 -44 -44 -44h-204q-44 0 -44 44v720h-316v-720
q0 -44 -44 -44h-204q-44 0 -44 44v720h-126q-44 0 -44 44v128zM482 980h316v10q0 66 7.5 117t22.5 93q-30 17 -68 27.5t-86 10.5q-44 0 -79 -10.5t-60.5 -34.5t-39 -64.5t-13.5 -100.5v-48z" />
    <glyph glyph-name="f_f_k" unicode="ffk" horiz-adv-x="2372" 
d="M20 936q0 44 44 44h126v10q0 127 34.5 216t96 144.5t145.5 80.5t182 25q103 0 177.5 -22.5t130.5 -57.5q57 42 130.5 61t159.5 19q50 0 89 -5.5t71 -14.5h248q44 0 44 -44v-820q45 40 89 87t84.5 95t76 96t62.5 92q14 21 28 29.5t40 8.5h206q20 0 26 -10t-6 -28
q-57 -91 -129 -180.5t-155 -175.5q47 -58 93 -125.5t87 -138.5t76.5 -142.5t61.5 -137.5q15 -42 -28 -42h-232q-24 0 -37.5 8.5t-22.5 31.5q-19 45 -41 92.5t-47.5 94t-53 91.5t-56.5 86q-30 -24 -60 -47.5t-62 -46.5v-266q0 -44 -44 -44h-204q-44 0 -44 44v1166
q-51 24 -122 24q-44 0 -80 -10.5t-61.5 -34.5t-39 -64.5t-13.5 -100.5v-44h130q44 0 44 -44v-128q0 -44 -44 -44h-130v-720q0 -44 -44 -44h-204q-44 0 -44 44v720h-316v-720q0 -44 -44 -44h-204q-44 0 -44 44v720h-126q-44 0 -44 44v128zM482 980h316v10q0 66 7.5 117
t22.5 93q-30 17 -68 27.5t-86 10.5q-44 0 -79 -10.5t-60.5 -34.5t-39 -64.5t-13.5 -100.5v-48z" />
    <glyph glyph-name="f_f_l" unicode="ffl" horiz-adv-x="1834" 
d="M20 936q0 44 44 44h126v10q0 127 34.5 216t96 144.5t145.5 80.5t182 25q103 0 177.5 -22.5t130.5 -57.5q57 42 130.5 61t159.5 19q50 0 89 -5.5t71 -14.5h248q44 0 44 -44v-1348q0 -44 -44 -44h-204q-44 0 -44 44v1166q-51 24 -122 24q-44 0 -80 -10.5t-61.5 -34.5
t-39 -64.5t-13.5 -100.5v-44h130q44 0 44 -44v-128q0 -44 -44 -44h-130v-720q0 -44 -44 -44h-204q-44 0 -44 44v720h-316v-720q0 -44 -44 -44h-204q-44 0 -44 44v720h-126q-44 0 -44 44v128zM482 980h316v10q0 66 7.5 117t22.5 93q-30 17 -68 27.5t-86 10.5q-44 0 -79 -10.5
t-60.5 -34.5t-39 -64.5t-13.5 -100.5v-48z" />
    <glyph glyph-name=".notdef" horiz-adv-x="410" 
d="M144 -380q-44 0 -44 44v1752q0 44 44 44h122q44 0 44 -44v-1752q0 -44 -44 -44h-122z" />
    <glyph glyph-name=".null" horiz-adv-x="0" 
 />
    <glyph glyph-name="nonmarkingreturn" horiz-adv-x="410" 
 />
    <glyph glyph-name="space" unicode=" " horiz-adv-x="410" 
 />
    <glyph glyph-name="exclam" unicode="!" horiz-adv-x="796" 
d="M370 460q-24 0 -35.5 10t-14.5 34l-120 776q-6 44 38 44h320q44 0 38 -44l-120 -776q-3 -24 -14.5 -34t-35.5 -10h-56zM570 154q0 -36 -12 -67.5t-34.5 -55.5t-54 -37.5t-71.5 -13.5t-71.5 13.5t-54 37.5t-34.5 55.5t-12 67.5t12 67.5t34.5 55.5t54 37.5t71.5 13.5
t71.5 -13.5t54 -37.5t34.5 -55.5t12 -67.5z" />
    <glyph glyph-name="quotedbl" unicode="&#x22;" horiz-adv-x="830" 
d="M592 846q-24 0 -35.5 10t-14.5 34l-68 476q-2 11 -3 22t-1 14q0 34 38 34h188q38 0 38 -34q0 -3 -1 -14t-3 -22l-68 -476q-3 -24 -14.5 -34t-35.5 -10h-20v0zM218 846q-24 0 -35.5 10t-14.5 34l-68 476q-2 11 -3 22t-1 14q0 34 38 34h188q38 0 38 -34q0 -3 -1 -14t-3 -22
l-68 -476q-3 -24 -14.5 -34t-35.5 -10h-20v0z" />
    <glyph glyph-name="numbersign" unicode="#" horiz-adv-x="1238" 
d="M680 0q-45 0 -36 44l48 300h-250l-48 -300q-5 -24 -16.5 -34t-35.5 -10h-130q-45 0 -36 44l48 300h-144q-44 0 -44 44v102q0 44 44 44h174l42 256h-142q-44 0 -44 44v102q0 44 44 44h174l48 300q5 24 16.5 34t35.5 10h130q45 0 36 -44l-48 -300h250l48 300q5 24 16.5 34
t35.5 10h130q45 0 36 -44l-48 -300h144q44 0 44 -44v-102q0 -44 -44 -44h-176l-42 -256h144q44 0 44 -44v-102q0 -44 -44 -44h-174l-48 -300q-5 -24 -16.5 -34t-35.5 -10h-130zM504 802l-46 -280h274l46 280h-274z" />
    <glyph glyph-name="dollar" unicode="$" 
d="M568 -128q-44 0 -44 44v106q-136 8 -236.5 43t-165.5 79q-38 23 -14 62l86 132q23 38 60 12q56 -38 125.5 -63t152.5 -33v300q-43 10 -91 23t-94 32.5t-88 46.5t-74 64.5t-50.5 86.5t-18.5 113q0 79 29 144.5t82 114t128.5 79.5t168.5 42v108q0 44 44 44h88q44 0 44 -44
v-106q115 -6 200 -33t144 -63q37 -21 16 -60l-78 -134q-12 -21 -26 -24.5t-34 8.5q-45 26 -103 45t-127 27v-292q52 -13 103 -28t97.5 -35.5t85.5 -48t68 -63.5t45.5 -83t16.5 -106q0 -80 -28.5 -145.5t-81.5 -115t-128.5 -81.5t-169.5 -44v-110q0 -44 -44 -44h-88zM692 254
q59 14 95.5 46.5t36.5 83.5q0 26 -10 46.5t-28 37t-42 28.5t-52 22v-264zM532 1070q-68 -15 -100 -50t-32 -82q0 -28 10 -48.5t27.5 -35.5t41.5 -25.5t53 -18.5v260z" />
    <glyph glyph-name="percent" unicode="%" horiz-adv-x="1834" 
d="M274 966q0 -46 8.5 -85t26.5 -67.5t45.5 -45t65.5 -16.5q37 0 64.5 16.5t45.5 45t27 67.5t9 85t-9 85t-27 67.5t-45.5 45t-64.5 16.5q-38 0 -65.5 -16.5t-45.5 -45t-26.5 -67.5t-8.5 -85zM776 966q0 -73 -20 -141t-63.5 -120.5t-111 -84.5t-161.5 -32q-95 0 -162 32
t-110.5 84.5t-63.5 120.5t-20 141t20 141t63.5 120.5t110.5 84.5t162 32q94 0 161.5 -32t111 -84.5t63.5 -120.5t20 -141zM406 0q-20 0 -25.5 9.5t5.5 26.5l844 1252q14 20 29 28t39 8h130q20 0 25.5 -9.5t-5.5 -26.5l-844 -1252q-14 -20 -29 -28t-39 -8h-130zM1560 358
q0 46 -9 85t-27 67.5t-45.5 45t-64.5 16.5q-38 0 -65.5 -16.5t-45.5 -45t-26.5 -67.5t-8.5 -85t8.5 -85t26.5 -67.5t45.5 -45t65.5 -16.5q37 0 64.5 16.5t45.5 45t27 67.5t9 85zM1058 358q0 73 20 141t63.5 120.5t110.5 84.5t162 32q94 0 161.5 -32t111 -84.5t63.5 -120.5
t20 -141t-20 -141t-63.5 -120.5t-111 -84.5t-161.5 -32q-95 0 -162 32t-110.5 84.5t-63.5 120.5t-20 141z" />
    <glyph glyph-name="ampersand" unicode="&#x26;" horiz-adv-x="1420" 
d="M482 988q0 -30 12.5 -56t35 -51.5t54.5 -52.5t72 -58l334 -266q14 47 19.5 95t8.5 113q2 24 12.5 34t33.5 10h168q45 0 42 -44q-9 -110 -27.5 -198.5t-56.5 -169.5l180 -140q18 -15 19.5 -29.5t-13.5 -32.5l-98 -128q-15 -18 -29.5 -19.5t-32.5 13.5l-170 134
q-81 -78 -189.5 -120t-254.5 -42q-116 0 -208.5 30.5t-158 84.5t-100.5 127.5t-35 159.5q0 107 54 199t160 155q-65 66 -94.5 129.5t-29.5 132.5q0 75 33 138.5t94.5 109.5t150 72t198.5 26q122 0 213.5 -29.5t148.5 -68.5q37 -24 10 -60l-86 -126q-14 -20 -27 -23t-33 11
q-44 30 -98 49t-122 19q-94 0 -142 -34.5t-48 -93.5zM384 408q0 -45 17.5 -83t49.5 -65t78 -42.5t103 -15.5q71 0 128 22.5t102 63.5l-394 312q-39 -38 -61.5 -88t-22.5 -104z" />
    <glyph glyph-name="quotesingle" unicode="'" horiz-adv-x="456" 
d="M218 846q-24 0 -35.5 10t-14.5 34l-68 476q-2 11 -3 22t-1 14q0 34 38 34h188q38 0 38 -34q0 -3 -1 -14t-3 -22l-68 -476q-3 -24 -14.5 -34t-35.5 -10h-20v0z" />
    <glyph glyph-name="parenleft" unicode="(" horiz-adv-x="630" 
d="M392 642q0 -384 144 -744q6 -15 6 -24q0 -24 -30 -36l-96 -42q-15 -6 -28 -6q-12 0 -23 6t-19 18q-40 65 -78.5 151.5t-68.5 191.5t-48.5 227t-18.5 258t18.5 257.5t48.5 226.5t68.5 192t78.5 152q8 12 19 18t23 6q13 0 28 -6l96 -42q30 -12 30 -36q0 -9 -6 -24
q-144 -360 -144 -744z" />
    <glyph glyph-name="parenright" unicode=")" horiz-adv-x="630" 
d="M238 642q0 384 -144 744q-6 15 -6 24q0 24 30 36l96 42q15 6 28 6q12 0 23 -6t19 -18q40 -65 78.5 -152t68.5 -192t48.5 -226.5t18.5 -257.5t-18.5 -258t-48.5 -227t-68.5 -191.5t-78.5 -151.5q-8 -12 -19 -18t-23 -6q-13 0 -28 6l-96 42q-30 12 -30 36q0 9 6 24
q144 360 144 744z" />
    <glyph glyph-name="asterisk" unicode="*" horiz-adv-x="888" 
d="M496 1436q23 0 32.5 -12t7.5 -32l-14 -214l186 74q17 6 25 8t13 2q22 0 30 -28l30 -96q2 -5 3 -12t1 -10q0 -15 -9.5 -23t-26.5 -13l-204 -52l140 -166q12 -15 12 -28q0 -16 -20 -30l-84 -62q-15 -12 -28 -12q-17 0 -32 24l-114 182l-114 -182q-15 -24 -32 -24
q-13 0 -28 12l-84 62q-20 14 -20 30q0 13 12 28l140 166l-204 52q-17 5 -26.5 13t-9.5 23q0 3 1 10t3 12l30 96q8 28 30 28q5 0 13 -2t25 -8l186 -74l-14 214q-2 20 7.5 32t32.5 12h104z" />
    <glyph glyph-name="plus" unicode="+" 
d="M160 386q-44 0 -44 44v108q0 44 44 44h334v342q0 44 44 44h124q44 0 44 -44v-342h334q44 0 44 -44v-108q0 -44 -44 -44h-334v-342q0 -44 -44 -44h-124q-44 0 -44 44v342h-334z" />
    <glyph glyph-name="comma" unicode="," horiz-adv-x="520" 
d="M438 156q0 -49 -14.5 -108t-42.5 -121.5t-68 -124t-91 -114.5q-9 -9 -17.5 -12.5t-16.5 -3.5q-17 0 -34 10l-36 22q-22 14 -22 30q0 13 12 28q21 27 36 50.5t24 46.5t13.5 47t4.5 52q0 31 -16.5 56t-36 49.5t-35.5 52.5t-16 66q0 75 45 122.5t133 47.5q47 0 81 -15.5
t55.5 -42t31.5 -62.5t10 -76z" />
    <glyph glyph-name="hyphen" unicode="-" horiz-adv-x="688" 
d="M132 446q-44 0 -44 44v160q0 44 44 44h424q44 0 44 -44v-160q0 -44 -44 -44h-424z" />
    <glyph glyph-name="period" unicode="." horiz-adv-x="520" 
d="M444 166q0 -38 -13 -72t-37 -59.5t-58 -40t-76 -14.5t-76 14.5t-58 40t-37 59.5t-13 72t13 72t37 59.5t58 40t76 14.5t76 -14.5t58 -40t37 -59.5t13 -72z" />
    <glyph glyph-name="slash" unicode="/" horiz-adv-x="652" 
d="M102 -180q-18 0 -26 8t-8 22q0 3 0.5 8t3.5 16l406 1588q6 23 18 32.5t36 9.5h120q18 0 26 -8t8 -22q0 -3 -0.5 -8t-3.5 -16l-406 -1588q-6 -23 -18 -32.5t-36 -9.5h-120z" />
    <glyph glyph-name="zero" unicode="0" 
d="M362 662q0 -100 13.5 -184t42.5 -145.5t74 -96t108 -34.5t108 34.5t74 96t42.5 145.5t13.5 184t-13.5 184t-42.5 145.5t-74 96t-108 34.5t-108 -34.5t-74 -96t-42.5 -145.5t-13.5 -184zM1142 662q0 -86 -12 -170.5t-38.5 -160t-69 -140t-102.5 -111.5t-139.5 -73.5
t-180.5 -26.5t-180.5 26.5t-139.5 73.5t-102.5 111.5t-69 140t-38.5 159.5t-12 171q0 86 12 170.5t38.5 160t69 140t102.5 111.5t139.5 73.5t180.5 26.5t180.5 -26.5t139.5 -73.5t102.5 -111.5t69 -140t38.5 -160t12 -170.5z" />
    <glyph glyph-name="one" unicode="1" 
d="M272 0q-44 0 -44 44v136q0 44 44 44h248v810l-210 -110q-40 -20 -60 20l-56 118q-20 40 18 60l348 182q37 20 82 20h124q44 0 44 -44v-1056h226q44 0 44 -44v-136q0 -44 -44 -44h-764z" />
    <glyph glyph-name="two" unicode="2" 
d="M192 0q-44 0 -44 44v66q0 103 29 185t81.5 149.5t125.5 124t160 109.5q32 19 72 43t74.5 56.5t58 75t23.5 99.5q0 74 -45 114t-149 40q-81 0 -149.5 -22.5t-122.5 -57.5q-20 -12 -34 -8.5t-26 24.5l-76 124q-23 38 12 64q31 23 72.5 44t92 36.5t110.5 24.5t129 9
q124 0 213.5 -30t148 -84t86.5 -127.5t28 -160.5q0 -92 -28 -158.5t-76 -119t-113.5 -97t-140.5 -91.5q-34 -22 -74.5 -50t-76 -61t-59.5 -68.5t-24 -72.5h574q44 0 44 -44v-136q0 -44 -44 -44h-852z" />
    <glyph glyph-name="three" unicode="3" 
d="M1064 420q0 -92 -31.5 -172.5t-97.5 -140t-166.5 -93.5t-238.5 -34t-235 33.5t-161 84.5q-36 27 -12 62l82 126q23 38 60 12q50 -33 113.5 -56.5t148.5 -23.5q126 0 186 55t60 145q0 45 -15 82t-46.5 63t-80.5 40.5t-116 14.5h-34q-18 0 -30 5t-24 17l-76 78
q-17 17 -17 32.5t15 33.5l278 316h-406q-44 0 -44 44v136q0 44 44 44h724q44 0 44 -44v-82q0 -24 -6.5 -42t-21.5 -36l-98 -116q-48 -57 -94.5 -103t-81.5 -75q93 -13 163.5 -47.5t118.5 -87t72 -121.5t24 -150z" />
    <glyph glyph-name="four" unicode="4" 
d="M98 270q-44 0 -44 44v102q0 23 5 42.5t17 39.5l426 788q12 21 27 29.5t39 8.5h210q44 0 22 -38l-434 -800h336v386q0 44 44 44h196q44 0 44 -44v-386h132q44 0 44 -44v-128q0 -44 -44 -44h-132v-226q0 -44 -44 -44h-196q-44 0 -44 44v226h-604z" />
    <glyph glyph-name="five" unicode="5" 
d="M1062 422q0 -92 -32.5 -172.5t-98.5 -140.5t-167 -94.5t-238 -34.5t-233 33.5t-161 84.5q-35 26 -12 64l80 124q23 38 60 12q51 -33 115 -56.5t147 -23.5q62 0 108.5 15t77.5 42t46.5 64.5t15.5 82.5t-15.5 83.5t-46.5 67t-78 45t-110 16.5q-83 0 -164 -30
q-24 -9 -40.5 -7t-37.5 17l-56 40q-20 15 -27 30.5t-5 39.5l58 556q2 24 13 34t35 10h648q44 0 44 -44v-136q0 -44 -44 -44h-446l-26 -262q26 5 52.5 7.5t61.5 2.5q116 0 205 -32.5t149 -89.5t91 -135t31 -169z" />
    <glyph glyph-name="six" unicode="6" 
d="M1120 436q0 -100 -32 -183.5t-93.5 -144t-151.5 -94.5t-207 -34q-115 0 -212 35.5t-167.5 113.5t-110.5 201.5t-40 299.5q0 186 47 326t147 234q86 81 201.5 117.5t248.5 36.5q81 0 147.5 -12t114.5 -30q40 -14 28 -58l-46 -134q-8 -23 -19.5 -28t-34.5 4
q-41 18 -86.5 26t-93.5 8q-89 0 -154.5 -25t-110 -72.5t-68.5 -117t-29 -157.5q53 56 129.5 88t174.5 32q92 0 169 -30t132.5 -86t86 -136t30.5 -180zM836 422q0 112 -62 170t-174 58q-60 0 -110 -17t-92 -47q4 -113 23.5 -188t50 -120.5t71.5 -64.5t89 -19t86 16t64 46
t40 72t14 94z" />
    <glyph glyph-name="seven" unicode="7" 
d="M1056 1116q-56 -90 -116 -209t-115.5 -258t-103 -292.5t-79.5 -312.5q-5 -24 -16.5 -34t-35.5 -10h-216q-45 0 -36 44q33 164 81.5 317.5t105.5 288.5t117.5 249.5t117.5 200.5h-574q-44 0 -44 44v136q0 44 44 44h850q44 0 44 -44v-80q0 -24 -5 -43.5t-19 -40.5z" />
    <glyph glyph-name="eight" unicode="8" 
d="M1122 330q0 -85 -41.5 -150t-112.5 -109.5t-166 -67.5t-202 -23t-202 23t-166 67.5t-112.5 109.5t-41.5 150q0 73 30 129.5t76.5 98t104 69.5t113.5 45q-50 19 -99.5 47t-88.5 69t-63.5 96t-24.5 128q0 82 33.5 144.5t95 104t149 62.5t196.5 21t196.5 -21t149 -62.5
t95 -104t33.5 -144.5q0 -73 -24.5 -128t-63.5 -96t-88.5 -69t-99.5 -47q55 -17 113 -45t104.5 -69.5t76.5 -98t30 -129.5zM378 348q0 -35 15.5 -64t44.5 -50.5t70 -33.5t92 -12t92 12t70 33.5t44.5 50.5t15.5 64q0 36 -17 67t-47 57t-70.5 48t-87.5 40q-47 -18 -87.5 -40
t-70.5 -48t-47 -57t-17 -67zM420 990q0 -69 49.5 -119t130.5 -85q81 35 130.5 85t49.5 119q0 37 -14.5 64.5t-39 45.5t-57 27t-69.5 9t-69.5 -9t-57 -27t-39 -45.5t-14.5 -64.5z" />
    <glyph glyph-name="nine" unicode="9" 
d="M900 134q-86 -81 -201.5 -117.5t-248.5 -36.5q-81 0 -147.5 12t-114.5 30q-40 14 -28 58l46 134q8 23 19.5 28t34.5 -4q41 -18 86.5 -26t93.5 -8q178 0 267 101t95 287q-53 -57 -129.5 -88.5t-170.5 -31.5q-89 0 -166 29.5t-134 85t-89.5 134.5t-32.5 179
q0 95 31.5 176.5t93 141t152 93t207.5 33.5q115 0 212 -36t167.5 -114t110.5 -201.5t40 -298.5q0 -186 -47 -326t-147 -234zM364 908q0 -49 14.5 -89t44 -68.5t74 -44.5t105.5 -16q63 0 109.5 17t90.5 47q-5 112 -25 184.5t-51.5 115t-72 59.5t-85.5 17q-49 0 -87 -16.5
t-64 -46t-39.5 -70t-13.5 -89.5z" />
    <glyph glyph-name="colon" unicode=":" horiz-adv-x="588" 
d="M478 166q0 -38 -13 -72t-37 -59.5t-58 -40t-76 -14.5t-76 14.5t-58 40t-37 59.5t-13 72t13 72t37 59.5t58 40t76 14.5t76 -14.5t58 -40t37 -59.5t13 -72zM478 814q0 -38 -13 -72t-37 -59.5t-58 -40t-76 -14.5t-76 14.5t-58 40t-37 59.5t-13 72t13 72t37 59.5t58 40
t76 14.5t76 -14.5t58 -40t37 -59.5t13 -72z" />
    <glyph glyph-name="semicolon" unicode=";" horiz-adv-x="588" 
d="M478 814q0 -38 -13 -72t-37 -59.5t-58 -40t-76 -14.5t-76 14.5t-58 40t-37 59.5t-13 72t13 72t37 59.5t58 40t76 14.5t76 -14.5t58 -40t37 -59.5t13 -72zM472 156q0 -49 -14.5 -108t-42.5 -121.5t-68 -124t-91 -114.5q-9 -9 -17.5 -12.5t-16.5 -3.5q-17 0 -34 10l-36 22
q-22 14 -22 30q0 13 12 28q21 27 36 50.5t24 46.5t13.5 47t4.5 52q0 31 -16.5 56t-36 49.5t-35.5 52.5t-16 66q0 75 45 122.5t133 47.5q47 0 81 -15.5t55.5 -42t31.5 -62.5t10 -76z" />
    <glyph glyph-name="less" unicode="&#x3c;" 
d="M418 488l556 -268q28 -12 28 -36q0 -11 -6 -26l-44 -90q-12 -28 -36 -28q-15 0 -36 12l-656 326q-23 11 -31.5 25.5t-8.5 38.5v84q0 24 8.5 38.5t31.5 25.5l656 326q24 12 38 12q20 0 34 -26l44 -86q3 -8 4.5 -13t1.5 -11q0 -11 -7 -20.5t-21 -15.5z" />
    <glyph glyph-name="equal" unicode="=" 
d="M194 174q-44 0 -44 44v108q0 44 44 44h812q44 0 44 -44v-108q0 -44 -44 -44h-812zM194 598q-44 0 -44 44v108q0 44 44 44h812q44 0 44 -44v-108q0 -44 -44 -44h-812z" />
    <glyph glyph-name="greater" unicode="&#x3e;" 
d="M782 480l-556 268q-28 12 -28 36q0 11 6 26l44 90q12 28 36 28q15 0 36 -12l656 -326q23 -11 31.5 -25.5t8.5 -38.5v-84q0 -24 -8.5 -38.5t-31.5 -25.5l-656 -326q-24 -12 -38 -12q-20 0 -34 26l-44 86q-3 8 -4.5 13t-1.5 11q0 11 7 20.5t21 15.5z" />
    <glyph glyph-name="question" unicode="?" horiz-adv-x="944" 
d="M370 412q-43 0 -52 42q-8 33 -13 71.5t-5 68.5q0 51 15.5 87.5t40 64.5t54 49.5t58.5 42.5q41 30 65.5 52.5t37 40.5t16 32.5t3.5 28.5q0 59 -37 82.5t-105 23.5q-72 0 -133 -23t-111 -59q-20 -14 -33 -12t-25 22l-84 130q-23 38 12 64q28 23 65.5 45.5t85.5 40t107 28
t132 10.5q104 0 183.5 -23.5t133 -66t80.5 -102t27 -132.5q0 -68 -21.5 -119.5t-53.5 -90.5t-69.5 -68t-69.5 -52q-39 -28 -70.5 -51t-55.5 -48.5t-41 -57.5t-27 -77q-6 -26 -18 -35t-36 -9h-56zM592 158q0 -37 -13 -69.5t-37 -56.5t-58 -38t-76 -14t-76 14t-58 38t-37 56.5
t-13 69.5t13 69.5t37 56.5t58 38t76 14t76 -14t58 -38t37 -56.5t13 -69.5z" />
    <glyph glyph-name="at" unicode="@" horiz-adv-x="1726" 
d="M1276 -196q-35 -20 -79.5 -40t-97 -36t-114 -26t-131.5 -10q-167 0 -307.5 59t-243 165t-160 253.5t-57.5 324.5q0 176 57.5 323t162.5 252.5t252.5 164t327.5 58.5q172 0 312 -53.5t239.5 -149.5t154 -229t54.5 -292q0 -95 -20.5 -185t-64 -160.5t-110.5 -113.5
t-161 -43q-46 0 -85.5 10.5t-71 30t-53 45.5t-30.5 58q-18 -23 -43.5 -45t-58.5 -38.5t-73 -26.5t-87 -10q-77 0 -138.5 27.5t-105 79t-67 125.5t-23.5 168t23.5 168t67 125.5t104.5 79t137 27.5q44 0 82 -9t68.5 -24t53.5 -34.5t38 -40.5v48q0 44 44 44h134q44 0 44 -44
v-516q0 -47 15 -67.5t45 -20.5q31 0 61 21t53.5 62t37.5 101.5t14 139.5q0 133 -42.5 241t-120 184.5t-186 117.5t-241.5 41q-136 0 -250.5 -43t-197.5 -125.5t-129.5 -201.5t-46.5 -270q0 -150 46 -269.5t126 -202.5t189 -127.5t235 -44.5q104 0 189.5 27t154.5 63
q21 12 34.5 7.5t25.5 -25.5l32 -56q21 -38 -18 -62zM694 490q0 -113 46 -166.5t124 -53.5q18 0 38 4t40 13.5t39 25.5t35 41v272q-16 25 -35 41t-39 25.5t-40 13.5t-38 4q-78 0 -124 -53.5t-46 -166.5z" />
    <glyph glyph-name="A" unicode="A" horiz-adv-x="1310" 
d="M826 1284q118 -264 232 -574.5t212 -653.5q3 -11 4.5 -17.5t1.5 -12.5q0 -26 -34 -26h-228q-24 0 -37 9.5t-19 32.5q-17 59 -32 115.5t-32 112.5h-512q-17 -56 -32 -112.5t-30 -115.5q-6 -23 -19 -32.5t-37 -9.5h-196q-34 0 -34 26q0 6 1.5 12.5t4.5 17.5
q98 343 209.5 654t232.5 574q9 23 23.5 31.5t38.5 8.5h220q24 0 38.5 -9.5t23.5 -30.5zM818 506q-87 270 -180 504q-93 -234 -180 -504h360z" />
    <glyph glyph-name="B" unicode="B" horiz-adv-x="1250" 
d="M190 0q-44 0 -44 44v1236q0 44 44 44h412q144 0 242 -30.5t158 -81.5t86 -117.5t26 -138.5q0 -87 -38.5 -156t-125.5 -114q63 -22 107.5 -53.5t72.5 -71t41 -87t13 -100.5q0 -74 -26 -142t-86 -119.5t-158 -82t-242 -30.5h-482zM450 228h226q57 0 94 13t59 35.5t30.5 52
t8.5 63.5t-10 63.5t-34 52t-65.5 35.5t-104.5 13h-204v-328zM450 776h136q62 0 103 12.5t65 34.5t34 51t10 62t-9 62t-30.5 51t-58.5 34.5t-92 12.5h-158v-320z" />
    <glyph glyph-name="C" unicode="C" horiz-adv-x="1258" 
d="M1176 134q-92 -81 -207.5 -117.5t-248.5 -36.5q-170 0 -291 53t-198.5 144t-114 212t-36.5 257q0 85 14.5 170t47 163t84 144.5t125 115.5t170 77t219.5 28q132 0 231 -35.5t179 -108.5q32 -32 6 -66l-106 -136q-27 -35 -58 -4q-54 50 -119.5 75t-136.5 25
q-84 0 -147.5 -34.5t-106.5 -95t-64.5 -143t-21.5 -177.5q0 -94 21 -170.5t62.5 -130.5t103.5 -83.5t145 -29.5q75 0 149 25.5t133 78.5q18 17 32.5 15.5t29.5 -19.5l110 -134q27 -32 -6 -62z" />
    <glyph glyph-name="D" unicode="D" horiz-adv-x="1378" 
d="M190 0q-44 0 -44 44v1236q0 44 44 44h464q118 0 211.5 -25.5t165 -71.5t122.5 -108t83 -136t47 -155.5t15 -165.5q0 -128 -36 -247t-114 -211.5t-200 -148t-294 -55.5h-464zM450 1092v-860h184q97 0 164 35.5t107.5 95t58.5 137t18 162.5t-18 162.5t-58.5 137t-107.5 95
t-164 35.5h-184z" />
    <glyph glyph-name="E" unicode="E" horiz-adv-x="1114" 
d="M190 0q-44 0 -44 44v1236q0 44 44 44h792q44 0 44 -44v-148q0 -44 -44 -44h-532v-300h458q44 0 44 -44v-148q0 -44 -44 -44h-458v-316h532q44 0 44 -44v-148q0 -44 -44 -44h-792z" />
    <glyph glyph-name="F" unicode="F" horiz-adv-x="1068" 
d="M190 0q-44 0 -44 44v1236q0 44 44 44h766q44 0 44 -44v-148q0 -44 -44 -44h-506v-330h428q44 0 44 -44v-148q0 -44 -44 -44h-428v-478q0 -44 -44 -44h-216z" />
    <glyph glyph-name="G" unicode="G" horiz-adv-x="1396" 
d="M1222 86q-103 -53 -223.5 -79.5t-242.5 -26.5q-119 0 -215.5 25t-171.5 69.5t-129.5 106t-90 136t-52.5 158.5t-17 173q0 85 16 170t51 162.5t89 144t131 115t177 76.5t226 28q130 0 246 -33.5t210 -116.5q33 -30 6 -62l-112 -140q-15 -18 -28.5 -19.5t-31.5 13.5
q-59 53 -127.5 80.5t-156.5 27.5q-98 0 -170 -33.5t-118.5 -93t-69 -142t-22.5 -179.5q0 -95 22 -172.5t67 -132.5t115 -85t166 -30q53 0 103.5 9.5t98.5 32.5v246h-196q-44 0 -44 44v148q0 44 44 44h444q44 0 44 -44v-556q0 -44 -38 -64z" />
    <glyph glyph-name="H" unicode="H" horiz-adv-x="1430" 
d="M190 0q-44 0 -44 44v1236q0 44 44 44h216q44 0 44 -44v-486h530v486q0 44 44 44h216q44 0 44 -44v-1236q0 -44 -44 -44h-216q-44 0 -44 44v502h-530v-502q0 -44 -44 -44h-216z" />
    <glyph glyph-name="I" unicode="I" horiz-adv-x="596" 
d="M190 0q-44 0 -44 44v1236q0 44 44 44h216q44 0 44 -44v-1236q0 -44 -44 -44h-216z" />
    <glyph glyph-name="J" unicode="J" horiz-adv-x="954" 
d="M820 492q0 -252 -117.5 -382t-346.5 -130q-83 0 -159.5 18t-136.5 54q-36 21 -18 60l68 140q11 21 23 25.5t33 -7.5q39 -21 82.5 -30.5t75.5 -9.5q43 0 78 15t60.5 45t39.5 74.5t14 103.5v812q0 44 44 44h216q44 0 44 -44v-788v0z" />
    <glyph glyph-name="K" unicode="K" horiz-adv-x="1286" 
d="M970 0q-24 0 -37.5 8.5t-24.5 31.5q-29 63 -65 131t-78 136t-89.5 133t-97.5 122q-64 -55 -128 -104v-414q0 -44 -44 -44h-216q-44 0 -44 44v1236q0 44 44 44h216q44 0 44 -44v-532q58 55 117 123t113 139.5t101.5 142.5t82.5 133q12 21 26 29.5t40 8.5h234q44 0 22 -38
q-77 -137 -178.5 -271.5t-219.5 -258.5q65 -70 131.5 -158t127 -183t112.5 -191.5t89 -183.5q15 -40 -28 -40h-250z" />
    <glyph glyph-name="L" unicode="L" horiz-adv-x="1016" 
d="M190 0q-44 0 -44 44v1236q0 44 44 44h216q44 0 44 -44v-1032h482q44 0 44 -44v-160q0 -44 -44 -44h-742z" />
    <glyph glyph-name="M" unicode="M" horiz-adv-x="1674" 
d="M190 0q-44 0 -44 44v1236q0 44 44 44h290q24 0 38.5 -8.5t25.5 -31.5l302 -620l300 620q11 23 25.5 31.5t38.5 8.5h274q44 0 44 -44v-1236q0 -44 -44 -44h-198q-44 0 -44 44v902l-274 -572q-11 -23 -25.5 -31.5t-38.5 -8.5h-134q-24 0 -38.5 8.5t-25.5 31.5l-274 572
v-902q0 -44 -44 -44h-198z" />
    <glyph glyph-name="N" unicode="N" horiz-adv-x="1460" 
d="M190 0q-44 0 -44 44v1236q0 44 44 44h266q24 0 39 -8.5t27 -29.5l506 -890v884q0 44 44 44h198q44 0 44 -44v-1236q0 -44 -44 -44h-266q-24 0 -39 8.5t-27 29.5l-506 890v-884q0 -44 -44 -44h-198z" />
    <glyph glyph-name="O" unicode="O" horiz-adv-x="1464" 
d="M396 662q0 -91 21 -170t63 -137.5t105 -92.5t147 -34t147 34t105 92.5t63 137.5t21 170t-21 170t-63 137.5t-105 92.5t-147 34t-147 -34t-105 -92.5t-63 -137.5t-21 -170zM1384 662q0 -84 -16.5 -167.5t-50.5 -159.5t-86.5 -141t-125 -112.5t-165.5 -74.5t-208 -27
q-118 0 -212.5 27.5t-167 75.5t-124 113t-84.5 141t-48.5 158.5t-15.5 166.5t16.5 167.5t50.5 159.5t86.5 141t125 112.5t165.5 74.5t208 27q119 0 213 -27.5t166.5 -75.5t124 -113t84.5 -141t48.5 -159t15.5 -166z" />
    <glyph glyph-name="P" unicode="P" horiz-adv-x="1210" 
d="M190 0q-44 0 -44 44v1236q0 44 44 44h384q160 0 270 -35t178.5 -96t99 -144t30.5 -179q0 -98 -32 -182.5t-101 -146.5t-179 -97.5t-266 -35.5h-124v-364q0 -44 -44 -44h-216zM450 644h140q70 0 117 17.5t75.5 47.5t41 70.5t12.5 86.5t-12.5 86.5t-41 70.5t-75.5 47.5
t-117 17.5h-140v-444z" />
    <glyph glyph-name="Q" unicode="Q" horiz-adv-x="1464" 
d="M1060 -370q-89 0 -164 22t-132 67t-96 112t-56 157q-96 13 -172.5 47.5t-136 84.5t-101.5 112.5t-69.5 133t-40 145t-12.5 149.5q0 85 16 168.5t50.5 159.5t87 141.5t125.5 113t166.5 74.5t210.5 27t210.5 -27.5t165.5 -75t123.5 -112.5t84.5 -140.5t48.5 -158
t15.5 -164.5q0 -109 -27 -216t-85 -198t-149 -158.5t-219 -95.5q23 -65 72 -101.5t118 -36.5q18 0 34.5 2.5t33.5 5.5q24 6 36.5 -0.5t21.5 -29.5l44 -126q15 -40 -26 -56q-38 -12 -82.5 -19t-95.5 -7zM396 662q0 -91 21 -170t63 -137.5t105 -92.5t147 -34t147 34t105 92.5
t63 137.5t21 170t-21 170t-63 137.5t-105 92.5t-147 34t-147 -34t-105 -92.5t-63 -137.5t-21 -170z" />
    <glyph glyph-name="R" unicode="R" horiz-adv-x="1258" 
d="M190 0q-44 0 -44 44v1236q0 44 44 44h394q152 0 257.5 -33t171.5 -90t95.5 -134t29.5 -165q0 -125 -57 -216.5t-185 -141.5q52 -50 97.5 -111t83.5 -127t68 -134t53 -130q8 -21 -0.5 -31.5t-29.5 -10.5h-242q-26 0 -39 9t-21 33q-17 48 -42 102.5t-57.5 111t-72.5 111.5
t-88 105h-156v-428q0 -44 -44 -44h-216zM450 692h132q67 0 113 16t73.5 43t39.5 64t12 79t-11 79t-37 64t-68.5 43t-105.5 16h-148v-404z" />
    <glyph glyph-name="S" unicode="S" horiz-adv-x="1142" 
d="M1078 400q0 -100 -37.5 -178t-107 -132t-168.5 -82t-221 -28q-77 0 -144.5 10.5t-125 28t-105 40.5t-83.5 49q-36 24 -12 62l90 150q24 39 58 10q66 -48 148.5 -76t183.5 -28q106 0 163 33.5t57 104.5q0 37 -15 63t-43.5 45.5t-69 33.5t-90.5 26q-44 10 -96.5 22.5
t-104.5 31.5t-100.5 47t-86 69t-60 98t-22.5 134q0 99 38 175.5t108 128.5t168 79t218 27q133 0 234 -28.5t166 -69.5q36 -24 16 -62l-84 -152q-20 -40 -58 -14q-54 35 -125.5 57.5t-162.5 22.5q-60 0 -101 -10.5t-66 -29.5t-36 -45t-11 -57q0 -40 16.5 -65t45 -41.5
t68 -27.5t86.5 -22q90 -22 175 -47.5t151 -68.5t106 -110.5t40 -173.5z" />
    <glyph glyph-name="T" unicode="T" horiz-adv-x="1084" 
d="M434 0q-44 0 -44 44v1032h-312q-44 0 -44 44v160q0 44 44 44h928q44 0 44 -44v-160q0 -44 -44 -44h-312v-1032q0 -44 -44 -44h-216z" />
    <glyph glyph-name="U" unicode="U" horiz-adv-x="1364" 
d="M1230 556q0 -139 -36 -246t-105.5 -180.5t-171.5 -111.5t-235 -38t-235 38t-171.5 111.5t-105.5 180.5t-36 246v724q0 44 44 44h216q44 0 44 -44v-752q0 -75 18.5 -131t51 -93t77 -55.5t97.5 -18.5q52 0 97 18.5t77.5 55.5t51 93t18.5 131v752q0 44 44 44h216
q44 0 44 -44v-724v0z" />
    <glyph glyph-name="V" unicode="V" horiz-adv-x="1228" 
d="M504 0q-24 0 -38.5 9.5t-23.5 30.5q-59 134 -117 288t-110.5 313t-97.5 316t-77 297q-6 24 -6 36q0 14 10 24t28 10h216q24 0 36 -11t18 -35q57 -267 129 -509t153 -453q81 211 150 454t134 510q6 23 18 33.5t36 10.5h194q18 0 28 -10t10 -24q0 -12 -6 -36
q-32 -140 -77 -297t-97.5 -316t-111 -313t-116.5 -288q-9 -21 -23.5 -30.5t-38.5 -9.5h-220z" />
    <glyph glyph-name="W" unicode="W" horiz-adv-x="1968" 
d="M1880 1324q24 0 32 -9.5t8 -24.5q0 -6 -1 -14t-3 -16q-21 -104 -47.5 -214.5t-56.5 -221.5t-62 -220t-65.5 -209.5t-66.5 -191t-64 -163.5q-9 -21 -23.5 -30.5t-38.5 -9.5h-186q-24 0 -37.5 9.5t-22.5 30.5q-83 207 -151.5 420t-110.5 424q-42 -211 -110.5 -424
t-151.5 -420q-9 -21 -22.5 -30.5t-37.5 -9.5h-186q-24 0 -38.5 9.5t-23.5 30.5q-31 73 -64 163.5t-66.5 191t-65.5 209.5t-62 220t-56.5 221.5t-47.5 214.5q-2 8 -3 16t-1 14q0 15 8 24.5t32 9.5h218q24 0 35.5 -10t16.5 -34q23 -131 49 -255t55 -242t61 -231.5t67 -223.5
q39 109 75.5 228.5t69 241.5t59 244t46.5 238q5 24 16.5 34t35.5 10h184q24 0 35.5 -10t16.5 -34q20 -116 49.5 -238t64.5 -244t74 -241.5t78 -228.5q36 110 66 223.5t56 231.5t49 242t45 255q5 24 16.5 34t35.5 10h218z" />
    <glyph glyph-name="X" unicode="X" horiz-adv-x="1234" 
d="M68 0q-32 0 -32 28q0 3 1 8t3 10q31 82 75.5 164.5t97.5 163t111.5 157t117.5 147.5q-53 70 -104.5 143t-98 147.5t-86 150t-67.5 151.5q-3 8 -4.5 16t-1.5 14q0 24 34 24h234q26 0 38.5 -9t21.5 -33q38 -103 96.5 -201t127.5 -193q68 95 123.5 193t96.5 201
q9 24 22.5 33t39.5 9h206q17 0 25.5 -6.5t8.5 -17.5q0 -5 -1 -9t-3 -9q-27 -75 -66 -151t-85.5 -150.5t-99 -146t-105.5 -138.5q56 -73 114 -151.5t110.5 -160.5t97.5 -166t76 -166q3 -8 3.5 -13.5t0.5 -10.5q0 -14 -8 -21t-28 -7h-224q-26 0 -39.5 10t-22.5 34
q-44 115 -116 225.5t-158 220.5q-83 -110 -150 -221.5t-112 -226.5q-9 -24 -22.5 -33t-39.5 -9h-208z" />
    <glyph glyph-name="Y" unicode="Y" horiz-adv-x="1160" 
d="M472 0q-44 0 -44 44v410q-54 84 -111.5 183.5t-112.5 206.5t-104.5 218.5t-87.5 219.5q-8 21 0.5 31.5t29.5 10.5h230q24 0 36 -9.5t20 -32.5q45 -151 114 -306t154 -294q83 139 148 294t112 306q6 23 19 32.5t37 9.5h206q21 0 29.5 -10.5t0.5 -31.5
q-39 -108 -88.5 -219.5t-104 -218.5t-111.5 -206.5t-112 -183.5v-410q0 -44 -44 -44h-216z" />
    <glyph glyph-name="Z" unicode="Z" horiz-adv-x="1188" 
d="M116 0q-44 0 -44 44v122q0 18 5 38.5t13 37.5q30 56 80 125.5t109.5 146t125 156t126 155t112.5 143t85 120.5h-566q-44 0 -44 44v148q0 44 44 44h870q44 0 44 -44v-122q0 -18 -5 -38.5t-13 -37.5q-30 -56 -80 -125.5t-109.5 -146t-125 -156t-126 -155t-112.5 -143
t-85 -120.5h660q44 0 44 -44v-148q0 -44 -44 -44h-964z" />
    <glyph glyph-name="bracketleft" unicode="[" horiz-adv-x="630" 
d="M214 -196q-44 0 -44 44v1588q0 44 44 44h338q44 0 44 -44v-88q0 -44 -44 -44h-136v-1324h136q44 0 44 -44v-88q0 -44 -44 -44h-338z" />
    <glyph glyph-name="backslash" unicode="\" horiz-adv-x="652" 
d="M430 -180q-24 0 -36 9.5t-18 32.5l-406 1588q-3 11 -3.5 16t-0.5 8q0 14 8 22t26 8h120q24 0 36 -9.5t18 -32.5l406 -1588q3 -11 3.5 -16t0.5 -8q0 -14 -8 -22t-26 -8h-120z" />
    <glyph glyph-name="bracketright" unicode="]" horiz-adv-x="630" 
d="M78 -196q-44 0 -44 44v88q0 44 44 44h136v1324h-136q-44 0 -44 44v88q0 44 44 44h338q44 0 44 -44v-1588q0 -44 -44 -44h-338z" />
    <glyph glyph-name="asciicircum" unicode="^" horiz-adv-x="1140" 
d="M618 1324q24 0 40 -8t30 -28l366 -522q12 -18 12 -30q0 -18 -22 -32l-84 -60q-15 -12 -30 -12q-18 0 -32 22l-328 472l-328 -472q-14 -22 -32 -22q-15 0 -30 12l-84 60q-22 14 -22 32q0 12 12 30l366 522q14 20 30 28t40 8h96z" />
    <glyph glyph-name="underscore" unicode="_" horiz-adv-x="900" 
d="M120 -196q-44 0 -44 44v108q0 44 44 44h660q44 0 44 -44v-108q0 -44 -44 -44h-660z" />
    <glyph glyph-name="grave" unicode="`" horiz-adv-x="684" 
d="M552 1202q11 -9 14.5 -17t3.5 -17q0 -13 -12 -28l-30 -40q-17 -22 -36 -22q-13 0 -30 10l-324 182q-24 15 -24 32q0 6 2.5 12t7.5 14l76 118q6 11 14.5 15.5t17.5 4.5q13 0 28 -12z" />
    <glyph glyph-name="a" unicode="a" horiz-adv-x="1074" 
d="M714 0q-44 0 -44 44v64q-19 -24 -44 -47t-59.5 -41t-79 -29t-101.5 -11q-83 0 -143.5 23.5t-100 64t-59 94t-19.5 114.5q0 67 23.5 123t72.5 95.5t123.5 61.5t176.5 22q59 0 109.5 -7t86.5 -21v42q0 37 -6 70.5t-25 59t-53.5 41t-91.5 15.5q-63 0 -130.5 -19.5
t-123.5 -60.5q-20 -14 -33 -11.5t-25 23.5l-62 98q-12 20 -9.5 35.5t19.5 30.5q68 54 169.5 90t238.5 36q121 0 202.5 -30t131 -82.5t70 -123t20.5 -152.5v-568q0 -44 -44 -44h-190zM484 174q50 0 94.5 21.5t77.5 72.5v118q-30 12 -67.5 16t-64.5 4q-53 0 -85.5 -10.5
t-50.5 -27t-24 -37t-6 -41.5q0 -23 6 -44t21 -37t39 -25.5t60 -9.5z" />
    <glyph glyph-name="b" unicode="b" horiz-adv-x="1198" 
d="M178 0q-44 0 -44 44v1348q0 44 44 44h204q44 0 44 -44v-522q19 25 45.5 48.5t61.5 41.5t79.5 29t99.5 11q96 0 173.5 -33.5t131.5 -98t83.5 -159.5t29.5 -217q0 -120 -29.5 -215t-83.5 -161t-131.5 -101t-173.5 -35q-57 0 -103 11t-83 30.5t-65 46t-49 56.5v-80
q0 -44 -44 -44h-190zM426 310q20 -31 44 -51.5t49 -32.5t50.5 -17t48.5 -5q48 0 87 17.5t67 53t43 89t15 126.5q0 145 -58 215.5t-154 70.5q-23 0 -48.5 -5t-50.5 -17t-49 -32.5t-44 -51.5v-360z" />
    <glyph glyph-name="c" unicode="c" horiz-adv-x="952" 
d="M876 68q-69 -48 -153.5 -68t-170.5 -20q-126 0 -217.5 39.5t-150.5 107.5t-87.5 159t-28.5 194q0 101 28.5 195t89 166t155 115.5t227.5 43.5q94 0 167.5 -22t132.5 -66q35 -26 14 -64l-62 -112q-20 -40 -58 -14q-38 27 -81 42.5t-93 15.5q-61 0 -103 -24t-68 -65
t-37.5 -95t-11.5 -114q0 -58 11 -109t36.5 -89.5t68 -61t104.5 -22.5q93 0 176 56q20 14 33 11.5t25 -23.5l66 -112q23 -38 -12 -64z" />
    <glyph glyph-name="d" unicode="d" horiz-adv-x="1198" 
d="M830 0q-44 0 -44 44v80q-21 -30 -49 -56.5t-65 -46t-83 -30.5t-103 -11q-96 0 -173.5 33.5t-131.5 98t-83.5 159.5t-29.5 217q0 120 29.5 215t83.5 161t131.5 101t173.5 35q55 0 99.5 -11t79.5 -29t61.5 -41.5t45.5 -48.5v522q0 44 44 44h204q44 0 44 -44v-1348
q0 -44 -44 -44h-190zM368 490q0 -73 15 -126.5t43 -89t67 -53t87 -17.5q23 0 48.5 5t50.5 17t49 32.5t44 51.5v360q-20 31 -44 51.5t-49 32.5t-50.5 17t-48.5 5q-96 0 -154 -70.5t-58 -215.5z" />
    <glyph glyph-name="e" unicode="e" horiz-adv-x="1070" 
d="M720 592q-5 47 -17 86.5t-34 68t-54 44t-75 15.5q-44 0 -75.5 -15.5t-53 -44t-34.5 -68t-19 -86.5h362zM358 418q6 -55 21.5 -96t43.5 -68t69.5 -40.5t99.5 -13.5q63 0 126 15.5t116 50.5q21 12 34 9.5t24 -23.5l62 -112q21 -39 -14 -62q-75 -51 -169.5 -74.5
t-194.5 -23.5q-137 0 -233.5 40t-157.5 109t-89 160.5t-28 194.5q0 100 26.5 193t83.5 165t146.5 115t215.5 43q123 0 210.5 -41.5t143.5 -110.5t82 -159t26 -187v-40q0 -44 -44 -44h-600z" />
    <glyph glyph-name="f" unicode="f" horiz-adv-x="704" 
d="M64 764q-44 0 -44 44v128q0 44 44 44h126v40q0 121 28.5 204t80 134.5t123.5 74.5t160 23q72 0 130 -14t102 -40q36 -21 18 -60l-58 -122q-12 -23 -24.5 -27t-33.5 7q-23 12 -49 19t-55 7q-31 0 -55 -9t-40.5 -30.5t-25.5 -57.5t-9 -89v-60h184q44 0 44 -44v-128
q0 -44 -44 -44h-184v-720q0 -44 -44 -44h-204q-44 0 -44 44v720h-126z" />
    <glyph glyph-name="g" unicode="g" horiz-adv-x="1068" 
d="M1038 -70q0 -86 -40 -151t-113.5 -109.5t-177.5 -67t-233 -22.5q-101 0 -185 14t-145.5 43.5t-95.5 74t-34 106.5q0 77 50.5 128t139.5 74q-56 18 -81 60.5t-25 95.5q0 37 11 66.5t29.5 53.5t43.5 43t54 35q-78 50 -114 124t-36 154q0 66 25 128.5t77 111.5t132 78.5
t190 29.5q47 0 89.5 -5.5t80.5 -14.5h336q44 0 44 -44v-118q0 -40 -38 -40q-86 0 -166 40q46 -42 60 -87t14 -87q0 -64 -22.5 -125t-72 -109t-129 -77t-192.5 -29q-50 0 -93 5.5t-81 16.5q-15 -18 -19.5 -37t-4.5 -33q0 -32 21 -50t75 -18h282q76 0 139.5 -14.5t109 -46
t70.5 -80.5t25 -117zM268 -146q0 -59 53.5 -88.5t176.5 -29.5q135 0 197.5 35t62.5 95q0 20 -7 37.5t-24 30t-45.5 19.5t-71.5 7h-276q-36 -21 -51 -48.5t-15 -57.5zM356 652q0 -69 38.5 -114.5t115.5 -45.5t115.5 45.5t38.5 114.5t-38.5 114.5t-115.5 45.5t-115.5 -45.5
t-38.5 -114.5z" />
    <glyph glyph-name="h" unicode="h" horiz-adv-x="1170" 
d="M178 0q-44 0 -44 44v1348q0 44 44 44h204q44 0 44 -44v-514q20 23 46.5 45t61 39t77 27.5t95.5 10.5q90 0 153.5 -30.5t103.5 -82.5t58.5 -121.5t18.5 -147.5v-574q0 -44 -44 -44h-204q-44 0 -44 44v544q0 31 -6 64t-22.5 60t-44.5 44.5t-71 17.5q-22 0 -45.5 -5
t-47 -15.5t-45.5 -28.5t-40 -43v-638q0 -44 -44 -44h-204z" />
    <glyph glyph-name="i" unicode="i" horiz-adv-x="560" 
d="M178 0q-44 0 -44 44v892q0 44 44 44h204q44 0 44 -44v-892q0 -44 -44 -44h-204zM452 1282q0 -35 -12.5 -66t-35 -54t-54 -36.5t-70.5 -13.5t-71 13.5t-54.5 36.5t-34.5 54t-12 66t12 66t34.5 54t54.5 36.5t71 13.5t70.5 -13.5t54 -36.5t35 -54t12.5 -66z" />
    <glyph glyph-name="j" unicode="j" horiz-adv-x="560" 
d="M426 -48q0 -86 -23 -154.5t-69 -117t-114 -74.5t-158 -26q-45 0 -95 8t-95 28q-39 18 -24 60l48 122q9 23 21 28t35 -4q34 -14 68 -14q32 0 54 12t35.5 33.5t19 52t5.5 68.5v962q0 44 44 44h204q44 0 44 -44v-984zM452 1282q0 -35 -12.5 -66t-35 -54t-54 -36.5
t-70.5 -13.5t-71 13.5t-54.5 36.5t-34.5 54t-12 66t12 66t34.5 54t54.5 36.5t71 13.5t70.5 -13.5t54 -36.5t35 -54t12.5 -66z" />
    <glyph glyph-name="k" unicode="k" horiz-adv-x="1100" 
d="M806 0q-24 0 -37.5 8.5t-22.5 31.5q-19 45 -41 92.5t-47.5 94t-53 91.5t-56.5 86q-30 -24 -60 -47.5t-62 -46.5v-266q0 -44 -44 -44h-204q-44 0 -44 44v1348q0 44 44 44h204q44 0 44 -44v-820q45 40 89 87t84.5 95t76 96t62.5 92q14 21 28 29.5t40 8.5h206q20 0 26 -10
t-6 -28q-57 -91 -129 -180.5t-155 -175.5q47 -58 93 -125.5t87 -138.5t76.5 -142.5t61.5 -137.5q15 -42 -28 -42h-232z" />
    <glyph glyph-name="l" unicode="l" horiz-adv-x="562" 
d="M178 0q-44 0 -44 44v1348q0 44 44 44h204q44 0 44 -44v-1348q0 -44 -44 -44h-204z" />
    <glyph glyph-name="m" unicode="m" horiz-adv-x="1760" 
d="M178 0q-44 0 -44 44v892q0 44 44 44h190q44 0 44 -44v-68q20 25 47.5 48.5t63 42t79.5 30t98 11.5q49 0 90 -10t74 -28.5t58 -45t44 -58.5q56 62 137 102t191 40q94 0 158 -30.5t103.5 -82.5t57 -121.5t17.5 -147.5v-574q0 -44 -44 -44h-204q-44 0 -44 44v544
q0 31 -5.5 64t-20.5 60t-42 44.5t-70 17.5q-41 0 -89 -20.5t-83 -71.5v-638q0 -44 -44 -44h-204q-44 0 -44 44v544q0 31 -6 64t-21 60t-42 44.5t-69 17.5q-21 0 -44.5 -5t-46 -15.5t-44 -28.5t-37.5 -43v-638q0 -44 -44 -44h-204z" />
    <glyph glyph-name="n" unicode="n" horiz-adv-x="1170" 
d="M178 0q-44 0 -44 44v892q0 44 44 44h190q44 0 44 -44v-68q20 25 48 48.5t64.5 42t81.5 30t100 11.5q90 0 153.5 -30.5t103.5 -82.5t58.5 -121.5t18.5 -147.5v-574q0 -44 -44 -44h-204q-44 0 -44 44v544q0 31 -6 64t-22.5 60t-44.5 44.5t-71 17.5q-22 0 -45.5 -5
t-47 -15.5t-45.5 -28.5t-40 -43v-638q0 -44 -44 -44h-204z" />
    <glyph glyph-name="o" unicode="o" horiz-adv-x="1156" 
d="M368 490q0 -61 13 -114.5t39 -94t65.5 -64t92.5 -23.5t92.5 23.5t65.5 64t39 94t13 114.5t-13 114.5t-39 94t-65.5 64t-92.5 23.5t-92.5 -23.5t-65.5 -64t-39 -94t-13 -114.5zM1088 490q0 -98 -29 -189.5t-90.5 -163t-158 -114.5t-232.5 -43q-135 0 -231.5 41.5
t-158.5 112t-91 163t-29 193.5q0 65 12.5 128t39 119.5t67.5 105t98 83.5t129.5 54.5t163.5 19.5q135 0 231.5 -41.5t158.5 -112t91 -163t29 -193.5z" />
    <glyph glyph-name="p" unicode="p" horiz-adv-x="1198" 
d="M178 -400q-44 0 -44 44v1292q0 44 44 44h190q44 0 44 -44v-80q21 30 49 56t65 45.5t83 31t103 11.5q96 0 173.5 -33.5t131.5 -98t83.5 -159.5t29.5 -217q0 -120 -29.5 -215t-83.5 -161t-131.5 -101t-173.5 -35q-55 0 -99.5 11t-79.5 29t-61.5 41.5t-45.5 48.5v-466
q0 -44 -44 -44h-204zM426 310q20 -31 44 -51.5t49 -32.5t50.5 -17t48.5 -5q48 0 87 17.5t67 53t43 89t15 126.5q0 145 -58 215.5t-154 70.5q-23 0 -48.5 -5t-50.5 -17t-49 -32.5t-44 -51.5v-360z" />
    <glyph glyph-name="q" unicode="q" horiz-adv-x="1198" 
d="M816 -400q-44 0 -44 44v466q-19 -25 -45.5 -48.5t-61.5 -41.5t-79.5 -29t-99.5 -11q-96 0 -173.5 33.5t-131.5 98t-83.5 159.5t-29.5 217q0 120 29.5 215t83.5 161t131.5 101t173.5 35q57 0 103 -11.5t83 -31t65 -45.5t49 -56v80q0 44 44 44h190q44 0 44 -44v-1292
q0 -44 -44 -44h-204zM368 490q0 -73 15 -126.5t43 -89t67 -53t87 -17.5q23 0 48.5 5t50.5 17t49 32.5t44 51.5v360q-20 31 -44 51.5t-49 32.5t-50.5 17t-48.5 5q-96 0 -154 -70.5t-58 -215.5z" />
    <glyph glyph-name="r" unicode="r" horiz-adv-x="802" 
d="M178 0q-44 0 -44 44v892q0 44 44 44h190q44 0 44 -44v-94q20 28 45.5 56.5t58.5 51t74 36.5t94 14q44 0 86 -12q43 -12 34 -56l-38 -174q-5 -24 -16 -30t-34 2q-51 18 -104 18t-101.5 -18t-84.5 -56v-630q0 -44 -44 -44h-204z" />
    <glyph glyph-name="s" unicode="s" horiz-adv-x="962" 
d="M902 295q0 -83 -32 -143t-90.5 -98.5t-139.5 -56.5t-178 -18q-133 0 -227.5 27.5t-154.5 68.5q-38 24 -14 60l78 120q23 38 60 12q57 -41 117 -58.5t137 -17.5q71 0 114.5 17.5t43.5 62.5q0 25 -14 41t-41 27.5t-66.5 20t-90.5 17.5t-107.5 26t-103.5 50t-78 87.5
t-31 138.5q0 88 35 149t94.5 99t138.5 55t168 17q110 0 196 -21t142 -53q39 -21 18 -60l-66 -124q-12 -21 -25 -24.5t-33 10.5q-42 27 -97.5 43.5t-126.5 16.5q-77 0 -117.5 -20.5t-40.5 -61.5q0 -28 19.5 -45t49.5 -27.5t67.5 -16.5t73.5 -13q32 -6 68.5 -15t72 -24
t68.5 -37t58 -54.5t40 -76t15 -101.5z" />
    <glyph glyph-name="t" unicode="t" horiz-adv-x="822" 
d="M60 764q-44 0 -44 44v128q0 44 44 44h126v236q0 44 44 44h204q44 0 44 -44v-236h248q44 0 44 -44v-128q0 -44 -44 -44h-248v-406q0 -35 5.5 -62.5t18.5 -46t34.5 -28t53.5 -9.5q26 0 47 5.5t41 16.5q40 23 54 -20l46 -116q15 -41 -22 -62q-53 -32 -109 -44t-119 -12
q-82 0 -145.5 19t-107 61.5t-66.5 111t-23 166.5v426h-126z" />
    <glyph glyph-name="u" unicode="u" horiz-adv-x="1152" 
d="M740 112q-19 -25 -46 -48.5t-62.5 -42t-80 -30t-97.5 -11.5q-88 0 -149.5 30.5t-100.5 82.5t-56.5 121.5t-17.5 147.5v574q0 44 44 44h204q44 0 44 -44v-544q0 -32 5.5 -65t20.5 -60t41.5 -44t68.5 -17q41 0 87 20.5t81 71.5v638q0 44 44 44h204q44 0 44 -44v-892
q0 -44 -44 -44h-190q-44 0 -44 44v68v0z" />
    <glyph glyph-name="v" unicode="v" horiz-adv-x="1042" 
d="M968 980q40 0 40 -32q0 -8 -2 -19t-4 -19q-14 -65 -34 -139.5t-45.5 -153.5t-55 -159t-60.5 -155t-63 -143t-62 -122q-12 -21 -26.5 -29.5t-37.5 -8.5h-194q-23 0 -37.5 8.5t-26.5 29.5q-30 54 -62 122t-63 143t-60.5 155t-55 159t-46 153.5t-33.5 139.5q-2 8 -4 19
t-2 19q0 32 40 32h216q24 0 35.5 -10t16.5 -34q14 -83 36 -170t49 -172.5t56.5 -166.5t58.5 -153q30 72 59 153.5t55 167t48 172t38 169.5q5 24 16.5 34t35.5 10h174z" />
    <glyph glyph-name="w" unicode="w" horiz-adv-x="1632" 
d="M1552 980q38 0 38 -32q0 -11 -2 -24.5t-4 -21.5q-13 -66 -31.5 -140.5t-41 -152t-48 -156t-52 -152t-52.5 -140.5t-49 -121q-9 -21 -23.5 -30.5t-38.5 -9.5h-174q-24 0 -38.5 9.5t-23.5 30.5q-29 62 -58 130t-55 137t-47.5 136t-35.5 129q-15 -64 -37 -132t-47.5 -136.5
t-54.5 -135.5t-57 -128q-9 -21 -23.5 -30.5t-38.5 -9.5h-174q-24 0 -38.5 9.5t-23.5 30.5q-23 54 -49 121t-52.5 140.5t-52 152t-48 156t-41.5 152t-31 140.5q-2 8 -4 21.5t-2 24.5q0 32 38 32h218q24 0 35.5 -10t14.5 -34q12 -85 28.5 -172t35.5 -170t40 -159.5t42 -140.5
q22 64 47 141t50 160t48 169.5t41 171.5q6 24 18 34t36 10h162q24 0 36 -9.5t18 -32.5q21 -85 45 -172t48 -170.5t48 -160.5t45 -141q22 64 43 140.5t40.5 159.5t36 170t28.5 172q3 24 14.5 34t35.5 10h218z" />
    <glyph glyph-name="x" unicode="x" horiz-adv-x="1016" 
d="M66 0q-15 0 -23.5 7.5t-8.5 18.5q0 5 1 10.5t7 19.5q47 107 125 215t169 211q-45 52 -87 107.5t-78.5 111.5t-67.5 112t-53 109q-8 19 -8 30q0 12 8 20t26 8h226q26 0 39.5 -8.5t22.5 -31.5q30 -71 70 -137t88 -131q50 63 92 128.5t74 137.5q11 23 24.5 32.5t39.5 9.5
h190q32 0 32 -26q0 -11 -8 -30q-23 -54 -55.5 -108t-70.5 -107t-80.5 -104.5t-85.5 -100.5q46 -55 91.5 -111t86 -113.5t73.5 -116.5t55 -119q2 -5 3 -9t1 -9q0 -26 -34 -26h-230q-26 0 -39.5 8.5t-22.5 31.5q-30 72 -72.5 140t-95.5 134q-51 -66 -95 -134t-77 -140
q-11 -23 -24.5 -31.5t-39.5 -8.5h-188z" />
    <glyph glyph-name="y" unicode="y" horiz-adv-x="1042" 
d="M380 4q-35 63 -70.5 136.5t-69 152.5t-63.5 161t-56 161.5t-47 154.5t-34 140q-2 8 -4 19t-2 19q0 32 40 32h216q24 0 35.5 -10t16.5 -34q14 -83 36 -170t49 -172.5t56.5 -166.5t58.5 -153q30 72 59 153.5t55 167t48 172t38 169.5q5 24 16.5 34t35.5 10h174q40 0 40 -32
q0 -8 -2 -19t-4 -19q-14 -69 -36.5 -149t-50 -164t-59 -168.5t-64.5 -162.5q-92 -214 -199.5 -381t-232.5 -273q-17 -14 -34 -14q-8 0 -16 3t-16 11l-108 98q-8 8 -12 14t-4 14q0 16 16 32q60 59 106.5 113.5t87.5 120.5z" />
    <glyph glyph-name="z" unicode="z" horiz-adv-x="980" 
d="M882 766q-24 -36 -60 -82t-78 -96.5t-87.5 -102.5t-88 -101.5t-79 -92.5t-61.5 -75h452q44 0 44 -44v-128q0 -44 -44 -44h-772q-44 0 -44 44v94q0 41 22 76q24 36 60 82t78 96.5t87.5 102.5t88 101.5t79 92.5t61.5 75h-408q-44 0 -44 44v128q0 44 44 44h728q44 0 44 -44
v-94q0 -41 -22 -76z" />
    <glyph glyph-name="braceleft" unicode="{" horiz-adv-x="630" 
d="M20 686q0 14 3.5 22.5t9.5 13t12.5 6t12.5 2.5q25 4 48.5 12.5t41 35t28 76.5t10.5 136v120q0 112 24 185.5t68 112.5q25 23 57 37.5t66 22t67 10t62 2.5h24q44 0 44 -44v-88q0 -44 -44 -44h-12q-63 0 -86 -32q-5 -7 -10 -17.5t-8.5 -27t-5.5 -40t-2 -57.5v-112
q0 -100 -15 -171t-45 -119q-15 -24 -37 -46.5t-49 -39.5q27 -17 49 -39.5t37 -46.5q30 -48 45 -119t15 -171v-112q0 -34 2 -58t5.5 -40.5t8.5 -26.5t10 -17q23 -32 86 -32h12q44 0 44 -44v-88q0 -44 -44 -44h-24q-29 0 -62 2.5t-67 10t-66 22t-57 37.5q-44 39 -68 112.5
t-24 185.5v120q0 86 -10.5 136t-28 76.5t-41 35t-48.5 12.5q-6 1 -12.5 2.5t-12.5 6t-9.5 13t-3.5 22.5v88z" />
    <glyph glyph-name="bar" unicode="|" horiz-adv-x="652" 
d="M268 -196q-44 0 -44 44v1588q0 44 44 44h116q44 0 44 -44v-1588q0 -44 -44 -44h-116z" />
    <glyph glyph-name="braceright" unicode="}" horiz-adv-x="630" 
d="M610 598q0 -14 -3.5 -22.5t-9.5 -13t-12.5 -6t-12.5 -2.5q-26 -4 -49 -12.5t-40.5 -35t-28 -76.5t-10.5 -136v-120q0 -112 -24 -185.5t-68 -112.5q-26 -23 -57.5 -37.5t-65.5 -22t-67.5 -10t-61.5 -2.5h-24q-44 0 -44 44v88q0 44 44 44h12q63 0 86 32q5 7 10 17t8.5 26.5
t5.5 40.5t2 58v112q0 100 15 171t45 119q15 24 37 46.5t49 39.5q-27 17 -49 39.5t-37 46.5q-30 48 -45 119t-15 171v112q0 34 -2 57.5t-5.5 40t-8.5 27t-10 17.5q-23 32 -86 32h-12q-44 0 -44 44v88q0 44 44 44h24q28 0 61.5 -2.5t67.5 -10t65.5 -22t57.5 -37.5
q44 -39 68 -112.5t24 -185.5v-120q0 -86 10.5 -136t28 -76.5t40.5 -35t49 -12.5q6 -1 12.5 -2.5t12.5 -6t9.5 -13t3.5 -22.5v-88z" />
    <glyph glyph-name="asciitilde" unicode="~" 
d="M786 512q45 0 75.5 30t56.5 74q8 14 15.5 19t18.5 5q12 0 24 -6l82 -40q12 -6 20 -14.5t8 -25.5q0 -11 -6 -26q-11 -29 -37 -66.5t-64.5 -72t-88.5 -58t-108 -23.5q-60 0 -110.5 23.5t-95 51.5t-84.5 51.5t-78 23.5q-45 0 -75.5 -30t-56.5 -74q-8 -14 -15.5 -19t-18.5 -5
q-12 0 -24 6l-82 40q-12 6 -20 14.5t-8 25.5q0 11 6 26q11 28 37 66t64.5 72.5t88 58t108.5 23.5q60 0 110.5 -23.5t95 -51.5t84.5 -51.5t78 -23.5z" />
    <glyph glyph-name="uni00A0" unicode="&#xa0;" horiz-adv-x="410" 
 />
    <glyph glyph-name="exclamdown" unicode="&#xa1;" horiz-adv-x="696" 
d="M546 -300q6 -44 -38 -44h-320q-44 0 -38 44l120 776q3 24 14.5 34t35.5 10h56q24 0 35.5 -10t14.5 -34zM520 826q0 -36 -12 -67.5t-34.5 -55.5t-54 -37.5t-71.5 -13.5t-71.5 13.5t-54 37.5t-34.5 55.5t-12 67.5t12 67.5t34.5 55.5t54 37.5t71.5 13.5t71.5 -13.5t54 -37.5
t34.5 -55.5t12 -67.5z" />
    <glyph glyph-name="cent" unicode="&#xa2;" 
d="M662 -128q-44 0 -44 44v106q-118 10 -203.5 53.5t-141 110t-82.5 152.5t-27 182q0 93 26 180.5t81 158t141 117.5t206 60v108q0 44 44 44h88q44 0 44 -44v-110q68 -9 124 -30t104 -54q37 -23 16 -62l-62 -112q-12 -21 -25 -24.5t-33 10.5q-30 21 -62 35.5t-68 22.5v-582
q33 8 66 21t66 37q20 14 33 11.5t25 -23.5l66 -112q24 -39 -14 -62q-51 -35 -112 -55t-124 -29v-110q0 -44 -44 -44h-88zM624 820q-45 -14 -77 -42t-52 -67t-29.5 -88.5t-9.5 -104.5q0 -52 8.5 -97.5t28 -81.5t52 -62t79.5 -39v582z" />
    <glyph glyph-name="sterling" unicode="&#xa3;" 
d="M166 546q-44 0 -44 44v120q0 44 44 44h106q-15 42 -27.5 93t-12.5 111q0 81 27.5 151.5t86 122.5t149.5 82t217 30q112 0 211 -26.5t171 -83.5q34 -28 10 -66l-76 -126q-12 -21 -26 -23.5t-32 11.5q-20 15 -46 29.5t-57.5 26.5t-69 19t-81.5 7q-98 0 -148 -41t-50 -133
q0 -44 10 -92t24 -92h368q44 0 44 -44v-120q0 -44 -44 -44h-316q6 -39 6 -78q0 -34 -5 -65.5t-17 -61.5t-32.5 -59t-51.5 -58h548q44 0 44 -44v-136q0 -44 -44 -44h-848q-44 0 -44 44v110q0 27 8 40.5t32 27.5q31 16 58.5 40t48.5 54t33 65.5t12 74.5q0 23 -4 46t-10 44
h-172z" />
    <glyph glyph-name="currency" unicode="&#xa4;" 
d="M122 228q-32 32 0 64l92 92q-44 59 -65 130t-21 148q0 75 21 146t65 130l-94 94q-30 32 2 64l76 76q32 32 62 0l108 -110q48 21 105.5 33.5t126.5 12.5q68 0 125.5 -12.5t104.5 -33.5l110 110q30 32 62 0l76 -76q32 -32 2 -64l-94 -94q44 -59 65 -130t21 -146
q0 -77 -21 -148t-65 -130l92 -92q32 -32 0 -64l-76 -76q-32 -32 -64 0l-108 108q-47 -21 -104.5 -32.5t-125.5 -11.5q-69 0 -126.5 11.5t-105.5 32.5l-108 -108q-30 -32 -62 0zM390 662q0 -46 11.5 -87t37 -72t65.5 -49t96 -18t96 18t65.5 49t37 72t11.5 87t-11.5 87t-37 72
t-65.5 49t-96 18t-96 -18t-65.5 -49t-37 -72t-11.5 -87z" />
    <glyph glyph-name="yen" unicode="&#xa5;" 
d="M134 478q-44 0 -44 44v96q0 44 44 44h202q-39 72 -78.5 148.5t-76.5 155.5t-70 158.5t-59 157.5q-8 21 0.5 31.5t29.5 10.5h214q24 0 36 -9.5t20 -32.5q44 -145 109.5 -305.5t146.5 -314.5q81 154 146.5 314.5t109.5 305.5q8 23 20 32.5t36 9.5h198q21 0 29.5 -10.5
t0.5 -31.5q-27 -78 -60 -157.5t-70 -158.5t-76 -155.5t-78 -148.5h202q44 0 44 -44v-96q0 -44 -44 -44h-322v-140h322q44 0 44 -44v-96q0 -44 -44 -44h-322v-110q0 -44 -44 -44h-200q-44 0 -44 44v110h-322q-44 0 -44 44v96q0 44 44 44h322v140h-322z" />
    <glyph glyph-name="brokenbar" unicode="&#xa6;" horiz-adv-x="652" 
d="M268 850q-44 0 -44 44v542q0 44 44 44h116q44 0 44 -44v-542q0 -44 -44 -44h-116zM268 -196q-44 0 -44 44v542q0 44 44 44h116q44 0 44 -44v-542q0 -44 -44 -44h-116z" />
    <glyph glyph-name="section" unicode="&#xa7;" horiz-adv-x="1120" 
d="M680 838q35 -11 74.5 -24.5t79 -32.5t75 -44.5t63 -59.5t44 -79t16.5 -102q0 -102 -52 -171.5t-142 -112.5q28 -19 52.5 -41.5t42.5 -51.5t28.5 -66t10.5 -83q0 -84 -35 -149t-99.5 -110t-156 -68t-205.5 -23q-128 0 -221.5 26t-152.5 62q-37 21 -16 60l72 124
q20 40 58 14q51 -32 115.5 -51t154.5 -19q212 0 212 116q0 33 -17.5 56.5t-52 43t-85 37t-115.5 37.5q-35 11 -74.5 24.5t-79 32.5t-75 44.5t-63 59.5t-44 78.5t-16.5 102.5q0 101 51.5 170t142.5 114q-62 39 -98 96.5t-36 147.5q0 84 32.5 149t92.5 109t146.5 67t194.5 23
q122 0 213.5 -25.5t150.5 -60.5q36 -24 16 -62l-72 -124q-20 -40 -58 -14q-50 32 -112 51t-142 19q-188 0 -188 -112q0 -35 18.5 -60t53.5 -44.5t85 -37t113 -36.5zM776 452q0 38 -20 67t-56 51.5t-85 41.5t-107 38l-56 18q-57 -27 -88.5 -68t-31.5 -88q0 -45 27.5 -76.5
t68 -54t87.5 -38.5t85 -29l56 -20q56 27 88 68.5t32 89.5z" />
    <glyph glyph-name="dieresis" unicode="&#xa8;" horiz-adv-x="884" 
d="M396 1238q0 -30 -10.5 -56.5t-30 -46.5t-46.5 -31.5t-61 -11.5t-61 11.5t-46.5 31.5t-30 46.5t-10.5 56.5t10.5 56.5t30 46.5t46.5 31.5t61 11.5t61 -11.5t46.5 -31.5t30 -46.5t10.5 -56.5zM784 1238q0 -30 -10.5 -56.5t-30 -46.5t-46.5 -31.5t-61 -11.5t-61 11.5
t-46.5 31.5t-30 46.5t-10.5 56.5t10.5 56.5t30 46.5t46.5 31.5t61 11.5t61 -11.5t46.5 -31.5t30 -46.5t10.5 -56.5z" />
    <glyph glyph-name="copyright" unicode="&#xa9;" horiz-adv-x="1556" 
d="M1030 350q-50 -39 -112.5 -56.5t-131.5 -17.5q-98 0 -167 31t-113.5 84t-65 123t-20.5 148q0 79 20.5 149t65 122.5t113.5 83.5t167 31q71 0 128.5 -17t101.5 -55q35 -29 8 -62l-42 -58q-14 -21 -27 -23t-33 13q-29 21 -64.5 31.5t-71.5 10.5q-89 0 -130.5 -61.5
t-41.5 -166.5t42.5 -164.5t135.5 -59.5q35 0 72 9.5t70 32.5q21 15 34 13t28 -23l42 -56q27 -33 -8 -62zM778 1202q-113 0 -209.5 -41t-167 -113.5t-110 -171.5t-39.5 -214q0 -116 39.5 -214.5t110 -171t167 -113.5t209.5 -41t209.5 41t167 113.5t110 171t39.5 214.5
q0 115 -39.5 214t-110 171.5t-167 113.5t-209.5 41zM778 -20q-146 0 -270.5 51.5t-216 143t-143.5 216.5t-52 271t52 271t143.5 216.5t216 143t270.5 51.5q97 0 185 -23.5t164 -66.5t137.5 -104.5t105 -137.5t67 -164.5t23.5 -185.5t-23.5 -185.5t-67 -164.5t-105 -137.5
t-137.5 -104.5t-164 -66.5t-185 -23.5z" />
    <glyph glyph-name="ordfeminine" unicode="&#xaa;" horiz-adv-x="728" 
d="M508 756q-44 0 -44 44v32q-13 -17 -30.5 -33.5t-41.5 -29t-55 -20t-71 -7.5q-58 0 -100.5 16.5t-70.5 45t-41.5 66t-13.5 80.5q0 47 16.5 86t50.5 67t85.5 43.5t121.5 15.5q44 0 80 -5.5t62 -14.5v28q0 26 -4.5 49.5t-18 41.5t-37.5 28.5t-64 10.5q-41 0 -85 -12t-83 -36
q-20 -12 -33 -9.5t-27 23.5l-28 48q-25 37 12 62q47 35 115.5 57.5t160.5 22.5q85 0 142 -21t91.5 -57.5t48.5 -86t14 -107.5v-384q0 -44 -44 -44h-108zM336 878q35 0 65.5 15t54.5 51v84q-21 6 -48 9t-48 3q-35 0 -57.5 -7t-35 -19t-17 -26.5t-4.5 -29.5q0 -32 19.5 -56
t70.5 -24z" />
    <glyph glyph-name="guillemotleft" unicode="&#xab;" horiz-adv-x="1060" 
d="M82 532q0 9 3 19t11 19l266 352q8 9 15.5 14.5t16.5 5.5q8 0 15.5 -2t16.5 -8l88 -56q24 -15 24 -34q0 -6 -2.5 -12t-7.5 -14l-192 -284l192 -284q5 -8 7.5 -14t2.5 -12q0 -19 -24 -34l-88 -56q-9 -6 -16.5 -8t-15.5 -2q-9 0 -16.5 5.5t-15.5 14.5l-266 352q-8 9 -11 19
t-3 19zM520 532q0 9 3 19t11 19l266 352q8 9 15.5 14.5t16.5 5.5q8 0 15.5 -2t16.5 -8l88 -56q24 -15 24 -34q0 -6 -2.5 -12t-7.5 -14l-192 -284l192 -284q5 -8 7.5 -14t2.5 -12q0 -19 -24 -34l-88 -56q-9 -6 -16.5 -8t-15.5 -2q-9 0 -16.5 5.5t-15.5 14.5l-266 352
q-8 9 -11 19t-3 19z" />
    <glyph glyph-name="logicalnot" unicode="&#xac;" 
d="M1044 44q0 -44 -44 -44h-136q-44 0 -44 44v342h-660q-44 0 -44 44v108q0 44 44 44h840q44 0 44 -44v-494z" />
    <glyph glyph-name="uni00AD" unicode="&#xad;" horiz-adv-x="688" 
d="M132 446q-44 0 -44 44v160q0 44 44 44h424q44 0 44 -44v-160q0 -44 -44 -44h-424z" />
    <glyph glyph-name="registered" unicode="&#xae;" horiz-adv-x="1308" 
d="M1124 856q0 106 -36 194.5t-99 152t-149 98.5t-186 35t-186 -35t-149 -98.5t-99 -152t-36 -194.5q0 -107 36 -195t99 -151.5t149 -98.5t186 -35t186 35t149 98.5t99 151.5t36 195zM1252 856q0 -127 -46 -236.5t-126.5 -190.5t-189.5 -127t-236 -46t-236 46t-189.5 127
t-126.5 190.5t-46 236.5t46 236.5t126.5 190.5t189.5 127t236 46t236 -46t189.5 -127t126.5 -190.5t46 -236.5zM442 532q-44 0 -44 44v560q0 44 44 44h168q84 0 141.5 -16.5t93.5 -46t51.5 -71t15.5 -90.5q0 -53 -19.5 -94t-72.5 -70q41 -44 69.5 -102.5t48.5 -115.5
q12 -42 -32 -42h-106q-26 0 -38.5 9t-21.5 33q-14 39 -33.5 83t-48.5 83h-82v-164q0 -44 -44 -44h-90zM576 872h50q55 0 76.5 25.5t21.5 60.5q0 33 -19 57.5t-67 24.5h-62v-168z" />
    <glyph glyph-name="macron" unicode="&#xaf;" horiz-adv-x="748" 
d="M604 1328q44 0 44 -44v-100q0 -44 -44 -44h-460q-44 0 -44 44v100q0 44 44 44h460z" />
    <glyph glyph-name="degree" unicode="&#xb0;" horiz-adv-x="728" 
d="M668 1044q0 -64 -23.5 -118.5t-64 -95t-96.5 -63.5t-120 -23q-65 0 -120.5 23t-96 63.5t-64 95t-23.5 118.5t23.5 118.5t64 95t96 63.5t120.5 23q64 0 120 -23t96.5 -63.5t64 -95t23.5 -118.5zM232 1044q0 -29 10 -53.5t27.5 -42.5t41.5 -28t53 -10q28 0 52.5 10t42 28
t27.5 42.5t10 53.5t-10 53.5t-27.5 42.5t-42 28t-52.5 10q-29 0 -53 -10t-41.5 -28t-27.5 -42.5t-10 -53.5z" />
    <glyph glyph-name="plusminus" unicode="&#xb1;" 
d="M160 0q-44 0 -44 44v108q0 44 44 44h880q44 0 44 -44v-108q0 -44 -44 -44h-880zM160 606q-44 0 -44 44v108q0 44 44 44h334v262q0 44 44 44h124q44 0 44 -44v-262h334q44 0 44 -44v-108q0 -44 -44 -44h-334v-262q0 -44 -44 -44h-124q-44 0 -44 44v262h-334z" />
    <glyph glyph-name="twosuperior" unicode="&#xb2;" horiz-adv-x="780" 
d="M108 620q0 69 20.5 120t54 90t76.5 67.5t87 52.5q16 9 38.5 21.5t42 29t33.5 38.5t14 51q0 41 -29 61.5t-79 20.5q-38 0 -72.5 -10.5t-63.5 -27.5q-23 -12 -36.5 -8.5t-25.5 24.5l-40 64q-11 18 -7 33.5t21 26.5q41 27 100.5 44.5t139.5 17.5q77 0 133.5 -18t93 -50.5
t54 -77.5t17.5 -98t-17 -92.5t-47 -71t-71.5 -59t-90.5 -57.5q-15 -9 -34.5 -22t-37.5 -26.5t-30 -27.5t-12 -24h316q44 0 44 -44v-68q0 -44 -44 -44h-504q-44 0 -44 44v20z" />
    <glyph glyph-name="threesuperior" unicode="&#xb3;" horiz-adv-x="780" 
d="M680 804q0 -54 -19.5 -101.5t-60.5 -82.5t-104 -55.5t-150 -20.5q-81 0 -138 16.5t-96 43.5q-37 25 -12 62l42 66q14 21 27.5 24.5t34.5 -8.5q27 -15 59.5 -25.5t76.5 -10.5q69 0 100.5 26t31.5 68q0 44 -34 69t-106 25h-20q-11 0 -17.5 3t-12.5 9l-48 48q-32 32 -2 64
l140 144h-200q-44 0 -44 44v68q0 44 44 44h414q44 0 44 -44v-42q0 -17 -5 -29.5t-19 -24.5l-26 -26q-25 -24 -43 -41.5t-32.5 -30.5t-26.5 -23t-24 -19q107 -18 166.5 -80t59.5 -160z" />
    <glyph glyph-name="acute" unicode="&#xb4;" horiz-adv-x="684" 
d="M424 1454q15 12 28 12q9 0 17.5 -4.5t14.5 -15.5l76 -118q5 -8 7.5 -14t2.5 -12q0 -17 -24 -32l-324 -182q-17 -10 -30 -10q-20 0 -36 22l-30 40q-12 15 -12 28q0 9 3.5 17t14.5 17z" />
    <glyph glyph-name="mu" unicode="&#xb5;" horiz-adv-x="1156" 
d="M178 -400q-44 0 -44 44v1292q0 44 44 44h204q44 0 44 -44v-564q0 -31 6.5 -60.5t22.5 -53t42 -38t65 -14.5q41 0 87 20.5t81 71.5v638q0 44 44 44h204q44 0 44 -44v-892q0 -44 -44 -44h-190q-44 0 -44 44v68q-17 -25 -36.5 -48.5t-44.5 -42t-56 -30t-69 -11.5
q-15 0 -31 0.5t-33.5 4.5t-36 12.5t-37.5 24.5q12 -36 19 -99.5t7 -140.5v-138q0 -44 -44 -44h-204z" />
    <glyph glyph-name="paragraph" unicode="&#xb6;" horiz-adv-x="1284" 
d="M866 -240q-44 0 -44 44v1316h-190v-1316q0 -44 -44 -44h-146q-44 0 -44 44v830q-89 12 -151 43t-101.5 76.5t-57.5 103.5t-18 123q0 73 23 135.5t74.5 109t135 73t205.5 26.5h672q44 0 44 -44v-116q0 -44 -44 -44h-124v-1316q0 -44 -44 -44h-146z" />
    <glyph glyph-name="periodcentered" unicode="&#xb7;" horiz-adv-x="520" 
d="M444 584q0 -38 -13 -72t-37 -59.5t-58 -40t-76 -14.5t-76 14.5t-58 40t-37 59.5t-13 72t13 72t37 59.5t58 40t76 14.5t76 -14.5t58 -40t37 -59.5t13 -72z" />
    <glyph glyph-name="cedilla" unicode="&#xb8;" horiz-adv-x="650" 
d="M244 0h116l-56 -84q8 3 23.5 5.5t36.5 2.5q84 0 135 -42t51 -114q0 -39 -16 -74.5t-47.5 -62.5t-79 -43t-109.5 -16q-41 0 -83.5 9.5t-78.5 32.5q-24 15 -24 34q0 11 8 24l20 32q8 12 15.5 19t18.5 7q12 0 28 -8q20 -11 43 -15.5t49 -4.5q33 0 55.5 14.5t22.5 43.5
q0 23 -17.5 40.5t-56.5 17.5q-23 0 -37 -3t-29 -3q-14 0 -23 5.5t-21 16.5l-2 2q-16 13 -16 34q0 13 8 26z" />
    <glyph glyph-name="onesuperior" unicode="&#xb9;" horiz-adv-x="780" 
d="M202 556q-44 0 -44 44v68q0 44 44 44h124v412l-98 -44q-41 -18 -58 22l-28 60q-18 41 22 58l184 86q39 18 84 18h56q44 0 44 -44v-568h112q44 0 44 -44v-68q0 -44 -44 -44h-442z" />
    <glyph glyph-name="ordmasculine" unicode="&#xba;" horiz-adv-x="808" 
d="M258 1098q0 -44 8.5 -81.5t26.5 -66t45.5 -44.5t65.5 -16q37 0 64.5 16t45.5 44.5t27 66t9 81.5q0 43 -9 81t-27 66.5t-45.5 44.5t-64.5 16q-38 0 -65.5 -16t-45.5 -44.5t-26.5 -66.5t-8.5 -81zM760 1098q0 -69 -20 -133.5t-63.5 -114.5t-111 -80t-161.5 -30
q-95 0 -162 30t-110.5 80t-63.5 114.5t-20 133.5t20 133.5t63.5 114.5t110.5 80t162 30q94 0 161.5 -30t111 -80t63.5 -114.5t20 -133.5z" />
    <glyph glyph-name="guillemotright" unicode="&#xbb;" horiz-adv-x="1060" 
d="M540 532q0 -9 -3 -19t-11 -19l-266 -352q-8 -9 -15.5 -14.5t-16.5 -5.5q-8 0 -15.5 2t-16.5 8l-88 56q-24 15 -24 34q0 6 2.5 12t7.5 14l192 284l-192 284q-5 8 -7.5 14t-2.5 12q0 19 24 34l88 56q9 6 16.5 8t15.5 2q9 0 16.5 -5.5t15.5 -14.5l266 -352q8 -9 11 -19
t3 -19zM978 532q0 -9 -3 -19t-11 -19l-266 -352q-8 -9 -15.5 -14.5t-16.5 -5.5q-8 0 -15.5 2t-16.5 8l-88 56q-24 15 -24 34q0 6 2.5 12t7.5 14l192 284l-192 284q-5 8 -7.5 14t-2.5 12q0 19 24 34l88 56q9 6 16.5 8t15.5 2q9 0 16.5 -5.5t15.5 -14.5l266 -352q8 -9 11 -19
t3 -19z" />
    <glyph glyph-name="onequarter" unicode="&#xbc;" horiz-adv-x="1832" 
d="M202 556q-44 0 -44 44v68q0 44 44 44h124v412l-98 -44q-41 -18 -58 22l-28 60q-18 41 22 58l184 86q39 18 84 18h56q44 0 44 -44v-568h112q44 0 44 -44v-68q0 -44 -44 -44h-442zM418 0q-28 0 -28 20q0 6 2.5 11.5t5.5 10.5l828 1246q14 20 29 28t39 8h120q28 0 28 -20
q0 -6 -2.5 -11.5t-5.5 -10.5l-828 -1246q-14 -20 -29 -28t-39 -8h-120zM1142 150q-44 0 -44 44v44q0 23 5 42.5t17 39.5l230 410q12 21 27 29.5t39 8.5h122q44 0 22 -38l-242 -430h172v172q0 44 44 44h110q44 0 44 -44v-172h56q44 0 44 -44v-62q0 -44 -44 -44h-56v-106
q0 -44 -44 -44h-110q-44 0 -44 44v106h-348z" />
    <glyph glyph-name="onehalf" unicode="&#xbd;" horiz-adv-x="1832" 
d="M202 556q-44 0 -44 44v68q0 44 44 44h124v412l-98 -44q-41 -18 -58 22l-28 60q-18 41 22 58l184 86q39 18 84 18h56q44 0 44 -44v-568h112q44 0 44 -44v-68q0 -44 -44 -44h-442zM418 0q-28 0 -28 20q0 6 2.5 11.5t5.5 10.5l828 1246q14 20 29 28t39 8h120q28 0 28 -20
q0 -6 -2.5 -11.5t-5.5 -10.5l-828 -1246q-14 -20 -29 -28t-39 -8h-120zM1160 64q0 69 20.5 120t54 90t76.5 67.5t87 52.5q16 9 38.5 21.5t42 29t33.5 38.5t14 51q0 41 -29 61.5t-79 20.5q-38 0 -72.5 -10.5t-63.5 -27.5q-23 -12 -36.5 -8.5t-25.5 24.5l-40 64
q-11 18 -7 33.5t21 26.5q41 27 100.5 44.5t139.5 17.5q77 0 133.5 -18t93 -50.5t54 -77.5t17.5 -98t-17 -92.5t-47 -71t-71.5 -59t-90.5 -57.5q-15 -9 -34.5 -22t-37.5 -26.5t-30 -27.5t-12 -24h316q44 0 44 -44v-68q0 -44 -44 -44h-504q-44 0 -44 44v20z" />
    <glyph glyph-name="threequarters" unicode="&#xbe;" horiz-adv-x="1832" 
d="M680 804q0 -54 -19.5 -101.5t-60.5 -82.5t-104 -55.5t-150 -20.5q-81 0 -138 16.5t-96 43.5q-37 25 -12 62l42 66q14 21 27.5 24.5t34.5 -8.5q27 -15 59.5 -25.5t76.5 -10.5q69 0 100.5 26t31.5 68q0 44 -34 69t-106 25h-20q-11 0 -17.5 3t-12.5 9l-48 48q-32 32 -2 64
l140 144h-200q-44 0 -44 44v68q0 44 44 44h414q44 0 44 -44v-42q0 -17 -5 -29.5t-19 -24.5l-26 -26q-25 -24 -43 -41.5t-32.5 -30.5t-26.5 -23t-24 -19q107 -18 166.5 -80t59.5 -160zM418 0q-28 0 -28 20q0 6 2.5 11.5t5.5 10.5l828 1246q14 20 29 28t39 8h120q28 0 28 -20
q0 -6 -2.5 -11.5t-5.5 -10.5l-828 -1246q-14 -20 -29 -28t-39 -8h-120zM1142 150q-44 0 -44 44v44q0 23 5 42.5t17 39.5l230 410q12 21 27 29.5t39 8.5h122q44 0 22 -38l-242 -430h172v172q0 44 44 44h110q44 0 44 -44v-172h56q44 0 44 -44v-62q0 -44 -44 -44h-56v-106
q0 -44 -44 -44h-110q-44 0 -44 44v106h-348z" />
    <glyph glyph-name="questiondown" unicode="&#xbf;" horiz-adv-x="816" 
d="M804 -240q-29 -23 -66 -45.5t-85 -40t-107 -28t-132 -10.5q-104 0 -183.5 23.5t-133 66t-80.5 102t-27 132.5q0 68 21.5 119.5t53.5 90.5t69.5 68t69.5 52q39 28 70.5 51t55.5 48.5t41 57.5t27 77q6 26 18 35t36 9h56q43 0 52 -42q8 -33 13 -71.5t5 -68.5
q0 -51 -15.5 -87.5t-40 -64.5t-54.5 -49.5t-58 -42.5q-41 -30 -65.5 -53t-37 -41t-16 -32.5t-3.5 -27.5q0 -59 37 -82.5t105 -23.5q72 0 133 23t111 59q20 14 33 12t25 -22l84 -130q23 -38 -12 -64zM654 822q0 -37 -13 -69.5t-37 -56.5t-58 -38t-76 -14t-76 14t-58 38
t-37 56.5t-13 69.5t13 69.5t37 56.5t58 38t76 14t76 -14t58 -38t37 -56.5t13 -69.5z" />
    <glyph glyph-name="Agrave" unicode="&#xc0;" horiz-adv-x="1310" 
d="M826 1284q118 -264 232 -574.5t212 -653.5q3 -11 4.5 -17.5t1.5 -12.5q0 -26 -34 -26h-228q-24 0 -37 9.5t-19 32.5q-17 59 -32 115.5t-32 112.5h-512q-17 -56 -32 -112.5t-30 -115.5q-6 -23 -19 -32.5t-37 -9.5h-196q-34 0 -34 26q0 6 1.5 12.5t4.5 17.5
q98 343 209.5 654t232.5 574q9 23 23.5 31.5t38.5 8.5h220q24 0 38.5 -9.5t23.5 -30.5zM818 506q-87 270 -180 504q-93 -234 -180 -504h360zM784 1542q11 -9 14.5 -17t3.5 -17q0 -13 -12 -28l-30 -40q-17 -22 -36 -22q-13 0 -30 10l-324 182q-24 15 -24 32q0 6 2.5 12
t7.5 14l76 118q6 11 14.5 15.5t17.5 4.5q13 0 28 -12z" />
    <glyph glyph-name="Aacute" unicode="&#xc1;" horiz-adv-x="1310" 
d="M826 1284q118 -264 232 -574.5t212 -653.5q3 -11 4.5 -17.5t1.5 -12.5q0 -26 -34 -26h-228q-24 0 -37 9.5t-19 32.5q-17 59 -32 115.5t-32 112.5h-512q-17 -56 -32 -112.5t-30 -115.5q-6 -23 -19 -32.5t-37 -9.5h-196q-34 0 -34 26q0 6 1.5 12.5t4.5 17.5
q98 343 209.5 654t232.5 574q9 23 23.5 31.5t38.5 8.5h220q24 0 38.5 -9.5t23.5 -30.5zM818 506q-87 270 -180 504q-93 -234 -180 -504h360zM828 1794q15 12 28 12q9 0 17.5 -4.5t14.5 -15.5l76 -118q5 -8 7.5 -14t2.5 -12q0 -17 -24 -32l-324 -182q-17 -10 -30 -10
q-20 0 -36 22l-30 40q-12 15 -12 28q0 9 3.5 17t14.5 17z" />
    <glyph glyph-name="Acircumflex" unicode="&#xc2;" horiz-adv-x="1310" 
d="M826 1284q118 -264 232 -574.5t212 -653.5q3 -11 4.5 -17.5t1.5 -12.5q0 -26 -34 -26h-228q-24 0 -37 9.5t-19 32.5q-17 59 -32 115.5t-32 112.5h-512q-17 -56 -32 -112.5t-30 -115.5q-6 -23 -19 -32.5t-37 -9.5h-196q-34 0 -34 26q0 6 1.5 12.5t4.5 17.5
q98 343 209.5 654t232.5 574q9 23 23.5 31.5t38.5 8.5h220q24 0 38.5 -9.5t23.5 -30.5zM818 506q-87 270 -180 504q-93 -234 -180 -504h360zM442 1430q-13 -8 -30 -8q-19 0 -36 20l-36 44q-12 15 -12 28q0 17 20 34l268 208q17 14 38 14t38 -14l268 -208q20 -17 20 -34
q0 -13 -12 -28l-36 -44q-17 -20 -36 -20q-17 0 -30 8l-212 126z" />
    <glyph glyph-name="Atilde" unicode="&#xc3;" horiz-adv-x="1310" 
d="M826 1284q118 -264 232 -574.5t212 -653.5q3 -11 4.5 -17.5t1.5 -12.5q0 -26 -34 -26h-228q-24 0 -37 9.5t-19 32.5q-17 59 -32 115.5t-32 112.5h-512q-17 -56 -32 -112.5t-30 -115.5q-6 -23 -19 -32.5t-37 -9.5h-196q-34 0 -34 26q0 6 1.5 12.5t4.5 17.5
q98 343 209.5 654t232.5 574q9 23 23.5 31.5t38.5 8.5h220q24 0 38.5 -9.5t23.5 -30.5zM818 506q-87 270 -180 504q-93 -234 -180 -504h360zM778 1444q-46 0 -80 12t-61.5 27t-52 27t-50.5 12q-21 0 -46 -10.5t-48 -33.5q-18 -18 -34 -18q-15 0 -32 14l-48 38q-20 17 -20 34
q0 13 10 30q45 74 98 105t116 31q46 0 80 -12t61.5 -27t52 -27t50.5 -12q21 0 46 10.5t48 33.5q18 18 34 18q15 0 32 -14l48 -38q9 -8 14.5 -16.5t5.5 -17.5q0 -13 -10 -30q-45 -74 -98 -105t-116 -31z" />
    <glyph glyph-name="Adieresis" unicode="&#xc4;" horiz-adv-x="1310" 
d="M826 1284q118 -264 232 -574.5t212 -653.5q3 -11 4.5 -17.5t1.5 -12.5q0 -26 -34 -26h-228q-24 0 -37 9.5t-19 32.5q-17 59 -32 115.5t-32 112.5h-512q-17 -56 -32 -112.5t-30 -115.5q-6 -23 -19 -32.5t-37 -9.5h-196q-34 0 -34 26q0 6 1.5 12.5t4.5 17.5
q98 343 209.5 654t232.5 574q9 23 23.5 31.5t38.5 8.5h220q24 0 38.5 -9.5t23.5 -30.5zM818 506q-87 270 -180 504q-93 -234 -180 -504h360zM608 1578q0 -30 -10.5 -56.5t-30 -46.5t-46.5 -31.5t-61 -11.5t-61 11.5t-46.5 31.5t-30 46.5t-10.5 56.5t10.5 56.5t30 46.5
t46.5 31.5t61 11.5t61 -11.5t46.5 -31.5t30 -46.5t10.5 -56.5zM996 1578q0 -30 -10.5 -56.5t-30 -46.5t-46.5 -31.5t-61 -11.5t-61 11.5t-46.5 31.5t-30 46.5t-10.5 56.5t10.5 56.5t30 46.5t46.5 31.5t61 11.5t61 -11.5t46.5 -31.5t30 -46.5t10.5 -56.5z" />
    <glyph glyph-name="Aring" unicode="&#xc5;" horiz-adv-x="1310" 
d="M68 0q-44 0 -32 42q95 341 205 649.5t231 572.5q-35 33 -55.5 79.5t-20.5 102.5t20.5 103t56 80.5t82 52t99.5 18.5q52 0 99 -18.5t82.5 -52t56 -80.5t20.5 -103q0 -57 -20.5 -103t-55.5 -81q121 -263 230.5 -571t207.5 -649q12 -42 -32 -42h-228q-24 0 -37 9.5t-19 32.5
q-17 59 -32 115.5t-32 112.5h-512q-17 -56 -32 -112.5t-30 -115.5q-6 -23 -19 -32.5t-37 -9.5h-196zM818 506q-87 270 -180 504q-93 -234 -180 -504h360zM536 1446q0 -56 33.5 -89t84.5 -33t84.5 33t33.5 89t-33.5 89t-84.5 33t-84.5 -33t-33.5 -89z" />
    <glyph glyph-name="AE" unicode="&#xc6;" horiz-adv-x="1874" 
d="M950 0q-44 0 -44 44v226h-494l-118 -230q-11 -23 -25.5 -31.5t-38.5 -8.5h-222q-42 0 -24 40q85 170 176 336.5t184.5 325t187.5 306t186 280.5q15 20 30.5 28t39.5 8h954q44 0 44 -44v-148q0 -44 -44 -44h-532v-300h458q44 0 44 -44v-148q0 -44 -44 -44h-458v-316h532
q44 0 44 -44v-148q0 -44 -44 -44h-792zM906 1128q-75 -113 -132 -203t-101.5 -164.5t-79 -136.5t-65.5 -118h378v622z" />
    <glyph glyph-name="Ccedilla" unicode="&#xc7;" horiz-adv-x="1258" 
d="M616 -14q-142 16 -243.5 74t-166.5 146.5t-95.5 201.5t-30.5 238q0 85 14.5 170t47 163t84 144.5t125 115.5t170 77t219.5 28q132 0 231 -35.5t179 -108.5q32 -32 6 -66l-106 -136q-27 -35 -58 -4q-54 50 -119.5 75t-136.5 25q-84 0 -147.5 -34.5t-106.5 -95t-64.5 -143
t-21.5 -177.5q0 -94 21 -170.5t62.5 -130.5t103.5 -83.5t145 -29.5q75 0 149 25.5t133 78.5q18 17 32.5 15.5t29.5 -19.5l110 -134q27 -32 -6 -62q-91 -80 -204.5 -116t-243.5 -38l-42 -64q8 3 23.5 5.5t36.5 2.5q84 0 135 -42t51 -114q0 -39 -16 -74.5t-47.5 -62.5t-79 -43
t-109.5 -16q-41 0 -83.5 9.5t-78.5 32.5q-24 15 -24 34q0 11 8 24l20 32q8 12 15.5 19t18.5 7q12 0 28 -8q20 -11 43 -15.5t49 -4.5q33 0 55.5 14.5t22.5 43.5q0 23 -17.5 40.5t-56.5 17.5q-23 0 -37 -3t-29 -3q-14 0 -23 5.5t-21 16.5l-2 2q-16 13 -16 34q0 13 8 26z" />
    <glyph glyph-name="Egrave" unicode="&#xc8;" horiz-adv-x="1114" 
d="M190 0q-44 0 -44 44v1236q0 44 44 44h792q44 0 44 -44v-148q0 -44 -44 -44h-532v-300h458q44 0 44 -44v-148q0 -44 -44 -44h-458v-316h532q44 0 44 -44v-148q0 -44 -44 -44h-792zM716 1542q11 -9 14.5 -17t3.5 -17q0 -13 -12 -28l-30 -40q-17 -22 -36 -22q-13 0 -30 10
l-324 182q-24 15 -24 32q0 6 2.5 12t7.5 14l76 118q6 11 14.5 15.5t17.5 4.5q13 0 28 -12z" />
    <glyph glyph-name="Eacute" unicode="&#xc9;" horiz-adv-x="1114" 
d="M190 0q-44 0 -44 44v1236q0 44 44 44h792q44 0 44 -44v-148q0 -44 -44 -44h-532v-300h458q44 0 44 -44v-148q0 -44 -44 -44h-458v-316h532q44 0 44 -44v-148q0 -44 -44 -44h-792zM760 1794q15 12 28 12q9 0 17.5 -4.5t14.5 -15.5l76 -118q5 -8 7.5 -14t2.5 -12
q0 -17 -24 -32l-324 -182q-17 -10 -30 -10q-20 0 -36 22l-30 40q-12 15 -12 28q0 9 3.5 17t14.5 17z" />
    <glyph glyph-name="Ecircumflex" unicode="&#xca;" horiz-adv-x="1114" 
d="M190 0q-44 0 -44 44v1236q0 44 44 44h792q44 0 44 -44v-148q0 -44 -44 -44h-532v-300h458q44 0 44 -44v-148q0 -44 -44 -44h-458v-316h532q44 0 44 -44v-148q0 -44 -44 -44h-792zM374 1430q-13 -8 -30 -8q-19 0 -36 20l-36 44q-12 15 -12 28q0 17 20 34l268 208
q17 14 38 14t38 -14l268 -208q20 -17 20 -34q0 -13 -12 -28l-36 -44q-17 -20 -36 -20q-17 0 -30 8l-212 126z" />
    <glyph glyph-name="Edieresis" unicode="&#xcb;" horiz-adv-x="1114" 
d="M190 0q-44 0 -44 44v1236q0 44 44 44h792q44 0 44 -44v-148q0 -44 -44 -44h-532v-300h458q44 0 44 -44v-148q0 -44 -44 -44h-458v-316h532q44 0 44 -44v-148q0 -44 -44 -44h-792zM540 1578q0 -30 -10.5 -56.5t-30 -46.5t-46.5 -31.5t-61 -11.5t-61 11.5t-46.5 31.5
t-30 46.5t-10.5 56.5t10.5 56.5t30 46.5t46.5 31.5t61 11.5t61 -11.5t46.5 -31.5t30 -46.5t10.5 -56.5zM928 1578q0 -30 -10.5 -56.5t-30 -46.5t-46.5 -31.5t-61 -11.5t-61 11.5t-46.5 31.5t-30 46.5t-10.5 56.5t10.5 56.5t30 46.5t46.5 31.5t61 11.5t61 -11.5t46.5 -31.5
t30 -46.5t10.5 -56.5z" />
    <glyph glyph-name="Igrave" unicode="&#xcc;" horiz-adv-x="596" 
d="M190 0q-44 0 -44 44v1236q0 44 44 44h216q44 0 44 -44v-1236q0 -44 -44 -44h-216zM429 1542q11 -9 14.5 -17t3.5 -17q0 -13 -12 -28l-30 -40q-17 -22 -36 -22q-13 0 -30 10l-324 182q-24 15 -24 32q0 6 2.5 12t7.5 14l76 118q6 11 14.5 15.5t17.5 4.5q13 0 28 -12z" />
    <glyph glyph-name="Iacute" unicode="&#xcd;" horiz-adv-x="596" 
d="M190 0q-44 0 -44 44v1236q0 44 44 44h216q44 0 44 -44v-1236q0 -44 -44 -44h-216zM472 1794q15 12 28 12q9 0 17.5 -4.5t14.5 -15.5l76 -118q5 -8 7.5 -14t2.5 -12q0 -17 -24 -32l-324 -182q-17 -10 -30 -10q-20 0 -36 22l-30 40q-12 15 -12 28q0 9 3.5 17t14.5 17z" />
    <glyph glyph-name="Icircumflex" unicode="&#xce;" horiz-adv-x="596" 
d="M190 0q-44 0 -44 44v1236q0 44 44 44h216q44 0 44 -44v-1236q0 -44 -44 -44h-216zM87 1430q-13 -8 -30 -8q-19 0 -36 20l-36 44q-12 15 -12 28q0 17 20 34l268 208q17 14 38 14t38 -14l268 -208q20 -17 20 -34q0 -13 -12 -28l-36 -44q-17 -20 -36 -20q-17 0 -30 8
l-212 126z" />
    <glyph glyph-name="Idieresis" unicode="&#xcf;" horiz-adv-x="596" 
d="M190 0q-44 0 -44 44v1236q0 44 44 44h216q44 0 44 -44v-1236q0 -44 -44 -44h-216zM253 1578q0 -30 -10.5 -56.5t-30 -46.5t-46.5 -31.5t-61 -11.5t-61 11.5t-46.5 31.5t-30 46.5t-10.5 56.5t10.5 56.5t30 46.5t46.5 31.5t61 11.5t61 -11.5t46.5 -31.5t30 -46.5
t10.5 -56.5zM641 1578q0 -30 -10.5 -56.5t-30 -46.5t-46.5 -31.5t-61 -11.5t-61 11.5t-46.5 31.5t-30 46.5t-10.5 56.5t10.5 56.5t30 46.5t46.5 31.5t61 11.5t61 -11.5t46.5 -31.5t30 -46.5t10.5 -56.5z" />
    <glyph glyph-name="Eth" unicode="&#xd0;" horiz-adv-x="1398" 
d="M74 552q-44 0 -44 44v130q0 44 44 44h92v510q0 44 44 44h464q118 0 211.5 -25.5t165 -71.5t122.5 -108t83 -136t47 -155.5t15 -165.5q0 -128 -36 -247t-114 -211.5t-200 -148t-294 -55.5h-464q-44 0 -44 44v508h-92zM470 1092v-322h224q44 0 44 -44v-130q0 -44 -44 -44
h-224v-320h184q97 0 164 35.5t107.5 95t58.5 137t18 162.5t-18 162.5t-58.5 137t-107.5 95t-164 35.5h-184z" />
    <glyph glyph-name="Ntilde" unicode="&#xd1;" horiz-adv-x="1460" 
d="M190 0q-44 0 -44 44v1236q0 44 44 44h266q24 0 39 -8.5t27 -29.5l506 -890v884q0 44 44 44h198q44 0 44 -44v-1236q0 -44 -44 -44h-266q-24 0 -39 8.5t-27 29.5l-506 890v-884q0 -44 -44 -44h-198zM854 1444q-46 0 -80 12t-61.5 27t-52 27t-50.5 12q-21 0 -46 -10.5
t-48 -33.5q-18 -18 -34 -18q-15 0 -32 14l-48 38q-20 17 -20 34q0 13 10 30q45 74 98 105t116 31q46 0 80 -12t61.5 -27t52 -27t50.5 -12q21 0 46 10.5t48 33.5q18 18 34 18q15 0 32 -14l48 -38q9 -8 14.5 -16.5t5.5 -17.5q0 -13 -10 -30q-45 -74 -98 -105t-116 -31z" />
    <glyph glyph-name="Ograve" unicode="&#xd2;" horiz-adv-x="1464" 
d="M396 662q0 -91 21 -170t63 -137.5t105 -92.5t147 -34t147 34t105 92.5t63 137.5t21 170t-21 170t-63 137.5t-105 92.5t-147 34t-147 -34t-105 -92.5t-63 -137.5t-21 -170zM1384 662q0 -84 -16.5 -167.5t-50.5 -159.5t-86.5 -141t-125 -112.5t-165.5 -74.5t-208 -27
q-118 0 -212.5 27.5t-167 75.5t-124 113t-84.5 141t-48.5 158.5t-15.5 166.5t16.5 167.5t50.5 159.5t86.5 141t125 112.5t165.5 74.5t208 27q119 0 213 -27.5t166.5 -75.5t124 -113t84.5 -141t48.5 -159t15.5 -166zM862 1542q11 -9 14.5 -17t3.5 -17q0 -13 -12 -28l-30 -40
q-17 -22 -36 -22q-13 0 -30 10l-324 182q-24 15 -24 32q0 6 2.5 12t7.5 14l76 118q6 11 14.5 15.5t17.5 4.5q13 0 28 -12z" />
    <glyph glyph-name="Oacute" unicode="&#xd3;" horiz-adv-x="1464" 
d="M396 662q0 -91 21 -170t63 -137.5t105 -92.5t147 -34t147 34t105 92.5t63 137.5t21 170t-21 170t-63 137.5t-105 92.5t-147 34t-147 -34t-105 -92.5t-63 -137.5t-21 -170zM1384 662q0 -84 -16.5 -167.5t-50.5 -159.5t-86.5 -141t-125 -112.5t-165.5 -74.5t-208 -27
q-118 0 -212.5 27.5t-167 75.5t-124 113t-84.5 141t-48.5 158.5t-15.5 166.5t16.5 167.5t50.5 159.5t86.5 141t125 112.5t165.5 74.5t208 27q119 0 213 -27.5t166.5 -75.5t124 -113t84.5 -141t48.5 -159t15.5 -166zM906 1794q15 12 28 12q9 0 17.5 -4.5t14.5 -15.5l76 -118
q5 -8 7.5 -14t2.5 -12q0 -17 -24 -32l-324 -182q-17 -10 -30 -10q-20 0 -36 22l-30 40q-12 15 -12 28q0 9 3.5 17t14.5 17z" />
    <glyph glyph-name="Ocircumflex" unicode="&#xd4;" horiz-adv-x="1464" 
d="M396 662q0 -91 21 -170t63 -137.5t105 -92.5t147 -34t147 34t105 92.5t63 137.5t21 170t-21 170t-63 137.5t-105 92.5t-147 34t-147 -34t-105 -92.5t-63 -137.5t-21 -170zM1384 662q0 -84 -16.5 -167.5t-50.5 -159.5t-86.5 -141t-125 -112.5t-165.5 -74.5t-208 -27
q-118 0 -212.5 27.5t-167 75.5t-124 113t-84.5 141t-48.5 158.5t-15.5 166.5t16.5 167.5t50.5 159.5t86.5 141t125 112.5t165.5 74.5t208 27q119 0 213 -27.5t166.5 -75.5t124 -113t84.5 -141t48.5 -159t15.5 -166zM520 1430q-13 -8 -30 -8q-19 0 -36 20l-36 44
q-12 15 -12 28q0 17 20 34l268 208q17 14 38 14t38 -14l268 -208q20 -17 20 -34q0 -13 -12 -28l-36 -44q-17 -20 -36 -20q-17 0 -30 8l-212 126z" />
    <glyph glyph-name="Otilde" unicode="&#xd5;" horiz-adv-x="1464" 
d="M396 662q0 -91 21 -170t63 -137.5t105 -92.5t147 -34t147 34t105 92.5t63 137.5t21 170t-21 170t-63 137.5t-105 92.5t-147 34t-147 -34t-105 -92.5t-63 -137.5t-21 -170zM1384 662q0 -84 -16.5 -167.5t-50.5 -159.5t-86.5 -141t-125 -112.5t-165.5 -74.5t-208 -27
q-118 0 -212.5 27.5t-167 75.5t-124 113t-84.5 141t-48.5 158.5t-15.5 166.5t16.5 167.5t50.5 159.5t86.5 141t125 112.5t165.5 74.5t208 27q119 0 213 -27.5t166.5 -75.5t124 -113t84.5 -141t48.5 -159t15.5 -166zM856 1444q-46 0 -80 12t-61.5 27t-52 27t-50.5 12
q-21 0 -46 -10.5t-48 -33.5q-18 -18 -34 -18q-15 0 -32 14l-48 38q-20 17 -20 34q0 13 10 30q45 74 98 105t116 31q46 0 80 -12t61.5 -27t52 -27t50.5 -12q21 0 46 10.5t48 33.5q18 18 34 18q15 0 32 -14l48 -38q9 -8 14.5 -16.5t5.5 -17.5q0 -13 -10 -30q-45 -74 -98 -105
t-116 -31z" />
    <glyph glyph-name="Odieresis" unicode="&#xd6;" horiz-adv-x="1464" 
d="M396 662q0 -91 21 -170t63 -137.5t105 -92.5t147 -34t147 34t105 92.5t63 137.5t21 170t-21 170t-63 137.5t-105 92.5t-147 34t-147 -34t-105 -92.5t-63 -137.5t-21 -170zM1384 662q0 -84 -16.5 -167.5t-50.5 -159.5t-86.5 -141t-125 -112.5t-165.5 -74.5t-208 -27
q-118 0 -212.5 27.5t-167 75.5t-124 113t-84.5 141t-48.5 158.5t-15.5 166.5t16.5 167.5t50.5 159.5t86.5 141t125 112.5t165.5 74.5t208 27q119 0 213 -27.5t166.5 -75.5t124 -113t84.5 -141t48.5 -159t15.5 -166zM686 1578q0 -30 -10.5 -56.5t-30 -46.5t-46.5 -31.5
t-61 -11.5t-61 11.5t-46.5 31.5t-30 46.5t-10.5 56.5t10.5 56.5t30 46.5t46.5 31.5t61 11.5t61 -11.5t46.5 -31.5t30 -46.5t10.5 -56.5zM1074 1578q0 -30 -10.5 -56.5t-30 -46.5t-46.5 -31.5t-61 -11.5t-61 11.5t-46.5 31.5t-30 46.5t-10.5 56.5t10.5 56.5t30 46.5
t46.5 31.5t61 11.5t61 -11.5t46.5 -31.5t30 -46.5t10.5 -56.5z" />
    <glyph glyph-name="multiply" unicode="&#xd7;" 
d="M1016 208q9 -9 12.5 -16.5t3.5 -15.5t-3.5 -15.5t-12.5 -16.5l-76 -76q-16 -16 -32 -16q-8 0 -15.5 3.5t-16.5 12.5l-276 276l-276 -276q-16 -16 -32 -16q-8 0 -15.5 3.5t-16.5 12.5l-76 76q-16 16 -16 32t16 32l276 276l-276 276q-9 9 -12.5 16.5t-3.5 15.5q0 16 16 32
l76 76q9 9 16.5 12.5t15.5 3.5t15.5 -3.5t16.5 -12.5l276 -276l276 276q9 9 16.5 12.5t15.5 3.5q16 0 32 -16l76 -76q9 -9 12.5 -16.5t3.5 -15.5t-3.5 -15.5t-12.5 -16.5l-276 -276z" />
    <glyph glyph-name="Oslash" unicode="&#xd8;" horiz-adv-x="1484" 
d="M108 -120q-20 0 -25 9.5t7 26.5l176 248q-47 49 -80 107.5t-54.5 122.5t-31.5 132t-10 136q0 84 16.5 167.5t50.5 159.5t86.5 141t125 112.5t165.5 74.5t208 27q94 0 172.5 -17t143.5 -49l92 130q15 20 30.5 28t39.5 8h156q20 0 25 -9.5t-7 -26.5l-176 -248
q46 -50 79.5 -108.5t55 -122.5t31.5 -132t10 -135q0 -84 -16.5 -167.5t-50.5 -159.5t-86.5 -141t-125 -112.5t-165.5 -74.5t-208 -27q-95 0 -173 17t-143 49l-92 -130q-15 -20 -30.5 -28t-39.5 -8h-156zM570 276q35 -23 78 -35.5t94 -12.5q84 0 147 34t105 92.5t63 137.5
t21 170q0 71 -13 135.5t-39 118.5zM742 1096q-84 0 -147 -34t-105 -92.5t-63 -137.5t-21 -170q0 -72 12.5 -136.5t39.5 -117.5l456 638q-36 24 -78.5 37t-93.5 13z" />
    <glyph glyph-name="Ugrave" unicode="&#xd9;" horiz-adv-x="1364" 
d="M1230 556q0 -139 -36 -246t-105.5 -180.5t-171.5 -111.5t-235 -38t-235 38t-171.5 111.5t-105.5 180.5t-36 246v724q0 44 44 44h216q44 0 44 -44v-752q0 -75 18.5 -131t51 -93t77 -55.5t97.5 -18.5q52 0 97 18.5t77.5 55.5t51 93t18.5 131v752q0 44 44 44h216
q44 0 44 -44v-724v0zM812 1542q11 -9 14.5 -17t3.5 -17q0 -13 -12 -28l-30 -40q-17 -22 -36 -22q-13 0 -30 10l-324 182q-24 15 -24 32q0 6 2.5 12t7.5 14l76 118q6 11 14.5 15.5t17.5 4.5q13 0 28 -12z" />
    <glyph glyph-name="Uacute" unicode="&#xda;" horiz-adv-x="1364" 
d="M1230 556q0 -139 -36 -246t-105.5 -180.5t-171.5 -111.5t-235 -38t-235 38t-171.5 111.5t-105.5 180.5t-36 246v724q0 44 44 44h216q44 0 44 -44v-752q0 -75 18.5 -131t51 -93t77 -55.5t97.5 -18.5q52 0 97 18.5t77.5 55.5t51 93t18.5 131v752q0 44 44 44h216
q44 0 44 -44v-724v0zM856 1794q15 12 28 12q9 0 17.5 -4.5t14.5 -15.5l76 -118q5 -8 7.5 -14t2.5 -12q0 -17 -24 -32l-324 -182q-17 -10 -30 -10q-20 0 -36 22l-30 40q-12 15 -12 28q0 9 3.5 17t14.5 17z" />
    <glyph glyph-name="Ucircumflex" unicode="&#xdb;" horiz-adv-x="1364" 
d="M1230 556q0 -139 -36 -246t-105.5 -180.5t-171.5 -111.5t-235 -38t-235 38t-171.5 111.5t-105.5 180.5t-36 246v724q0 44 44 44h216q44 0 44 -44v-752q0 -75 18.5 -131t51 -93t77 -55.5t97.5 -18.5q52 0 97 18.5t77.5 55.5t51 93t18.5 131v752q0 44 44 44h216
q44 0 44 -44v-724v0zM470 1430q-13 -8 -30 -8q-19 0 -36 20l-36 44q-12 15 -12 28q0 17 20 34l268 208q17 14 38 14t38 -14l268 -208q20 -17 20 -34q0 -13 -12 -28l-36 -44q-17 -20 -36 -20q-17 0 -30 8l-212 126z" />
    <glyph glyph-name="Udieresis" unicode="&#xdc;" horiz-adv-x="1364" 
d="M1230 556q0 -139 -36 -246t-105.5 -180.5t-171.5 -111.5t-235 -38t-235 38t-171.5 111.5t-105.5 180.5t-36 246v724q0 44 44 44h216q44 0 44 -44v-752q0 -75 18.5 -131t51 -93t77 -55.5t97.5 -18.5q52 0 97 18.5t77.5 55.5t51 93t18.5 131v752q0 44 44 44h216
q44 0 44 -44v-724v0zM636 1578q0 -30 -10.5 -56.5t-30 -46.5t-46.5 -31.5t-61 -11.5t-61 11.5t-46.5 31.5t-30 46.5t-10.5 56.5t10.5 56.5t30 46.5t46.5 31.5t61 11.5t61 -11.5t46.5 -31.5t30 -46.5t10.5 -56.5zM1024 1578q0 -30 -10.5 -56.5t-30 -46.5t-46.5 -31.5
t-61 -11.5t-61 11.5t-46.5 31.5t-30 46.5t-10.5 56.5t10.5 56.5t30 46.5t46.5 31.5t61 11.5t61 -11.5t46.5 -31.5t30 -46.5t10.5 -56.5z" />
    <glyph glyph-name="Yacute" unicode="&#xdd;" horiz-adv-x="1160" 
d="M472 0q-44 0 -44 44v410q-54 84 -111.5 183.5t-112.5 206.5t-104.5 218.5t-87.5 219.5q-8 21 0.5 31.5t29.5 10.5h230q24 0 36 -9.5t20 -32.5q45 -151 114 -306t154 -294q83 139 148 294t112 306q6 23 19 32.5t37 9.5h206q21 0 29.5 -10.5t0.5 -31.5
q-39 -108 -88.5 -219.5t-104 -218.5t-111.5 -206.5t-112 -183.5v-410q0 -44 -44 -44h-216zM754 1794q15 12 28 12q9 0 17.5 -4.5t14.5 -15.5l76 -118q5 -8 7.5 -14t2.5 -12q0 -17 -24 -32l-324 -182q-17 -10 -30 -10q-20 0 -36 22l-30 40q-12 15 -12 28q0 9 3.5 17t14.5 17z
" />
    <glyph glyph-name="Thorn" unicode="&#xde;" horiz-adv-x="1210" 
d="M406 1324q44 0 44 -44v-152h124q160 0 270 -35t178.5 -96t99 -144t30.5 -179q0 -98 -32 -182.5t-101 -146.5t-179 -97.5t-266 -35.5h-124v-168q0 -44 -44 -44h-216q-44 0 -44 44v1236q0 44 44 44h216zM836 670q0 46 -12.5 86.5t-41 70.5t-75.5 47.5t-117 17.5h-140v-444
h140q70 0 117 17.5t75.5 47.5t41 70.5t12.5 86.5z" />
    <glyph glyph-name="germandbls" unicode="&#xdf;" horiz-adv-x="1226" 
d="M418 44q0 -44 -44 -44h-196q-44 0 -44 44v920q0 136 36 230t100.5 152.5t152 84t191.5 25.5q97 0 178.5 -20.5t141 -61t93 -100t33.5 -136.5q0 -48 -13 -89t-36 -77t-54.5 -68.5t-68.5 -63.5q-26 -21 -49.5 -40t-41.5 -37t-28.5 -35.5t-10.5 -35.5q0 -20 13 -35.5
t34 -27.5t48.5 -21.5t56.5 -19.5q55 -19 107 -39.5t91.5 -52t63.5 -78t24 -116.5q0 -75 -28 -134.5t-80 -101.5t-126 -64t-166 -22q-100 0 -168.5 22.5t-113.5 57.5q-34 28 -10 64l68 96q14 21 27 23.5t33 -11.5q71 -46 154 -46q59 0 95.5 23t36.5 73q0 27 -12 46t-36 34
t-58.5 28.5t-79.5 29.5q-34 12 -72 29.5t-70 46t-53 70t-21 102.5q0 43 11.5 77t31.5 63.5t48 56t61 55.5q21 18 41 37t36 41t25.5 48t9.5 58q0 28 -9 54.5t-29.5 47t-53 32.5t-78.5 12q-98 0 -145 -63t-47 -205v-938z" />
    <glyph glyph-name="agrave" unicode="&#xe0;" horiz-adv-x="1074" 
d="M714 0q-44 0 -44 44v64q-19 -24 -44 -47t-59.5 -41t-79 -29t-101.5 -11q-83 0 -143.5 23.5t-100 64t-59 94t-19.5 114.5q0 67 23.5 123t72.5 95.5t123.5 61.5t176.5 22q59 0 109.5 -7t86.5 -21v42q0 37 -6 70.5t-25 59t-53.5 41t-91.5 15.5q-63 0 -130.5 -19.5
t-123.5 -60.5q-20 -14 -33 -11.5t-25 23.5l-62 98q-12 20 -9.5 35.5t19.5 30.5q68 54 169.5 90t238.5 36q121 0 202.5 -30t131 -82.5t70 -123t20.5 -152.5v-568q0 -44 -44 -44h-190zM484 174q50 0 94.5 21.5t77.5 72.5v118q-30 12 -67.5 16t-64.5 4q-53 0 -85.5 -10.5
t-50.5 -27t-24 -37t-6 -41.5q0 -23 6 -44t21 -37t39 -25.5t60 -9.5zM656 1202q11 -9 14.5 -17t3.5 -17q0 -13 -12 -28l-30 -40q-17 -22 -36 -22q-13 0 -30 10l-324 182q-24 15 -24 32q0 6 2.5 12t7.5 14l76 118q6 11 14.5 15.5t17.5 4.5q13 0 28 -12z" />
    <glyph glyph-name="aacute" unicode="&#xe1;" horiz-adv-x="1074" 
d="M714 0q-44 0 -44 44v64q-19 -24 -44 -47t-59.5 -41t-79 -29t-101.5 -11q-83 0 -143.5 23.5t-100 64t-59 94t-19.5 114.5q0 67 23.5 123t72.5 95.5t123.5 61.5t176.5 22q59 0 109.5 -7t86.5 -21v42q0 37 -6 70.5t-25 59t-53.5 41t-91.5 15.5q-63 0 -130.5 -19.5
t-123.5 -60.5q-20 -14 -33 -11.5t-25 23.5l-62 98q-12 20 -9.5 35.5t19.5 30.5q68 54 169.5 90t238.5 36q121 0 202.5 -30t131 -82.5t70 -123t20.5 -152.5v-568q0 -44 -44 -44h-190zM484 174q50 0 94.5 21.5t77.5 72.5v118q-30 12 -67.5 16t-64.5 4q-53 0 -85.5 -10.5
t-50.5 -27t-24 -37t-6 -41.5q0 -23 6 -44t21 -37t39 -25.5t60 -9.5zM688 1454q15 12 28 12q9 0 17.5 -4.5t14.5 -15.5l76 -118q5 -8 7.5 -14t2.5 -12q0 -17 -24 -32l-324 -182q-17 -10 -30 -10q-20 0 -36 22l-30 40q-12 15 -12 28q0 9 3.5 17t14.5 17z" />
    <glyph glyph-name="acircumflex" unicode="&#xe2;" horiz-adv-x="1074" 
d="M714 0q-44 0 -44 44v64q-19 -24 -44 -47t-59.5 -41t-79 -29t-101.5 -11q-83 0 -143.5 23.5t-100 64t-59 94t-19.5 114.5q0 67 23.5 123t72.5 95.5t123.5 61.5t176.5 22q59 0 109.5 -7t86.5 -21v42q0 37 -6 70.5t-25 59t-53.5 41t-91.5 15.5q-63 0 -130.5 -19.5
t-123.5 -60.5q-20 -14 -33 -11.5t-25 23.5l-62 98q-12 20 -9.5 35.5t19.5 30.5q68 54 169.5 90t238.5 36q121 0 202.5 -30t131 -82.5t70 -123t20.5 -152.5v-568q0 -44 -44 -44h-190zM484 174q50 0 94.5 21.5t77.5 72.5v118q-30 12 -67.5 16t-64.5 4q-53 0 -85.5 -10.5
t-50.5 -27t-24 -37t-6 -41.5q0 -23 6 -44t21 -37t39 -25.5t60 -9.5zM314 1090q-13 -8 -30 -8q-19 0 -36 20l-36 44q-12 15 -12 28q0 17 20 34l268 208q17 14 38 14t38 -14l268 -208q20 -17 20 -34q0 -13 -12 -28l-36 -44q-17 -20 -36 -20q-17 0 -30 8l-212 126z" />
    <glyph glyph-name="atilde" unicode="&#xe3;" horiz-adv-x="1074" 
d="M714 0q-44 0 -44 44v64q-19 -24 -44 -47t-59.5 -41t-79 -29t-101.5 -11q-83 0 -143.5 23.5t-100 64t-59 94t-19.5 114.5q0 67 23.5 123t72.5 95.5t123.5 61.5t176.5 22q59 0 109.5 -7t86.5 -21v42q0 37 -6 70.5t-25 59t-53.5 41t-91.5 15.5q-63 0 -130.5 -19.5
t-123.5 -60.5q-20 -14 -33 -11.5t-25 23.5l-62 98q-12 20 -9.5 35.5t19.5 30.5q68 54 169.5 90t238.5 36q121 0 202.5 -30t131 -82.5t70 -123t20.5 -152.5v-568q0 -44 -44 -44h-190zM484 174q50 0 94.5 21.5t77.5 72.5v118q-30 12 -67.5 16t-64.5 4q-53 0 -85.5 -10.5
t-50.5 -27t-24 -37t-6 -41.5q0 -23 6 -44t21 -37t39 -25.5t60 -9.5zM650 1104q-46 0 -80 12t-61.5 27t-52 27t-50.5 12q-21 0 -46 -10.5t-48 -33.5q-18 -18 -34 -18q-15 0 -32 14l-48 38q-20 17 -20 34q0 13 10 30q45 74 98 105t116 31q46 0 80 -12t61.5 -27t52 -27
t50.5 -12q21 0 46 10.5t48 33.5q18 18 34 18q15 0 32 -14l48 -38q9 -8 14.5 -16.5t5.5 -17.5q0 -13 -10 -30q-45 -74 -98 -105t-116 -31z" />
    <glyph glyph-name="adieresis" unicode="&#xe4;" horiz-adv-x="1074" 
d="M714 0q-44 0 -44 44v64q-19 -24 -44 -47t-59.5 -41t-79 -29t-101.5 -11q-83 0 -143.5 23.5t-100 64t-59 94t-19.5 114.5q0 67 23.5 123t72.5 95.5t123.5 61.5t176.5 22q59 0 109.5 -7t86.5 -21v42q0 37 -6 70.5t-25 59t-53.5 41t-91.5 15.5q-63 0 -130.5 -19.5
t-123.5 -60.5q-20 -14 -33 -11.5t-25 23.5l-62 98q-12 20 -9.5 35.5t19.5 30.5q68 54 169.5 90t238.5 36q121 0 202.5 -30t131 -82.5t70 -123t20.5 -152.5v-568q0 -44 -44 -44h-190zM484 174q50 0 94.5 21.5t77.5 72.5v118q-30 12 -67.5 16t-64.5 4q-53 0 -85.5 -10.5
t-50.5 -27t-24 -37t-6 -41.5q0 -23 6 -44t21 -37t39 -25.5t60 -9.5zM480 1238q0 -30 -10.5 -56.5t-30 -46.5t-46.5 -31.5t-61 -11.5t-61 11.5t-46.5 31.5t-30 46.5t-10.5 56.5t10.5 56.5t30 46.5t46.5 31.5t61 11.5t61 -11.5t46.5 -31.5t30 -46.5t10.5 -56.5zM868 1238
q0 -30 -10.5 -56.5t-30 -46.5t-46.5 -31.5t-61 -11.5t-61 11.5t-46.5 31.5t-30 46.5t-10.5 56.5t10.5 56.5t30 46.5t46.5 31.5t61 11.5t61 -11.5t46.5 -31.5t30 -46.5t10.5 -56.5z" />
    <glyph glyph-name="aring" unicode="&#xe5;" horiz-adv-x="1074" 
d="M714 0q-44 0 -44 44v64q-19 -24 -44 -47t-59.5 -41t-79 -29t-101.5 -11q-83 0 -143.5 23.5t-100 64t-59 94t-19.5 114.5q0 67 23.5 123t72.5 95.5t123.5 61.5t176.5 22q59 0 109.5 -7t86.5 -21v42q0 37 -6 70.5t-25 59t-53.5 41t-91.5 15.5q-63 0 -130.5 -19.5
t-123.5 -60.5q-20 -14 -33 -11.5t-25 23.5l-62 98q-12 20 -9.5 35.5t19.5 30.5q68 54 169.5 90t238.5 36q121 0 202.5 -30t131 -82.5t70 -123t20.5 -152.5v-568q0 -44 -44 -44h-190zM484 174q50 0 94.5 21.5t77.5 72.5v118q-30 12 -67.5 16t-64.5 4q-53 0 -85.5 -10.5
t-50.5 -27t-24 -37t-6 -41.5q0 -23 6 -44t21 -37t39 -25.5t60 -9.5zM784 1312q0 -56 -20.5 -103t-56 -80.5t-82.5 -52t-99 -18.5q-53 0 -99.5 18.5t-82 52t-56 80.5t-20.5 103t20.5 103t56 80.5t82 52t99.5 18.5q52 0 99 -18.5t82.5 -52t56 -80.5t20.5 -103zM408 1312
q0 -56 33.5 -89t84.5 -33t84.5 33t33.5 89t-33.5 89t-84.5 33t-84.5 -33t-33.5 -89z" />
    <glyph glyph-name="ae" unicode="&#xe6;" horiz-adv-x="1660" 
d="M1530 78q-75 -51 -169.5 -74.5t-194.5 -23.5q-131 0 -223.5 36t-154.5 98q-68 -60 -158.5 -97t-213.5 -37q-97 0 -164 23.5t-109 63.5t-60.5 93t-18.5 112q0 70 25.5 127.5t79.5 98t138 62.5t201 22h148v6q0 38 -6 72.5t-25 60.5t-53.5 41.5t-91.5 15.5
q-63 0 -130.5 -20.5t-123.5 -61.5q-20 -14 -33 -11.5t-25 23.5l-62 98q-12 20 -9.5 35.5t19.5 30.5q69 54 170 91t232 37q116 0 190 -31.5t116 -84.5q53 53 128.5 84.5t181.5 31.5q121 0 207.5 -41.5t142 -110.5t82 -159t26.5 -187v-48q0 -44 -44 -44h-600q6 -53 21.5 -92
t43.5 -65.5t69.5 -39.5t99.5 -13q63 0 125.5 16.5t116.5 49.5q21 12 34 9.5t24 -23.5l62 -112q21 -39 -14 -62zM1310 582q-5 49 -17 90t-34 71t-54 46.5t-75 16.5q-44 0 -75.5 -16.5t-53 -46.5t-34.5 -71t-19 -90h362zM358 288q0 -23 6 -43.5t21 -36t40.5 -25t64.5 -9.5
q19 0 43.5 3t51.5 12t55 26t56 45q-27 69 -36 150h-94q-68 0 -108.5 -10.5t-63 -28t-29.5 -39.5t-7 -44z" />
    <glyph glyph-name="ccedilla" unicode="&#xe7;" horiz-adv-x="952" 
d="M458 -12q-101 14 -174.5 58t-121.5 109.5t-71 148.5t-23 176q0 101 28.5 195t89 166t155 115.5t227.5 43.5q94 0 167.5 -22t132.5 -66q35 -26 14 -64l-62 -112q-20 -40 -58 -14q-38 27 -81 42.5t-93 15.5q-61 0 -103 -24t-68 -65t-37.5 -95t-11.5 -114q0 -58 11 -109
t36.5 -89.5t68 -61t104.5 -22.5q93 0 176 56q20 14 33 11.5t25 -23.5l66 -112q23 -38 -12 -64q-66 -45 -146.5 -65t-161.5 -23l-42 -64q8 3 23.5 5.5t36.5 2.5q84 0 135 -42t51 -114q0 -39 -16 -74.5t-47.5 -62.5t-79 -43t-109.5 -16q-41 0 -83.5 9.5t-78.5 32.5
q-24 15 -24 34q0 11 8 24l20 32q8 12 15.5 19t18.5 7q12 0 28 -8q20 -11 43 -15.5t49 -4.5q33 0 55.5 14.5t22.5 43.5q0 23 -17.5 40.5t-56.5 17.5q-23 0 -37 -3t-29 -3q-14 0 -23 5.5t-21 16.5l-2 2q-16 13 -16 34q0 13 8 26z" />
    <glyph glyph-name="egrave" unicode="&#xe8;" horiz-adv-x="1070" 
d="M720 592q-5 47 -17 86.5t-34 68t-54 44t-75 15.5q-44 0 -75.5 -15.5t-53 -44t-34.5 -68t-19 -86.5h362zM358 418q6 -55 21.5 -96t43.5 -68t69.5 -40.5t99.5 -13.5q63 0 126 15.5t116 50.5q21 12 34 9.5t24 -23.5l62 -112q21 -39 -14 -62q-75 -51 -169.5 -74.5
t-194.5 -23.5q-137 0 -233.5 40t-157.5 109t-89 160.5t-28 194.5q0 100 26.5 193t83.5 165t146.5 115t215.5 43q123 0 210.5 -41.5t143.5 -110.5t82 -159t26 -187v-40q0 -44 -44 -44h-600zM674 1202q11 -9 14.5 -17t3.5 -17q0 -13 -12 -28l-30 -40q-17 -22 -36 -22
q-13 0 -30 10l-324 182q-24 15 -24 32q0 6 2.5 12t7.5 14l76 118q6 11 14.5 15.5t17.5 4.5q13 0 28 -12z" />
    <glyph glyph-name="eacute" unicode="&#xe9;" horiz-adv-x="1070" 
d="M720 592q-5 47 -17 86.5t-34 68t-54 44t-75 15.5q-44 0 -75.5 -15.5t-53 -44t-34.5 -68t-19 -86.5h362zM358 418q6 -55 21.5 -96t43.5 -68t69.5 -40.5t99.5 -13.5q63 0 126 15.5t116 50.5q21 12 34 9.5t24 -23.5l62 -112q21 -39 -14 -62q-75 -51 -169.5 -74.5
t-194.5 -23.5q-137 0 -233.5 40t-157.5 109t-89 160.5t-28 194.5q0 100 26.5 193t83.5 165t146.5 115t215.5 43q123 0 210.5 -41.5t143.5 -110.5t82 -159t26 -187v-40q0 -44 -44 -44h-600zM706 1454q15 12 28 12q9 0 17.5 -4.5t14.5 -15.5l76 -118q5 -8 7.5 -14t2.5 -12
q0 -17 -24 -32l-324 -182q-17 -10 -30 -10q-20 0 -36 22l-30 40q-12 15 -12 28q0 9 3.5 17t14.5 17z" />
    <glyph glyph-name="ecircumflex" unicode="&#xea;" horiz-adv-x="1070" 
d="M720 592q-5 47 -17 86.5t-34 68t-54 44t-75 15.5q-44 0 -75.5 -15.5t-53 -44t-34.5 -68t-19 -86.5h362zM358 418q6 -55 21.5 -96t43.5 -68t69.5 -40.5t99.5 -13.5q63 0 126 15.5t116 50.5q21 12 34 9.5t24 -23.5l62 -112q21 -39 -14 -62q-75 -51 -169.5 -74.5
t-194.5 -23.5q-137 0 -233.5 40t-157.5 109t-89 160.5t-28 194.5q0 100 26.5 193t83.5 165t146.5 115t215.5 43q123 0 210.5 -41.5t143.5 -110.5t82 -159t26 -187v-40q0 -44 -44 -44h-600zM332 1090q-13 -8 -30 -8q-19 0 -36 20l-36 44q-12 15 -12 28q0 17 20 34l268 208
q17 14 38 14t38 -14l268 -208q20 -17 20 -34q0 -13 -12 -28l-36 -44q-17 -20 -36 -20q-17 0 -30 8l-212 126z" />
    <glyph glyph-name="edieresis" unicode="&#xeb;" horiz-adv-x="1070" 
d="M720 592q-5 47 -17 86.5t-34 68t-54 44t-75 15.5q-44 0 -75.5 -15.5t-53 -44t-34.5 -68t-19 -86.5h362zM358 418q6 -55 21.5 -96t43.5 -68t69.5 -40.5t99.5 -13.5q63 0 126 15.5t116 50.5q21 12 34 9.5t24 -23.5l62 -112q21 -39 -14 -62q-75 -51 -169.5 -74.5
t-194.5 -23.5q-137 0 -233.5 40t-157.5 109t-89 160.5t-28 194.5q0 100 26.5 193t83.5 165t146.5 115t215.5 43q123 0 210.5 -41.5t143.5 -110.5t82 -159t26 -187v-40q0 -44 -44 -44h-600zM498 1238q0 -30 -10.5 -56.5t-30 -46.5t-46.5 -31.5t-61 -11.5t-61 11.5t-46.5 31.5
t-30 46.5t-10.5 56.5t10.5 56.5t30 46.5t46.5 31.5t61 11.5t61 -11.5t46.5 -31.5t30 -46.5t10.5 -56.5zM886 1238q0 -30 -10.5 -56.5t-30 -46.5t-46.5 -31.5t-61 -11.5t-61 11.5t-46.5 31.5t-30 46.5t-10.5 56.5t10.5 56.5t30 46.5t46.5 31.5t61 11.5t61 -11.5t46.5 -31.5
t30 -46.5t10.5 -56.5z" />
    <glyph glyph-name="igrave" unicode="&#xec;" horiz-adv-x="560" 
d="M178 0q-44 0 -44 44v892q0 44 44 44h204q44 0 44 -44v-892q0 -44 -44 -44h-204zM411 1202q11 -9 14.5 -17t3.5 -17q0 -13 -12 -28l-30 -40q-17 -22 -36 -22q-13 0 -30 10l-324 182q-24 15 -24 32q0 6 2.5 12t7.5 14l76 118q6 11 14.5 15.5t17.5 4.5q13 0 28 -12z" />
    <glyph glyph-name="iacute" unicode="&#xed;" horiz-adv-x="560" 
d="M178 0q-44 0 -44 44v892q0 44 44 44h204q44 0 44 -44v-892q0 -44 -44 -44h-204zM442 1454q15 12 28 12q9 0 17.5 -4.5t14.5 -15.5l76 -118q5 -8 7.5 -14t2.5 -12q0 -17 -24 -32l-324 -182q-17 -10 -30 -10q-20 0 -36 22l-30 40q-12 15 -12 28q0 9 3.5 17t14.5 17z" />
    <glyph glyph-name="icircumflex" unicode="&#xee;" horiz-adv-x="560" 
d="M178 0q-44 0 -44 44v892q0 44 44 44h204q44 0 44 -44v-892q0 -44 -44 -44h-204zM69 1090q-13 -8 -30 -8q-19 0 -36 20l-36 44q-12 15 -12 28q0 17 20 34l268 208q17 14 38 14t38 -14l268 -208q20 -17 20 -34q0 -13 -12 -28l-36 -44q-17 -20 -36 -20q-17 0 -30 8l-212 126
z" />
    <glyph glyph-name="idieresis" unicode="&#xef;" horiz-adv-x="560" 
d="M178 0q-44 0 -44 44v892q0 44 44 44h204q44 0 44 -44v-892q0 -44 -44 -44h-204zM235 1238q0 -30 -10.5 -56.5t-30 -46.5t-46.5 -31.5t-61 -11.5t-61 11.5t-46.5 31.5t-30 46.5t-10.5 56.5t10.5 56.5t30 46.5t46.5 31.5t61 11.5t61 -11.5t46.5 -31.5t30 -46.5t10.5 -56.5z
M623 1238q0 -30 -10.5 -56.5t-30 -46.5t-46.5 -31.5t-61 -11.5t-61 11.5t-46.5 31.5t-30 46.5t-10.5 56.5t10.5 56.5t30 46.5t46.5 31.5t61 11.5t61 -11.5t46.5 -31.5t30 -46.5t10.5 -56.5z" />
    <glyph glyph-name="eth" unicode="&#xf0;" horiz-adv-x="1160" 
d="M370 466q0 -53 13 -104t39 -90.5t65.5 -63.5t92.5 -24t92.5 23.5t65.5 62.5t39 90t13 106q0 53 -13 104t-39 90.5t-65.5 63.5t-92.5 24t-92.5 -24t-65.5 -63.5t-39 -90.5t-13 -104zM742 1242q75 -61 139 -137t111 -166t73.5 -193t26.5 -218q0 -116 -29 -216.5t-91 -174
t-159.5 -115.5t-234.5 -42q-135 0 -231.5 40t-158.5 107t-91 154t-29 181t28.5 182.5t85.5 157t142 109.5t198 41q86 0 147.5 -25t108.5 -75q-44 78 -95.5 144.5t-120.5 125.5l-178 -116q-13 -8 -26 -8q-20 0 -34 20l-50 78q-5 8 -7.5 14t-2.5 12q0 11 5.5 18.5t16.5 15.5
l106 70q-35 18 -70.5 32t-73.5 26q-17 6 -25.5 13t-8.5 21q0 8 6 26l20 70q5 18 15.5 26t24.5 8q6 0 13.5 -0.5t24.5 -5.5q60 -15 126 -38t132 -58l166 108q13 8 26 8q20 0 34 -20l50 -78q5 -8 7.5 -14t2.5 -12q0 -11 -5.5 -18.5t-16.5 -15.5z" />
    <glyph glyph-name="ntilde" unicode="&#xf1;" horiz-adv-x="1170" 
d="M178 0q-44 0 -44 44v892q0 44 44 44h190q44 0 44 -44v-68q20 25 48 48.5t64.5 42t81.5 30t100 11.5q90 0 153.5 -30.5t103.5 -82.5t58.5 -121.5t18.5 -147.5v-574q0 -44 -44 -44h-204q-44 0 -44 44v544q0 31 -6 64t-22.5 60t-44.5 44.5t-71 17.5q-22 0 -45.5 -5
t-47 -15.5t-45.5 -28.5t-40 -43v-638q0 -44 -44 -44h-204zM710 1104q-46 0 -80 12t-61.5 27t-52 27t-50.5 12q-21 0 -46 -10.5t-48 -33.5q-18 -18 -34 -18q-15 0 -32 14l-48 38q-20 17 -20 34q0 13 10 30q45 74 98 105t116 31q46 0 80 -12t61.5 -27t52 -27t50.5 -12
q21 0 46 10.5t48 33.5q18 18 34 18q15 0 32 -14l48 -38q9 -8 14.5 -16.5t5.5 -17.5q0 -13 -10 -30q-45 -74 -98 -105t-116 -31z" />
    <glyph glyph-name="ograve" unicode="&#xf2;" horiz-adv-x="1156" 
d="M368 490q0 -61 13 -114.5t39 -94t65.5 -64t92.5 -23.5t92.5 23.5t65.5 64t39 94t13 114.5t-13 114.5t-39 94t-65.5 64t-92.5 23.5t-92.5 -23.5t-65.5 -64t-39 -94t-13 -114.5zM1088 490q0 -98 -29 -189.5t-90.5 -163t-158 -114.5t-232.5 -43q-135 0 -231.5 41.5
t-158.5 112t-91 163t-29 193.5q0 65 12.5 128t39 119.5t67.5 105t98 83.5t129.5 54.5t163.5 19.5q135 0 231.5 -41.5t158.5 -112t91 -163t29 -193.5zM708 1202q11 -9 14.5 -17t3.5 -17q0 -13 -12 -28l-30 -40q-17 -22 -36 -22q-13 0 -30 10l-324 182q-24 15 -24 32
q0 6 2.5 12t7.5 14l76 118q6 11 14.5 15.5t17.5 4.5q13 0 28 -12z" />
    <glyph glyph-name="oacute" unicode="&#xf3;" horiz-adv-x="1156" 
d="M368 490q0 -61 13 -114.5t39 -94t65.5 -64t92.5 -23.5t92.5 23.5t65.5 64t39 94t13 114.5t-13 114.5t-39 94t-65.5 64t-92.5 23.5t-92.5 -23.5t-65.5 -64t-39 -94t-13 -114.5zM1088 490q0 -98 -29 -189.5t-90.5 -163t-158 -114.5t-232.5 -43q-135 0 -231.5 41.5
t-158.5 112t-91 163t-29 193.5q0 65 12.5 128t39 119.5t67.5 105t98 83.5t129.5 54.5t163.5 19.5q135 0 231.5 -41.5t158.5 -112t91 -163t29 -193.5zM740 1454q15 12 28 12q9 0 17.5 -4.5t14.5 -15.5l76 -118q5 -8 7.5 -14t2.5 -12q0 -17 -24 -32l-324 -182q-17 -10 -30 -10
q-20 0 -36 22l-30 40q-12 15 -12 28q0 9 3.5 17t14.5 17z" />
    <glyph glyph-name="ocircumflex" unicode="&#xf4;" horiz-adv-x="1156" 
d="M368 490q0 -61 13 -114.5t39 -94t65.5 -64t92.5 -23.5t92.5 23.5t65.5 64t39 94t13 114.5t-13 114.5t-39 94t-65.5 64t-92.5 23.5t-92.5 -23.5t-65.5 -64t-39 -94t-13 -114.5zM1088 490q0 -98 -29 -189.5t-90.5 -163t-158 -114.5t-232.5 -43q-135 0 -231.5 41.5
t-158.5 112t-91 163t-29 193.5q0 65 12.5 128t39 119.5t67.5 105t98 83.5t129.5 54.5t163.5 19.5q135 0 231.5 -41.5t158.5 -112t91 -163t29 -193.5zM366 1090q-13 -8 -30 -8q-19 0 -36 20l-36 44q-12 15 -12 28q0 17 20 34l268 208q17 14 38 14t38 -14l268 -208
q20 -17 20 -34q0 -13 -12 -28l-36 -44q-17 -20 -36 -20q-17 0 -30 8l-212 126z" />
    <glyph glyph-name="otilde" unicode="&#xf5;" horiz-adv-x="1156" 
d="M368 490q0 -61 13 -114.5t39 -94t65.5 -64t92.5 -23.5t92.5 23.5t65.5 64t39 94t13 114.5t-13 114.5t-39 94t-65.5 64t-92.5 23.5t-92.5 -23.5t-65.5 -64t-39 -94t-13 -114.5zM1088 490q0 -98 -29 -189.5t-90.5 -163t-158 -114.5t-232.5 -43q-135 0 -231.5 41.5
t-158.5 112t-91 163t-29 193.5q0 65 12.5 128t39 119.5t67.5 105t98 83.5t129.5 54.5t163.5 19.5q135 0 231.5 -41.5t158.5 -112t91 -163t29 -193.5zM702 1104q-46 0 -80 12t-61.5 27t-52 27t-50.5 12q-21 0 -46 -10.5t-48 -33.5q-18 -18 -34 -18q-15 0 -32 14l-48 38
q-20 17 -20 34q0 13 10 30q45 74 98 105t116 31q46 0 80 -12t61.5 -27t52 -27t50.5 -12q21 0 46 10.5t48 33.5q18 18 34 18q15 0 32 -14l48 -38q9 -8 14.5 -16.5t5.5 -17.5q0 -13 -10 -30q-45 -74 -98 -105t-116 -31z" />
    <glyph glyph-name="odieresis" unicode="&#xf6;" horiz-adv-x="1156" 
d="M368 490q0 -61 13 -114.5t39 -94t65.5 -64t92.5 -23.5t92.5 23.5t65.5 64t39 94t13 114.5t-13 114.5t-39 94t-65.5 64t-92.5 23.5t-92.5 -23.5t-65.5 -64t-39 -94t-13 -114.5zM1088 490q0 -98 -29 -189.5t-90.5 -163t-158 -114.5t-232.5 -43q-135 0 -231.5 41.5
t-158.5 112t-91 163t-29 193.5q0 65 12.5 128t39 119.5t67.5 105t98 83.5t129.5 54.5t163.5 19.5q135 0 231.5 -41.5t158.5 -112t91 -163t29 -193.5zM532 1238q0 -30 -10.5 -56.5t-30 -46.5t-46.5 -31.5t-61 -11.5t-61 11.5t-46.5 31.5t-30 46.5t-10.5 56.5t10.5 56.5
t30 46.5t46.5 31.5t61 11.5t61 -11.5t46.5 -31.5t30 -46.5t10.5 -56.5zM920 1238q0 -30 -10.5 -56.5t-30 -46.5t-46.5 -31.5t-61 -11.5t-61 11.5t-46.5 31.5t-30 46.5t-10.5 56.5t10.5 56.5t30 46.5t46.5 31.5t61 11.5t61 -11.5t46.5 -31.5t30 -46.5t10.5 -56.5z" />
    <glyph glyph-name="divide" unicode="&#xf7;" 
d="M160 392q-44 0 -44 44v108q0 44 44 44h880q44 0 44 -44v-108q0 -44 -44 -44h-880zM748 126q0 -30 -10.5 -56.5t-30 -46.5t-46.5 -31.5t-61 -11.5t-61 11.5t-46.5 31.5t-30 46.5t-10.5 56.5t10.5 56.5t30 46.5t46.5 31.5t61 11.5t61 -11.5t46.5 -31.5t30 -46.5t10.5 -56.5
zM748 854q0 -30 -10.5 -56.5t-30 -46.5t-46.5 -31.5t-61 -11.5t-61 11.5t-46.5 31.5t-30 46.5t-10.5 56.5t10.5 56.5t30 46.5t46.5 31.5t61 11.5t61 -11.5t46.5 -31.5t30 -46.5t10.5 -56.5z" />
    <glyph glyph-name="oslash" unicode="&#xf8;" horiz-adv-x="1172" 
d="M1096 490q0 -98 -29 -189.5t-90.5 -163t-158 -114.5t-232.5 -43q-66 0 -122 10t-104 28l-56 -82q-15 -20 -30.5 -28t-39.5 -8h-120q-20 0 -25 9.5t7 26.5l122 174q-74 72 -108 171t-34 209q0 65 12.5 128t39 119.5t67.5 105t98 83.5t129.5 54.5t163.5 19.5q129 0 224 -40
l58 84q15 20 30.5 28t39.5 8h120q20 0 25 -9.5t-7 -26.5l-122 -176q74 -71 108 -169.5t34 -208.5zM478 216q45 -30 108 -30q55 0 96 24t68 65.5t40.5 97t13.5 117.5q0 42 -6 81.5t-20 74.5zM586 794q-56 0 -97 -24t-68 -65.5t-40 -97t-13 -117.5q0 -89 24 -158l300 430
q-23 15 -48.5 23.5t-57.5 8.5z" />
    <glyph glyph-name="ugrave" unicode="&#xf9;" horiz-adv-x="1152" 
d="M740 112q-19 -25 -46 -48.5t-62.5 -42t-80 -30t-97.5 -11.5q-88 0 -149.5 30.5t-100.5 82.5t-56.5 121.5t-17.5 147.5v574q0 44 44 44h204q44 0 44 -44v-544q0 -32 5.5 -65t20.5 -60t41.5 -44t68.5 -17q41 0 87 20.5t81 71.5v638q0 44 44 44h204q44 0 44 -44v-892
q0 -44 -44 -44h-190q-44 0 -44 44v68v0zM704 1202q11 -9 14.5 -17t3.5 -17q0 -13 -12 -28l-30 -40q-17 -22 -36 -22q-13 0 -30 10l-324 182q-24 15 -24 32q0 6 2.5 12t7.5 14l76 118q6 11 14.5 15.5t17.5 4.5q13 0 28 -12z" />
    <glyph glyph-name="uacute" unicode="&#xfa;" horiz-adv-x="1152" 
d="M740 112q-19 -25 -46 -48.5t-62.5 -42t-80 -30t-97.5 -11.5q-88 0 -149.5 30.5t-100.5 82.5t-56.5 121.5t-17.5 147.5v574q0 44 44 44h204q44 0 44 -44v-544q0 -32 5.5 -65t20.5 -60t41.5 -44t68.5 -17q41 0 87 20.5t81 71.5v638q0 44 44 44h204q44 0 44 -44v-892
q0 -44 -44 -44h-190q-44 0 -44 44v68v0zM736 1454q15 12 28 12q9 0 17.5 -4.5t14.5 -15.5l76 -118q5 -8 7.5 -14t2.5 -12q0 -17 -24 -32l-324 -182q-17 -10 -30 -10q-20 0 -36 22l-30 40q-12 15 -12 28q0 9 3.5 17t14.5 17z" />
    <glyph glyph-name="ucircumflex" unicode="&#xfb;" horiz-adv-x="1152" 
d="M740 112q-19 -25 -46 -48.5t-62.5 -42t-80 -30t-97.5 -11.5q-88 0 -149.5 30.5t-100.5 82.5t-56.5 121.5t-17.5 147.5v574q0 44 44 44h204q44 0 44 -44v-544q0 -32 5.5 -65t20.5 -60t41.5 -44t68.5 -17q41 0 87 20.5t81 71.5v638q0 44 44 44h204q44 0 44 -44v-892
q0 -44 -44 -44h-190q-44 0 -44 44v68v0zM362 1090q-13 -8 -30 -8q-19 0 -36 20l-36 44q-12 15 -12 28q0 17 20 34l268 208q17 14 38 14t38 -14l268 -208q20 -17 20 -34q0 -13 -12 -28l-36 -44q-17 -20 -36 -20q-17 0 -30 8l-212 126z" />
    <glyph glyph-name="udieresis" unicode="&#xfc;" horiz-adv-x="1152" 
d="M740 112q-19 -25 -46 -48.5t-62.5 -42t-80 -30t-97.5 -11.5q-88 0 -149.5 30.5t-100.5 82.5t-56.5 121.5t-17.5 147.5v574q0 44 44 44h204q44 0 44 -44v-544q0 -32 5.5 -65t20.5 -60t41.5 -44t68.5 -17q41 0 87 20.5t81 71.5v638q0 44 44 44h204q44 0 44 -44v-892
q0 -44 -44 -44h-190q-44 0 -44 44v68v0zM528 1238q0 -30 -10.5 -56.5t-30 -46.5t-46.5 -31.5t-61 -11.5t-61 11.5t-46.5 31.5t-30 46.5t-10.5 56.5t10.5 56.5t30 46.5t46.5 31.5t61 11.5t61 -11.5t46.5 -31.5t30 -46.5t10.5 -56.5zM916 1238q0 -30 -10.5 -56.5t-30 -46.5
t-46.5 -31.5t-61 -11.5t-61 11.5t-46.5 31.5t-30 46.5t-10.5 56.5t10.5 56.5t30 46.5t46.5 31.5t61 11.5t61 -11.5t46.5 -31.5t30 -46.5t10.5 -56.5z" />
    <glyph glyph-name="yacute" unicode="&#xfd;" horiz-adv-x="1042" 
d="M380 4q-35 63 -70.5 136.5t-69 152.5t-63.5 161t-56 161.5t-47 154.5t-34 140q-2 8 -4 19t-2 19q0 32 40 32h216q24 0 35.5 -10t16.5 -34q14 -83 36 -170t49 -172.5t56.5 -166.5t58.5 -153q30 72 59 153.5t55 167t48 172t38 169.5q5 24 16.5 34t35.5 10h174q40 0 40 -32
q0 -8 -2 -19t-4 -19q-14 -69 -36.5 -149t-50 -164t-59 -168.5t-64.5 -162.5q-92 -214 -199.5 -381t-232.5 -273q-17 -14 -34 -14q-8 0 -16 3t-16 11l-108 98q-8 8 -12 14t-4 14q0 16 16 32q60 59 106.5 113.5t87.5 120.5zM704 1454q15 12 28 12q9 0 17.5 -4.5t14.5 -15.5
l76 -118q5 -8 7.5 -14t2.5 -12q0 -17 -24 -32l-324 -182q-17 -10 -30 -10q-20 0 -36 22l-30 40q-12 15 -12 28q0 9 3.5 17t14.5 17z" />
    <glyph glyph-name="thorn" unicode="&#xfe;" horiz-adv-x="1198" 
d="M178 -400q-44 0 -44 44v1748q0 44 44 44h204q44 0 44 -44v-522q18 24 44 47.5t61.5 41.5t80 29.5t100.5 11.5q96 0 173.5 -33.5t131.5 -98t83.5 -159.5t29.5 -217q0 -120 -29.5 -215t-83.5 -161t-131.5 -101t-173.5 -35q-55 0 -99.5 11t-79.5 29t-61.5 41.5t-45.5 48.5
v-466q0 -44 -44 -44h-204zM426 310q20 -31 44 -51.5t49 -32.5t50.5 -17t48.5 -5q48 0 87 17.5t67 53t43 89t15 126.5q0 145 -58 215.5t-154 70.5q-23 0 -48.5 -5t-50.5 -17t-49 -32.5t-44 -51.5v-360z" />
    <glyph glyph-name="ydieresis" unicode="&#xff;" horiz-adv-x="1042" 
d="M380 4q-35 63 -70.5 136.5t-69 152.5t-63.5 161t-56 161.5t-47 154.5t-34 140q-2 8 -4 19t-2 19q0 32 40 32h216q24 0 35.5 -10t16.5 -34q14 -83 36 -170t49 -172.5t56.5 -166.5t58.5 -153q30 72 59 153.5t55 167t48 172t38 169.5q5 24 16.5 34t35.5 10h174q40 0 40 -32
q0 -8 -2 -19t-4 -19q-14 -69 -36.5 -149t-50 -164t-59 -168.5t-64.5 -162.5q-92 -214 -199.5 -381t-232.5 -273q-17 -14 -34 -14q-8 0 -16 3t-16 11l-108 98q-8 8 -12 14t-4 14q0 16 16 32q60 59 106.5 113.5t87.5 120.5zM496 1238q0 -30 -10.5 -56.5t-30 -46.5t-46.5 -31.5
t-61 -11.5t-61 11.5t-46.5 31.5t-30 46.5t-10.5 56.5t10.5 56.5t30 46.5t46.5 31.5t61 11.5t61 -11.5t46.5 -31.5t30 -46.5t10.5 -56.5zM884 1238q0 -30 -10.5 -56.5t-30 -46.5t-46.5 -31.5t-61 -11.5t-61 11.5t-46.5 31.5t-30 46.5t-10.5 56.5t10.5 56.5t30 46.5t46.5 31.5
t61 11.5t61 -11.5t46.5 -31.5t30 -46.5t10.5 -56.5z" />
    <glyph glyph-name="Amacron" unicode="&#x100;" horiz-adv-x="1310" 
d="M826 1284q118 -264 232 -574.5t212 -653.5q3 -11 4.5 -17.5t1.5 -12.5q0 -26 -34 -26h-228q-24 0 -37 9.5t-19 32.5q-17 59 -32 115.5t-32 112.5h-512q-17 -56 -32 -112.5t-30 -115.5q-6 -23 -19 -32.5t-37 -9.5h-196q-34 0 -34 26q0 6 1.5 12.5t4.5 17.5
q98 343 209.5 654t232.5 574q9 23 23.5 31.5t38.5 8.5h220q24 0 38.5 -9.5t23.5 -30.5zM818 506q-87 270 -180 504q-93 -234 -180 -504h360zM884 1668q44 0 44 -44v-100q0 -44 -44 -44h-460q-44 0 -44 44v100q0 44 44 44h460z" />
    <glyph glyph-name="amacron" unicode="&#x101;" horiz-adv-x="1074" 
d="M714 0q-44 0 -44 44v64q-19 -24 -44 -47t-59.5 -41t-79 -29t-101.5 -11q-83 0 -143.5 23.5t-100 64t-59 94t-19.5 114.5q0 67 23.5 123t72.5 95.5t123.5 61.5t176.5 22q59 0 109.5 -7t86.5 -21v42q0 37 -6 70.5t-25 59t-53.5 41t-91.5 15.5q-63 0 -130.5 -19.5
t-123.5 -60.5q-20 -14 -33 -11.5t-25 23.5l-62 98q-12 20 -9.5 35.5t19.5 30.5q68 54 169.5 90t238.5 36q121 0 202.5 -30t131 -82.5t70 -123t20.5 -152.5v-568q0 -44 -44 -44h-190zM484 174q50 0 94.5 21.5t77.5 72.5v118q-30 12 -67.5 16t-64.5 4q-53 0 -85.5 -10.5
t-50.5 -27t-24 -37t-6 -41.5q0 -23 6 -44t21 -37t39 -25.5t60 -9.5zM756 1328q44 0 44 -44v-100q0 -44 -44 -44h-460q-44 0 -44 44v100q0 44 44 44h460z" />
    <glyph glyph-name="Abreve" unicode="&#x102;" horiz-adv-x="1310" 
d="M826 1284q118 -264 232 -574.5t212 -653.5q3 -11 4.5 -17.5t1.5 -12.5q0 -26 -34 -26h-228q-24 0 -37 9.5t-19 32.5q-17 59 -32 115.5t-32 112.5h-512q-17 -56 -32 -112.5t-30 -115.5q-6 -23 -19 -32.5t-37 -9.5h-196q-34 0 -34 26q0 6 1.5 12.5t4.5 17.5
q98 343 209.5 654t232.5 574q9 23 23.5 31.5t38.5 8.5h220q24 0 38.5 -9.5t23.5 -30.5zM818 506q-87 270 -180 504q-93 -234 -180 -504h360zM654 1438q-55 0 -103 15t-88.5 42.5t-72 65.5t-52.5 85q-6 12 -6 22q0 24 28 36l62 32q16 8 30 8q15 0 23.5 -7.5t16.5 -18.5
q29 -39 67 -63.5t95 -24.5t95 24.5t67 63.5q8 11 16.5 18.5t23.5 7.5q14 0 30 -8l62 -32q28 -12 28 -36q0 -10 -6 -22q-21 -47 -52.5 -85t-72 -65.5t-88.5 -42.5t-103 -15z" />
    <glyph glyph-name="abreve" unicode="&#x103;" horiz-adv-x="1074" 
d="M714 0q-44 0 -44 44v64q-19 -24 -44 -47t-59.5 -41t-79 -29t-101.5 -11q-83 0 -143.5 23.5t-100 64t-59 94t-19.5 114.5q0 67 23.5 123t72.5 95.5t123.5 61.5t176.5 22q59 0 109.5 -7t86.5 -21v42q0 37 -6 70.5t-25 59t-53.5 41t-91.5 15.5q-63 0 -130.5 -19.5
t-123.5 -60.5q-20 -14 -33 -11.5t-25 23.5l-62 98q-12 20 -9.5 35.5t19.5 30.5q68 54 169.5 90t238.5 36q121 0 202.5 -30t131 -82.5t70 -123t20.5 -152.5v-568q0 -44 -44 -44h-190zM484 174q50 0 94.5 21.5t77.5 72.5v118q-30 12 -67.5 16t-64.5 4q-53 0 -85.5 -10.5
t-50.5 -27t-24 -37t-6 -41.5q0 -23 6 -44t21 -37t39 -25.5t60 -9.5zM526 1098q-55 0 -103 15t-88.5 42.5t-72 65.5t-52.5 85q-6 12 -6 22q0 24 28 36l62 32q16 8 30 8q15 0 23.5 -7.5t16.5 -18.5q29 -39 67 -63.5t95 -24.5t95 24.5t67 63.5q8 11 16.5 18.5t23.5 7.5
q14 0 30 -8l62 -32q28 -12 28 -36q0 -10 -6 -22q-21 -47 -52.5 -85t-72 -65.5t-88.5 -42.5t-103 -15z" />
    <glyph glyph-name="Aogonek" unicode="&#x104;" horiz-adv-x="1310" 
d="M814 -244q0 31 11.5 63.5t32 64.5t49 61.5t63.5 54.5q-20 69 -38 136.5t-38 133.5h-512q-17 -56 -32 -112.5t-30 -115.5q-6 -23 -19 -32.5t-37 -9.5h-196q-44 0 -32 42q97 349 210.5 662.5t235.5 579.5q9 23 23.5 31.5t38.5 8.5h220q24 0 38.5 -8.5t23.5 -31.5
q122 -266 236 -579.5t212 -662.5q12 -42 -32 -42h-150q-23 -34 -39.5 -60t-27 -47.5t-15 -40t-4.5 -36.5q0 -36 21 -62t69 -26q14 0 33 3.5t39 12.5q26 11 38 7t26 -27l20 -32q25 -37 -12 -62q-39 -27 -89 -42.5t-107 -15.5q-56 0 -99 14.5t-72 39.5t-44 58.5t-15 71.5z
M818 506q-87 270 -180 504q-93 -234 -180 -504h360z" />
    <glyph glyph-name="aogonek" unicode="&#x105;" horiz-adv-x="1074" 
d="M514 -244q0 31 11.5 63.5t32 64.5t49 61.5t63.5 54.5v108q-19 -24 -44 -47t-59.5 -41t-79 -29t-101.5 -11q-83 0 -143.5 23.5t-100 64t-59 94t-19.5 114.5q0 67 23.5 123t72.5 95.5t123.5 61.5t176.5 22q59 0 109.5 -7t86.5 -21v42q0 37 -6 70.5t-25 59t-53.5 41
t-91.5 15.5q-63 0 -130.5 -19.5t-123.5 -60.5q-20 -14 -33 -11.5t-25 23.5l-62 98q-12 20 -9.5 35.5t19.5 30.5q68 54 169.5 90t238.5 36q121 0 202.5 -30t131 -82.5t70 -123t20.5 -152.5v-568q0 -44 -44 -44h-112q-47 -63 -66.5 -105.5t-19.5 -78.5t21 -62t69 -26
q14 0 33 3.5t39 12.5q26 11 38 7t26 -27l20 -32q25 -37 -12 -62q-39 -27 -89 -42.5t-107 -15.5q-56 0 -99 14.5t-72 39.5t-44 58.5t-15 71.5zM484 174q50 0 94.5 21.5t77.5 72.5v118q-30 12 -67.5 16t-64.5 4q-53 0 -85.5 -10.5t-50.5 -27t-24 -37t-6 -41.5q0 -23 6 -44
t21 -37t39 -25.5t60 -9.5z" />
    <glyph glyph-name="Cacute" unicode="&#x106;" horiz-adv-x="1258" 
d="M1176 134q-92 -81 -207.5 -117.5t-248.5 -36.5q-170 0 -291 53t-198.5 144t-114 212t-36.5 257q0 85 14.5 170t47 163t84 144.5t125 115.5t170 77t219.5 28q132 0 231 -35.5t179 -108.5q32 -32 6 -66l-106 -136q-27 -35 -58 -4q-54 50 -119.5 75t-136.5 25
q-84 0 -147.5 -34.5t-106.5 -95t-64.5 -143t-21.5 -177.5q0 -94 21 -170.5t62.5 -130.5t103.5 -83.5t145 -29.5q75 0 149 25.5t133 78.5q18 17 32.5 15.5t29.5 -19.5l110 -134q27 -32 -6 -62zM862 1794q15 12 28 12q9 0 17.5 -4.5t14.5 -15.5l76 -118q5 -8 7.5 -14t2.5 -12
q0 -17 -24 -32l-324 -182q-17 -10 -30 -10q-20 0 -36 22l-30 40q-12 15 -12 28q0 9 3.5 17t14.5 17z" />
    <glyph glyph-name="cacute" unicode="&#x107;" horiz-adv-x="952" 
d="M876 68q-69 -48 -153.5 -68t-170.5 -20q-126 0 -217.5 39.5t-150.5 107.5t-87.5 159t-28.5 194q0 101 28.5 195t89 166t155 115.5t227.5 43.5q94 0 167.5 -22t132.5 -66q35 -26 14 -64l-62 -112q-20 -40 -58 -14q-38 27 -81 42.5t-93 15.5q-61 0 -103 -24t-68 -65
t-37.5 -95t-11.5 -114q0 -58 11 -109t36.5 -89.5t68 -61t104.5 -22.5q93 0 176 56q20 14 33 11.5t25 -23.5l66 -112q23 -38 -12 -64zM690 1454q15 12 28 12q9 0 17.5 -4.5t14.5 -15.5l76 -118q5 -8 7.5 -14t2.5 -12q0 -17 -24 -32l-324 -182q-17 -10 -30 -10q-20 0 -36 22
l-30 40q-12 15 -12 28q0 9 3.5 17t14.5 17z" />
    <glyph glyph-name="Ccircumflex" unicode="&#x108;" horiz-adv-x="1258" 
d="M1176 134q-92 -81 -207.5 -117.5t-248.5 -36.5q-170 0 -291 53t-198.5 144t-114 212t-36.5 257q0 85 14.5 170t47 163t84 144.5t125 115.5t170 77t219.5 28q132 0 231 -35.5t179 -108.5q32 -32 6 -66l-106 -136q-27 -35 -58 -4q-54 50 -119.5 75t-136.5 25
q-84 0 -147.5 -34.5t-106.5 -95t-64.5 -143t-21.5 -177.5q0 -94 21 -170.5t62.5 -130.5t103.5 -83.5t145 -29.5q75 0 149 25.5t133 78.5q18 17 32.5 15.5t29.5 -19.5l110 -134q27 -32 -6 -62zM476 1430q-13 -8 -30 -8q-19 0 -36 20l-36 44q-12 15 -12 28q0 17 20 34l268 208
q17 14 38 14t38 -14l268 -208q20 -17 20 -34q0 -13 -12 -28l-36 -44q-17 -20 -36 -20q-17 0 -30 8l-212 126z" />
    <glyph glyph-name="ccircumflex" unicode="&#x109;" horiz-adv-x="952" 
d="M876 68q-69 -48 -153.5 -68t-170.5 -20q-126 0 -217.5 39.5t-150.5 107.5t-87.5 159t-28.5 194q0 101 28.5 195t89 166t155 115.5t227.5 43.5q94 0 167.5 -22t132.5 -66q35 -26 14 -64l-62 -112q-20 -40 -58 -14q-38 27 -81 42.5t-93 15.5q-61 0 -103 -24t-68 -65
t-37.5 -95t-11.5 -114q0 -58 11 -109t36.5 -89.5t68 -61t104.5 -22.5q93 0 176 56q20 14 33 11.5t25 -23.5l66 -112q23 -38 -12 -64zM316 1090q-13 -8 -30 -8q-19 0 -36 20l-36 44q-12 15 -12 28q0 17 20 34l268 208q17 14 38 14t38 -14l268 -208q20 -17 20 -34
q0 -13 -12 -28l-36 -44q-17 -20 -36 -20q-17 0 -30 8l-212 126z" />
    <glyph glyph-name="Cdotaccent" unicode="&#x10a;" horiz-adv-x="1258" 
d="M1176 134q-92 -81 -207.5 -117.5t-248.5 -36.5q-170 0 -291 53t-198.5 144t-114 212t-36.5 257q0 85 14.5 170t47 163t84 144.5t125 115.5t170 77t219.5 28q132 0 231 -35.5t179 -108.5q32 -32 6 -66l-106 -136q-27 -35 -58 -4q-54 50 -119.5 75t-136.5 25
q-84 0 -147.5 -34.5t-106.5 -95t-64.5 -143t-21.5 -177.5q0 -94 21 -170.5t62.5 -130.5t103.5 -83.5t145 -29.5q75 0 149 25.5t133 78.5q18 17 32.5 15.5t29.5 -19.5l110 -134q27 -32 -6 -62zM836 1578q0 -30 -10.5 -56.5t-30 -46.5t-46.5 -31.5t-61 -11.5t-61 11.5
t-46.5 31.5t-30 46.5t-10.5 56.5t10.5 56.5t30 46.5t46.5 31.5t61 11.5t61 -11.5t46.5 -31.5t30 -46.5t10.5 -56.5z" />
    <glyph glyph-name="cdotaccent" unicode="&#x10b;" horiz-adv-x="952" 
d="M876 68q-69 -48 -153.5 -68t-170.5 -20q-126 0 -217.5 39.5t-150.5 107.5t-87.5 159t-28.5 194q0 101 28.5 195t89 166t155 115.5t227.5 43.5q94 0 167.5 -22t132.5 -66q35 -26 14 -64l-62 -112q-20 -40 -58 -14q-38 27 -81 42.5t-93 15.5q-61 0 -103 -24t-68 -65
t-37.5 -95t-11.5 -114q0 -58 11 -109t36.5 -89.5t68 -61t104.5 -22.5q93 0 176 56q20 14 33 11.5t25 -23.5l66 -112q23 -38 -12 -64zM676 1238q0 -30 -10.5 -56.5t-30 -46.5t-46.5 -31.5t-61 -11.5t-61 11.5t-46.5 31.5t-30 46.5t-10.5 56.5t10.5 56.5t30 46.5t46.5 31.5
t61 11.5t61 -11.5t46.5 -31.5t30 -46.5t10.5 -56.5z" />
    <glyph glyph-name="Ccaron" unicode="&#x10c;" horiz-adv-x="1258" 
d="M1176 134q-92 -81 -207.5 -117.5t-248.5 -36.5q-170 0 -291 53t-198.5 144t-114 212t-36.5 257q0 85 14.5 170t47 163t84 144.5t125 115.5t170 77t219.5 28q132 0 231 -35.5t179 -108.5q32 -32 6 -66l-106 -136q-27 -35 -58 -4q-54 50 -119.5 75t-136.5 25
q-84 0 -147.5 -34.5t-106.5 -95t-64.5 -143t-21.5 -177.5q0 -94 21 -170.5t62.5 -130.5t103.5 -83.5t145 -29.5q75 0 149 25.5t133 78.5q18 17 32.5 15.5t29.5 -19.5l110 -134q27 -32 -6 -62zM900 1762q13 8 30 8q19 0 36 -20l36 -44q12 -15 12 -28q0 -17 -20 -34l-268 -208
q-17 -14 -38 -14t-38 14l-268 208q-20 17 -20 34q0 13 12 28l36 44q17 20 36 20q17 0 30 -8l212 -126z" />
    <glyph glyph-name="ccaron" unicode="&#x10d;" horiz-adv-x="952" 
d="M876 68q-69 -48 -153.5 -68t-170.5 -20q-126 0 -217.5 39.5t-150.5 107.5t-87.5 159t-28.5 194q0 101 28.5 195t89 166t155 115.5t227.5 43.5q94 0 167.5 -22t132.5 -66q35 -26 14 -64l-62 -112q-20 -40 -58 -14q-38 27 -81 42.5t-93 15.5q-61 0 -103 -24t-68 -65
t-37.5 -95t-11.5 -114q0 -58 11 -109t36.5 -89.5t68 -61t104.5 -22.5q93 0 176 56q20 14 33 11.5t25 -23.5l66 -112q23 -38 -12 -64zM740 1422q13 8 30 8q19 0 36 -20l36 -44q12 -15 12 -28q0 -17 -20 -34l-268 -208q-17 -14 -38 -14t-38 14l-268 208q-20 17 -20 34
q0 13 12 28l36 44q17 20 36 20q17 0 30 -8l212 -126z" />
    <glyph glyph-name="Dcaron" unicode="&#x10e;" horiz-adv-x="1378" 
d="M190 0q-44 0 -44 44v1236q0 44 44 44h464q118 0 211.5 -25.5t165 -71.5t122.5 -108t83 -136t47 -155.5t15 -165.5q0 -128 -36 -247t-114 -211.5t-200 -148t-294 -55.5h-464zM450 1092v-860h184q97 0 164 35.5t107.5 95t58.5 137t18 162.5t-18 162.5t-58.5 137t-107.5 95
t-164 35.5h-184zM856 1762q13 8 30 8q19 0 36 -20l36 -44q12 -15 12 -28q0 -17 -20 -34l-268 -208q-17 -14 -38 -14t-38 14l-268 208q-20 17 -20 34q0 13 12 28l36 44q17 20 36 20q17 0 30 -8l212 -126z" />
    <glyph glyph-name="dcaron" unicode="&#x10f;" horiz-adv-x="1198" 
d="M830 0q-44 0 -44 44v80q-21 -30 -49 -56.5t-65 -46t-83 -30.5t-103 -11q-96 0 -173.5 33.5t-131.5 98t-83.5 159.5t-29.5 217q0 120 29.5 215t83.5 161t131.5 101t173.5 35q55 0 99.5 -11t79.5 -29t61.5 -41.5t45.5 -48.5v522q0 44 44 44h204q44 0 44 -44v-1348
q0 -44 -44 -44h-190zM368 490q0 -73 15 -126.5t43 -89t67 -53t87 -17.5q23 0 48.5 5t50.5 17t49 32.5t44 51.5v360q-20 31 -44 51.5t-49 32.5t-50.5 17t-48.5 5q-96 0 -154 -70.5t-58 -215.5zM1186 992q-23 6 -32 15t-6 33l40 362q3 23 16 35t34 7l136 -30q32 -6 32 -32
q0 -5 -1 -10t-3 -10l-134 -346q-9 -23 -22 -29.5t-36 -0.5z" />
    <glyph glyph-name="Dcroat" unicode="&#x110;" horiz-adv-x="1398" 
d="M74 552q-44 0 -44 44v130q0 44 44 44h92v510q0 44 44 44h464q118 0 211.5 -25.5t165 -71.5t122.5 -108t83 -136t47 -155.5t15 -165.5q0 -128 -36 -247t-114 -211.5t-200 -148t-294 -55.5h-464q-44 0 -44 44v508h-92zM470 1092v-322h224q44 0 44 -44v-130q0 -44 -44 -44
h-224v-320h184q97 0 164 35.5t107.5 95t58.5 137t18 162.5t-18 162.5t-58.5 137t-107.5 95t-164 35.5h-184z" />
    <glyph glyph-name="dcroat" unicode="&#x111;" horiz-adv-x="1198" 
d="M586 1100q-44 0 -44 44v100q0 44 44 44h186v104q0 44 44 44h204q44 0 44 -44v-104h66q44 0 44 -44v-100q0 -44 -44 -44h-66v-1056q0 -44 -44 -44h-190q-44 0 -44 44v80q-21 -30 -49 -56.5t-65 -46t-83 -30.5t-103 -11q-96 0 -173.5 33.5t-131.5 98t-83.5 159.5t-29.5 217
q0 120 29.5 215t83.5 161t131.5 101t173.5 35q55 0 99.5 -11t79.5 -29t61.5 -41.5t45.5 -48.5v230h-186zM368 490q0 -73 15 -126.5t43 -89t67 -53t87 -17.5q23 0 48.5 5t50.5 17t49 32.5t44 51.5v360q-20 31 -44 51.5t-49 32.5t-50.5 17t-48.5 5q-96 0 -154 -70.5
t-58 -215.5z" />
    <glyph glyph-name="Emacron" unicode="&#x112;" horiz-adv-x="1114" 
d="M190 0q-44 0 -44 44v1236q0 44 44 44h792q44 0 44 -44v-148q0 -44 -44 -44h-532v-300h458q44 0 44 -44v-148q0 -44 -44 -44h-458v-316h532q44 0 44 -44v-148q0 -44 -44 -44h-792zM816 1668q44 0 44 -44v-100q0 -44 -44 -44h-460q-44 0 -44 44v100q0 44 44 44h460z" />
    <glyph glyph-name="emacron" unicode="&#x113;" horiz-adv-x="1070" 
d="M720 592q-5 47 -17 86.5t-34 68t-54 44t-75 15.5q-44 0 -75.5 -15.5t-53 -44t-34.5 -68t-19 -86.5h362zM358 418q6 -55 21.5 -96t43.5 -68t69.5 -40.5t99.5 -13.5q63 0 126 15.5t116 50.5q21 12 34 9.5t24 -23.5l62 -112q21 -39 -14 -62q-75 -51 -169.5 -74.5
t-194.5 -23.5q-137 0 -233.5 40t-157.5 109t-89 160.5t-28 194.5q0 100 26.5 193t83.5 165t146.5 115t215.5 43q123 0 210.5 -41.5t143.5 -110.5t82 -159t26 -187v-40q0 -44 -44 -44h-600zM774 1328q44 0 44 -44v-100q0 -44 -44 -44h-460q-44 0 -44 44v100q0 44 44 44h460z
" />
    <glyph glyph-name="Ebreve" unicode="&#x114;" horiz-adv-x="1114" 
d="M190 0q-44 0 -44 44v1236q0 44 44 44h792q44 0 44 -44v-148q0 -44 -44 -44h-532v-300h458q44 0 44 -44v-148q0 -44 -44 -44h-458v-316h532q44 0 44 -44v-148q0 -44 -44 -44h-792zM586 1438q-55 0 -103 15t-88.5 42.5t-72 65.5t-52.5 85q-6 12 -6 22q0 24 28 36l62 32
q16 8 30 8q15 0 23.5 -7.5t16.5 -18.5q29 -39 67 -63.5t95 -24.5t95 24.5t67 63.5q8 11 16.5 18.5t23.5 7.5q14 0 30 -8l62 -32q28 -12 28 -36q0 -10 -6 -22q-21 -47 -52.5 -85t-72 -65.5t-88.5 -42.5t-103 -15z" />
    <glyph glyph-name="ebreve" unicode="&#x115;" horiz-adv-x="1070" 
d="M720 592q-5 47 -17 86.5t-34 68t-54 44t-75 15.5q-44 0 -75.5 -15.5t-53 -44t-34.5 -68t-19 -86.5h362zM358 418q6 -55 21.5 -96t43.5 -68t69.5 -40.5t99.5 -13.5q63 0 126 15.5t116 50.5q21 12 34 9.5t24 -23.5l62 -112q21 -39 -14 -62q-75 -51 -169.5 -74.5
t-194.5 -23.5q-137 0 -233.5 40t-157.5 109t-89 160.5t-28 194.5q0 100 26.5 193t83.5 165t146.5 115t215.5 43q123 0 210.5 -41.5t143.5 -110.5t82 -159t26 -187v-40q0 -44 -44 -44h-600zM544 1098q-55 0 -103 15t-88.5 42.5t-72 65.5t-52.5 85q-6 12 -6 22q0 24 28 36
l62 32q16 8 30 8q15 0 23.5 -7.5t16.5 -18.5q29 -39 67 -63.5t95 -24.5t95 24.5t67 63.5q8 11 16.5 18.5t23.5 7.5q14 0 30 -8l62 -32q28 -12 28 -36q0 -10 -6 -22q-21 -47 -52.5 -85t-72 -65.5t-88.5 -42.5t-103 -15z" />
    <glyph glyph-name="Edotaccent" unicode="&#x116;" horiz-adv-x="1114" 
d="M190 0q-44 0 -44 44v1236q0 44 44 44h792q44 0 44 -44v-148q0 -44 -44 -44h-532v-300h458q44 0 44 -44v-148q0 -44 -44 -44h-458v-316h532q44 0 44 -44v-148q0 -44 -44 -44h-792zM734 1578q0 -30 -10.5 -56.5t-30 -46.5t-46.5 -31.5t-61 -11.5t-61 11.5t-46.5 31.5
t-30 46.5t-10.5 56.5t10.5 56.5t30 46.5t46.5 31.5t61 11.5t61 -11.5t46.5 -31.5t30 -46.5t10.5 -56.5z" />
    <glyph glyph-name="edotaccent" unicode="&#x117;" horiz-adv-x="1070" 
d="M720 592q-5 47 -17 86.5t-34 68t-54 44t-75 15.5q-44 0 -75.5 -15.5t-53 -44t-34.5 -68t-19 -86.5h362zM358 418q6 -55 21.5 -96t43.5 -68t69.5 -40.5t99.5 -13.5q63 0 126 15.5t116 50.5q21 12 34 9.5t24 -23.5l62 -112q21 -39 -14 -62q-75 -51 -169.5 -74.5
t-194.5 -23.5q-137 0 -233.5 40t-157.5 109t-89 160.5t-28 194.5q0 100 26.5 193t83.5 165t146.5 115t215.5 43q123 0 210.5 -41.5t143.5 -110.5t82 -159t26 -187v-40q0 -44 -44 -44h-600zM692 1238q0 -30 -10.5 -56.5t-30 -46.5t-46.5 -31.5t-61 -11.5t-61 11.5t-46.5 31.5
t-30 46.5t-10.5 56.5t10.5 56.5t30 46.5t46.5 31.5t61 11.5t61 -11.5t46.5 -31.5t30 -46.5t10.5 -56.5z" />
    <glyph glyph-name="Eogonek" unicode="&#x118;" horiz-adv-x="1114" 
d="M566 -244q0 31 11.5 63.5t32 64.5t49 61.5t63.5 54.5h-532q-44 0 -44 44v1236q0 44 44 44h792q44 0 44 -44v-148q0 -44 -44 -44h-532v-300h458q44 0 44 -44v-148q0 -44 -44 -44h-458v-316h532q44 0 44 -44v-148q0 -44 -44 -44h-138q-23 -34 -39.5 -60t-27 -47.5t-15 -40
t-4.5 -36.5q0 -36 21 -62t69 -26q14 0 33 3.5t39 12.5q26 11 38 7t26 -27l20 -32q25 -37 -12 -62q-39 -27 -89 -42.5t-107 -15.5q-56 0 -99 14.5t-72 39.5t-44 58.5t-15 71.5z" />
    <glyph glyph-name="eogonek" unicode="&#x119;" horiz-adv-x="1070" 
d="M720 592q-5 47 -17 86.5t-34 68t-54 44t-75 15.5q-44 0 -75.5 -15.5t-53 -44t-34.5 -68t-19 -86.5h362zM358 418q6 -55 21.5 -96t43.5 -68t69.5 -40.5t99.5 -13.5q63 0 126 15.5t116 50.5q21 12 34 9.5t24 -23.5l62 -114q11 -18 7 -33.5t-21 -26.5l-30 -18t-32 -18
q-53 -31 -88 -62t-56 -60t-29.5 -55.5t-8.5 -48.5q0 -36 21 -62t69 -26q14 0 33 3.5t39 12.5q26 11 38 7t26 -27l20 -32q25 -37 -12 -62q-39 -27 -89 -42.5t-107 -15.5q-56 0 -99 14.5t-72 39.5t-44 58t-15 70q0 32 11 64.5t30.5 62.5t46 57t56.5 48q-15 -3 -38.5 -4.5
t-47.5 -1.5q-130 0 -223.5 40t-153.5 109t-88.5 161t-28.5 196q0 99 26.5 191.5t83.5 164.5t146.5 115t215.5 43q123 0 210.5 -41.5t143.5 -110.5t82 -159t26 -187v-40q0 -44 -44 -44h-600z" />
    <glyph glyph-name="Ecaron" unicode="&#x11a;" horiz-adv-x="1114" 
d="M190 0q-44 0 -44 44v1236q0 44 44 44h792q44 0 44 -44v-148q0 -44 -44 -44h-532v-300h458q44 0 44 -44v-148q0 -44 -44 -44h-458v-316h532q44 0 44 -44v-148q0 -44 -44 -44h-792zM798 1762q13 8 30 8q19 0 36 -20l36 -44q12 -15 12 -28q0 -17 -20 -34l-268 -208
q-17 -14 -38 -14t-38 14l-268 208q-20 17 -20 34q0 13 12 28l36 44q17 20 36 20q17 0 30 -8l212 -126z" />
    <glyph glyph-name="ecaron" unicode="&#x11b;" horiz-adv-x="1070" 
d="M720 592q-5 47 -17 86.5t-34 68t-54 44t-75 15.5q-44 0 -75.5 -15.5t-53 -44t-34.5 -68t-19 -86.5h362zM358 418q6 -55 21.5 -96t43.5 -68t69.5 -40.5t99.5 -13.5q63 0 126 15.5t116 50.5q21 12 34 9.5t24 -23.5l62 -112q21 -39 -14 -62q-75 -51 -169.5 -74.5
t-194.5 -23.5q-137 0 -233.5 40t-157.5 109t-89 160.5t-28 194.5q0 100 26.5 193t83.5 165t146.5 115t215.5 43q123 0 210.5 -41.5t143.5 -110.5t82 -159t26 -187v-40q0 -44 -44 -44h-600zM756 1422q13 8 30 8q19 0 36 -20l36 -44q12 -15 12 -28q0 -17 -20 -34l-268 -208
q-17 -14 -38 -14t-38 14l-268 208q-20 17 -20 34q0 13 12 28l36 44q17 20 36 20q17 0 30 -8l212 -126z" />
    <glyph glyph-name="Gcircumflex" unicode="&#x11c;" horiz-adv-x="1396" 
d="M1222 86q-103 -53 -223.5 -79.5t-242.5 -26.5q-119 0 -215.5 25t-171.5 69.5t-129.5 106t-90 136t-52.5 158.5t-17 173q0 85 16 170t51 162.5t89 144t131 115t177 76.5t226 28q130 0 246 -33.5t210 -116.5q33 -30 6 -62l-112 -140q-15 -18 -28.5 -19.5t-31.5 13.5
q-59 53 -127.5 80.5t-156.5 27.5q-98 0 -170 -33.5t-118.5 -93t-69 -142t-22.5 -179.5q0 -95 22 -172.5t67 -132.5t115 -85t166 -30q53 0 103.5 9.5t98.5 32.5v246h-196q-44 0 -44 44v148q0 44 44 44h444q44 0 44 -44v-556q0 -44 -38 -64zM506 1430q-13 -8 -30 -8
q-19 0 -36 20l-36 44q-12 15 -12 28q0 17 20 34l268 208q17 14 38 14t38 -14l268 -208q20 -17 20 -34q0 -13 -12 -28l-36 -44q-17 -20 -36 -20q-17 0 -30 8l-212 126z" />
    <glyph glyph-name="gcircumflex" unicode="&#x11d;" horiz-adv-x="1068" 
d="M1038 -70q0 -86 -40 -151t-113.5 -109.5t-177.5 -67t-233 -22.5q-101 0 -185 14t-145.5 43.5t-95.5 74t-34 106.5q0 77 50.5 128t139.5 74q-56 18 -81 60.5t-25 95.5q0 37 11 66.5t29.5 53.5t43.5 43t54 35q-78 50 -114 124t-36 154q0 66 25 128.5t77 111.5t132 78.5
t190 29.5q47 0 89.5 -5.5t80.5 -14.5h336q44 0 44 -44v-118q0 -40 -38 -40q-86 0 -166 40q46 -42 60 -87t14 -87q0 -64 -22.5 -125t-72 -109t-129 -77t-192.5 -29q-50 0 -93 5.5t-81 16.5q-15 -18 -19.5 -37t-4.5 -33q0 -32 21 -50t75 -18h282q76 0 139.5 -14.5t109 -46
t70.5 -80.5t25 -117zM268 -146q0 -59 53.5 -88.5t176.5 -29.5q135 0 197.5 35t62.5 95q0 20 -7 37.5t-24 30t-45.5 19.5t-71.5 7h-276q-36 -21 -51 -48.5t-15 -57.5zM356 652q0 -69 38.5 -114.5t115.5 -45.5t115.5 45.5t38.5 114.5t-38.5 114.5t-115.5 45.5t-115.5 -45.5
t-38.5 -114.5zM298 1090q-13 -8 -30 -8q-19 0 -36 20l-36 44q-12 15 -12 28q0 17 20 34l268 208q17 14 38 14t38 -14l268 -208q20 -17 20 -34q0 -13 -12 -28l-36 -44q-17 -20 -36 -20q-17 0 -30 8l-212 126z" />
    <glyph glyph-name="Gbreve" unicode="&#x11e;" horiz-adv-x="1396" 
d="M1222 86q-103 -53 -223.5 -79.5t-242.5 -26.5q-119 0 -215.5 25t-171.5 69.5t-129.5 106t-90 136t-52.5 158.5t-17 173q0 85 16 170t51 162.5t89 144t131 115t177 76.5t226 28q130 0 246 -33.5t210 -116.5q33 -30 6 -62l-112 -140q-15 -18 -28.5 -19.5t-31.5 13.5
q-59 53 -127.5 80.5t-156.5 27.5q-98 0 -170 -33.5t-118.5 -93t-69 -142t-22.5 -179.5q0 -95 22 -172.5t67 -132.5t115 -85t166 -30q53 0 103.5 9.5t98.5 32.5v246h-196q-44 0 -44 44v148q0 44 44 44h444q44 0 44 -44v-556q0 -44 -38 -64zM718 1438q-55 0 -103 15
t-88.5 42.5t-72 65.5t-52.5 85q-6 12 -6 22q0 24 28 36l62 32q16 8 30 8q15 0 23.5 -7.5t16.5 -18.5q29 -39 67 -63.5t95 -24.5t95 24.5t67 63.5q8 11 16.5 18.5t23.5 7.5q14 0 30 -8l62 -32q28 -12 28 -36q0 -10 -6 -22q-21 -47 -52.5 -85t-72 -65.5t-88.5 -42.5t-103 -15z
" />
    <glyph glyph-name="gbreve" unicode="&#x11f;" horiz-adv-x="1068" 
d="M1038 -70q0 -86 -40 -151t-113.5 -109.5t-177.5 -67t-233 -22.5q-101 0 -185 14t-145.5 43.5t-95.5 74t-34 106.5q0 77 50.5 128t139.5 74q-56 18 -81 60.5t-25 95.5q0 37 11 66.5t29.5 53.5t43.5 43t54 35q-78 50 -114 124t-36 154q0 66 25 128.5t77 111.5t132 78.5
t190 29.5q47 0 89.5 -5.5t80.5 -14.5h336q44 0 44 -44v-118q0 -40 -38 -40q-86 0 -166 40q46 -42 60 -87t14 -87q0 -64 -22.5 -125t-72 -109t-129 -77t-192.5 -29q-50 0 -93 5.5t-81 16.5q-15 -18 -19.5 -37t-4.5 -33q0 -32 21 -50t75 -18h282q76 0 139.5 -14.5t109 -46
t70.5 -80.5t25 -117zM268 -146q0 -59 53.5 -88.5t176.5 -29.5q135 0 197.5 35t62.5 95q0 20 -7 37.5t-24 30t-45.5 19.5t-71.5 7h-276q-36 -21 -51 -48.5t-15 -57.5zM356 652q0 -69 38.5 -114.5t115.5 -45.5t115.5 45.5t38.5 114.5t-38.5 114.5t-115.5 45.5t-115.5 -45.5
t-38.5 -114.5zM510 1098q-55 0 -103 15t-88.5 42.5t-72 65.5t-52.5 85q-6 12 -6 22q0 24 28 36l62 32q16 8 30 8q15 0 23.5 -7.5t16.5 -18.5q29 -39 67 -63.5t95 -24.5t95 24.5t67 63.5q8 11 16.5 18.5t23.5 7.5q14 0 30 -8l62 -32q28 -12 28 -36q0 -10 -6 -22
q-21 -47 -52.5 -85t-72 -65.5t-88.5 -42.5t-103 -15z" />
    <glyph glyph-name="Gdotaccent" unicode="&#x120;" horiz-adv-x="1396" 
d="M1222 86q-103 -53 -223.5 -79.5t-242.5 -26.5q-119 0 -215.5 25t-171.5 69.5t-129.5 106t-90 136t-52.5 158.5t-17 173q0 85 16 170t51 162.5t89 144t131 115t177 76.5t226 28q130 0 246 -33.5t210 -116.5q33 -30 6 -62l-112 -140q-15 -18 -28.5 -19.5t-31.5 13.5
q-59 53 -127.5 80.5t-156.5 27.5q-98 0 -170 -33.5t-118.5 -93t-69 -142t-22.5 -179.5q0 -95 22 -172.5t67 -132.5t115 -85t166 -30q53 0 103.5 9.5t98.5 32.5v246h-196q-44 0 -44 44v148q0 44 44 44h444q44 0 44 -44v-556q0 -44 -38 -64zM866 1578q0 -30 -10.5 -56.5
t-30 -46.5t-46.5 -31.5t-61 -11.5t-61 11.5t-46.5 31.5t-30 46.5t-10.5 56.5t10.5 56.5t30 46.5t46.5 31.5t61 11.5t61 -11.5t46.5 -31.5t30 -46.5t10.5 -56.5z" />
    <glyph glyph-name="gdotaccent" unicode="&#x121;" horiz-adv-x="1068" 
d="M1038 -70q0 -86 -40 -151t-113.5 -109.5t-177.5 -67t-233 -22.5q-101 0 -185 14t-145.5 43.5t-95.5 74t-34 106.5q0 77 50.5 128t139.5 74q-56 18 -81 60.5t-25 95.5q0 37 11 66.5t29.5 53.5t43.5 43t54 35q-78 50 -114 124t-36 154q0 66 25 128.5t77 111.5t132 78.5
t190 29.5q47 0 89.5 -5.5t80.5 -14.5h336q44 0 44 -44v-118q0 -40 -38 -40q-86 0 -166 40q46 -42 60 -87t14 -87q0 -64 -22.5 -125t-72 -109t-129 -77t-192.5 -29q-50 0 -93 5.5t-81 16.5q-15 -18 -19.5 -37t-4.5 -33q0 -32 21 -50t75 -18h282q76 0 139.5 -14.5t109 -46
t70.5 -80.5t25 -117zM268 -146q0 -59 53.5 -88.5t176.5 -29.5q135 0 197.5 35t62.5 95q0 20 -7 37.5t-24 30t-45.5 19.5t-71.5 7h-276q-36 -21 -51 -48.5t-15 -57.5zM356 652q0 -69 38.5 -114.5t115.5 -45.5t115.5 45.5t38.5 114.5t-38.5 114.5t-115.5 45.5t-115.5 -45.5
t-38.5 -114.5zM658 1238q0 -30 -10.5 -56.5t-30 -46.5t-46.5 -31.5t-61 -11.5t-61 11.5t-46.5 31.5t-30 46.5t-10.5 56.5t10.5 56.5t30 46.5t46.5 31.5t61 11.5t61 -11.5t46.5 -31.5t30 -46.5t10.5 -56.5z" />
    <glyph glyph-name="Gcommaaccent" unicode="&#x122;" horiz-adv-x="1396" 
d="M1222 86q-103 -53 -223.5 -79.5t-242.5 -26.5q-119 0 -215.5 25t-171.5 69.5t-129.5 106t-90 136t-52.5 158.5t-17 173q0 85 16 170t51 162.5t89 144t131 115t177 76.5t226 28q130 0 246 -33.5t210 -116.5q33 -30 6 -62l-112 -140q-15 -18 -28.5 -19.5t-31.5 13.5
q-59 53 -127.5 80.5t-156.5 27.5q-98 0 -170 -33.5t-118.5 -93t-69 -142t-22.5 -179.5q0 -95 22 -172.5t67 -132.5t115 -85t166 -30q53 0 103.5 9.5t98.5 32.5v246h-196q-44 0 -44 44v148q0 44 44 44h444q44 0 44 -44v-556q0 -44 -38 -64zM850 -198q0 -34 -11 -67.5
t-30.5 -66t-46.5 -63t-58 -57.5q-17 -14 -34 -14q-19 0 -36 14l-2 2q-18 15 -18 30q0 13 14 30q17 20 25.5 37t8.5 37q0 21 -11.5 36t-25 30t-24.5 33t-11 45q0 21 9 41t25.5 36t40.5 25.5t53 9.5q60 0 96 -38t36 -100z" />
    <glyph glyph-name="gcommaaccent" unicode="&#x123;" horiz-adv-x="1068" 
d="M1038 -70q0 -86 -40 -151t-113.5 -109.5t-177.5 -67t-233 -22.5q-101 0 -185 14t-145.5 43.5t-95.5 74t-34 106.5q0 77 50.5 128t139.5 74q-56 18 -81 60.5t-25 95.5q0 37 11 66.5t29.5 53.5t43.5 43t54 35q-78 50 -114 124t-36 154q0 66 25 128.5t77 111.5t132 78.5
t190 29.5q47 0 89.5 -5.5t80.5 -14.5h336q44 0 44 -44v-118q0 -40 -38 -40q-86 0 -166 40q46 -42 60 -87t14 -87q0 -64 -22.5 -125t-72 -109t-129 -77t-192.5 -29q-50 0 -93 5.5t-81 16.5q-15 -18 -19.5 -37t-4.5 -33q0 -32 21 -50t75 -18h282q76 0 139.5 -14.5t109 -46
t70.5 -80.5t25 -117zM268 -146q0 -59 53.5 -88.5t176.5 -29.5q135 0 197.5 35t62.5 95q0 20 -7 37.5t-24 30t-45.5 19.5t-71.5 7h-276q-36 -21 -51 -48.5t-15 -57.5zM356 652q0 -69 38.5 -114.5t115.5 -45.5t115.5 45.5t38.5 114.5t-38.5 114.5t-115.5 45.5t-115.5 -45.5
t-38.5 -114.5zM384 1230q0 34 11 67.5t30.5 66t46 63t58.5 57.5q17 14 34 14q19 0 36 -14l2 -2q18 -15 18 -30q0 -13 -14 -30q-17 -20 -25.5 -37t-8.5 -37q0 -21 11 -36t24.5 -30t25 -33t11.5 -45q0 -21 -9 -41t-25.5 -36t-40.5 -25.5t-53 -9.5q-60 0 -96 38t-36 100z" />
    <glyph glyph-name="Hcircumflex" unicode="&#x124;" horiz-adv-x="1430" 
d="M190 0q-44 0 -44 44v1236q0 44 44 44h216q44 0 44 -44v-486h530v486q0 44 44 44h216q44 0 44 -44v-1236q0 -44 -44 -44h-216q-44 0 -44 44v502h-530v-502q0 -44 -44 -44h-216zM502 1430q-13 -8 -30 -8q-19 0 -36 20l-36 44q-12 15 -12 28q0 17 20 34l268 208q17 14 38 14
t38 -14l268 -208q20 -17 20 -34q0 -13 -12 -28l-36 -44q-17 -20 -36 -20q-17 0 -30 8l-212 126z" />
    <glyph glyph-name="hcircumflex" unicode="&#x125;" horiz-adv-x="1170" 
d="M178 0q-44 0 -44 44v1348q0 44 44 44h204q44 0 44 -44v-514q20 23 46.5 45t61 39t77 27.5t95.5 10.5q90 0 153.5 -30.5t103.5 -82.5t58.5 -121.5t18.5 -147.5v-574q0 -44 -44 -44h-204q-44 0 -44 44v544q0 31 -6 64t-22.5 60t-44.5 44.5t-71 17.5q-22 0 -45.5 -5
t-47 -15.5t-45.5 -28.5t-40 -43v-638q0 -44 -44 -44h-204zM69 1512q-13 -8 -30 -8q-19 0 -36 20l-36 44q-12 15 -12 28q0 17 20 34l268 208q17 14 38 14t38 -14l268 -208q20 -17 20 -34q0 -13 -12 -28l-36 -44q-17 -20 -36 -20q-17 0 -30 8l-212 126z" />
    <glyph glyph-name="Hbar" unicode="&#x126;" horiz-adv-x="1458" 
d="M1390 1160q44 0 44 -44v-118q0 -44 -44 -44h-92v-910q0 -44 -44 -44h-216q-44 0 -44 44v470h-530v-470q0 -44 -44 -44h-216q-44 0 -44 44v910h-92q-44 0 -44 44v118q0 44 44 44h92v120q0 44 44 44h216q44 0 44 -44v-132h530v132q0 44 44 44h216q44 0 44 -44v-120h92z
M464 762h530v204h-530v-204z" />
    <glyph glyph-name="hbar" unicode="&#x127;" horiz-adv-x="1170" 
d="M68 1100q-44 0 -44 44v100q0 44 44 44h66v104q0 44 44 44h204q44 0 44 -44v-104h186q44 0 44 -44v-100q0 -44 -44 -44h-186v-222q20 23 46.5 45t61 39t77 27.5t95.5 10.5q90 0 153.5 -30.5t103.5 -82.5t58.5 -121.5t18.5 -147.5v-574q0 -44 -44 -44h-204q-44 0 -44 44
v544q0 31 -6 64t-22.5 60t-44.5 44.5t-71 17.5q-22 0 -45.5 -5t-47 -15.5t-45.5 -28.5t-40 -43v-638q0 -44 -44 -44h-204q-44 0 -44 44v1056h-66z" />
    <glyph glyph-name="Itilde" unicode="&#x128;" horiz-adv-x="596" 
d="M190 0q-44 0 -44 44v1236q0 44 44 44h216q44 0 44 -44v-1236q0 -44 -44 -44h-216zM423 1444q-46 0 -80 12t-61.5 27t-52 27t-50.5 12q-21 0 -46 -10.5t-48 -33.5q-18 -18 -34 -18q-15 0 -32 14l-48 38q-20 17 -20 34q0 13 10 30q45 74 98 105t116 31q46 0 80 -12
t61.5 -27t52 -27t50.5 -12q21 0 46 10.5t48 33.5q18 18 34 18q15 0 32 -14l48 -38q9 -8 14.5 -16.5t5.5 -17.5q0 -13 -10 -30q-45 -74 -98 -105t-116 -31z" />
    <glyph glyph-name="itilde" unicode="&#x129;" horiz-adv-x="560" 
d="M178 0q-44 0 -44 44v892q0 44 44 44h204q44 0 44 -44v-892q0 -44 -44 -44h-204zM405 1104q-46 0 -80 12t-61.5 27t-52 27t-50.5 12q-21 0 -46 -10.5t-48 -33.5q-18 -18 -34 -18q-15 0 -32 14l-48 38q-20 17 -20 34q0 13 10 30q45 74 98 105t116 31q46 0 80 -12t61.5 -27
t52 -27t50.5 -12q21 0 46 10.5t48 33.5q18 18 34 18q15 0 32 -14l48 -38q9 -8 14.5 -16.5t5.5 -17.5q0 -13 -10 -30q-45 -74 -98 -105t-116 -31z" />
    <glyph glyph-name="Imacron" unicode="&#x12a;" horiz-adv-x="596" 
d="M190 0q-44 0 -44 44v1236q0 44 44 44h216q44 0 44 -44v-1236q0 -44 -44 -44h-216zM529 1668q44 0 44 -44v-100q0 -44 -44 -44h-460q-44 0 -44 44v100q0 44 44 44h460z" />
    <glyph glyph-name="imacron" unicode="&#x12b;" horiz-adv-x="560" 
d="M178 0q-44 0 -44 44v892q0 44 44 44h204q44 0 44 -44v-892q0 -44 -44 -44h-204zM511 1328q44 0 44 -44v-100q0 -44 -44 -44h-460q-44 0 -44 44v100q0 44 44 44h460z" />
    <glyph glyph-name="Ibreve" unicode="&#x12c;" horiz-adv-x="596" 
d="M190 0q-44 0 -44 44v1236q0 44 44 44h216q44 0 44 -44v-1236q0 -44 -44 -44h-216zM299 1438q-55 0 -103 15t-88.5 42.5t-72 65.5t-52.5 85q-6 12 -6 22q0 24 28 36l62 32q16 8 30 8q15 0 23.5 -7.5t16.5 -18.5q29 -39 67 -63.5t95 -24.5t95 24.5t67 63.5q8 11 16.5 18.5
t23.5 7.5q14 0 30 -8l62 -32q28 -12 28 -36q0 -10 -6 -22q-21 -47 -52.5 -85t-72 -65.5t-88.5 -42.5t-103 -15z" />
    <glyph glyph-name="ibreve" unicode="&#x12d;" horiz-adv-x="560" 
d="M178 0q-44 0 -44 44v892q0 44 44 44h204q44 0 44 -44v-892q0 -44 -44 -44h-204zM281 1098q-55 0 -103 15t-88.5 42.5t-72 65.5t-52.5 85q-6 12 -6 22q0 24 28 36l62 32q16 8 30 8q15 0 23.5 -7.5t16.5 -18.5q29 -39 67 -63.5t95 -24.5t95 24.5t67 63.5q8 11 16.5 18.5
t23.5 7.5q14 0 30 -8l62 -32q28 -12 28 -36q0 -10 -6 -22q-21 -47 -52.5 -85t-72 -65.5t-88.5 -42.5t-103 -15z" />
    <glyph glyph-name="Iogonek" unicode="&#x12e;" horiz-adv-x="596" 
d="M86 -244q0 31 11.5 63.5t32 64.5t49 61.5t63.5 54.5h-52q-44 0 -44 44v1236q0 44 44 44h216q44 0 44 -44v-1236q0 -44 -44 -44h-42q-23 -34 -39.5 -60t-27 -47.5t-15 -40t-4.5 -36.5q0 -36 21 -62t69 -26q14 0 33 3.5t39 12.5q26 11 38 7t26 -27l20 -32q25 -37 -12 -62
q-39 -27 -89 -42.5t-107 -15.5q-56 0 -99 14.5t-72 39.5t-44 58.5t-15 71.5z" />
    <glyph glyph-name="iogonek" unicode="&#x12f;" horiz-adv-x="560" 
d="M64 -244q0 31 11 63.5t31.5 64.5t48.5 61.5t63 54.5h-40q-44 0 -44 44v892q0 44 44 44h204q44 0 44 -44v-892q0 -44 -44 -44h-40q-23 -34 -39.5 -60t-27 -47.5t-15 -40t-4.5 -36.5q0 -36 21 -62t69 -26q14 0 33 3.5t39 12.5q26 11 38 7t26 -27l20 -32q25 -37 -12 -62
q-39 -27 -89 -42.5t-107 -15.5q-56 0 -99 14.5t-72 39.5t-44 58.5t-15 71.5zM452 1282q0 -35 -12.5 -66t-35 -54t-54 -36.5t-70.5 -13.5t-71 13.5t-54.5 36.5t-34.5 54t-12 66t12 66t34.5 54t54.5 36.5t71 13.5t70.5 -13.5t54 -36.5t35 -54t12.5 -66z" />
    <glyph glyph-name="Idotaccent" unicode="&#x130;" horiz-adv-x="596" 
d="M190 0q-44 0 -44 44v1236q0 44 44 44h216q44 0 44 -44v-1236q0 -44 -44 -44h-216zM446 1578q0 -30 -10.5 -56.5t-30 -46.5t-46.5 -31.5t-61 -11.5t-61 11.5t-46.5 31.5t-30 46.5t-10.5 56.5t10.5 56.5t30 46.5t46.5 31.5t61 11.5t61 -11.5t46.5 -31.5t30 -46.5
t10.5 -56.5z" />
    <glyph glyph-name="dotlessi" unicode="&#x131;" horiz-adv-x="560" 
d="M178 0q-44 0 -44 44v892q0 44 44 44h204q44 0 44 -44v-892q0 -44 -44 -44h-204z" />
    <glyph glyph-name="IJ" unicode="&#x132;" horiz-adv-x="1300" 
d="M158 568q-44 0 -44 44v668q0 44 44 44h216q44 0 44 -44v-668q0 -44 -44 -44h-216zM1166 532q0 -129 -38 -231.5t-110.5 -173.5t-178 -109t-241.5 -38q-128 0 -225 31.5t-159 82.5q-34 28 -10 64l96 146q14 21 27 23t31 -13q44 -38 101 -59t123 -21q59 0 110.5 17t89 51
t59 85.5t21.5 120.5v772q0 44 44 44h216q44 0 44 -44v-748z" />
    <glyph glyph-name="ij" unicode="&#x133;" horiz-adv-x="1124" 
d="M178 0q-44 0 -44 44v892q0 44 44 44h204q44 0 44 -44v-892q0 -44 -44 -44h-204zM452 1282q0 -35 -12.5 -66t-35 -54t-54 -36.5t-70.5 -13.5t-71 13.5t-54.5 36.5t-34.5 54t-12 66t12 66t34.5 54t54.5 36.5t71 13.5t70.5 -13.5t54 -36.5t35 -54t12.5 -66zM988 -48
q0 -86 -23 -154.5t-69 -117t-114 -74.5t-158 -26q-45 0 -95 8t-95 28q-39 18 -24 60l48 122q9 23 21 28t35 -4q34 -14 68 -14q32 0 54 12t35.5 33.5t19 52t5.5 68.5v962q0 44 44 44h204q44 0 44 -44v-984zM1014 1282q0 -35 -12.5 -66t-35 -54t-54 -36.5t-70.5 -13.5
t-71 13.5t-54.5 36.5t-34.5 54t-12 66t12 66t34.5 54t54.5 36.5t71 13.5t70.5 -13.5t54 -36.5t35 -54t12.5 -66z" />
    <glyph glyph-name="Jcircumflex" unicode="&#x134;" horiz-adv-x="954" 
d="M820 492q0 -252 -117.5 -382t-346.5 -130q-83 0 -159.5 18t-136.5 54q-36 21 -18 60l68 140q11 21 23 25.5t33 -7.5q39 -21 82.5 -30.5t75.5 -9.5q43 0 78 15t60.5 45t39.5 74.5t14 103.5v812q0 44 44 44h216q44 0 44 -44v-788v0zM456 1430q-13 -8 -30 -8q-19 0 -36 20
l-36 44q-12 15 -12 28q0 17 20 34l268 208q17 14 38 14t38 -14l268 -208q20 -17 20 -34q0 -13 -12 -28l-36 -44q-17 -20 -36 -20q-17 0 -30 8l-212 126z" />
    <glyph glyph-name="jcircumflex" unicode="&#x135;" horiz-adv-x="560" 
d="M426 -48q0 -86 -23 -154.5t-69 -117t-114 -74.5t-158 -26q-45 0 -95 8t-95 28q-39 18 -24 60l48 122q9 23 21 28t35 -4q34 -14 68 -14q32 0 54 12t35.5 33.5t19 52t5.5 68.5v962q0 44 44 44h204q44 0 44 -44v-984v0zM69 1090q-13 -8 -30 -8q-19 0 -36 20l-36 44
q-12 15 -12 28q0 17 20 34l268 208q17 14 38 14t38 -14l268 -208q20 -17 20 -34q0 -13 -12 -28l-36 -44q-17 -20 -36 -20q-17 0 -30 8l-212 126z" />
    <glyph glyph-name="Kcommaaccent" unicode="&#x136;" horiz-adv-x="1286" 
d="M970 0q-24 0 -37.5 8.5t-24.5 31.5q-29 63 -65 131t-78 136t-89.5 133t-97.5 122q-64 -55 -128 -104v-414q0 -44 -44 -44h-216q-44 0 -44 44v1236q0 44 44 44h216q44 0 44 -44v-532q58 55 117 123t113 139.5t101.5 142.5t82.5 133q12 21 26 29.5t40 8.5h234q44 0 22 -38
q-77 -137 -178.5 -271.5t-219.5 -258.5q65 -70 131.5 -158t127 -183t112.5 -191.5t89 -183.5q15 -40 -28 -40h-250zM818 -198q0 -34 -11 -67.5t-30.5 -66t-46.5 -63t-58 -57.5q-17 -14 -34 -14q-19 0 -36 14l-2 2q-18 15 -18 30q0 13 14 30q17 20 25.5 37t8.5 37
q0 21 -11.5 36t-25 30t-24.5 33t-11 45q0 21 9 41t25.5 36t40.5 25.5t53 9.5q60 0 96 -38t36 -100z" />
    <glyph glyph-name="kcommaaccent" unicode="&#x137;" horiz-adv-x="1100" 
d="M806 0q-24 0 -37.5 8.5t-22.5 31.5q-19 45 -41 92.5t-47.5 94t-53 91.5t-56.5 86q-30 -24 -60 -47.5t-62 -46.5v-266q0 -44 -44 -44h-204q-44 0 -44 44v1348q0 44 44 44h204q44 0 44 -44v-820q45 40 89 87t84.5 95t76 96t62.5 92q14 21 28 29.5t40 8.5h206q20 0 26 -10
t-6 -28q-57 -91 -129 -180.5t-155 -175.5q47 -58 93 -125.5t87 -138.5t76.5 -142.5t61.5 -137.5q15 -42 -28 -42h-232zM726 -198q0 -34 -11 -67.5t-30.5 -66t-46.5 -63t-58 -57.5q-17 -14 -34 -14q-19 0 -36 14l-2 2q-18 15 -18 30q0 13 14 30q17 20 25.5 37t8.5 37
q0 21 -11.5 36t-25 30t-24.5 33t-11 45q0 21 9 41t25.5 36t40.5 25.5t53 9.5q60 0 96 -38t36 -100z" />
    <glyph glyph-name="Lacute" unicode="&#x139;" horiz-adv-x="1016" 
d="M190 0q-44 0 -44 44v1236q0 44 44 44h216q44 0 44 -44v-1032h482q44 0 44 -44v-160q0 -44 -44 -44h-742zM472 1794q15 12 28 12q9 0 17.5 -4.5t14.5 -15.5l76 -118q5 -8 7.5 -14t2.5 -12q0 -17 -24 -32l-324 -182q-17 -10 -30 -10q-20 0 -36 22l-30 40q-12 15 -12 28
q0 9 3.5 17t14.5 17z" />
    <glyph glyph-name="lacute" unicode="&#x13a;" horiz-adv-x="562" 
d="M178 0q-44 0 -44 44v1348q0 44 44 44h204q44 0 44 -44v-1348q0 -44 -44 -44h-204zM399 1876q15 12 28 12q9 0 17.5 -4.5t14.5 -15.5l76 -118q5 -8 7.5 -14t2.5 -12q0 -17 -24 -32l-324 -182q-17 -10 -30 -10q-20 0 -36 22l-30 40q-12 15 -12 28q0 9 3.5 17t14.5 17z" />
    <glyph glyph-name="Lcommaaccent" unicode="&#x13b;" horiz-adv-x="1016" 
d="M190 0q-44 0 -44 44v1236q0 44 44 44h216q44 0 44 -44v-1032h482q44 0 44 -44v-160q0 -44 -44 -44h-742zM706 -198q0 -34 -11 -67.5t-30.5 -66t-46.5 -63t-58 -57.5q-17 -14 -34 -14q-19 0 -36 14l-2 2q-18 15 -18 30q0 13 14 30q17 20 25.5 37t8.5 37q0 21 -11.5 36
t-25 30t-24.5 33t-11 45q0 21 9 41t25.5 36t40.5 25.5t53 9.5q60 0 96 -38t36 -100z" />
    <glyph glyph-name="lcommaaccent" unicode="&#x13c;" horiz-adv-x="562" 
d="M178 0q-44 0 -44 44v1348q0 44 44 44h204q44 0 44 -44v-1348q0 -44 -44 -44h-204zM412 -198q0 -34 -11 -67.5t-30.5 -66t-46.5 -63t-58 -57.5q-17 -14 -34 -14q-19 0 -36 14l-2 2q-18 15 -18 30q0 13 14 30q17 20 25.5 37t8.5 37q0 21 -11.5 36t-25 30t-24.5 33t-11 45
q0 21 9 41t25.5 36t40.5 25.5t53 9.5q60 0 96 -38t36 -100z" />
    <glyph glyph-name="Lcaron" unicode="&#x13d;" horiz-adv-x="1016" 
d="M190 0q-44 0 -44 44v1236q0 44 44 44h216q44 0 44 -44v-1032h482q44 0 44 -44v-160q0 -44 -44 -44h-742zM612 881q-23 6 -32 15t-6 33l40 362q3 23 16 35t34 7l136 -30q32 -6 32 -32q0 -5 -1 -10t-3 -10l-134 -346q-9 -23 -22 -29.5t-36 -0.5z" />
    <glyph glyph-name="lcaron" unicode="&#x13e;" horiz-adv-x="562" 
d="M178 0q-44 0 -44 44v1348q0 44 44 44h204q44 0 44 -44v-1348q0 -44 -44 -44h-204zM548 992q-23 6 -32 15t-6 33l40 362q3 23 16 35t34 7l136 -30q32 -6 32 -32q0 -5 -1 -10t-3 -10l-134 -346q-9 -23 -22 -29.5t-36 -0.5z" />
    <glyph glyph-name="Ldot" unicode="&#x13f;" horiz-adv-x="1016" 
d="M190 0q-44 0 -44 44v1236q0 44 44 44h216q44 0 44 -44v-1032h482q44 0 44 -44v-160q0 -44 -44 -44h-742zM940 691q0 -30 -10.5 -56.5t-30 -46.5t-46.5 -31.5t-61 -11.5t-61 11.5t-46.5 31.5t-30 46.5t-10.5 56.5t10.5 56.5t30 46.5t46.5 31.5t61 11.5t61 -11.5
t46.5 -31.5t30 -46.5t10.5 -56.5z" />
    <glyph glyph-name="ldot" unicode="&#x140;" horiz-adv-x="942" 
d="M178 0q-44 0 -44 44v1348q0 44 44 44h204q44 0 44 -44v-1348q0 -44 -44 -44h-204zM890 585q0 -30 -10.5 -56.5t-30 -46.5t-46.5 -31.5t-61 -11.5t-61 11.5t-46.5 31.5t-30 46.5t-10.5 56.5t10.5 56.5t30 46.5t46.5 31.5t61 11.5t61 -11.5t46.5 -31.5t30 -46.5t10.5 -56.5
z" />
    <glyph glyph-name="Lslash" unicode="&#x141;" horiz-adv-x="1024" 
d="M40 436q-40 -18 -40 24v154q0 24 8.5 38.5t31.5 25.5l114 60v542q0 44 44 44h216q44 0 44 -44v-386l252 132q40 18 40 -24v-152q0 -24 -8.5 -38.5t-31.5 -25.5l-252 -132v-406h482q44 0 44 -44v-160q0 -44 -44 -44h-742q-44 0 -44 44v452z" />
    <glyph glyph-name="lslash" unicode="&#x142;" horiz-adv-x="602" 
d="M40 472q-40 -18 -40 24v154q0 24 8.5 38.5t31.5 25.5l114 60v618q0 44 44 44h204q44 0 44 -44v-468l118 62q38 19 38 -24v-152q0 -24 -8.5 -38.5t-29.5 -25.5l-118 -62v-640q0 -44 -44 -44h-204q-44 0 -44 44v488z" />
    <glyph glyph-name="Nacute" unicode="&#x143;" horiz-adv-x="1460" 
d="M190 0q-44 0 -44 44v1236q0 44 44 44h266q24 0 39 -8.5t27 -29.5l506 -890v884q0 44 44 44h198q44 0 44 -44v-1236q0 -44 -44 -44h-266q-24 0 -39 8.5t-27 29.5l-506 890v-884q0 -44 -44 -44h-198zM904 1794q15 12 28 12q9 0 17.5 -4.5t14.5 -15.5l76 -118q5 -8 7.5 -14
t2.5 -12q0 -17 -24 -32l-324 -182q-17 -10 -30 -10q-20 0 -36 22l-30 40q-12 15 -12 28q0 9 3.5 17t14.5 17z" />
    <glyph glyph-name="nacute" unicode="&#x144;" horiz-adv-x="1170" 
d="M178 0q-44 0 -44 44v892q0 44 44 44h190q44 0 44 -44v-68q20 25 48 48.5t64.5 42t81.5 30t100 11.5q90 0 153.5 -30.5t103.5 -82.5t58.5 -121.5t18.5 -147.5v-574q0 -44 -44 -44h-204q-44 0 -44 44v544q0 31 -6 64t-22.5 60t-44.5 44.5t-71 17.5q-22 0 -45.5 -5
t-47 -15.5t-45.5 -28.5t-40 -43v-638q0 -44 -44 -44h-204zM748 1454q15 12 28 12q9 0 17.5 -4.5t14.5 -15.5l76 -118q5 -8 7.5 -14t2.5 -12q0 -17 -24 -32l-324 -182q-17 -10 -30 -10q-20 0 -36 22l-30 40q-12 15 -12 28q0 9 3.5 17t14.5 17z" />
    <glyph glyph-name="Ncommaaccent" unicode="&#x145;" horiz-adv-x="1460" 
d="M190 0q-44 0 -44 44v1236q0 44 44 44h266q24 0 39 -8.5t27 -29.5l506 -890v884q0 44 44 44h198q44 0 44 -44v-1236q0 -44 -44 -44h-266q-24 0 -39 8.5t-27 29.5l-506 890v-884q0 -44 -44 -44h-198zM862 -198q0 -34 -11 -67.5t-30.5 -66t-46.5 -63t-58 -57.5
q-17 -14 -34 -14q-19 0 -36 14l-2 2q-18 15 -18 30q0 13 14 30q17 20 25.5 37t8.5 37q0 21 -11.5 36t-25 30t-24.5 33t-11 45q0 21 9 41t25.5 36t40.5 25.5t53 9.5q60 0 96 -38t36 -100z" />
    <glyph glyph-name="ncommaaccent" unicode="&#x146;" horiz-adv-x="1170" 
d="M178 0q-44 0 -44 44v892q0 44 44 44h190q44 0 44 -44v-68q20 25 48 48.5t64.5 42t81.5 30t100 11.5q90 0 153.5 -30.5t103.5 -82.5t58.5 -121.5t18.5 -147.5v-574q0 -44 -44 -44h-204q-44 0 -44 44v544q0 31 -6 64t-22.5 60t-44.5 44.5t-71 17.5q-22 0 -45.5 -5
t-47 -15.5t-45.5 -28.5t-40 -43v-638q0 -44 -44 -44h-204zM718 -198q0 -34 -11 -67.5t-30.5 -66t-46.5 -63t-58 -57.5q-17 -14 -34 -14q-19 0 -36 14l-2 2q-18 15 -18 30q0 13 14 30q17 20 25.5 37t8.5 37q0 21 -11.5 36t-25 30t-24.5 33t-11 45q0 21 9 41t25.5 36
t40.5 25.5t53 9.5q60 0 96 -38t36 -100z" />
    <glyph glyph-name="Ncaron" unicode="&#x147;" horiz-adv-x="1460" 
d="M190 0q-44 0 -44 44v1236q0 44 44 44h266q24 0 39 -8.5t27 -29.5l506 -890v884q0 44 44 44h198q44 0 44 -44v-1236q0 -44 -44 -44h-266q-24 0 -39 8.5t-27 29.5l-506 890v-884q0 -44 -44 -44h-198zM942 1762q13 8 30 8q19 0 36 -20l36 -44q12 -15 12 -28q0 -17 -20 -34
l-268 -208q-17 -14 -38 -14t-38 14l-268 208q-20 17 -20 34q0 13 12 28l36 44q17 20 36 20q17 0 30 -8l212 -126z" />
    <glyph glyph-name="ncaron" unicode="&#x148;" horiz-adv-x="1170" 
d="M178 0q-44 0 -44 44v892q0 44 44 44h190q44 0 44 -44v-68q20 25 48 48.5t64.5 42t81.5 30t100 11.5q90 0 153.5 -30.5t103.5 -82.5t58.5 -121.5t18.5 -147.5v-574q0 -44 -44 -44h-204q-44 0 -44 44v544q0 31 -6 64t-22.5 60t-44.5 44.5t-71 17.5q-22 0 -45.5 -5
t-47 -15.5t-45.5 -28.5t-40 -43v-638q0 -44 -44 -44h-204zM798 1422q13 8 30 8q19 0 36 -20l36 -44q12 -15 12 -28q0 -17 -20 -34l-268 -208q-17 -14 -38 -14t-38 14l-268 208q-20 17 -20 34q0 13 12 28l36 44q17 20 36 20q17 0 30 -8l212 -126z" />
    <glyph glyph-name="napostrophe" unicode="&#x149;" horiz-adv-x="1544" 
d="M552 0q-44 0 -44 44v892q0 44 44 44h190q44 0 44 -44v-68q20 25 48 48.5t64.5 42t81.5 30t100 11.5q90 0 153.5 -30.5t103.5 -82.5t58.5 -121.5t18.5 -147.5v-574q0 -44 -44 -44h-204q-44 0 -44 44v544q0 31 -6 64t-22.5 60t-44.5 44.5t-71 17.5q-22 0 -45.5 -5
t-47 -15.5t-45.5 -28.5t-40 -43v-638q0 -44 -44 -44h-204zM82 1298q0 31 10.5 58t30.5 47t49.5 31.5t67.5 11.5q43 0 73.5 -14t50 -38t29 -56t9.5 -68q0 -41 -13.5 -93.5t-38 -108.5t-60 -112t-78.5 -102q-17 -20 -38 -20q-13 0 -30 10l-22 14q-24 15 -24 34q0 5 2 11.5
t8 14.5q33 47 50.5 83.5t17.5 78.5q0 38 -14.5 62t-32.5 45t-32.5 45.5t-14.5 65.5z" />
    <glyph glyph-name="Omacron" unicode="&#x14c;" horiz-adv-x="1464" 
d="M396 662q0 -91 21 -170t63 -137.5t105 -92.5t147 -34t147 34t105 92.5t63 137.5t21 170t-21 170t-63 137.5t-105 92.5t-147 34t-147 -34t-105 -92.5t-63 -137.5t-21 -170zM1384 662q0 -84 -16.5 -167.5t-50.5 -159.5t-86.5 -141t-125 -112.5t-165.5 -74.5t-208 -27
q-118 0 -212.5 27.5t-167 75.5t-124 113t-84.5 141t-48.5 158.5t-15.5 166.5t16.5 167.5t50.5 159.5t86.5 141t125 112.5t165.5 74.5t208 27q119 0 213 -27.5t166.5 -75.5t124 -113t84.5 -141t48.5 -159t15.5 -166zM962 1668q44 0 44 -44v-100q0 -44 -44 -44h-460
q-44 0 -44 44v100q0 44 44 44h460z" />
    <glyph glyph-name="omacron" unicode="&#x14d;" horiz-adv-x="1156" 
d="M368 490q0 -61 13 -114.5t39 -94t65.5 -64t92.5 -23.5t92.5 23.5t65.5 64t39 94t13 114.5t-13 114.5t-39 94t-65.5 64t-92.5 23.5t-92.5 -23.5t-65.5 -64t-39 -94t-13 -114.5zM1088 490q0 -98 -29 -189.5t-90.5 -163t-158 -114.5t-232.5 -43q-135 0 -231.5 41.5
t-158.5 112t-91 163t-29 193.5q0 65 12.5 128t39 119.5t67.5 105t98 83.5t129.5 54.5t163.5 19.5q135 0 231.5 -41.5t158.5 -112t91 -163t29 -193.5zM808 1328q44 0 44 -44v-100q0 -44 -44 -44h-460q-44 0 -44 44v100q0 44 44 44h460z" />
    <glyph glyph-name="Obreve" unicode="&#x14e;" horiz-adv-x="1464" 
d="M396 662q0 -91 21 -170t63 -137.5t105 -92.5t147 -34t147 34t105 92.5t63 137.5t21 170t-21 170t-63 137.5t-105 92.5t-147 34t-147 -34t-105 -92.5t-63 -137.5t-21 -170zM1384 662q0 -84 -16.5 -167.5t-50.5 -159.5t-86.5 -141t-125 -112.5t-165.5 -74.5t-208 -27
q-118 0 -212.5 27.5t-167 75.5t-124 113t-84.5 141t-48.5 158.5t-15.5 166.5t16.5 167.5t50.5 159.5t86.5 141t125 112.5t165.5 74.5t208 27q119 0 213 -27.5t166.5 -75.5t124 -113t84.5 -141t48.5 -159t15.5 -166zM732 1438q-55 0 -103 15t-88.5 42.5t-72 65.5t-52.5 85
q-6 12 -6 22q0 24 28 36l62 32q16 8 30 8q15 0 23.5 -7.5t16.5 -18.5q29 -39 67 -63.5t95 -24.5t95 24.5t67 63.5q8 11 16.5 18.5t23.5 7.5q14 0 30 -8l62 -32q28 -12 28 -36q0 -10 -6 -22q-21 -47 -52.5 -85t-72 -65.5t-88.5 -42.5t-103 -15z" />
    <glyph glyph-name="obreve" unicode="&#x14f;" horiz-adv-x="1156" 
d="M368 490q0 -61 13 -114.5t39 -94t65.5 -64t92.5 -23.5t92.5 23.5t65.5 64t39 94t13 114.5t-13 114.5t-39 94t-65.5 64t-92.5 23.5t-92.5 -23.5t-65.5 -64t-39 -94t-13 -114.5zM1088 490q0 -98 -29 -189.5t-90.5 -163t-158 -114.5t-232.5 -43q-135 0 -231.5 41.5
t-158.5 112t-91 163t-29 193.5q0 65 12.5 128t39 119.5t67.5 105t98 83.5t129.5 54.5t163.5 19.5q135 0 231.5 -41.5t158.5 -112t91 -163t29 -193.5zM578 1098q-55 0 -103 15t-88.5 42.5t-72 65.5t-52.5 85q-6 12 -6 22q0 24 28 36l62 32q16 8 30 8q15 0 23.5 -7.5
t16.5 -18.5q29 -39 67 -63.5t95 -24.5t95 24.5t67 63.5q8 11 16.5 18.5t23.5 7.5q14 0 30 -8l62 -32q28 -12 28 -36q0 -10 -6 -22q-21 -47 -52.5 -85t-72 -65.5t-88.5 -42.5t-103 -15z" />
    <glyph glyph-name="Ohungarumlaut" unicode="&#x150;" horiz-adv-x="1464" 
d="M396 662q0 -91 21 -170t63 -137.5t105 -92.5t147 -34t147 34t105 92.5t63 137.5t21 170t-21 170t-63 137.5t-105 92.5t-147 34t-147 -34t-105 -92.5t-63 -137.5t-21 -170zM1384 662q0 -84 -16.5 -167.5t-50.5 -159.5t-86.5 -141t-125 -112.5t-165.5 -74.5t-208 -27
q-118 0 -212.5 27.5t-167 75.5t-124 113t-84.5 141t-48.5 158.5t-15.5 166.5t16.5 167.5t50.5 159.5t86.5 141t125 112.5t165.5 74.5t208 27q119 0 213 -27.5t166.5 -75.5t124 -113t84.5 -141t48.5 -159t15.5 -166zM576 1438q-16 -16 -34 -16q-15 0 -32 14l-44 36
q-20 17 -20 34q0 8 2 14.5t8 15.5l186 276q6 11 14 15.5t16 4.5q15 0 30 -12l100 -78q11 -8 15.5 -16t4.5 -16t-4 -14t-10 -14zM948 1438q-16 -16 -34 -16q-15 0 -32 14l-44 36q-20 17 -20 34q0 8 2 14.5t8 15.5l186 276q6 11 14 15.5t16 4.5q15 0 30 -12l100 -78
q11 -8 15.5 -16t4.5 -16t-4 -14t-10 -14z" />
    <glyph glyph-name="ohungarumlaut" unicode="&#x151;" horiz-adv-x="1156" 
d="M368 490q0 -61 13 -114.5t39 -94t65.5 -64t92.5 -23.5t92.5 23.5t65.5 64t39 94t13 114.5t-13 114.5t-39 94t-65.5 64t-92.5 23.5t-92.5 -23.5t-65.5 -64t-39 -94t-13 -114.5zM1088 490q0 -98 -29 -189.5t-90.5 -163t-158 -114.5t-232.5 -43q-135 0 -231.5 41.5
t-158.5 112t-91 163t-29 193.5q0 65 12.5 128t39 119.5t67.5 105t98 83.5t129.5 54.5t163.5 19.5q135 0 231.5 -41.5t158.5 -112t91 -163t29 -193.5zM422 1098q-16 -16 -34 -16q-15 0 -32 14l-44 36q-20 17 -20 34q0 8 2 14.5t8 15.5l186 276q6 11 14 15.5t16 4.5
q15 0 30 -12l100 -78q11 -8 15.5 -16t4.5 -16t-4 -14t-10 -14zM794 1098q-16 -16 -34 -16q-15 0 -32 14l-44 36q-20 17 -20 34q0 8 2 14.5t8 15.5l186 276q6 11 14 15.5t16 4.5q15 0 30 -12l100 -78q11 -8 15.5 -16t4.5 -16t-4 -14t-10 -14z" />
    <glyph glyph-name="OE" unicode="&#x152;" horiz-adv-x="1896" 
d="M1808 44q0 -44 -44 -44h-1040q-118 0 -211.5 25.5t-165 71.5t-122.5 108t-83 136t-47 155.5t-15 165.5q0 85 16 167t49.5 155.5t85 136t123 107.5t163.5 70.5t207 25.5h1040q44 0 44 -44v-148q0 -44 -44 -44h-532v-300h458q44 0 44 -44v-148q0 -44 -44 -44h-458v-316h532
q44 0 44 -44v-148zM928 232v860h-184q-98 0 -164.5 -35.5t-107 -95t-58.5 -137t-18 -162.5t18 -162.5t58.5 -137t107 -95t164.5 -35.5h184z" />
    <glyph glyph-name="oe" unicode="&#x153;" horiz-adv-x="1790" 
d="M1722 462q0 -44 -44 -44h-600q6 -55 21.5 -96t43.5 -68t69.5 -40.5t99.5 -13.5q63 0 125.5 16.5t116.5 49.5q21 12 34 9.5t24 -23.5l62 -112q21 -39 -14 -62q-75 -51 -170 -74.5t-188 -23.5q-131 0 -221 40.5t-147 109.5q-57 -68 -147.5 -109t-218.5 -41
q-129 0 -223.5 41.5t-156 111.5t-91 161.5t-29.5 191.5q0 99 29 191.5t90.5 164.5t156.5 115t226 43q127 0 216 -40.5t148 -109.5q53 69 134.5 109.5t199.5 40.5t204 -41.5t141.5 -110.5t82 -159t26.5 -187v-40zM368 490q0 -61 13 -114.5t39 -94t65.5 -64t92.5 -23.5
t92.5 23.5t65.5 64t39 94t13 114.5t-13 114.5t-39 94t-65.5 64t-92.5 23.5t-92.5 -23.5t-65.5 -64t-39 -94t-13 -114.5zM1440 592q-5 47 -17 86.5t-34 68t-54 44t-75 15.5q-44 0 -75.5 -15.5t-53 -44t-34.5 -68t-19 -86.5h362z" />
    <glyph glyph-name="Racute" unicode="&#x154;" horiz-adv-x="1258" 
d="M190 0q-44 0 -44 44v1236q0 44 44 44h394q152 0 257.5 -33t171.5 -90t95.5 -134t29.5 -165q0 -125 -57 -216.5t-185 -141.5q52 -50 97.5 -111t83.5 -127t68 -134t53 -130q8 -21 -0.5 -31.5t-29.5 -10.5h-242q-26 0 -39 9t-21 33q-17 48 -42 102.5t-57.5 111t-72.5 111.5
t-88 105h-156v-428q0 -44 -44 -44h-216zM450 692h132q67 0 113 16t73.5 43t39.5 64t12 79t-11 79t-37 64t-68.5 43t-105.5 16h-148v-404zM812 1794q15 12 28 12q9 0 17.5 -4.5t14.5 -15.5l76 -118q5 -8 7.5 -14t2.5 -12q0 -17 -24 -32l-324 -182q-17 -10 -30 -10
q-20 0 -36 22l-30 40q-12 15 -12 28q0 9 3.5 17t14.5 17z" />
    <glyph glyph-name="racute" unicode="&#x155;" horiz-adv-x="802" 
d="M178 0q-44 0 -44 44v892q0 44 44 44h190q44 0 44 -44v-94q20 28 45.5 56.5t58.5 51t74 36.5t94 14q44 0 86 -12q43 -12 34 -56l-38 -174q-5 -24 -16 -30t-34 2q-51 18 -104 18t-101.5 -18t-84.5 -56v-630q0 -44 -44 -44h-204zM638 1454q15 12 28 12q9 0 17.5 -4.5
t14.5 -15.5l76 -118q5 -8 7.5 -14t2.5 -12q0 -17 -24 -32l-324 -182q-17 -10 -30 -10q-20 0 -36 22l-30 40q-12 15 -12 28q0 9 3.5 17t14.5 17z" />
    <glyph glyph-name="Rcommaaccent" unicode="&#x156;" horiz-adv-x="1258" 
d="M190 0q-44 0 -44 44v1236q0 44 44 44h394q152 0 257.5 -33t171.5 -90t95.5 -134t29.5 -165q0 -125 -57 -216.5t-185 -141.5q52 -50 97.5 -111t83.5 -127t68 -134t53 -130q8 -21 -0.5 -31.5t-29.5 -10.5h-242q-26 0 -39 9t-21 33q-17 48 -42 102.5t-57.5 111t-72.5 111.5
t-88 105h-156v-428q0 -44 -44 -44h-216zM450 692h132q67 0 113 16t73.5 43t39.5 64t12 79t-11 79t-37 64t-68.5 43t-105.5 16h-148v-404zM794 -198q0 -34 -11 -67.5t-30.5 -66t-46.5 -63t-58 -57.5q-17 -14 -34 -14q-19 0 -36 14l-2 2q-18 15 -18 30q0 13 14 30
q17 20 25.5 37t8.5 37q0 21 -11.5 36t-25 30t-24.5 33t-11 45q0 21 9 41t25.5 36t40.5 25.5t53 9.5q60 0 96 -38t36 -100z" />
    <glyph glyph-name="rcommaaccent" unicode="&#x157;" horiz-adv-x="802" 
d="M178 0q-44 0 -44 44v892q0 44 44 44h190q44 0 44 -44v-94q20 28 45.5 56.5t58.5 51t74 36.5t94 14q44 0 86 -12q43 -12 34 -56l-38 -174q-5 -24 -16 -30t-34 2q-51 18 -104 18t-101.5 -18t-84.5 -56v-630q0 -44 -44 -44h-204zM412 -198q0 -34 -11 -67.5t-30.5 -66
t-46.5 -63t-58 -57.5q-17 -14 -34 -14q-19 0 -36 14l-2 2q-18 15 -18 30q0 13 14 30q17 20 25.5 37t8.5 37q0 21 -11.5 36t-25 30t-24.5 33t-11 45q0 21 9 41t25.5 36t40.5 25.5t53 9.5q60 0 96 -38t36 -100z" />
    <glyph glyph-name="Rcaron" unicode="&#x158;" horiz-adv-x="1258" 
d="M190 0q-44 0 -44 44v1236q0 44 44 44h394q152 0 257.5 -33t171.5 -90t95.5 -134t29.5 -165q0 -125 -57 -216.5t-185 -141.5q52 -50 97.5 -111t83.5 -127t68 -134t53 -130q8 -21 -0.5 -31.5t-29.5 -10.5h-242q-26 0 -39 9t-21 33q-17 48 -42 102.5t-57.5 111t-72.5 111.5
t-88 105h-156v-428q0 -44 -44 -44h-216zM450 692h132q67 0 113 16t73.5 43t39.5 64t12 79t-11 79t-37 64t-68.5 43t-105.5 16h-148v-404zM850 1762q13 8 30 8q19 0 36 -20l36 -44q12 -15 12 -28q0 -17 -20 -34l-268 -208q-17 -14 -38 -14t-38 14l-268 208q-20 17 -20 34
q0 13 12 28l36 44q17 20 36 20q17 0 30 -8l212 -126z" />
    <glyph glyph-name="rcaron" unicode="&#x159;" horiz-adv-x="802" 
d="M178 0q-44 0 -44 44v892q0 44 44 44h190q44 0 44 -44v-94q20 28 45.5 56.5t58.5 51t74 36.5t94 14q44 0 86 -12q43 -12 34 -56l-38 -174q-5 -24 -16 -30t-34 2q-51 18 -104 18t-101.5 -18t-84.5 -56v-630q0 -44 -44 -44h-204zM688 1422q13 8 30 8q19 0 36 -20l36 -44
q12 -15 12 -28q0 -17 -20 -34l-268 -208q-17 -14 -38 -14t-38 14l-268 208q-20 17 -20 34q0 13 12 28l36 44q17 20 36 20q17 0 30 -8l212 -126z" />
    <glyph glyph-name="Sacute" unicode="&#x15a;" horiz-adv-x="1142" 
d="M1078 400q0 -100 -37.5 -178t-107 -132t-168.5 -82t-221 -28q-77 0 -144.5 10.5t-125 28t-105 40.5t-83.5 49q-36 24 -12 62l90 150q24 39 58 10q66 -48 148.5 -76t183.5 -28q106 0 163 33.5t57 104.5q0 37 -15 63t-43.5 45.5t-69 33.5t-90.5 26q-44 10 -96.5 22.5
t-104.5 31.5t-100.5 47t-86 69t-60 98t-22.5 134q0 99 38 175.5t108 128.5t168 79t218 27q133 0 234 -28.5t166 -69.5q36 -24 16 -62l-84 -152q-20 -40 -58 -14q-54 35 -125.5 57.5t-162.5 22.5q-60 0 -101 -10.5t-66 -29.5t-36 -45t-11 -57q0 -40 16.5 -65t45 -41.5
t68 -27.5t86.5 -22q90 -22 175 -47.5t151 -68.5t106 -110.5t40 -173.5zM758 1794q15 12 28 12q9 0 17.5 -4.5t14.5 -15.5l76 -118q5 -8 7.5 -14t2.5 -12q0 -17 -24 -32l-324 -182q-17 -10 -30 -10q-20 0 -36 22l-30 40q-12 15 -12 28q0 9 3.5 17t14.5 17z" />
    <glyph glyph-name="sacute" unicode="&#x15b;" horiz-adv-x="962" 
d="M902 295q0 -83 -32 -143t-90.5 -98.5t-139.5 -56.5t-178 -18q-133 0 -227.5 27.5t-154.5 68.5q-38 24 -14 60l78 120q23 38 60 12q57 -41 117 -58.5t137 -17.5q71 0 114.5 17.5t43.5 62.5q0 25 -14 41t-41 27.5t-66.5 20t-90.5 17.5t-107.5 26t-103.5 50t-78 87.5
t-31 138.5q0 88 35 149t94.5 99t138.5 55t168 17q110 0 196 -21t142 -53q39 -21 18 -60l-66 -124q-12 -21 -25 -24.5t-33 10.5q-42 27 -97.5 43.5t-126.5 16.5q-77 0 -117.5 -20.5t-40.5 -61.5q0 -28 19.5 -45t49.5 -27.5t67.5 -16.5t73.5 -13q32 -6 68.5 -15t72 -24
t68.5 -37t58 -54.5t40 -76t15 -101.5zM682 1454q15 12 28 12q9 0 17.5 -4.5t14.5 -15.5l76 -118q5 -8 7.5 -14t2.5 -12q0 -17 -24 -32l-324 -182q-17 -10 -30 -10q-20 0 -36 22l-30 40q-12 15 -12 28q0 9 3.5 17t14.5 17z" />
    <glyph glyph-name="Scircumflex" unicode="&#x15c;" horiz-adv-x="1142" 
d="M1078 400q0 -100 -37.5 -178t-107 -132t-168.5 -82t-221 -28q-77 0 -144.5 10.5t-125 28t-105 40.5t-83.5 49q-36 24 -12 62l90 150q24 39 58 10q66 -48 148.5 -76t183.5 -28q106 0 163 33.5t57 104.5q0 37 -15 63t-43.5 45.5t-69 33.5t-90.5 26q-44 10 -96.5 22.5
t-104.5 31.5t-100.5 47t-86 69t-60 98t-22.5 134q0 99 38 175.5t108 128.5t168 79t218 27q133 0 234 -28.5t166 -69.5q36 -24 16 -62l-84 -152q-20 -40 -58 -14q-54 35 -125.5 57.5t-162.5 22.5q-60 0 -101 -10.5t-66 -29.5t-36 -45t-11 -57q0 -40 16.5 -65t45 -41.5
t68 -27.5t86.5 -22q90 -22 175 -47.5t151 -68.5t106 -110.5t40 -173.5zM372 1430q-13 -8 -30 -8q-19 0 -36 20l-36 44q-12 15 -12 28q0 17 20 34l268 208q17 14 38 14t38 -14l268 -208q20 -17 20 -34q0 -13 -12 -28l-36 -44q-17 -20 -36 -20q-17 0 -30 8l-212 126z" />
    <glyph glyph-name="scircumflex" unicode="&#x15d;" horiz-adv-x="962" 
d="M902 295q0 -83 -32 -143t-90.5 -98.5t-139.5 -56.5t-178 -18q-133 0 -227.5 27.5t-154.5 68.5q-38 24 -14 60l78 120q23 38 60 12q57 -41 117 -58.5t137 -17.5q71 0 114.5 17.5t43.5 62.5q0 25 -14 41t-41 27.5t-66.5 20t-90.5 17.5t-107.5 26t-103.5 50t-78 87.5
t-31 138.5q0 88 35 149t94.5 99t138.5 55t168 17q110 0 196 -21t142 -53q39 -21 18 -60l-66 -124q-12 -21 -25 -24.5t-33 10.5q-42 27 -97.5 43.5t-126.5 16.5q-77 0 -117.5 -20.5t-40.5 -61.5q0 -28 19.5 -45t49.5 -27.5t67.5 -16.5t73.5 -13q32 -6 68.5 -15t72 -24
t68.5 -37t58 -54.5t40 -76t15 -101.5zM308 1090q-13 -8 -30 -8q-19 0 -36 20l-36 44q-12 15 -12 28q0 17 20 34l268 208q17 14 38 14t38 -14l268 -208q20 -17 20 -34q0 -13 -12 -28l-36 -44q-17 -20 -36 -20q-17 0 -30 8l-212 126z" />
    <glyph glyph-name="Scedilla" unicode="&#x15e;" horiz-adv-x="1142" 
d="M470 -18q-127 9 -224 45t-160 81q-36 24 -12 62l90 150q24 39 58 10q66 -48 148.5 -76t183.5 -28q106 0 163 33.5t57 104.5q0 37 -15 63t-43.5 45.5t-69 33.5t-90.5 26q-44 10 -96.5 22.5t-104.5 31.5t-100.5 47t-86 69t-60 98t-22.5 134q0 99 38 175.5t108 128.5t168 79
t218 27q133 0 234 -28.5t166 -69.5q36 -24 16 -62l-84 -152q-20 -40 -58 -14q-54 35 -125.5 57.5t-162.5 22.5q-60 0 -101 -10.5t-66 -29.5t-36 -45t-11 -57q0 -40 16.5 -65t45 -41.5t68 -27.5t86.5 -22q90 -22 175 -47.5t151 -68.5t106 -110.5t40 -173.5q0 -96 -35 -171.5
t-99.5 -128.5t-156 -83t-203.5 -35l-42 -66q8 3 23.5 5.5t36.5 2.5q84 0 135 -42t51 -114q0 -39 -16 -74.5t-47.5 -62.5t-79 -43t-109.5 -16q-41 0 -83.5 9.5t-78.5 32.5q-24 15 -24 34q0 11 8 24l20 32q8 12 15.5 19t18.5 7q12 0 28 -8q20 -11 43 -15.5t49 -4.5
q33 0 55.5 14.5t22.5 43.5q0 23 -17.5 40.5t-56.5 17.5q-23 0 -37 -3t-29 -3q-14 0 -23 5.5t-21 16.5l-2 2q-16 13 -16 34q0 13 8 26z" />
    <glyph glyph-name="scedilla" unicode="&#x15f;" horiz-adv-x="962" 
d="M390 -17q-106 8 -182.5 33.5t-127.5 58.5q-38 24 -14 60l78 120q23 38 60 12q57 -41 117 -58.5t137 -17.5q71 0 114.5 17.5t43.5 62.5q0 25 -14 41t-41 27.5t-66.5 20t-90.5 17.5t-107.5 26t-103.5 50t-78 87.5t-31 138.5q0 88 35 149t94.5 99t138.5 55t168 17
q110 0 196 -21t142 -53q39 -21 18 -60l-66 -124q-12 -21 -25 -24.5t-33 10.5q-42 27 -97.5 43.5t-126.5 16.5q-77 0 -117.5 -20.5t-40.5 -61.5q0 -28 19.5 -45t49.5 -27.5t67.5 -16.5t73.5 -13q32 -6 68.5 -15t72 -24t68.5 -37t58 -54.5t40 -76t15 -101.5q0 -79 -29 -136.5
t-81.5 -95.5t-126 -58t-161.5 -24l-44 -66q8 3 23.5 5.5t36.5 2.5q84 0 135 -42t51 -114q0 -39 -16 -74.5t-47.5 -62.5t-79 -43t-109.5 -16q-41 0 -83.5 9.5t-78.5 32.5q-24 15 -24 34q0 11 8 24l20 32q8 12 15.5 19t18.5 7q12 0 28 -8q20 -11 43 -15.5t49 -4.5
q33 0 55.5 14.5t22.5 43.5q0 23 -17.5 40.5t-56.5 17.5q-23 0 -37 -3t-29 -3q-14 0 -23 5.5t-21 16.5l-2 2q-16 13 -16 34q0 13 8 26z" />
    <glyph glyph-name="Scaron" unicode="&#x160;" horiz-adv-x="1142" 
d="M1078 400q0 -100 -37.5 -178t-107 -132t-168.5 -82t-221 -28q-77 0 -144.5 10.5t-125 28t-105 40.5t-83.5 49q-36 24 -12 62l90 150q24 39 58 10q66 -48 148.5 -76t183.5 -28q106 0 163 33.5t57 104.5q0 37 -15 63t-43.5 45.5t-69 33.5t-90.5 26q-44 10 -96.5 22.5
t-104.5 31.5t-100.5 47t-86 69t-60 98t-22.5 134q0 99 38 175.5t108 128.5t168 79t218 27q133 0 234 -28.5t166 -69.5q36 -24 16 -62l-84 -152q-20 -40 -58 -14q-54 35 -125.5 57.5t-162.5 22.5q-60 0 -101 -10.5t-66 -29.5t-36 -45t-11 -57q0 -40 16.5 -65t45 -41.5
t68 -27.5t86.5 -22q90 -22 175 -47.5t151 -68.5t106 -110.5t40 -173.5zM796 1762q13 8 30 8q19 0 36 -20l36 -44q12 -15 12 -28q0 -17 -20 -34l-268 -208q-17 -14 -38 -14t-38 14l-268 208q-20 17 -20 34q0 13 12 28l36 44q17 20 36 20q17 0 30 -8l212 -126z" />
    <glyph glyph-name="scaron" unicode="&#x161;" horiz-adv-x="962" 
d="M902 295q0 -83 -32 -143t-90.5 -98.5t-139.5 -56.5t-178 -18q-133 0 -227.5 27.5t-154.5 68.5q-38 24 -14 60l78 120q23 38 60 12q57 -41 117 -58.5t137 -17.5q71 0 114.5 17.5t43.5 62.5q0 25 -14 41t-41 27.5t-66.5 20t-90.5 17.5t-107.5 26t-103.5 50t-78 87.5
t-31 138.5q0 88 35 149t94.5 99t138.5 55t168 17q110 0 196 -21t142 -53q39 -21 18 -60l-66 -124q-12 -21 -25 -24.5t-33 10.5q-42 27 -97.5 43.5t-126.5 16.5q-77 0 -117.5 -20.5t-40.5 -61.5q0 -28 19.5 -45t49.5 -27.5t67.5 -16.5t73.5 -13q32 -6 68.5 -15t72 -24
t68.5 -37t58 -54.5t40 -76t15 -101.5zM732 1422q13 8 30 8q19 0 36 -20l36 -44q12 -15 12 -28q0 -17 -20 -34l-268 -208q-17 -14 -38 -14t-38 14l-268 208q-20 17 -20 34q0 13 12 28l36 44q17 20 36 20q17 0 30 -8l212 -126z" />
    <glyph glyph-name="Tcommaaccent" unicode="&#x162;" horiz-adv-x="1084" 
d="M434 0q-44 0 -44 44v1032h-312q-44 0 -44 44v160q0 44 44 44h928q44 0 44 -44v-160q0 -44 -44 -44h-312v-1032q0 -44 -44 -44h-216zM674 -198q0 -34 -11 -67.5t-30.5 -66t-46.5 -63t-58 -57.5q-17 -14 -34 -14q-19 0 -36 14l-2 2q-18 15 -18 30q0 13 14 30q17 20 25.5 37
t8.5 37q0 21 -11.5 36t-25 30t-24.5 33t-11 45q0 21 9 41t25.5 36t40.5 25.5t53 9.5q60 0 96 -38t36 -100z" />
    <glyph glyph-name="tcommaaccent" unicode="&#x163;" horiz-adv-x="822" 
d="M60 764q-44 0 -44 44v128q0 44 44 44h126v236q0 44 44 44h204q44 0 44 -44v-236h248q44 0 44 -44v-128q0 -44 -44 -44h-248v-406q0 -35 5.5 -62.5t18.5 -46t34.5 -28t53.5 -9.5q26 0 47 5.5t41 16.5q40 23 54 -20l46 -116q15 -41 -22 -62q-53 -32 -109 -44t-119 -12
q-82 0 -145.5 19t-107 61.5t-66.5 111t-23 166.5v426h-126zM640 -198q0 -34 -11 -67.5t-30.5 -66t-46.5 -63t-58 -57.5q-17 -14 -34 -14q-19 0 -36 14l-2 2q-18 15 -18 30q0 13 14 30q17 20 25.5 37t8.5 37q0 21 -11.5 36t-25 30t-24.5 33t-11 45q0 21 9 41t25.5 36
t40.5 25.5t53 9.5q60 0 96 -38t36 -100z" />
    <glyph glyph-name="Tcaron" unicode="&#x164;" horiz-adv-x="1084" 
d="M434 0q-44 0 -44 44v1032h-312q-44 0 -44 44v160q0 44 44 44h928q44 0 44 -44v-160q0 -44 -44 -44h-312v-1032q0 -44 -44 -44h-216zM754 1762q13 8 30 8q19 0 36 -20l36 -44q12 -15 12 -28q0 -17 -20 -34l-268 -208q-17 -14 -38 -14t-38 14l-268 208q-20 17 -20 34
q0 13 12 28l36 44q17 20 36 20q17 0 30 -8l212 -126z" />
    <glyph glyph-name="tcaron" unicode="&#x165;" horiz-adv-x="822" 
d="M60 764q-44 0 -44 44v128q0 44 44 44h126v236q0 44 44 44h204q44 0 44 -44v-236h248q44 0 44 -44v-128q0 -44 -44 -44h-248v-406q0 -35 5.5 -62.5t18.5 -46t34.5 -28t53.5 -9.5q26 0 47 5.5t41 16.5q40 23 54 -20l46 -116q15 -41 -22 -62q-53 -32 -109 -44t-119 -12
q-82 0 -145.5 19t-107 61.5t-66.5 111t-23 166.5v426h-126zM640 1092q-23 6 -32 15t-6 33l40 362q3 23 16 35t34 7l136 -30q32 -6 32 -32q0 -5 -1 -10t-3 -10l-134 -346q-9 -23 -22 -29.5t-36 -0.5z" />
    <glyph glyph-name="Tbar" unicode="&#x166;" horiz-adv-x="1084" 
d="M434 0q-44 0 -44 44v510h-196q-44 0 -44 44v130q0 44 44 44h196v304h-312q-44 0 -44 44v160q0 44 44 44h928q44 0 44 -44v-160q0 -44 -44 -44h-312v-304h196q44 0 44 -44v-130q0 -44 -44 -44h-196v-510q0 -44 -44 -44h-216z" />
    <glyph glyph-name="tbar" unicode="&#x167;" horiz-adv-x="842" 
d="M70 764q-44 0 -44 44v128q0 44 44 44h126v236q0 44 44 44h204q44 0 44 -44v-236h248q44 0 44 -44v-128q0 -44 -44 -44h-248v-142h176q44 0 44 -44v-100q0 -44 -44 -44h-176v-76q0 -35 5.5 -62.5t18.5 -46t34.5 -28t53.5 -9.5q26 0 47 5.5t41 16.5q40 23 54 -20l46 -116
q15 -41 -22 -62q-53 -32 -109 -44t-119 -12q-82 0 -145.5 19t-107 61.5t-66.5 111t-23 166.5v96h-76q-44 0 -44 44v100q0 44 44 44h76v142h-126z" />
    <glyph glyph-name="Utilde" unicode="&#x168;" horiz-adv-x="1364" 
d="M1230 556q0 -139 -36 -246t-105.5 -180.5t-171.5 -111.5t-235 -38t-235 38t-171.5 111.5t-105.5 180.5t-36 246v724q0 44 44 44h216q44 0 44 -44v-752q0 -75 18.5 -131t51 -93t77 -55.5t97.5 -18.5q52 0 97 18.5t77.5 55.5t51 93t18.5 131v752q0 44 44 44h216
q44 0 44 -44v-724v0zM806 1444q-46 0 -80 12t-61.5 27t-52 27t-50.5 12q-21 0 -46 -10.5t-48 -33.5q-18 -18 -34 -18q-15 0 -32 14l-48 38q-20 17 -20 34q0 13 10 30q45 74 98 105t116 31q46 0 80 -12t61.5 -27t52 -27t50.5 -12q21 0 46 10.5t48 33.5q18 18 34 18
q15 0 32 -14l48 -38q9 -8 14.5 -16.5t5.5 -17.5q0 -13 -10 -30q-45 -74 -98 -105t-116 -31z" />
    <glyph glyph-name="utilde" unicode="&#x169;" horiz-adv-x="1152" 
d="M740 112q-19 -25 -46 -48.5t-62.5 -42t-80 -30t-97.5 -11.5q-88 0 -149.5 30.5t-100.5 82.5t-56.5 121.5t-17.5 147.5v574q0 44 44 44h204q44 0 44 -44v-544q0 -32 5.5 -65t20.5 -60t41.5 -44t68.5 -17q41 0 87 20.5t81 71.5v638q0 44 44 44h204q44 0 44 -44v-892
q0 -44 -44 -44h-190q-44 0 -44 44v68v0zM698 1104q-46 0 -80 12t-61.5 27t-52 27t-50.5 12q-21 0 -46 -10.5t-48 -33.5q-18 -18 -34 -18q-15 0 -32 14l-48 38q-20 17 -20 34q0 13 10 30q45 74 98 105t116 31q46 0 80 -12t61.5 -27t52 -27t50.5 -12q21 0 46 10.5t48 33.5
q18 18 34 18q15 0 32 -14l48 -38q9 -8 14.5 -16.5t5.5 -17.5q0 -13 -10 -30q-45 -74 -98 -105t-116 -31z" />
    <glyph glyph-name="Umacron" unicode="&#x16a;" horiz-adv-x="1364" 
d="M1230 556q0 -139 -36 -246t-105.5 -180.5t-171.5 -111.5t-235 -38t-235 38t-171.5 111.5t-105.5 180.5t-36 246v724q0 44 44 44h216q44 0 44 -44v-752q0 -75 18.5 -131t51 -93t77 -55.5t97.5 -18.5q52 0 97 18.5t77.5 55.5t51 93t18.5 131v752q0 44 44 44h216
q44 0 44 -44v-724v0zM912 1668q44 0 44 -44v-100q0 -44 -44 -44h-460q-44 0 -44 44v100q0 44 44 44h460z" />
    <glyph glyph-name="umacron" unicode="&#x16b;" horiz-adv-x="1152" 
d="M740 112q-19 -25 -46 -48.5t-62.5 -42t-80 -30t-97.5 -11.5q-88 0 -149.5 30.5t-100.5 82.5t-56.5 121.5t-17.5 147.5v574q0 44 44 44h204q44 0 44 -44v-544q0 -32 5.5 -65t20.5 -60t41.5 -44t68.5 -17q41 0 87 20.5t81 71.5v638q0 44 44 44h204q44 0 44 -44v-892
q0 -44 -44 -44h-190q-44 0 -44 44v68v0zM804 1328q44 0 44 -44v-100q0 -44 -44 -44h-460q-44 0 -44 44v100q0 44 44 44h460z" />
    <glyph glyph-name="Ubreve" unicode="&#x16c;" horiz-adv-x="1364" 
d="M1230 556q0 -139 -36 -246t-105.5 -180.5t-171.5 -111.5t-235 -38t-235 38t-171.5 111.5t-105.5 180.5t-36 246v724q0 44 44 44h216q44 0 44 -44v-752q0 -75 18.5 -131t51 -93t77 -55.5t97.5 -18.5q52 0 97 18.5t77.5 55.5t51 93t18.5 131v752q0 44 44 44h216
q44 0 44 -44v-724v0zM682 1438q-55 0 -103 15t-88.5 42.5t-72 65.5t-52.5 85q-6 12 -6 22q0 24 28 36l62 32q16 8 30 8q15 0 23.5 -7.5t16.5 -18.5q29 -39 67 -63.5t95 -24.5t95 24.5t67 63.5q8 11 16.5 18.5t23.5 7.5q14 0 30 -8l62 -32q28 -12 28 -36q0 -10 -6 -22
q-21 -47 -52.5 -85t-72 -65.5t-88.5 -42.5t-103 -15z" />
    <glyph glyph-name="ubreve" unicode="&#x16d;" horiz-adv-x="1152" 
d="M740 112q-19 -25 -46 -48.5t-62.5 -42t-80 -30t-97.5 -11.5q-88 0 -149.5 30.5t-100.5 82.5t-56.5 121.5t-17.5 147.5v574q0 44 44 44h204q44 0 44 -44v-544q0 -32 5.5 -65t20.5 -60t41.5 -44t68.5 -17q41 0 87 20.5t81 71.5v638q0 44 44 44h204q44 0 44 -44v-892
q0 -44 -44 -44h-190q-44 0 -44 44v68v0zM574 1098q-55 0 -103 15t-88.5 42.5t-72 65.5t-52.5 85q-6 12 -6 22q0 24 28 36l62 32q16 8 30 8q15 0 23.5 -7.5t16.5 -18.5q29 -39 67 -63.5t95 -24.5t95 24.5t67 63.5q8 11 16.5 18.5t23.5 7.5q14 0 30 -8l62 -32q28 -12 28 -36
q0 -10 -6 -22q-21 -47 -52.5 -85t-72 -65.5t-88.5 -42.5t-103 -15z" />
    <glyph glyph-name="Uring" unicode="&#x16e;" horiz-adv-x="1364" 
d="M1230 556q0 -139 -36 -246t-105.5 -180.5t-171.5 -111.5t-235 -38t-235 38t-171.5 111.5t-105.5 180.5t-36 246v724q0 44 44 44h216q44 0 44 -44v-752q0 -75 18.5 -131t51 -93t77 -55.5t97.5 -18.5q52 0 97 18.5t77.5 55.5t51 93t18.5 131v752q0 44 44 44h216
q44 0 44 -44v-724v0zM940 1652q0 -56 -20.5 -103t-56 -80.5t-82.5 -52t-99 -18.5q-53 0 -99.5 18.5t-82 52t-56 80.5t-20.5 103t20.5 103t56 80.5t82 52t99.5 18.5q52 0 99 -18.5t82.5 -52t56 -80.5t20.5 -103zM564 1652q0 -56 33.5 -89t84.5 -33t84.5 33t33.5 89t-33.5 89
t-84.5 33t-84.5 -33t-33.5 -89z" />
    <glyph glyph-name="uring" unicode="&#x16f;" horiz-adv-x="1152" 
d="M740 112q-19 -25 -46 -48.5t-62.5 -42t-80 -30t-97.5 -11.5q-88 0 -149.5 30.5t-100.5 82.5t-56.5 121.5t-17.5 147.5v574q0 44 44 44h204q44 0 44 -44v-544q0 -32 5.5 -65t20.5 -60t41.5 -44t68.5 -17q41 0 87 20.5t81 71.5v638q0 44 44 44h204q44 0 44 -44v-892
q0 -44 -44 -44h-190q-44 0 -44 44v68v0zM832 1312q0 -56 -20.5 -103t-56 -80.5t-82.5 -52t-99 -18.5q-53 0 -99.5 18.5t-82 52t-56 80.5t-20.5 103t20.5 103t56 80.5t82 52t99.5 18.5q52 0 99 -18.5t82.5 -52t56 -80.5t20.5 -103zM456 1312q0 -56 33.5 -89t84.5 -33t84.5 33
t33.5 89t-33.5 89t-84.5 33t-84.5 -33t-33.5 -89z" />
    <glyph glyph-name="Uhungarumlaut" unicode="&#x170;" horiz-adv-x="1364" 
d="M1230 556q0 -139 -36 -246t-105.5 -180.5t-171.5 -111.5t-235 -38t-235 38t-171.5 111.5t-105.5 180.5t-36 246v724q0 44 44 44h216q44 0 44 -44v-752q0 -75 18.5 -131t51 -93t77 -55.5t97.5 -18.5q52 0 97 18.5t77.5 55.5t51 93t18.5 131v752q0 44 44 44h216
q44 0 44 -44v-724v0zM526 1438q-16 -16 -34 -16q-15 0 -32 14l-44 36q-20 17 -20 34q0 8 2 14.5t8 15.5l186 276q6 11 14 15.5t16 4.5q15 0 30 -12l100 -78q11 -8 15.5 -16t4.5 -16t-4 -14t-10 -14zM898 1438q-16 -16 -34 -16q-15 0 -32 14l-44 36q-20 17 -20 34q0 8 2 14.5
t8 15.5l186 276q6 11 14 15.5t16 4.5q15 0 30 -12l100 -78q11 -8 15.5 -16t4.5 -16t-4 -14t-10 -14z" />
    <glyph glyph-name="uhungarumlaut" unicode="&#x171;" horiz-adv-x="1152" 
d="M740 112q-19 -25 -46 -48.5t-62.5 -42t-80 -30t-97.5 -11.5q-88 0 -149.5 30.5t-100.5 82.5t-56.5 121.5t-17.5 147.5v574q0 44 44 44h204q44 0 44 -44v-544q0 -32 5.5 -65t20.5 -60t41.5 -44t68.5 -17q41 0 87 20.5t81 71.5v638q0 44 44 44h204q44 0 44 -44v-892
q0 -44 -44 -44h-190q-44 0 -44 44v68v0zM418 1098q-16 -16 -34 -16q-15 0 -32 14l-44 36q-20 17 -20 34q0 8 2 14.5t8 15.5l186 276q6 11 14 15.5t16 4.5q15 0 30 -12l100 -78q11 -8 15.5 -16t4.5 -16t-4 -14t-10 -14zM790 1098q-16 -16 -34 -16q-15 0 -32 14l-44 36
q-20 17 -20 34q0 8 2 14.5t8 15.5l186 276q6 11 14 15.5t16 4.5q15 0 30 -12l100 -78q11 -8 15.5 -16t4.5 -16t-4 -14t-10 -14z" />
    <glyph glyph-name="Uogonek" unicode="&#x172;" horiz-adv-x="1364" 
d="M714 -428q-55 0 -97.5 14.5t-72 39t-45 57t-15.5 69.5q0 36 13.5 71t36.5 65.5t53.5 55t64.5 40.5q-252 9 -385 155.5t-133 416.5v724q0 44 44 44h216q44 0 44 -44v-752q0 -75 18.5 -131t51 -93t77 -55.5t97.5 -18.5q52 0 97 18.5t77.5 55.5t51 93t18.5 131v752
q0 44 44 44h216q44 0 44 -44v-724q0 -115 -21.5 -203.5t-64.5 -155t-106.5 -112.5t-147.5 -75q-29 -10 -66 -23.5t-70 -35.5t-55.5 -54.5t-22.5 -78.5q0 -19 5 -35.5t15.5 -28.5t27.5 -19t42 -7q14 0 32 3t38 11q26 11 39 8t27 -26l20 -32q25 -37 -12 -62q-39 -27 -89 -42.5
t-107 -15.5z" />
    <glyph glyph-name="uogonek" unicode="&#x173;" horiz-adv-x="1152" 
d="M584 -244q0 31 11.5 63.5t32 64.5t49 61.5t63.5 54.5v112q-19 -25 -46 -48.5t-62.5 -42t-80 -30t-97.5 -11.5q-88 0 -149.5 30.5t-100.5 82.5t-56.5 121.5t-17.5 147.5v574q0 44 44 44h204q44 0 44 -44v-544q0 -32 5.5 -65t20.5 -60t41.5 -44t68.5 -17q41 0 87 20.5
t81 71.5v638q0 44 44 44h204q44 0 44 -44v-892q0 -44 -44 -44h-112q-23 -34 -39.5 -60t-27 -47.5t-15 -40t-4.5 -36.5q0 -36 21 -62t69 -26q14 0 33 3.5t39 12.5q26 11 38 7t26 -27l20 -32q25 -37 -12 -62q-39 -27 -89 -42.5t-107 -15.5q-56 0 -99 14.5t-72 39.5t-44 58.5
t-15 71.5z" />
    <glyph glyph-name="Wcircumflex" unicode="&#x174;" horiz-adv-x="1968" 
d="M1880 1324q24 0 32 -9.5t8 -24.5q0 -6 -1 -14t-3 -16q-21 -104 -47.5 -214.5t-56.5 -221.5t-62 -220t-65.5 -209.5t-66.5 -191t-64 -163.5q-9 -21 -23.5 -30.5t-38.5 -9.5h-186q-24 0 -37.5 9.5t-22.5 30.5q-83 207 -151.5 420t-110.5 424q-42 -211 -110.5 -424
t-151.5 -420q-9 -21 -22.5 -30.5t-37.5 -9.5h-186q-24 0 -38.5 9.5t-23.5 30.5q-31 73 -64 163.5t-66.5 191t-65.5 209.5t-62 220t-56.5 221.5t-47.5 214.5q-2 8 -3 16t-1 14q0 15 8 24.5t32 9.5h218q24 0 35.5 -10t16.5 -34q23 -131 49 -255t55 -242t61 -231.5t67 -223.5
q39 109 75.5 228.5t69 241.5t59 244t46.5 238q5 24 16.5 34t35.5 10h184q24 0 35.5 -10t16.5 -34q20 -116 49.5 -238t64.5 -244t74 -241.5t78 -228.5q36 110 66 223.5t56 231.5t49 242t45 255q5 24 16.5 34t35.5 10h218zM772 1430q-13 -8 -30 -8q-19 0 -36 20l-36 44
q-12 15 -12 28q0 17 20 34l268 208q17 14 38 14t38 -14l268 -208q20 -17 20 -34q0 -13 -12 -28l-36 -44q-17 -20 -36 -20q-17 0 -30 8l-212 126z" />
    <glyph glyph-name="wcircumflex" unicode="&#x175;" horiz-adv-x="1632" 
d="M1552 980q38 0 38 -32q0 -11 -2 -24.5t-4 -21.5q-13 -66 -31.5 -140.5t-41 -152t-48 -156t-52 -152t-52.5 -140.5t-49 -121q-9 -21 -23.5 -30.5t-38.5 -9.5h-174q-24 0 -38.5 9.5t-23.5 30.5q-29 62 -58 130t-55 137t-47.5 136t-35.5 129q-15 -64 -37 -132t-47.5 -136.5
t-54.5 -135.5t-57 -128q-9 -21 -23.5 -30.5t-38.5 -9.5h-174q-24 0 -38.5 9.5t-23.5 30.5q-23 54 -49 121t-52.5 140.5t-52 152t-48 156t-41.5 152t-31 140.5q-2 8 -4 21.5t-2 24.5q0 32 38 32h218q24 0 35.5 -10t14.5 -34q12 -85 28.5 -172t35.5 -170t40 -159.5t42 -140.5
q22 64 47 141t50 160t48 169.5t41 171.5q6 24 18 34t36 10h162q24 0 36 -9.5t18 -32.5q21 -85 45 -172t48 -170.5t48 -160.5t45 -141q22 64 43 140.5t40.5 159.5t36 170t28.5 172q3 24 14.5 34t35.5 10h218zM604 1090q-13 -8 -30 -8q-19 0 -36 20l-36 44q-12 15 -12 28
q0 17 20 34l268 208q17 14 38 14t38 -14l268 -208q20 -17 20 -34q0 -13 -12 -28l-36 -44q-17 -20 -36 -20q-17 0 -30 8l-212 126z" />
    <glyph glyph-name="Ycircumflex" unicode="&#x176;" horiz-adv-x="1160" 
d="M472 0q-44 0 -44 44v410q-54 84 -111.5 183.5t-112.5 206.5t-104.5 218.5t-87.5 219.5q-8 21 0.5 31.5t29.5 10.5h230q24 0 36 -9.5t20 -32.5q45 -151 114 -306t154 -294q83 139 148 294t112 306q6 23 19 32.5t37 9.5h206q21 0 29.5 -10.5t0.5 -31.5
q-39 -108 -88.5 -219.5t-104 -218.5t-111.5 -206.5t-112 -183.5v-410q0 -44 -44 -44h-216zM368 1430q-13 -8 -30 -8q-19 0 -36 20l-36 44q-12 15 -12 28q0 17 20 34l268 208q17 14 38 14t38 -14l268 -208q20 -17 20 -34q0 -13 -12 -28l-36 -44q-17 -20 -36 -20q-17 0 -30 8
l-212 126z" />
    <glyph glyph-name="ycircumflex" unicode="&#x177;" horiz-adv-x="1042" 
d="M380 4q-35 63 -70.5 136.5t-69 152.5t-63.5 161t-56 161.5t-47 154.5t-34 140q-2 8 -4 19t-2 19q0 32 40 32h216q24 0 35.5 -10t16.5 -34q14 -83 36 -170t49 -172.5t56.5 -166.5t58.5 -153q30 72 59 153.5t55 167t48 172t38 169.5q5 24 16.5 34t35.5 10h174q40 0 40 -32
q0 -8 -2 -19t-4 -19q-14 -69 -36.5 -149t-50 -164t-59 -168.5t-64.5 -162.5q-92 -214 -199.5 -381t-232.5 -273q-17 -14 -34 -14q-8 0 -16 3t-16 11l-108 98q-8 8 -12 14t-4 14q0 16 16 32q60 59 106.5 113.5t87.5 120.5zM330 1090q-13 -8 -30 -8q-19 0 -36 20l-36 44
q-12 15 -12 28q0 17 20 34l268 208q17 14 38 14t38 -14l268 -208q20 -17 20 -34q0 -13 -12 -28l-36 -44q-17 -20 -36 -20q-17 0 -30 8l-212 126z" />
    <glyph glyph-name="Ydieresis" unicode="&#x178;" horiz-adv-x="1160" 
d="M472 0q-44 0 -44 44v410q-54 84 -111.5 183.5t-112.5 206.5t-104.5 218.5t-87.5 219.5q-8 21 0.5 31.5t29.5 10.5h230q24 0 36 -9.5t20 -32.5q45 -151 114 -306t154 -294q83 139 148 294t112 306q6 23 19 32.5t37 9.5h206q21 0 29.5 -10.5t0.5 -31.5
q-39 -108 -88.5 -219.5t-104 -218.5t-111.5 -206.5t-112 -183.5v-410q0 -44 -44 -44h-216zM534 1578q0 -30 -10.5 -56.5t-30 -46.5t-46.5 -31.5t-61 -11.5t-61 11.5t-46.5 31.5t-30 46.5t-10.5 56.5t10.5 56.5t30 46.5t46.5 31.5t61 11.5t61 -11.5t46.5 -31.5t30 -46.5
t10.5 -56.5zM922 1578q0 -30 -10.5 -56.5t-30 -46.5t-46.5 -31.5t-61 -11.5t-61 11.5t-46.5 31.5t-30 46.5t-10.5 56.5t10.5 56.5t30 46.5t46.5 31.5t61 11.5t61 -11.5t46.5 -31.5t30 -46.5t10.5 -56.5z" />
    <glyph glyph-name="Zacute" unicode="&#x179;" horiz-adv-x="1188" 
d="M116 0q-44 0 -44 44v122q0 18 5 38.5t13 37.5q30 56 80 125.5t109.5 146t125 156t126 155t112.5 143t85 120.5h-566q-44 0 -44 44v148q0 44 44 44h870q44 0 44 -44v-122q0 -18 -5 -38.5t-13 -37.5q-30 -56 -80 -125.5t-109.5 -146t-125 -156t-126 -155t-112.5 -143
t-85 -120.5h660q44 0 44 -44v-148q0 -44 -44 -44h-964zM770 1794q15 12 28 12q9 0 17.5 -4.5t14.5 -15.5l76 -118q5 -8 7.5 -14t2.5 -12q0 -17 -24 -32l-324 -182q-17 -10 -30 -10q-20 0 -36 22l-30 40q-12 15 -12 28q0 9 3.5 17t14.5 17z" />
    <glyph glyph-name="zacute" unicode="&#x17a;" horiz-adv-x="980" 
d="M882 766q-24 -36 -60 -82t-78 -96.5t-87.5 -102.5t-88 -101.5t-79 -92.5t-61.5 -75h452q44 0 44 -44v-128q0 -44 -44 -44h-772q-44 0 -44 44v94q0 41 22 76q24 36 60 82t78 96.5t87.5 102.5t88 101.5t79 92.5t61.5 75h-408q-44 0 -44 44v128q0 44 44 44h728q44 0 44 -44
v-94q0 -41 -22 -76zM644 1454q15 12 28 12q9 0 17.5 -4.5t14.5 -15.5l76 -118q5 -8 7.5 -14t2.5 -12q0 -17 -24 -32l-324 -182q-17 -10 -30 -10q-20 0 -36 22l-30 40q-12 15 -12 28q0 9 3.5 17t14.5 17z" />
    <glyph glyph-name="Zdotaccent" unicode="&#x17b;" horiz-adv-x="1188" 
d="M116 0q-44 0 -44 44v122q0 18 5 38.5t13 37.5q30 56 80 125.5t109.5 146t125 156t126 155t112.5 143t85 120.5h-566q-44 0 -44 44v148q0 44 44 44h870q44 0 44 -44v-122q0 -18 -5 -38.5t-13 -37.5q-30 -56 -80 -125.5t-109.5 -146t-125 -156t-126 -155t-112.5 -143
t-85 -120.5h660q44 0 44 -44v-148q0 -44 -44 -44h-964zM744 1578q0 -30 -10.5 -56.5t-30 -46.5t-46.5 -31.5t-61 -11.5t-61 11.5t-46.5 31.5t-30 46.5t-10.5 56.5t10.5 56.5t30 46.5t46.5 31.5t61 11.5t61 -11.5t46.5 -31.5t30 -46.5t10.5 -56.5z" />
    <glyph glyph-name="zdotaccent" unicode="&#x17c;" horiz-adv-x="980" 
d="M882 766q-24 -36 -60 -82t-78 -96.5t-87.5 -102.5t-88 -101.5t-79 -92.5t-61.5 -75h452q44 0 44 -44v-128q0 -44 -44 -44h-772q-44 0 -44 44v94q0 41 22 76q24 36 60 82t78 96.5t87.5 102.5t88 101.5t79 92.5t61.5 75h-408q-44 0 -44 44v128q0 44 44 44h728q44 0 44 -44
v-94q0 -41 -22 -76zM630 1238q0 -30 -10.5 -56.5t-30 -46.5t-46.5 -31.5t-61 -11.5t-61 11.5t-46.5 31.5t-30 46.5t-10.5 56.5t10.5 56.5t30 46.5t46.5 31.5t61 11.5t61 -11.5t46.5 -31.5t30 -46.5t10.5 -56.5z" />
    <glyph glyph-name="Zcaron" unicode="&#x17d;" horiz-adv-x="1188" 
d="M116 0q-44 0 -44 44v122q0 18 5 38.5t13 37.5q30 56 80 125.5t109.5 146t125 156t126 155t112.5 143t85 120.5h-566q-44 0 -44 44v148q0 44 44 44h870q44 0 44 -44v-122q0 -18 -5 -38.5t-13 -37.5q-30 -56 -80 -125.5t-109.5 -146t-125 -156t-126 -155t-112.5 -143
t-85 -120.5h660q44 0 44 -44v-148q0 -44 -44 -44h-964zM808 1762q13 8 30 8q19 0 36 -20l36 -44q12 -15 12 -28q0 -17 -20 -34l-268 -208q-17 -14 -38 -14t-38 14l-268 208q-20 17 -20 34q0 13 12 28l36 44q17 20 36 20q17 0 30 -8l212 -126z" />
    <glyph glyph-name="zcaron" unicode="&#x17e;" horiz-adv-x="980" 
d="M882 766q-24 -36 -60 -82t-78 -96.5t-87.5 -102.5t-88 -101.5t-79 -92.5t-61.5 -75h452q44 0 44 -44v-128q0 -44 -44 -44h-772q-44 0 -44 44v94q0 41 22 76q24 36 60 82t78 96.5t87.5 102.5t88 101.5t79 92.5t61.5 75h-408q-44 0 -44 44v128q0 44 44 44h728q44 0 44 -44
v-94q0 -41 -22 -76zM694 1422q13 8 30 8q19 0 36 -20l36 -44q12 -15 12 -28q0 -17 -20 -34l-268 -208q-17 -14 -38 -14t-38 14l-268 208q-20 17 -20 34q0 13 12 28l36 44q17 20 36 20q17 0 30 -8l212 -126z" />
    <glyph glyph-name="florin" unicode="&#x192;" 
d="M918 772q20 0 28 -9.5t8 -26.5q0 -3 -0.5 -10.5t-3.5 -25.5l-14 -88q-5 -24 -16.5 -36t-35.5 -12h-172l-90 -568q-20 -122 -60.5 -202t-97.5 -127.5t-127 -67t-149 -19.5q-81 0 -135 16.5t-93 43.5q-22 16 -22 34q0 8 3.5 15t8.5 13l74 108q9 14 17 19t17 5q10 0 30 -10
q24 -11 42.5 -15.5t45.5 -4.5q37 0 65 12t48 36t33.5 61t21.5 87l90 564h-142q-20 0 -28 9.5t-8 26.5q0 3 0.5 10.5t3.5 25.5l14 88q5 24 16.5 36t35.5 12h140l24 156q19 121 59.5 201.5t97.5 128t127.5 67t149.5 19.5q81 0 135 -16.5t93 -43.5q22 -16 22 -34q0 -8 -3.5 -15
t-8.5 -13l-74 -108q-9 -14 -17 -19t-17 -5q-10 0 -30 10q-24 11 -42.5 15.5t-45.5 4.5q-75 0 -113.5 -48t-54.5 -148l-24 -152h174z" />
    <glyph glyph-name="Scommaaccent" unicode="&#x218;" horiz-adv-x="1142" 
d="M1078 400q0 -100 -37.5 -178t-107 -132t-168.5 -82t-221 -28q-77 0 -144.5 10.5t-125 28t-105 40.5t-83.5 49q-36 24 -12 62l90 150q24 39 58 10q66 -48 148.5 -76t183.5 -28q106 0 163 33.5t57 104.5q0 37 -15 63t-43.5 45.5t-69 33.5t-90.5 26q-44 10 -96.5 22.5
t-104.5 31.5t-100.5 47t-86 69t-60 98t-22.5 134q0 99 38 175.5t108 128.5t168 79t218 27q133 0 234 -28.5t166 -69.5q36 -24 16 -62l-84 -152q-20 -40 -58 -14q-54 35 -125.5 57.5t-162.5 22.5q-60 0 -101 -10.5t-66 -29.5t-36 -45t-11 -57q0 -40 16.5 -65t45 -41.5
t68 -27.5t86.5 -22q90 -22 175 -47.5t151 -68.5t106 -110.5t40 -173.5zM676 -198q0 -34 -11 -67.5t-30.5 -66t-46.5 -63t-58 -57.5q-17 -14 -34 -14q-19 0 -36 14l-2 2q-18 15 -18 30q0 13 14 30q17 20 25.5 37t8.5 37q0 21 -11.5 36t-25 30t-24.5 33t-11 45q0 21 9 41
t25.5 36t40.5 25.5t53 9.5q60 0 96 -38t36 -100z" />
    <glyph glyph-name="scommaaccent" unicode="&#x219;" horiz-adv-x="962" 
d="M902 295q0 -83 -32 -143t-90.5 -98.5t-139.5 -56.5t-178 -18q-133 0 -227.5 27.5t-154.5 68.5q-38 24 -14 60l78 120q23 38 60 12q57 -41 117 -58.5t137 -17.5q71 0 114.5 17.5t43.5 62.5q0 25 -14 41t-41 27.5t-66.5 20t-90.5 17.5t-107.5 26t-103.5 50t-78 87.5
t-31 138.5q0 88 35 149t94.5 99t138.5 55t168 17q110 0 196 -21t142 -53q39 -21 18 -60l-66 -124q-12 -21 -25 -24.5t-33 10.5q-42 27 -97.5 43.5t-126.5 16.5q-77 0 -117.5 -20.5t-40.5 -61.5q0 -28 19.5 -45t49.5 -27.5t67.5 -16.5t73.5 -13q32 -6 68.5 -15t72 -24
t68.5 -37t58 -54.5t40 -76t15 -101.5zM594 -198q0 -34 -11 -67.5t-30.5 -66t-46.5 -63t-58 -57.5q-17 -14 -34 -14q-19 0 -36 14l-2 2q-18 15 -18 30q0 13 14 30q17 20 25.5 37t8.5 37q0 21 -11.5 36t-25 30t-24.5 33t-11 45q0 21 9 41t25.5 36t40.5 25.5t53 9.5
q60 0 96 -38t36 -100z" />
    <glyph glyph-name="uni021A" unicode="&#x21a;" horiz-adv-x="1084" 
d="M434 0q-44 0 -44 44v1032h-312q-44 0 -44 44v160q0 44 44 44h928q44 0 44 -44v-160q0 -44 -44 -44h-312v-1032q0 -44 -44 -44h-216zM674 -198q0 -34 -11 -67.5t-30.5 -66t-46.5 -63t-58 -57.5q-17 -14 -34 -14q-19 0 -36 14l-2 2q-18 15 -18 30q0 13 14 30q17 20 25.5 37
t8.5 37q0 21 -11.5 36t-25 30t-24.5 33t-11 45q0 21 9 41t25.5 36t40.5 25.5t53 9.5q60 0 96 -38t36 -100z" />
    <glyph glyph-name="uni021B" unicode="&#x21b;" horiz-adv-x="822" 
d="M60 764q-44 0 -44 44v128q0 44 44 44h126v236q0 44 44 44h204q44 0 44 -44v-236h248q44 0 44 -44v-128q0 -44 -44 -44h-248v-406q0 -35 5.5 -62.5t18.5 -46t34.5 -28t53.5 -9.5q26 0 47 5.5t41 16.5q40 23 54 -20l46 -116q15 -41 -22 -62q-53 -32 -109 -44t-119 -12
q-82 0 -145.5 19t-107 61.5t-66.5 111t-23 166.5v426h-126zM640 -198q0 -34 -11 -67.5t-30.5 -66t-46.5 -63t-58 -57.5q-17 -14 -34 -14q-19 0 -36 14l-2 2q-18 15 -18 30q0 13 14 30q17 20 25.5 37t8.5 37q0 21 -11.5 36t-25 30t-24.5 33t-11 45q0 21 9 41t25.5 36
t40.5 25.5t53 9.5q60 0 96 -38t36 -100z" />
    <glyph glyph-name="uni0237" unicode="&#x237;" horiz-adv-x="560" 
d="M426 -48q0 -86 -23 -154.5t-69 -117t-114 -74.5t-158 -26q-45 0 -95 8t-95 28q-39 18 -24 60l48 122q9 23 21 28t35 -4q34 -14 68 -14q32 0 54 12t35.5 33.5t19 52t5.5 68.5v962q0 44 44 44h204q44 0 44 -44v-984v0z" />
    <glyph glyph-name="circumflex" unicode="&#x2c6;" horiz-adv-x="884" 
d="M230 1090q-13 -8 -30 -8q-19 0 -36 20l-36 44q-12 15 -12 28q0 17 20 34l268 208q17 14 38 14t38 -14l268 -208q20 -17 20 -34q0 -13 -12 -28l-36 -44q-17 -20 -36 -20q-17 0 -30 8l-212 126z" />
    <glyph glyph-name="caron" unicode="&#x2c7;" horiz-adv-x="884" 
d="M654 1422q13 8 30 8q19 0 36 -20l36 -44q12 -15 12 -28q0 -17 -20 -34l-268 -208q-17 -14 -38 -14t-38 14l-268 208q-20 17 -20 34q0 13 12 28l36 44q17 20 36 20q17 0 30 -8l212 -126z" />
    <glyph glyph-name="breve" unicode="&#x2d8;" horiz-adv-x="860" 
d="M430 1098q-55 0 -103 15t-88.5 42.5t-72 65.5t-52.5 85q-6 12 -6 22q0 24 28 36l62 32q16 8 30 8q15 0 23.5 -7.5t16.5 -18.5q29 -39 67 -63.5t95 -24.5t95 24.5t67 63.5q8 11 16.5 18.5t23.5 7.5q14 0 30 -8l62 -32q28 -12 28 -36q0 -10 -6 -22q-21 -47 -52.5 -85
t-72 -65.5t-88.5 -42.5t-103 -15z" />
    <glyph glyph-name="dotaccent" unicode="&#x2d9;" horiz-adv-x="496" 
d="M396 1238q0 -30 -10.5 -56.5t-30 -46.5t-46.5 -31.5t-61 -11.5t-61 11.5t-46.5 31.5t-30 46.5t-10.5 56.5t10.5 56.5t30 46.5t46.5 31.5t61 11.5t61 -11.5t46.5 -31.5t30 -46.5t10.5 -56.5z" />
    <glyph glyph-name="ring" unicode="&#x2da;" horiz-adv-x="716" 
d="M616 1312q0 -56 -20.5 -103t-56 -80.5t-82.5 -52t-99 -18.5q-53 0 -99.5 18.5t-82 52t-56 80.5t-20.5 103t20.5 103t56 80.5t82 52t99.5 18.5q52 0 99 -18.5t82.5 -52t56 -80.5t20.5 -103zM240 1312q0 -56 33.5 -89t84.5 -33t84.5 33t33.5 89t-33.5 89t-84.5 33
t-84.5 -33t-33.5 -89z" />
    <glyph glyph-name="ogonek" unicode="&#x2db;" horiz-adv-x="660" 
d="M330 -428q-56 0 -99 14.5t-72 39.5t-44 58.5t-15 71.5q0 31 11.5 63.5t32 64.5t49 61.5t63.5 54.5h122q-23 -34 -39.5 -60t-27 -47.5t-15 -40t-4.5 -36.5q0 -36 21 -62t69 -26q14 0 32 3t38 11q26 11 39 8t27 -26l20 -32q25 -37 -12 -62q-39 -27 -89 -42.5t-107 -15.5z
" />
    <glyph glyph-name="tilde" unicode="&#x2dc;" horiz-adv-x="920" 
d="M584 1104q-46 0 -80 12t-61.5 27t-52 27t-50.5 12q-21 0 -46 -10.5t-48 -33.5q-18 -18 -34 -18q-15 0 -32 14l-48 38q-20 17 -20 34q0 13 10 30q45 74 98 105t116 31q46 0 80 -12t61.5 -27t52 -27t50.5 -12q21 0 46 10.5t48 33.5q18 18 34 18q15 0 32 -14l48 -38
q9 -8 14.5 -16.5t5.5 -17.5q0 -13 -10 -30q-45 -74 -98 -105t-116 -31z" />
    <glyph glyph-name="hungarumlaut" unicode="&#x2dd;" horiz-adv-x="978" 
d="M244 1098q-16 -16 -34 -16q-15 0 -32 14l-44 36q-20 17 -20 34q0 8 2 14.5t8 15.5l186 276q6 11 14 15.5t16 4.5q15 0 30 -12l100 -78q11 -8 15.5 -16t4.5 -16t-4 -14t-10 -14zM616 1098q-16 -16 -34 -16q-15 0 -32 14l-44 36q-20 17 -20 34q0 8 2 14.5t8 15.5l186 276
q6 11 14 15.5t16 4.5q15 0 30 -12l100 -78q11 -8 15.5 -16t4.5 -16t-4 -14t-10 -14z" />
    <glyph glyph-name="uni0312" unicode="&#x312;" horiz-adv-x="460" 
d="M100 1230q0 34 11 67.5t30.5 66t46 63t58.5 57.5q17 14 34 14q19 0 36 -14l2 -2q18 -15 18 -30q0 -13 -14 -30q-17 -20 -25.5 -37t-8.5 -37q0 -21 11 -36t24.5 -30t25 -33t11.5 -45q0 -21 -9 -41t-25.5 -36t-40.5 -25.5t-53 -9.5q-60 0 -96 38t-36 100z" />
    <glyph glyph-name="uni0315" unicode="&#x315;" horiz-adv-x="474" 
d="M142 992q-23 6 -32 15t-6 33l40 362q3 23 16 35t34 7l136 -30q32 -6 32 -32q0 -5 -1 -10t-3 -10l-134 -346q-9 -23 -22 -29.5t-36 -0.5z" />
    <glyph glyph-name="uni0326" unicode="&#x326;" horiz-adv-x="460" 
d="M360 -198q0 -34 -11 -67.5t-30.5 -66t-46.5 -63t-58 -57.5q-17 -14 -34 -14q-19 0 -36 14l-2 2q-18 15 -18 30q0 13 14 30q17 20 25.5 37t8.5 37q0 21 -11.5 36t-25 30t-24.5 33t-11 45q0 21 9 41t25.5 36t40.5 25.5t53 9.5q60 0 96 -38t36 -100z" />
    <glyph glyph-name="pi" unicode="&#x3c0;" horiz-adv-x="1272" 
d="M1150 980q44 0 44 -44v-128q0 -44 -44 -44h-116v-434q0 -56 20.5 -89t73.5 -33q12 0 24 1.5t24 6.5q23 8 35 2.5t21 -28.5l46 -118q15 -43 -24 -58q-42 -18 -93 -26t-101 -8q-164 0 -241 83.5t-77 254.5v446h-270v-720q0 -44 -44 -44h-204q-44 0 -44 44v720h-116
q-44 0 -44 44v128q0 44 44 44h1086z" />
    <glyph glyph-name="Wgrave" unicode="&#x1e80;" horiz-adv-x="1968" 
d="M1880 1324q24 0 32 -9.5t8 -24.5q0 -6 -1 -14t-3 -16q-21 -104 -47.5 -214.5t-56.5 -221.5t-62 -220t-65.5 -209.5t-66.5 -191t-64 -163.5q-9 -21 -23.5 -30.5t-38.5 -9.5h-186q-24 0 -37.5 9.5t-22.5 30.5q-83 207 -151.5 420t-110.5 424q-42 -211 -110.5 -424
t-151.5 -420q-9 -21 -22.5 -30.5t-37.5 -9.5h-186q-24 0 -38.5 9.5t-23.5 30.5q-31 73 -64 163.5t-66.5 191t-65.5 209.5t-62 220t-56.5 221.5t-47.5 214.5q-2 8 -3 16t-1 14q0 15 8 24.5t32 9.5h218q24 0 35.5 -10t16.5 -34q23 -131 49 -255t55 -242t61 -231.5t67 -223.5
q39 109 75.5 228.5t69 241.5t59 244t46.5 238q5 24 16.5 34t35.5 10h184q24 0 35.5 -10t16.5 -34q20 -116 49.5 -238t64.5 -244t74 -241.5t78 -228.5q36 110 66 223.5t56 231.5t49 242t45 255q5 24 16.5 34t35.5 10h218zM1114 1542q11 -9 14.5 -17t3.5 -17q0 -13 -12 -28
l-30 -40q-17 -22 -36 -22q-13 0 -30 10l-324 182q-24 15 -24 32q0 6 2.5 12t7.5 14l76 118q6 11 14.5 15.5t17.5 4.5q13 0 28 -12z" />
    <glyph glyph-name="wgrave" unicode="&#x1e81;" horiz-adv-x="1632" 
d="M1552 980q38 0 38 -32q0 -11 -2 -24.5t-4 -21.5q-13 -66 -31.5 -140.5t-41 -152t-48 -156t-52 -152t-52.5 -140.5t-49 -121q-9 -21 -23.5 -30.5t-38.5 -9.5h-174q-24 0 -38.5 9.5t-23.5 30.5q-29 62 -58 130t-55 137t-47.5 136t-35.5 129q-15 -64 -37 -132t-47.5 -136.5
t-54.5 -135.5t-57 -128q-9 -21 -23.5 -30.5t-38.5 -9.5h-174q-24 0 -38.5 9.5t-23.5 30.5q-23 54 -49 121t-52.5 140.5t-52 152t-48 156t-41.5 152t-31 140.5q-2 8 -4 21.5t-2 24.5q0 32 38 32h218q24 0 35.5 -10t14.5 -34q12 -85 28.5 -172t35.5 -170t40 -159.5t42 -140.5
q22 64 47 141t50 160t48 169.5t41 171.5q6 24 18 34t36 10h162q24 0 36 -9.5t18 -32.5q21 -85 45 -172t48 -170.5t48 -160.5t45 -141q22 64 43 140.5t40.5 159.5t36 170t28.5 172q3 24 14.5 34t35.5 10h218zM1038 1202q11 -9 14.5 -17t3.5 -17q0 -13 -12 -28l-30 -40
q-17 -22 -36 -22q-13 0 -30 10l-324 182q-24 15 -24 32q0 6 2.5 12t7.5 14l76 118q6 11 14.5 15.5t17.5 4.5q13 0 28 -12z" />
    <glyph glyph-name="Wacute" unicode="&#x1e82;" horiz-adv-x="1968" 
d="M1880 1324q24 0 32 -9.5t8 -24.5q0 -6 -1 -14t-3 -16q-21 -104 -47.5 -214.5t-56.5 -221.5t-62 -220t-65.5 -209.5t-66.5 -191t-64 -163.5q-9 -21 -23.5 -30.5t-38.5 -9.5h-186q-24 0 -37.5 9.5t-22.5 30.5q-83 207 -151.5 420t-110.5 424q-42 -211 -110.5 -424
t-151.5 -420q-9 -21 -22.5 -30.5t-37.5 -9.5h-186q-24 0 -38.5 9.5t-23.5 30.5q-31 73 -64 163.5t-66.5 191t-65.5 209.5t-62 220t-56.5 221.5t-47.5 214.5q-2 8 -3 16t-1 14q0 15 8 24.5t32 9.5h218q24 0 35.5 -10t16.5 -34q23 -131 49 -255t55 -242t61 -231.5t67 -223.5
q39 109 75.5 228.5t69 241.5t59 244t46.5 238q5 24 16.5 34t35.5 10h184q24 0 35.5 -10t16.5 -34q20 -116 49.5 -238t64.5 -244t74 -241.5t78 -228.5q36 110 66 223.5t56 231.5t49 242t45 255q5 24 16.5 34t35.5 10h218zM1158 1794q15 12 28 12q9 0 17.5 -4.5t14.5 -15.5
l76 -118q5 -8 7.5 -14t2.5 -12q0 -17 -24 -32l-324 -182q-17 -10 -30 -10q-20 0 -36 22l-30 40q-12 15 -12 28q0 9 3.5 17t14.5 17z" />
    <glyph glyph-name="wacute" unicode="&#x1e83;" horiz-adv-x="1632" 
d="M1552 980q38 0 38 -32q0 -11 -2 -24.5t-4 -21.5q-13 -66 -31.5 -140.5t-41 -152t-48 -156t-52 -152t-52.5 -140.5t-49 -121q-9 -21 -23.5 -30.5t-38.5 -9.5h-174q-24 0 -38.5 9.5t-23.5 30.5q-29 62 -58 130t-55 137t-47.5 136t-35.5 129q-15 -64 -37 -132t-47.5 -136.5
t-54.5 -135.5t-57 -128q-9 -21 -23.5 -30.5t-38.5 -9.5h-174q-24 0 -38.5 9.5t-23.5 30.5q-23 54 -49 121t-52.5 140.5t-52 152t-48 156t-41.5 152t-31 140.5q-2 8 -4 21.5t-2 24.5q0 32 38 32h218q24 0 35.5 -10t14.5 -34q12 -85 28.5 -172t35.5 -170t40 -159.5t42 -140.5
q22 64 47 141t50 160t48 169.5t41 171.5q6 24 18 34t36 10h162q24 0 36 -9.5t18 -32.5q21 -85 45 -172t48 -170.5t48 -160.5t45 -141q22 64 43 140.5t40.5 159.5t36 170t28.5 172q3 24 14.5 34t35.5 10h218zM978 1454q15 12 28 12q9 0 17.5 -4.5t14.5 -15.5l76 -118
q5 -8 7.5 -14t2.5 -12q0 -17 -24 -32l-324 -182q-17 -10 -30 -10q-20 0 -36 22l-30 40q-12 15 -12 28q0 9 3.5 17t14.5 17z" />
    <glyph glyph-name="Wdieresis" unicode="&#x1e84;" horiz-adv-x="1968" 
d="M1880 1324q24 0 32 -9.5t8 -24.5q0 -6 -1 -14t-3 -16q-21 -104 -47.5 -214.5t-56.5 -221.5t-62 -220t-65.5 -209.5t-66.5 -191t-64 -163.5q-9 -21 -23.5 -30.5t-38.5 -9.5h-186q-24 0 -37.5 9.5t-22.5 30.5q-83 207 -151.5 420t-110.5 424q-42 -211 -110.5 -424
t-151.5 -420q-9 -21 -22.5 -30.5t-37.5 -9.5h-186q-24 0 -38.5 9.5t-23.5 30.5q-31 73 -64 163.5t-66.5 191t-65.5 209.5t-62 220t-56.5 221.5t-47.5 214.5q-2 8 -3 16t-1 14q0 15 8 24.5t32 9.5h218q24 0 35.5 -10t16.5 -34q23 -131 49 -255t55 -242t61 -231.5t67 -223.5
q39 109 75.5 228.5t69 241.5t59 244t46.5 238q5 24 16.5 34t35.5 10h184q24 0 35.5 -10t16.5 -34q20 -116 49.5 -238t64.5 -244t74 -241.5t78 -228.5q36 110 66 223.5t56 231.5t49 242t45 255q5 24 16.5 34t35.5 10h218zM938 1578q0 -30 -10.5 -56.5t-30 -46.5t-46.5 -31.5
t-61 -11.5t-61 11.5t-46.5 31.5t-30 46.5t-10.5 56.5t10.5 56.5t30 46.5t46.5 31.5t61 11.5t61 -11.5t46.5 -31.5t30 -46.5t10.5 -56.5zM1326 1578q0 -30 -10.5 -56.5t-30 -46.5t-46.5 -31.5t-61 -11.5t-61 11.5t-46.5 31.5t-30 46.5t-10.5 56.5t10.5 56.5t30 46.5
t46.5 31.5t61 11.5t61 -11.5t46.5 -31.5t30 -46.5t10.5 -56.5z" />
    <glyph glyph-name="wdieresis" unicode="&#x1e85;" horiz-adv-x="1632" 
d="M1552 980q38 0 38 -32q0 -11 -2 -24.5t-4 -21.5q-13 -66 -31.5 -140.5t-41 -152t-48 -156t-52 -152t-52.5 -140.5t-49 -121q-9 -21 -23.5 -30.5t-38.5 -9.5h-174q-24 0 -38.5 9.5t-23.5 30.5q-29 62 -58 130t-55 137t-47.5 136t-35.5 129q-15 -64 -37 -132t-47.5 -136.5
t-54.5 -135.5t-57 -128q-9 -21 -23.5 -30.5t-38.5 -9.5h-174q-24 0 -38.5 9.5t-23.5 30.5q-23 54 -49 121t-52.5 140.5t-52 152t-48 156t-41.5 152t-31 140.5q-2 8 -4 21.5t-2 24.5q0 32 38 32h218q24 0 35.5 -10t14.5 -34q12 -85 28.5 -172t35.5 -170t40 -159.5t42 -140.5
q22 64 47 141t50 160t48 169.5t41 171.5q6 24 18 34t36 10h162q24 0 36 -9.5t18 -32.5q21 -85 45 -172t48 -170.5t48 -160.5t45 -141q22 64 43 140.5t40.5 159.5t36 170t28.5 172q3 24 14.5 34t35.5 10h218zM770 1238q0 -30 -10.5 -56.5t-30 -46.5t-46.5 -31.5t-61 -11.5
t-61 11.5t-46.5 31.5t-30 46.5t-10.5 56.5t10.5 56.5t30 46.5t46.5 31.5t61 11.5t61 -11.5t46.5 -31.5t30 -46.5t10.5 -56.5zM1158 1238q0 -30 -10.5 -56.5t-30 -46.5t-46.5 -31.5t-61 -11.5t-61 11.5t-46.5 31.5t-30 46.5t-10.5 56.5t10.5 56.5t30 46.5t46.5 31.5t61 11.5
t61 -11.5t46.5 -31.5t30 -46.5t10.5 -56.5z" />
    <glyph glyph-name="Ygrave" unicode="&#x1ef2;" horiz-adv-x="1160" 
d="M472 0q-44 0 -44 44v410q-54 84 -111.5 183.5t-112.5 206.5t-104.5 218.5t-87.5 219.5q-8 21 0.5 31.5t29.5 10.5h230q24 0 36 -9.5t20 -32.5q45 -151 114 -306t154 -294q83 139 148 294t112 306q6 23 19 32.5t37 9.5h206q21 0 29.5 -10.5t0.5 -31.5
q-39 -108 -88.5 -219.5t-104 -218.5t-111.5 -206.5t-112 -183.5v-410q0 -44 -44 -44h-216zM710 1542q11 -9 14.5 -17t3.5 -17q0 -13 -12 -28l-30 -40q-17 -22 -36 -22q-13 0 -30 10l-324 182q-24 15 -24 32q0 6 2.5 12t7.5 14l76 118q6 11 14.5 15.5t17.5 4.5q13 0 28 -12z
" />
    <glyph glyph-name="ygrave" unicode="&#x1ef3;" horiz-adv-x="1042" 
d="M380 4q-35 63 -70.5 136.5t-69 152.5t-63.5 161t-56 161.5t-47 154.5t-34 140q-2 8 -4 19t-2 19q0 32 40 32h216q24 0 35.5 -10t16.5 -34q14 -83 36 -170t49 -172.5t56.5 -166.5t58.5 -153q30 72 59 153.5t55 167t48 172t38 169.5q5 24 16.5 34t35.5 10h174q40 0 40 -32
q0 -8 -2 -19t-4 -19q-14 -69 -36.5 -149t-50 -164t-59 -168.5t-64.5 -162.5q-92 -214 -199.5 -381t-232.5 -273q-17 -14 -34 -14q-8 0 -16 3t-16 11l-108 98q-8 8 -12 14t-4 14q0 16 16 32q60 59 106.5 113.5t87.5 120.5zM672 1202q11 -9 14.5 -17t3.5 -17q0 -13 -12 -28
l-30 -40q-17 -22 -36 -22q-13 0 -30 10l-324 182q-24 15 -24 32q0 6 2.5 12t7.5 14l76 118q6 11 14.5 15.5t17.5 4.5q13 0 28 -12z" />
    <glyph glyph-name="endash" unicode="&#x2013;" horiz-adv-x="1000" 
d="M160 472q-44 0 -44 44v108q0 44 44 44h680q44 0 44 -44v-108q0 -44 -44 -44h-680z" />
    <glyph glyph-name="emdash" unicode="&#x2014;" horiz-adv-x="1600" 
d="M160 472q-44 0 -44 44v108q0 44 44 44h1280q44 0 44 -44v-108q0 -44 -44 -44h-1280z" />
    <glyph glyph-name="quoteleft" unicode="&#x2018;" horiz-adv-x="472" 
d="M390 984q0 -31 -10.5 -58t-30.5 -47t-49.5 -31.5t-67.5 -11.5q-43 0 -73.5 14t-50 38t-29 56t-9.5 68q0 40 13.5 93t38 109t59.5 111.5t79 102.5q17 20 38 20q13 0 30 -10l22 -14q24 -15 24 -34q0 -5 -2 -11.5t-8 -14.5q-33 -47 -50.5 -83.5t-17.5 -78.5q0 -38 14.5 -62
t32.5 -45t32.5 -46t14.5 -65z" />
    <glyph glyph-name="quoteright" unicode="&#x2019;" horiz-adv-x="472" 
d="M82 1298q0 31 10.5 58t30.5 47t49.5 31.5t67.5 11.5q43 0 73.5 -14t50 -38t29 -56t9.5 -68q0 -41 -13.5 -93.5t-38 -108.5t-60 -112t-78.5 -102q-17 -20 -38 -20q-13 0 -30 10l-22 14q-24 15 -24 34q0 5 2 11.5t8 14.5q33 47 50.5 83.5t17.5 78.5q0 38 -14.5 62t-32.5 45
t-32.5 45.5t-14.5 65.5z" />
    <glyph glyph-name="quotesinglbase" unicode="&#x201a;" horiz-adv-x="472" 
d="M82 198q0 31 10.5 58t30.5 47t49.5 31.5t67.5 11.5q43 0 73.5 -14t50 -38t29 -56t9.5 -68q0 -41 -13.5 -93.5t-38 -108.5t-60 -112t-78.5 -102q-17 -20 -38 -20q-13 0 -30 10l-22 14q-24 15 -24 34q0 5 2 11.5t8 14.5q33 47 50.5 83.5t17.5 78.5q0 38 -14.5 62t-32.5 45
t-32.5 45.5t-14.5 65.5z" />
    <glyph glyph-name="quotedblleft" unicode="&#x201c;" horiz-adv-x="858" 
d="M390 984q0 -31 -10.5 -58t-30.5 -47t-49.5 -31.5t-67.5 -11.5q-43 0 -73.5 14t-50 38t-29 56t-9.5 68q0 40 13.5 93t38 109t59.5 111.5t79 102.5q17 20 38 20q13 0 30 -10l22 -14q24 -15 24 -34q0 -5 -2 -11.5t-8 -14.5q-33 -47 -50.5 -83.5t-17.5 -78.5q0 -38 14.5 -62
t32.5 -45t32.5 -46t14.5 -65zM776 984q0 -31 -10.5 -58t-30.5 -47t-49.5 -31.5t-67.5 -11.5q-43 0 -73.5 14t-50 38t-29 56t-9.5 68q0 40 13.5 93t38 109t59.5 111.5t79 102.5q17 20 38 20q13 0 30 -10l22 -14q24 -15 24 -34q0 -5 -2 -11.5t-8 -14.5q-33 -47 -50.5 -83.5
t-17.5 -78.5q0 -38 14.5 -62t32.5 -45t32.5 -46t14.5 -65z" />
    <glyph glyph-name="quotedblright" unicode="&#x201d;" horiz-adv-x="858" 
d="M82 1298q0 31 10.5 58t30.5 47t49.5 31.5t67.5 11.5q43 0 73.5 -14t50 -38t29 -56t9.5 -68q0 -41 -13.5 -93.5t-38 -108.5t-60 -112t-78.5 -102q-17 -20 -38 -20q-13 0 -30 10l-22 14q-24 15 -24 34q0 5 2 11.5t8 14.5q33 47 50.5 83.5t17.5 78.5q0 38 -14.5 62t-32.5 45
t-32.5 45.5t-14.5 65.5zM468 1298q0 31 10.5 58t30.5 47t49.5 31.5t67.5 11.5q43 0 73.5 -14t50 -38t29 -56t9.5 -68q0 -41 -13.5 -93.5t-38 -108.5t-60 -112t-78.5 -102q-17 -20 -38 -20q-13 0 -30 10l-22 14q-24 15 -24 34q0 5 2 11.5t8 14.5q33 47 50.5 83.5t17.5 78.5
q0 38 -14.5 62t-32.5 45t-32.5 45.5t-14.5 65.5z" />
    <glyph glyph-name="quotedblbase" unicode="&#x201e;" horiz-adv-x="858" 
d="M82 198q0 31 10.5 58t30.5 47t49.5 31.5t67.5 11.5q43 0 73.5 -14t50 -38t29 -56t9.5 -68q0 -41 -13.5 -93.5t-38 -108.5t-60 -112t-78.5 -102q-17 -20 -38 -20q-13 0 -30 10l-22 14q-24 15 -24 34q0 5 2 11.5t8 14.5q33 47 50.5 83.5t17.5 78.5q0 38 -14.5 62t-32.5 45
t-32.5 45.5t-14.5 65.5zM468 198q0 31 10.5 58t30.5 47t49.5 31.5t67.5 11.5q43 0 73.5 -14t50 -38t29 -56t9.5 -68q0 -41 -13.5 -93.5t-38 -108.5t-60 -112t-78.5 -102q-17 -20 -38 -20q-13 0 -30 10l-22 14q-24 15 -24 34q0 5 2 11.5t8 14.5q33 47 50.5 83.5t17.5 78.5
q0 38 -14.5 62t-32.5 45t-32.5 45.5t-14.5 65.5z" />
    <glyph glyph-name="dagger" unicode="&#x2020;" horiz-adv-x="896" 
d="M152 1022q-44 0 -44 44v68q0 44 44 44h208v214q0 44 44 44h88q44 0 44 -44v-214h208q44 0 44 -44v-68q0 -44 -44 -44h-208v-554q0 -44 -44 -44h-88q-44 0 -44 44v554h-208z" />
    <glyph glyph-name="daggerdbl" unicode="&#x2021;" horiz-adv-x="896" 
d="M536 304q0 -44 -44 -44h-88q-44 0 -44 44v294h-208q-44 0 -44 44v68q0 44 44 44h208v268h-208q-44 0 -44 44v68q0 44 44 44h208v214q0 44 44 44h88q44 0 44 -44v-214h208q44 0 44 -44v-68q0 -44 -44 -44h-208v-268h208q44 0 44 -44v-68q0 -44 -44 -44h-208v-294z" />
    <glyph glyph-name="bullet" unicode="&#x2022;" horiz-adv-x="788" 
d="M688 584q0 -62 -20.5 -116t-59 -94.5t-93 -64t-121.5 -23.5q-68 0 -122 23.5t-92.5 64t-59 94.5t-20.5 116q0 61 20.5 115.5t59 95t92.5 64t122 23.5q67 0 121.5 -23.5t93 -64t59 -95t20.5 -115.5z" />
    <glyph glyph-name="ellipsis" unicode="&#x2026;" horiz-adv-x="1488" 
d="M428 162q0 -37 -12.5 -69.5t-35 -56.5t-55.5 -38t-73 -14q-41 0 -73.5 14t-55 38t-35 56.5t-12.5 69.5t12.5 69.5t35 56.5t55 38t73.5 14q40 0 73 -14t55.5 -38t35 -56.5t12.5 -69.5zM920 162q0 -37 -12.5 -69.5t-35 -56.5t-55.5 -38t-73 -14q-41 0 -73.5 14t-55 38
t-35 56.5t-12.5 69.5t12.5 69.5t35 56.5t55 38t73.5 14q40 0 73 -14t55.5 -38t35 -56.5t12.5 -69.5zM1412 162q0 -37 -12.5 -69.5t-35 -56.5t-55.5 -38t-73 -14q-41 0 -73.5 14t-55 38t-35 56.5t-12.5 69.5t12.5 69.5t35 56.5t55 38t73.5 14q40 0 73 -14t55.5 -38t35 -56.5
t12.5 -69.5z" />
    <glyph glyph-name="perthousand" unicode="&#x2030;" horiz-adv-x="2646" 
d="M274 966q0 -46 8.5 -85t26.5 -67.5t45.5 -45t65.5 -16.5q37 0 64.5 16.5t45.5 45t27 67.5t9 85t-9 85t-27 67.5t-45.5 45t-64.5 16.5q-38 0 -65.5 -16.5t-45.5 -45t-26.5 -67.5t-8.5 -85zM776 966q0 -73 -20 -141t-63.5 -120.5t-111 -84.5t-161.5 -32q-95 0 -162 32
t-110.5 84.5t-63.5 120.5t-20 141t20 141t63.5 120.5t110.5 84.5t162 32q94 0 161.5 -32t111 -84.5t63.5 -120.5t20 -141zM406 0q-20 0 -25.5 9.5t5.5 26.5l844 1252q14 20 29 28t39 8h130q20 0 25.5 -9.5t-5.5 -26.5l-844 -1252q-14 -20 -29 -28t-39 -8h-130zM1560 358
q0 46 -9 85t-27 67.5t-45.5 45t-64.5 16.5q-38 0 -65.5 -16.5t-45.5 -45t-26.5 -67.5t-8.5 -85t8.5 -85t26.5 -67.5t45.5 -45t65.5 -16.5q37 0 64.5 16.5t45.5 45t27 67.5t9 85zM1058 358q0 73 20 141t63.5 120.5t110.5 84.5t162 32q94 0 161.5 -32t111 -84.5t63.5 -120.5
t20 -141t-20 -141t-63.5 -120.5t-111 -84.5t-161.5 -32q-95 0 -162 32t-110.5 84.5t-63.5 120.5t-20 141zM2372 358q0 46 -9 85t-27 67.5t-45.5 45t-64.5 16.5q-38 0 -65.5 -16.5t-45.5 -45t-26.5 -67.5t-8.5 -85t8.5 -85t26.5 -67.5t45.5 -45t65.5 -16.5q37 0 64.5 16.5
t45.5 45t27 67.5t9 85zM1870 358q0 73 20 141t63.5 120.5t110.5 84.5t162 32q94 0 161.5 -32t111 -84.5t63.5 -120.5t20 -141t-20 -141t-63.5 -120.5t-111 -84.5t-161.5 -32q-95 0 -162 32t-110.5 84.5t-63.5 120.5t-20 141z" />
    <glyph glyph-name="guilsinglleft" unicode="&#x2039;" horiz-adv-x="622" 
d="M82 532q0 9 3 19t11 19l266 352q8 9 15.5 14.5t16.5 5.5q8 0 15.5 -2t16.5 -8l88 -56q24 -15 24 -34q0 -6 -2.5 -12t-7.5 -14l-192 -284l192 -284q5 -8 7.5 -14t2.5 -12q0 -19 -24 -34l-88 -56q-9 -6 -16.5 -8t-15.5 -2q-9 0 -16.5 5.5t-15.5 14.5l-266 352q-8 9 -11 19
t-3 19z" />
    <glyph glyph-name="guilsinglright" unicode="&#x203a;" horiz-adv-x="622" 
d="M540 532q0 -9 -3 -19t-11 -19l-266 -352q-8 -9 -15.5 -14.5t-16.5 -5.5q-8 0 -15.5 2t-16.5 8l-88 56q-24 15 -24 34q0 6 2.5 12t7.5 14l192 284l-192 284q-5 8 -7.5 14t-2.5 12q0 19 24 34l88 56q9 6 16.5 8t15.5 2q9 0 16.5 -5.5t15.5 -14.5l266 -352q8 -9 11 -19
t3 -19z" />
    <glyph glyph-name="fraction" unicode="&#x2044;" horiz-adv-x="272" 
d="M-362 0q-28 0 -28 20q0 6 2.5 11.5t5.5 10.5l828 1246q14 20 29 28t39 8h120q28 0 28 -20q0 -6 -2.5 -11.5t-5.5 -10.5l-828 -1246q-14 -20 -29 -28t-39 -8h-120z" />
    <glyph glyph-name="uni2082" unicode="&#x2082;" horiz-adv-x="780" 
d="M108 64q0 69 20.5 120t54 90t76.5 67.5t87 52.5q16 9 38.5 21.5t42 29t33.5 38.5t14 51q0 41 -29 61.5t-79 20.5q-38 0 -72.5 -10.5t-63.5 -27.5q-23 -12 -36.5 -8.5t-25.5 24.5l-40 64q-11 18 -7 33.5t21 26.5q41 27 100.5 44.5t139.5 17.5q77 0 133.5 -18t93 -50.5
t54 -77.5t17.5 -98t-17 -92.5t-47 -71t-71.5 -59t-90.5 -57.5q-15 -9 -34.5 -22t-37.5 -26.5t-30 -27.5t-12 -24h316q44 0 44 -44v-68q0 -44 -44 -44h-504q-44 0 -44 44v20z" />
    </font>
</defs>
</svg>
