<?xml version="1.0" encoding="UTF-8" standalone="no"?>
<!DOCTYPE svg  PUBLIC '-//W3C//DTD SVG 1.1//EN'  'http://www.w3.org/Graphics/SVG/1.1/DTD/svg11.dtd'>
<svg xmlns="http://www.w3.org/2000/svg">
<defs>
<font id="CenturyGothic-Regular" horiz-adv-x="1135">
<font-face underline-position="-138" font-weight="400" descent="-410" panose-1="2 11 5 2 2 2 2 2 2 4" units-per-em="2048" unicode-range="U+0020-F003" bbox="-347 -451 2360 1989" x-height="1088" underline-thickness="119" font-family="CenturyGothic" ascent="1638" cap-height="1471"/>
<missing-glyph horiz-adv-x="2048"/>
<glyph glyph-name=".notdef" horiz-adv-x="2048"/>
<glyph glyph-name=".null" horiz-adv-x="0"/>
<glyph glyph-name="nonmarkingreturn" horiz-adv-x="2048"/>
<glyph glyph-name="space" horiz-adv-x="567" unicode=" "/>
<glyph glyph-name="exclam" horiz-adv-x="604" unicode="!" d="M302 220q51 0 87 -36t36 -88q0 -51 -36 -87.5t-87 -36.5t-87 36.5t-36 87.5q0 52 36 88t87 36zM373 1508v-1140h-145v1140h145z"/>
<glyph glyph-name="quotedbl" horiz-adv-x="633" unicode='&quot;' d="M174 1045h-104l-22 463h148zM562 1045h-103l-22 463h148z"/>
<glyph glyph-name="numbersign" horiz-adv-x="1475" unicode="#" d="M940 936h-334l-49 -334h332zM1233 602v-108h-248l-72 -494h-112l72 494h-333l-76 -494h-110l76 494h-246v108h263l51 334h-253v109h269l70 468h107l-68 -468h332l68 468h112l-69 -468h224v-109h-240l-48 -334h231z"/>
<glyph glyph-name="dollar" d="M662 106q121 17 193.5 88t72.5 159q0 86 -55.5 159t-210.5 156v-562zM531 1332q-75 -6 -121 -33.5t-72.5 -74t-26.5 -102.5q0 -72 42 -122q56 -68 178 -123v455zM531 1574h131v-109q98 -18 167.5 -64t133.5 -136l-108 -87q-77 119 -193 144v-499q262 -138 326 -224 q82 -110 82 -243q0 -110 -60.5 -201.5t-163.5 -142.5q-67 -33 -184 -48v-313h-131v313q-123 10 -197 39t-144.5 87.5t-117.5 135.5l107 81q139 -184 352 -205v619q-157 77 -199 105q-85 58 -126 129t-41 164q0 90 45 167t122.5 125t198.5 60v103z" unicode="$"/>
<glyph glyph-name="percent" horiz-adv-x="1587" unicode="%" d="M1195 522q-91 0 -155 -64t-64 -155t64 -155t155 -64t155.5 64t64.5 155t-64.5 155t-155.5 64zM1195 649q143 0 244.5 -101.5t101.5 -244.5t-101.5 -244.5t-244.5 -101.5t-244.5 101.5t-101.5 244.5t101.5 244.5t244.5 101.5zM392 1381q-91 0 -155 -64.5t-64 -155.5 t64 -155t155 -64t155.5 64t64.5 155t-64.5 155.5t-155.5 64.5zM1381 1536l-1072 -1638h-132l975 1492q-173 -42 -422 -42l-54 1q62 -86 62 -182q0 -137 -95.5 -245t-253.5 -108q-145 0 -244 100.5t-99 244.5q0 96 45 174.5t128 126.5t170 48q37 0 122 -18q130 -28 282 -28 q112 0 211.5 14.5t258.5 59.5h118z"/>
<glyph glyph-name="ampersand" horiz-adv-x="1550" unicode="&amp;" d="M629 693q-187 -141 -245 -224.5t-58 -154.5q0 -84 71 -148.5t174 -64.5q78 0 153 32q118 51 279 166l-240 246q-60 63 -134 148zM647 888q107 83 161 163q38 57 38 101q0 51 -49.5 88t-131.5 37q-78 0 -127 -38t-49 -90q0 -40 20 -75q49 -85 138 -186zM1292 544l100 -106 q-96 -85 -173 -147q51 -54 147 -151q76 -76 131 -140h-205l-189 197q-190 -144 -305 -189t-243 -45q-170 0 -273 97.5t-103 243.5q0 110 69.5 220.5t283.5 279.5q-121 146 -155.5 215.5t-34.5 132.5q0 110 85 182q98 84 244 84q92 0 168 -37t116 -99.5t40 -132.5 q0 -74 -52 -157.5t-205 -213.5l223 -234l153 -153q110 92 178 153z"/>
<glyph glyph-name="quotesingle" horiz-adv-x="405" unicode="&apos;" d="M254 1045h-103l-22 463h148z"/>
<glyph glyph-name="parenleft" horiz-adv-x="756" unicode="(" d="M470 1536h162q-98 -201 -157 -469t-59 -553q0 -264 44.5 -509t122.5 -431h-154q-74 178 -118 419t-44 502q0 281 52 547.5t151 493.5z"/>
<glyph glyph-name="parenright" horiz-adv-x="756" unicode=")" d="M286 -426h-162q99 201 157.5 469t58.5 553q0 264 -44.5 509t-122.5 431h154q75 -178 118.5 -419.5t43.5 -502.5q0 -280 -52 -546.5t-151 -493.5z"/>
<glyph glyph-name="asterisk" horiz-adv-x="870" unicode="*" d="M369 1508h130l-29 -297l246 176l66 -112l-277 -125l277 -123l-66 -113l-246 174l29 -297h-130l31 297l-246 -174l-66 113l281 123l-281 125l66 112l246 -176z"/>
<glyph glyph-name="plus" horiz-adv-x="1241" unicode="+" d="M552 804v434h137v-434h438v-137h-438v-434h-137v434h-437v137h437z"/>
<glyph glyph-name="comma" horiz-adv-x="567" unicode="," d="M295 270l135 -64l-203 -378l-99 42z"/>
<glyph glyph-name="hyphen" horiz-adv-x="680" unicode="-" d="M65 614h550v-122h-550v122z"/>
<glyph glyph-name="hyphen" horiz-adv-x="680" unicode="­" d="M65 614h550v-122h-550v122z"/>
<glyph glyph-name="period" horiz-adv-x="567" unicode="." d="M310 220q51 0 87 -36t36 -88q0 -51 -36 -87.5t-87 -36.5t-87 36.5t-36 87.5q0 52 36 88t87 36z"/>
<glyph glyph-name="slash" horiz-adv-x="895" unicode="/" d="M836 1508l-611 -1708h-153l610 1708h154z"/>
<glyph glyph-name="zero" d="M204 732q0 -249 44.5 -376.5t131.5 -193.5t184 -66q98 0 183 64.5t129 193.5q55 157 55 378q0 222 -49 363.5t-135.5 207t-182.5 65.5q-98 0 -184 -65.5t-131 -193t-45 -377.5zM65 735q0 291 62.5 450t176.5 241t255 82q143 0 259 -82.5t183.5 -247.5t67.5 -443 q0 -277 -66.5 -441t-183.5 -247.5t-260 -83.5q-141 0 -254 81t-176.5 241.5t-63.5 449.5z" unicode="0"/>
<glyph glyph-name="one" d="M379 1471h289v-1471h-146v1327h-231z" unicode="1"/>
<glyph glyph-name="two" d="M237 1010h-141q6 218 145.5 358t344.5 140q203 0 328.5 -131t125.5 -309q0 -125 -60 -234.5t-233 -296.5l-366 -395h679v-142h-999l562 607q171 183 222.5 271.5t51.5 186.5q0 124 -92.5 213.5t-226.5 89.5q-141 0 -234.5 -94t-106.5 -264z" unicode="2"/>
<glyph glyph-name="three" d="M271 1130h-150q41 182 157 280t274 98q115 0 214.5 -52.5t154 -141.5t54.5 -186q0 -190 -189 -301q106 -43 174 -126q96 -117 96 -262q0 -125 -66 -238.5t-180 -175.5t-255 -62q-190 0 -317 109.5t-166 321.5h144q38 -143 109 -207q91 -81 232 -81q160 0 257 96t97 225 q0 86 -48.5 161t-130 113t-252.5 47v135q101 0 184 35.5t120.5 90.5t37.5 120q0 96 -76.5 166t-193.5 70q-95 0 -164 -53.5t-117 -181.5z" unicode="3"/>
<glyph glyph-name="four" d="M755 483v613l-433 -613h433zM872 1508h30v-1025h178v-141h-178v-342h-147v342h-703z" unicode="4"/>
<glyph glyph-name="five" d="M1007 1471v-140h-524l-73 -401q96 28 173 28q201 0 331.5 -134.5t130.5 -344.5q0 -145 -67 -266t-181.5 -185.5t-264.5 -64.5q-179 0 -302 109.5t-147 283.5h151q17 -85 57.5 -138t108 -85.5t141.5 -32.5q145 0 249 110t104 275q0 149 -94 242t-251 93q-130 0 -315 -79 l136 730h637z" unicode="5"/>
<glyph glyph-name="six" d="M590 725q-128 0 -218.5 -90.5t-90.5 -219.5q0 -128 90.5 -218.5t218.5 -90.5t218.5 90.5t90.5 218.5q0 129 -90.5 219.5t-218.5 90.5zM751 1508l121 -79l-397 -602q80 27 150 27q175 0 297 -126.5t122 -311.5q0 -127 -59 -229.5t-167.5 -163t-233.5 -60.5 q-121 0 -224.5 58.5t-162.5 164.5t-59 227q0 90 36.5 189.5t130.5 239.5z" unicode="6"/>
<glyph glyph-name="seven" d="M147 1471h933l-787 -1508l-121 62l680 1307h-705v139z" unicode="7"/>
<glyph glyph-name="eight" d="M575 733q-152 0 -255 -98.5t-103 -229.5q0 -81 44 -153t123 -111t183 -39q161 0 256 95t95 222q0 123 -100.5 218.5t-242.5 95.5zM568 1365q-121 0 -200.5 -71.5t-79.5 -170.5q0 -98 85.5 -177.5t199.5 -79.5q73 0 138 36t101.5 98.5t36.5 125.5q0 89 -72 164t-209 75z M787 807q149 -74 213.5 -169t64.5 -216q0 -170 -111 -300q-136 -159 -389 -159q-244 0 -370 139.5t-126 307.5q0 123 66 221.5t220 175.5q-108 56 -162 139t-54 178q0 96 57.5 187.5t159 144t219.5 52.5q115 0 213 -53t153.5 -144t55.5 -191t-52.5 -178t-157.5 -135z" unicode="8"/>
<glyph glyph-name="nine" d="M553 746q129 0 219.5 90.5t90.5 218.5t-90.5 218.5t-219.5 90.5q-128 0 -218.5 -90.5t-90.5 -218.5t90.5 -218.5t218.5 -90.5zM393 -37l-121 78l397 602q-80 -26 -150 -26q-175 0 -297 126.5t-122 311.5q0 127 59 229t167.5 163t232.5 61q122 0 225.5 -59t162.5 -165 t59 -226q0 -91 -36.5 -190.5t-130.5 -239.5z" unicode="9"/>
<glyph glyph-name="colon" horiz-adv-x="567" unicode=":" d="M310 220q51 0 87 -36t36 -88q0 -51 -36 -87.5t-87 -36.5t-87 36.5t-36 87.5q0 52 36 88t87 36zM310 1116q51 0 87 -36t36 -88t-36 -88t-87 -36t-87 36t-36 88q0 51 36 87.5t87 36.5z"/>
<glyph glyph-name="less" horiz-adv-x="1241" unicode="&lt;" d="M1137 347v-146l-1033 469v130l1033 471v-147l-839 -390z"/>
<glyph glyph-name="equal" horiz-adv-x="1241" unicode="=" d="M1127 584v-137h-1012v137h1012zM1127 1024v-137h-1012v137h1012z"/>
<glyph glyph-name="greater" horiz-adv-x="1241" unicode="&gt;" d="M104 347l839 387l-839 390v147l1033 -471v-130l-1033 -469v146z"/>
<glyph glyph-name="question" horiz-adv-x="1210" unicode="?" d="M607 220q51 0 87 -36t36 -88q0 -51 -36 -87.5t-87 -36.5t-87 36.5t-36 87.5q0 52 36 88t87 36zM315 1071h-145q2 202 120.5 319.5t317.5 117.5q196 0 308 -99t112 -246q0 -70 -30.5 -129.5t-92.5 -107t-217 -108.5q-195 -78 -236 -116q-42 -39 -42 -94q0 -58 56.5 -104 t146.5 -46q99 0 152 50.5t65 161.5h146q-7 -167 -103.5 -259.5t-259.5 -92.5q-162 0 -258 84t-96 207q0 60 26.5 113.5t75 89.5t182.5 91q216 88 277 132q60 44 60 126q0 87 -73.5 147t-196.5 60q-150 0 -233 -99q-58 -69 -62 -198z"/>
<glyph glyph-name="at" horiz-adv-x="1776" unicode="@" d="M838 428q66 0 124 41.5t92 124.5q44 109 44 219q0 101 -56.5 164t-146.5 63q-120 0 -207.5 -98.5t-87.5 -245.5q0 -123 66.5 -195.5t171.5 -72.5zM1444 301h106q-134 -167 -248 -234q-162 -94 -369 -94q-219 0 -404 103.5t-288.5 282.5t-103.5 391q0 215 104.5 400 t284.5 287.5t394 102.5q302 0 510 -193.5t208 -450.5q0 -187 -86.5 -322.5t-234.5 -210.5q-113 -58 -193 -58q-58 0 -92 31q-26 23 -27 80q-34 -43 -93.5 -72t-123.5 -29q-144 0 -238 99.5t-94 263.5q0 177 114 323t314 146q88 0 147.5 -33t112.5 -115l26 138h108l-116 -654 q-5 -32 -5 -41q0 -23 14 -36t36 -13q59 0 153.5 68.5t147 176t52.5 238.5q0 254 -197 421q-184 155 -448 155q-196 0 -355.5 -89.5t-252 -252t-92.5 -351.5q0 -191 93 -352.5t257.5 -253.5t362.5 -92q145 0 263 52t253 188z"/>
<glyph glyph-name="A" horiz-adv-x="1515" unicode="A" d="M762 1159l-253 -533h503zM780 1471l686 -1471h-158l-231 484h-634l-230 -484h-164l695 1471h36z"/>
<glyph glyph-name="B" horiz-adv-x="1176" unicode="B" d="M327 708v-564h182q161 0 236 31.5t120.5 98.5t45.5 145q0 98 -64 171t-176 100q-75 18 -261 18h-83zM327 1327v-471h84q153 0 225 28.5t114 90t42 136.5q0 101 -70.5 158.5t-224.5 57.5h-170zM183 1471h290q175 0 269 -41.5t148.5 -127.5t54.5 -191q0 -98 -48 -178.5 t-141 -130.5q115 -39 177 -91.5t96.5 -127t34.5 -161.5q0 -177 -129.5 -299.5t-347.5 -122.5h-404v1471z"/>
<glyph glyph-name="C" horiz-adv-x="1665" unicode="C" d="M1549 1198l-116 -89q-96 125 -230.5 189.5t-295.5 64.5q-176 0 -326 -84.5t-232.5 -227t-82.5 -320.5q0 -269 184.5 -449t465.5 -180q309 0 517 242l116 -88q-110 -140 -274.5 -216.5t-367.5 -76.5q-386 0 -609 257q-187 217 -187 524q0 323 226.5 543.5t567.5 220.5 q206 0 372 -81.5t272 -228.5z"/>
<glyph glyph-name="D" horiz-adv-x="1524" unicode="D" d="M320 139h170q305 0 423 38q166 54 261 194.5t95 343.5q0 213 -103 364t-287 207q-138 42 -455 42h-104v-1189zM179 0v1471h305q330 0 479 -53q214 -75 334.5 -260t120.5 -441q0 -221 -95.5 -389t-248 -248t-427.5 -80h-468z"/>
<glyph glyph-name="E" horiz-adv-x="1098" unicode="E" d="M180 1471h843v-145h-696v-460h690v-144h-690v-577h690v-145h-837v1471z"/>
<glyph glyph-name="F" horiz-adv-x="993" unicode="F" d="M179 1471h737v-145h-591v-460h591v-145h-591v-721h-146v1471z"/>
<glyph glyph-name="G" horiz-adv-x="1786" unicode="G" d="M1598 1224l-114 -108q-123 121 -269.5 183.5t-285.5 62.5q-173 0 -329.5 -85t-242.5 -230.5t-86 -307.5q0 -166 89 -315.5t246 -235t344 -85.5q227 0 384 128t186 332h-469v142h634q-2 -341 -202.5 -541.5t-536.5 -200.5q-408 0 -646 278q-183 214 -183 495 q0 209 105 389t288 281.5t414 101.5q187 0 352 -67.5t322 -216.5z"/>
<glyph glyph-name="H" horiz-adv-x="1399" unicode="H" d="M177 1471h148v-617h748v617h148v-1471h-148v710h-748v-710h-148v1471z"/>
<glyph glyph-name="I" horiz-adv-x="463" unicode="I" d="M158 1471h147v-1471h-147v1471z"/>
<glyph glyph-name="J" horiz-adv-x="987" unicode="J" d="M660 1471h148v-993q0 -229 -35.5 -318.5t-118.5 -143t-201 -53.5q-89 0 -175.5 34.5t-191.5 121.5l78 117q115 -81 191 -114q50 -22 98 -22q63 0 114.5 38t72 101t20.5 244v988z"/>
<glyph glyph-name="K" horiz-adv-x="1210" unicode="K" d="M179 1471h150v-552l587 552h199l-707 -660l762 -811h-195l-646 686v-686h-150v1471z"/>
<glyph glyph-name="L" horiz-adv-x="946" unicode="L" d="M179 1471h148v-1329h565v-142h-713v1471z"/>
<glyph glyph-name="M" horiz-adv-x="1882" unicode="M" d="M112 0l209 1471h24l598 -1207l592 1207h24l211 -1471h-145l-144 1052l-520 -1052h-37l-527 1060l-143 -1060h-142z"/>
<glyph glyph-name="N" horiz-adv-x="1515" unicode="N" d="M180 0v1471h32l978 -1126v1126h145v-1471h-33l-970 1112v-1112h-152z"/>
<glyph glyph-name="O" horiz-adv-x="1780" unicode="O" d="M887 1364q-163 0 -309 -85t-228 -229t-82 -321q0 -262 181.5 -442.5t437.5 -180.5q171 0 316.5 83t227 227t81.5 320q0 175 -81.5 316.5t-229.5 226.5t-314 85zM880 1508q334 0 559 -223t225 -549q0 -323 -224.5 -548t-547.5 -225q-327 0 -552 224t-225 542 q0 212 102.5 393t279.5 283.5t383 102.5z"/>
<glyph glyph-name="P" horiz-adv-x="1212" unicode="P" d="M325 1328v-500l249 -3q151 0 221 27.5t110 89t40 137.5q0 74 -40 135.5t-105.5 87.5t-214.5 26h-260zM178 1471h293q252 0 340 -22q126 -31 206 -127.5t80 -242.5q0 -147 -78 -242.5t-215 -128.5q-100 -24 -374 -24h-105v-684h-147v1471z"/>
<glyph glyph-name="Q" horiz-adv-x="1784" unicode="Q" d="M1322 275q192 187 192 461q0 175 -81.5 316.5t-229.5 226.5t-312 85q-165 0 -311 -84.5t-228 -229t-82 -321.5q0 -262 181 -442.5t437 -180.5q175 0 320 85l-328 416h179zM1413 160l218 -276h-181l-150 190q-180 -111 -406 -111q-327 0 -552 224t-225 542 q0 212 103 393.5t280.5 283.5t389.5 102q327 0 551.5 -223.5t224.5 -549.5q0 -170 -61.5 -311t-191.5 -264z"/>
<glyph glyph-name="R" horiz-adv-x="1243" unicode="R" d="M334 1327v-500l253 -2q147 0 217.5 28t110 89.5t39.5 137.5q0 74 -40 134.5t-105 86.5t-216 26h-259zM187 1471h293q245 0 332 -20q131 -30 213 -128.5t82 -242.5q0 -120 -56.5 -211t-161.5 -137.5t-290 -47.5l529 -684h-182l-528 684h-84v-684h-147v1471z"/>
<glyph glyph-name="S" horiz-adv-x="1020" unicode="S" d="M27 274l125 75q132 -243 305 -243q74 0 139 34.5t99 92.5t34 123q0 74 -50 145q-69 98 -252 236q-184 139 -229 201q-78 104 -78 225q0 96 46 175t129.5 124.5t181.5 45.5q104 0 194.5 -51.5t191.5 -189.5l-120 -91q-83 110 -141.5 145t-127.5 35q-89 0 -145.5 -54 t-56.5 -133q0 -48 20 -93t73 -98q29 -28 190 -147q191 -141 262 -251t71 -221q0 -160 -121.5 -278t-295.5 -118q-134 0 -243 71.5t-201 239.5z"/>
<glyph glyph-name="T" horiz-adv-x="872" unicode="T" d="M33 1328v143h807v-143h-328v-1328h-150v1328h-329z"/>
<glyph glyph-name="U" horiz-adv-x="1341" unicode="U" d="M184 1471h147v-888q0 -158 6 -197q11 -87 51 -145.5t123 -98t167 -39.5q73 0 140 31t112 86t66 133q15 56 15 230v888h147v-888q0 -197 -38.5 -318.5t-154 -211.5t-279.5 -90q-178 0 -305 85t-170 225q-27 86 -27 310v888z"/>
<glyph glyph-name="V" horiz-adv-x="1438" unicode="V" d="M67 1471h160l487 -1137l496 1137h160l-640 -1471h-32z"/>
<glyph glyph-name="W" horiz-adv-x="1966" unicode="W" d="M96 1471h151l299 -1060l422 1060h30l417 -1060l305 1060h150l-422 -1471h-28l-436 1113l-445 -1113h-28z"/>
<glyph glyph-name="X" horiz-adv-x="1247" unicode="X" d="M101 1471h172l352 -574l355 574h170l-438 -713l467 -758h-172l-382 617l-384 -617h-172l469 758z"/>
<glyph glyph-name="Y" horiz-adv-x="1212" unicode="Y" d="M63 1471h170l376 -606l370 606h170l-466 -768v-703h-145v703z"/>
<glyph glyph-name="Z" horiz-adv-x="983" unicode="Z" d="M122 1329v142h776l-615 -1328h584v-143h-811l619 1329h-553z"/>
<glyph glyph-name="bracketleft" horiz-adv-x="719" unicode="[" d="M290 1508h336v-142h-196v-1627h196v-137h-336v1906z"/>
<glyph glyph-name="backslash" horiz-adv-x="1239" unicode="\" d="M220 1508l952 -1708h-153l-953 1708h154z"/>
<glyph glyph-name="bracketright" horiz-adv-x="719" unicode="]" d="M429 -398h-336v142h195v1627h-195v137h336v-1906z"/>
<glyph glyph-name="asciicircum" horiz-adv-x="1376" unicode="^" d="M629 1471h118l510 -1106h-133l-439 952l-436 -952h-129z"/>
<glyph glyph-name="underscore" horiz-adv-x="1024" unicode="_" d="M-12 -154h1048v-102h-1048v102z"/>
<glyph glyph-name="grave" horiz-adv-x="774" unicode="`" d="M326 1598l218 -308h-138l-295 308h215z"/>
<glyph glyph-name="a" horiz-adv-x="1399" unicode="a" d="M680 981q-117 0 -216 -57.5t-157.5 -161.5t-58.5 -220q0 -115 59 -220t158.5 -163.5t213.5 -58.5q115 0 218 58t158.5 157t55.5 223q0 189 -124.5 316t-306.5 127zM1240 1088v-1088h-138v187q-88 -107 -197.5 -161t-239.5 -54q-231 0 -394.5 167.5t-163.5 407.5 q0 235 165 402t397 167q134 0 242.5 -57t190.5 -171v200h138z"/>
<glyph glyph-name="b" horiz-adv-x="1397" unicode="b" d="M725 107q117 0 216 57.5t157.5 161.5t58.5 220t-59 221t-158.5 163.5t-212.5 58.5q-115 0 -218.5 -58.5t-159 -157.5t-55.5 -223q0 -189 124.5 -316t306.5 -127zM165 0v1508h139v-607q88 108 197 161.5t239 53.5q231 0 394.5 -167.5t163.5 -406.5q0 -236 -165 -403 t-397 -167q-133 0 -241 57t-191 171v-200h-139z"/>
<glyph glyph-name="c" horiz-adv-x="1325" unicode="c" d="M1212 862l-111 -69q-144 191 -393 191q-199 0 -330.5 -128t-131.5 -311q0 -119 60.5 -224t166 -163t236.5 -58q240 0 392 191l111 -73q-78 -117 -209.5 -181.5t-299.5 -64.5q-258 0 -428 164t-170 399q0 158 79.5 293.5t218.5 211.5t311 76q108 0 208.5 -33t170.5 -86 t119 -135z"/>
<glyph glyph-name="d" horiz-adv-x="1403" unicode="d" d="M682 981q-117 0 -216 -57.5t-157.5 -161.5t-58.5 -220q0 -115 59 -220t158.5 -163.5t213.5 -58.5q115 0 218 58t158.5 157t55.5 223q0 189 -124.5 316t-306.5 127zM1242 1508v-1508h-138v187q-88 -107 -197.5 -161t-239.5 -54q-231 0 -394.5 167.5t-163.5 407.5 q0 235 165 402t397 167q134 0 242.5 -57t190.5 -171v620h138z"/>
<glyph glyph-name="e" horiz-adv-x="1331" unicode="e" d="M1072 654q-28 112 -81.5 179t-141.5 108t-185 41q-160 0 -275 -103q-84 -75 -127 -225h810zM1072 361l118 -62q-58 -114 -134 -184t-171 -106.5t-215 -36.5q-266 0 -416 174.5t-150 394.5q0 207 127 369q161 206 431 206q278 0 444 -211q118 -149 120 -372h-978 q4 -190 121 -311.5t289 -121.5q83 0 161.5 29t133.5 77t119 155z"/>
<glyph glyph-name="f" horiz-adv-x="643" unicode="f" d="M604 1508v-137q-77 33 -132 33q-41 0 -68 -16.5t-34 -38t-7 -114.5v-147h227v-120h-228v-968h-140v968h-143v120h143v170q0 117 21.5 167t73 80.5t124.5 30.5q68 0 163 -28z"/>
<glyph glyph-name="g" horiz-adv-x="1378" unicode="g" d="M680 981q-119 0 -221 -57.5t-160 -159t-58 -219.5q0 -179 120 -296t311 -117q193 0 310.5 116t117.5 305q0 123 -54 219.5t-153 152.5t-213 56zM1093 1088h141v-867q0 -229 -40 -335q-55 -150 -191 -231t-327 -81q-140 0 -251.5 39.5t-181.5 106t-129 194.5h152 q62 -108 160 -160t243 -52q143 0 241.5 53.5t140.5 134.5t42 261v56q-79 -100 -193 -153.5t-242 -53.5q-150 0 -282 74.5t-204 200.5t-72 277t75 281.5t207.5 206.5t279.5 76q122 0 227.5 -50.5t203.5 -166.5v189z"/>
<glyph glyph-name="h" horiz-adv-x="1249" unicode="h" d="M156 1508h140v-615q85 112 187 167.5t221 55.5q122 0 216.5 -62t139.5 -166.5t45 -327.5v-560h-140v519q0 188 -15 251q-26 108 -94.5 162.5t-179.5 54.5q-127 0 -227.5 -84t-132.5 -208q-20 -80 -20 -296v-399h-140v1508z"/>
<glyph glyph-name="i" horiz-adv-x="410" unicode="i" d="M135 1088h141v-1088h-141v1088zM205 1536q48 0 82 -34t34 -82q0 -47 -34 -81t-82 -34q-47 0 -81 34t-34 81q0 48 34 82t81 34z"/>
<glyph glyph-name="j" horiz-adv-x="416" unicode="j" d="M139 1088h142v-1252q0 -137 -49.5 -199.5t-135.5 -62.5q-71 0 -160 34v126q56 -29 101 -29q57 0 85 47q17 30 17 125v1211zM208 1536q48 0 81.5 -34t33.5 -82q0 -47 -33.5 -81t-81.5 -34t-81.5 34t-33.5 81q0 48 33.5 82t81.5 34z"/>
<glyph glyph-name="k" horiz-adv-x="1028" unicode="k" d="M155 1508h141v-858l503 438h206l-597 -519l632 -569h-198l-546 489v-489h-141v1508z"/>
<glyph glyph-name="l" horiz-adv-x="410" unicode="l" d="M135 1508h140v-1508h-140v1508z"/>
<glyph glyph-name="m" horiz-adv-x="1921" unicode="m" d="M155 1088h139v-188q73 104 150 152q106 64 223 64q79 0 150 -31t116 -82.5t78 -147.5q70 128 175 194.5t226 66.5q113 0 199.5 -57t128.5 -159t42 -306v-594h-143v594q0 175 -25 240.5t-85.5 105.5t-144.5 40q-102 0 -186.5 -60t-123.5 -160t-39 -334v-426h-139v557 q0 197 -24.5 267.5t-85.5 113t-145 42.5q-97 0 -181.5 -58.5t-125 -157.5t-40.5 -303v-461h-139v1088z"/>
<glyph glyph-name="n" horiz-adv-x="1249" unicode="n" d="M156 1088h140v-195q84 112 186 167.5t222 55.5q122 0 216.5 -62t139.5 -167t45 -327v-560h-139v519q0 188 -16 251q-25 108 -94 162.5t-180 54.5q-127 0 -227.5 -84t-132.5 -208q-20 -81 -20 -296v-399h-140v1088z"/>
<glyph glyph-name="o" horiz-adv-x="1341" unicode="o" d="M671 979q-174 0 -299 -129t-125 -312q0 -118 57 -220t154 -157.5t213 -55.5t213 55.5t154 157.5t57 220q0 183 -125.5 312t-298.5 129zM671 1116q251 0 416 -182q150 -166 150 -393q0 -228 -158.5 -398.5t-407.5 -170.5q-250 0 -408.5 170.5t-158.5 398.5q0 226 150 392 q165 183 417 183z"/>
<glyph glyph-name="p" horiz-adv-x="1397" unicode="p" d="M718 981q-182 0 -306.5 -127t-124.5 -316q0 -124 55.5 -223t159 -157t218.5 -58q113 0 212.5 58.5t158.5 163.5t59 220q0 116 -58.5 220t-157.5 161.5t-216 57.5zM158 1088h139v-200q83 114 191 171t241 57q232 0 397 -167t165 -402q0 -240 -163.5 -407.5t-394.5 -167.5 q-130 0 -239 54t-197 161v-585h-139v1486z"/>
<glyph glyph-name="q" horiz-adv-x="1397" unicode="q" d="M679 981q-117 0 -216 -57.5t-157.5 -161.5t-58.5 -220q0 -115 59 -220t158.5 -163.5t213.5 -58.5q115 0 218 58t158.5 157t55.5 223q0 189 -124.5 316t-306.5 127zM1239 1088v-1486h-138v585q-88 -107 -197.5 -161t-239.5 -54q-231 0 -394.5 167.5t-163.5 407.5 q0 235 165 402t397 167q134 0 242.5 -57t190.5 -171v200h138z"/>
<glyph glyph-name="r" horiz-adv-x="616" unicode="r" d="M103 1088h143v-159q64 94 135 140.5t148 46.5q58 0 124 -37l-73 -118q-44 19 -74 19q-70 0 -135 -57.5t-99 -178.5q-26 -93 -26 -376v-368h-143v1088z"/>
<glyph glyph-name="s" horiz-adv-x="795" unicode="s" d="M703 969l-90 -93q-112 109 -219 109q-68 0 -116.5 -45t-48.5 -105q0 -53 40 -101q40 -49 168 -115q156 -81 212 -156q55 -76 55 -171q0 -134 -94 -227t-235 -93q-94 0 -179.5 41t-141.5 113l88 100q107 -121 227 -121q84 0 143 54t59 127q0 60 -39 107q-39 46 -176 116 q-147 76 -200 150t-53 169q0 124 84.5 206t213.5 82q150 0 302 -147z"/>
<glyph glyph-name="t" horiz-adv-x="694" unicode="t" d="M278 1492h141v-404h222v-120h-222v-968h-141v968h-191v120h191v404z"/>
<glyph glyph-name="u" horiz-adv-x="1245" unicode="u" d="M138 1088h141v-508q0 -186 20 -256q30 -100 114.5 -158t201.5 -58t198.5 56.5t112.5 148.5q21 63 21 267v508h143v-534q0 -225 -52.5 -339t-158 -178.5t-264.5 -64.5t-265.5 64.5t-159 180t-52.5 347.5v524z"/>
<glyph glyph-name="v" d="M53 1088h149l364 -792l361 792h150l-498 -1088h-25z" unicode="v"/>
<glyph glyph-name="w" horiz-adv-x="1702" unicode="w" d="M9 1088h144l333 -790l349 790h25l348 -790l339 790h146l-472 -1088h-27l-346 779l-349 -779h-26z"/>
<glyph glyph-name="x" horiz-adv-x="983" unicode="x" d="M32 1088h168l288 -403l288 403h168l-372 -517l419 -571h-170l-333 457l-328 -457h-167l412 571z"/>
<glyph glyph-name="y" horiz-adv-x="1098" unicode="y" d="M39 1088h148l374 -838l363 838h149l-649 -1486h-148l210 480z"/>
<glyph glyph-name="z" horiz-adv-x="870" unicode="z" d="M67 1088h799l-616 -964h596v-124h-837l616 965h-558v123z"/>
<glyph glyph-name="braceleft" horiz-adv-x="719" unicode="{" d="M75 591q61 2 99 24q49 29 74.5 80t30.5 144q2 46 3.5 211t21.5 236t62 113t107 61q39 11 125 11h56v-157h-31q-105 0 -138.5 -38.5t-33.5 -167.5q0 -233 -7 -297q-13 -123 -58.5 -188.5t-143.5 -112.5q110 -47 159.5 -141.5t49.5 -309.5q0 -192 4 -227q6 -54 25 -83 q14 -20 44.5 -31.5t129.5 -11.5v-157h-56q-100 0 -146 17q-67 25 -107.5 80.5t-52.5 148.5q-9 66 -10 246q-1 184 -20.5 249t-66.5 100.5t-120 37.5v163z"/>
<glyph glyph-name="bar" horiz-adv-x="1376" unicode="|" d="M616 1508h143v-1906h-143v1906z"/>
<glyph glyph-name="braceright" horiz-adv-x="719" unicode="}" d="M644 591v-163q-61 -1 -99 -23q-49 -29 -74.5 -80t-30.5 -144q-2 -46 -3.5 -211.5t-21.5 -236t-62 -113t-107 -60.5q-39 -11 -125 -11h-56v157h31q105 0 138.5 38t33.5 167q0 239 8 304q14 121 63.5 189t137.5 106q-117 56 -163 147.5t-46 302.5q0 221 -9 259 q-11 51 -42.5 73t-120.5 22h-31v157h56q100 0 146 -18q67 -24 107.5 -80t52.5 -148q9 -66 10 -246q1 -184 20.5 -249.5t66.5 -101t120 -37.5z"/>
<glyph glyph-name="asciitilde" horiz-adv-x="1241" unicode="~" d="M1128 837v-162q-112 -63 -160.5 -79.5t-91.5 -16.5q-95 0 -265 77q-132 60 -168.5 71.5t-68.5 11.5q-44 0 -97 -19t-165 -86v160q110 62 159 79t95 17q97 0 268 -81q118 -56 161.5 -69.5t78.5 -13.5q42 0 85 16.5t169 94.5z"/>
<glyph glyph-name="nonbreakingspace" horiz-adv-x="573" unicode=" "/>
<glyph glyph-name="exclamdown" horiz-adv-x="604" unicode="¡" d="M231 -426v1140h145v-1140h-145zM302 1110q51 0 87 -36t36 -88t-36 -88t-87 -36t-87 36t-36 88q0 51 36 87.5t87 36.5z"/>
<glyph glyph-name="cent" d="M765 961q-64 21 -121 21q-171 0 -285.5 -120.5t-114.5 -318.5q0 -109 33 -191t100 -143zM961 1340l121 -60l-132 -257q72 -46 116 -94l-85 -105q-46 44 -95 76l-394 -766q75 -32 144 -32q146 0 306 128l91 -106q-78 -69 -184 -110.5t-212 -41.5q-96 0 -208 37l-152 -295 l-117 64l151 301q-108 97 -158 209t-50 247q0 240 150.5 410.5t393.5 170.5q90 0 181 -33z" unicode="¢"/>
<glyph glyph-name="sterling" d="M385 207q-68 41 -114 41q-33 0 -55 -22t-22 -55q0 -32 19.5 -53.5t47.5 -21.5q75 0 124 111zM99 844h254q-54 192 -60 227q-11 57 -11 108q0 134 104 231.5t257 97.5q100 0 171.5 -42.5t117.5 -123t57 -217.5h-136q-4 121 -59 185t-147 64q-101 0 -163 -56.5t-62 -148.5 q0 -81 29 -163l7 -18l45 -144h320v-129h-286q37 -126 37 -264q0 -107 -22 -188q61 -51 166 -115q60 -36 110 -36q95 0 106 232h141v-7q0 -113 -34 -206t-84 -130.5t-112 -37.5q-67 0 -145 35q-108 48 -197 125q-83 -160 -237 -160q-96 0 -152.5 50.5t-56.5 137.5 q0 96 66 164t156 68q67 0 144 -39q7 67 7 106q0 141 -45 265h-286v129z" unicode="£"/>
<glyph glyph-name="currency" d="M193 612q0 -154 110.5 -263t265.5 -109q156 0 266 110t110 265t-109.5 264.5t-265.5 109.5t-266.5 -110.5t-110.5 -266.5zM42 192l116 114q-61 82 -84.5 153.5t-23.5 154.5q0 89 28 171q21 63 83 140l-120 117l90 91l120 -119q76 59 156.5 85.5t164.5 26.5q81 0 156 -24 t156 -82l117 113l88 -91l-116 -112q64 -79 89.5 -153t25.5 -162q0 -86 -24.5 -158.5t-84.5 -150.5l116 -114l-89 -90l-116 115q-79 -62 -156.5 -88.5t-164.5 -26.5q-86 0 -162.5 26t-158.5 89l-117 -115z" unicode="¤"/>
<glyph glyph-name="yen" d="M906 1471h166l-417 -735h356v-117h-374v-155h374v-117h-374v-347h-144v347h-370v117h370v155h-370v117h353l-414 735h167l337 -602z" unicode="¥"/>
<glyph glyph-name="brokenbar" horiz-adv-x="1376" unicode="¦" d="M616 -398v957l143 54v-1011h-143zM616 686v822h143v-767z"/>
<glyph glyph-name="section" horiz-adv-x="1259" unicode="§" d="M507 839q-110 -17 -170.5 -75.5t-60.5 -140.5q0 -73 53 -133q69 -79 267 -184q122 15 189.5 76.5t67.5 140.5q0 62 -47 114t-285 193zM964 1194h-147q-11 94 -72 147.5t-159 53.5q-106 0 -166.5 -52t-60.5 -128q0 -44 19 -81q26 -50 83 -98.5t198 -132.5 q165 -99 223.5 -151t87.5 -113t29 -119q0 -101 -77.5 -186t-208.5 -110q106 -66 162 -155t56 -181q0 -132 -102 -223t-267 -91q-163 0 -271 83t-129 205h148q23 -64 67 -99q72 -58 176 -58q105 0 167.5 53t62.5 128q0 68 -50 132t-230 179q-172 110 -210 138 q-84 65 -123.5 136t-39.5 145q0 63 31 123.5t87.5 106t141.5 70.5q-99 71 -138.5 143t-39.5 160q0 139 100.5 228t271.5 89q166 0 264 -88.5t116 -253.5z"/>
<glyph glyph-name="dieresis" horiz-adv-x="756" unicode="¨" d="M582 1518q48 0 82 -34t34 -82t-34 -82t-82 -34t-82 34t-34 82t34 82t82 34zM174 1518q48 0 82 -34t34 -82t-34 -82t-82 -34t-82 34t-34 82t34 82t82 34z"/>
<glyph glyph-name="copyright" horiz-adv-x="1530" unicode="©" d="M1150 924h-136q-21 89 -79.5 133.5t-155.5 44.5q-127 0 -204 -89.5t-77 -261.5q0 -168 74 -256t193 -88q100 0 165.5 61.5t83.5 184.5h136q-19 -164 -124 -261t-256 -97q-189 0 -302 121.5t-113 336.5q0 226 117.5 352t298.5 126q167 0 267 -83.5t112 -223.5zM1442 757 q0 182 -90.5 338.5t-247.5 247.5t-339 91q-181 0 -338 -91t-247.5 -248t-90.5 -338q0 -182 90.5 -339t248 -247.5t338.5 -90.5t338 90.5t247.5 247.5t90.5 339zM1551 757q0 -211 -105 -392t-287.5 -286.5t-392.5 -105.5t-393 105.5t-288 287t-105 391.5t105 391.5 t287.5 286.5t393.5 105q210 0 392.5 -105t287.5 -286.5t105 -391.5z"/>
<glyph glyph-name="ordfeminine" horiz-adv-x="756" unicode="ª" d="M365 1399q-77 0 -134.5 -70t-57.5 -179q0 -110 58 -181t133 -71q77 0 134.5 68t57.5 182q0 112 -57 181.5t-134 69.5zM664 1491v-681h-114v94q-42 -55 -93.5 -82.5t-113.5 -27.5q-114 0 -200 101.5t-86 256.5q0 153 87 254.5t201 101.5q61 0 112.5 -29t92.5 -87v99h114z "/>
<glyph glyph-name="guillemotleft" horiz-adv-x="870" unicode="«" d="M849 1088l-224 -546l224 -542h-148l-222 542l222 546h148zM391 1088l-223 -546l223 -542h-148l-222 542l222 546h148z"/>
<glyph glyph-name="logicalnot" horiz-adv-x="1241" unicode="¬" d="M1127 1024v-577h-137l-1 440h-874v137h1012z"/>
<glyph glyph-name="registered" horiz-adv-x="1530" unicode="®" d="M582 1087v-268h222q101 0 137 23q53 33 53 112q0 69 -38 101t-143 32h-231zM439 1217h377q132 0 190 -26.5t94.5 -86.5t36.5 -140q0 -69 -26 -119q-20 -37 -87 -81q61 -30 82 -69.5t21 -135.5v-102q0 -72 32 -120l15 -24h-160q-15 56 -21 133l-7 111q-4 61 -19.5 86 t-44 36t-113.5 11h-227v-377h-143v904zM1442 759q0 180 -91 338.5t-247 249.5t-336 91q-181 0 -339.5 -91t-249 -249.5t-90.5 -340.5q0 -181 90.5 -338t249.5 -248t339 -91q179 0 336 91.5t247.5 248t90.5 339.5zM1551 760q0 -212 -105 -393.5t-288 -287.5t-392 -106 t-392 105.5t-288.5 287.5t-105.5 390q0 210 105.5 394t288 289t392.5 105t391.5 -104.5t287.5 -288.5t106 -391z"/>
<glyph glyph-name="overscore" horiz-adv-x="1024" unicode="¯" d="M-12 1727h1048v-103h-1048v103z"/>
<glyph glyph-name="degree" horiz-adv-x="819" unicode="°" d="M636 1162q0 102 -65 171t-158 69q-94 0 -161.5 -69.5t-67.5 -168.5q0 -97 68 -167.5t160 -70.5t158 69t66 167zM755 1164q0 -145 -101 -244.5t-245 -99.5t-244 100t-100 247q0 141 102.5 241t244.5 100t242.5 -100t100.5 -244z"/>
<glyph glyph-name="plusminus" horiz-adv-x="1124" unicode="±" d="M1068 161v-137h-1012v137h1012zM493 913v434h137v-434h438v-137h-438v-434h-137v434h-437v137h437z"/>
<glyph glyph-name="twosuperior" horiz-adv-x="680" unicode="²" d="M155 1234h-106q2 119 85.5 196.5t216.5 77.5q124 0 202 -68.5t78 -163.5q0 -60 -33 -116t-143 -156l-190 -172h377v-99h-636l358 325q106 96 132 136.5t26 79.5q0 54 -49.5 95t-125.5 41q-85 0 -135 -46t-57 -130z"/>
<glyph glyph-name="threesuperior" horiz-adv-x="705" unicode="³" d="M184 1293h-112q27 106 97 160.5t173 54.5q116 0 189.5 -60.5t73.5 -142.5q0 -87 -91 -146q67 -32 102.5 -84t35.5 -110q0 -101 -84.5 -175.5t-222.5 -74.5q-125 0 -201.5 61.5t-99.5 179.5h109q20 -73 67.5 -107.5t124.5 -34.5q90 0 143.5 43.5t53.5 101.5q0 66 -60 103 t-194 42v94q102 0 152 32.5t50 75.5q0 40 -40.5 71.5t-107.5 31.5q-55 0 -92 -26t-66 -90z"/>
<glyph glyph-name="acute" horiz-adv-x="768" unicode="´" d="M452 1598h215l-295 -308h-138z"/>
<glyph glyph-name="mu1" horiz-adv-x="1180" unicode="µ" d="M147 -398v1486h141v-600q0 -136 33.5 -203t108.5 -112.5t162 -45.5t156.5 43.5t107 120t37.5 210.5v587h140v-1088h-140v118q-59 -74 -133.5 -108.5t-168.5 -34.5t-169.5 34.5t-133.5 105.5v-513h-141z"/>
<glyph glyph-name="paragraph" horiz-adv-x="1155" unicode="¶" d="M483 -231v937q-75 0 -111 8q-78 17 -141 67.5t-100 135t-37 188.5q0 189 116 308q97 100 299 100h513v-75h-84v-1669h-119v1669h-217v-1669h-119z"/>
<glyph glyph-name="middot" horiz-adv-x="682" unicode="·" d="M602 870q48 0 82 -34t34 -82t-34 -82t-82 -34t-82 34t-34 82t34 82t82 34z"/>
<glyph glyph-name="cedilla" horiz-adv-x="664" unicode="¸" d="M311 0h88l-17 -118q23 3 38 3q49 0 82 -30.5t33 -76.5q0 -66 -60 -112t-169 -46q-89 0 -167 30l22 69q64 -20 120 -20q75 0 105 18.5t30 46.5q0 17 -16.5 30t-45.5 13q-24 0 -70 -9z"/>
<glyph glyph-name="onesuperior" horiz-adv-x="680" unicode="¹" d="M224 1489h187v-756h-110v658h-150z"/>
<glyph glyph-name="ordmasculine" horiz-adv-x="756" unicode="º" d="M377 1398q-81 0 -143 -72t-62 -179t60.5 -176.5t144.5 -69.5q85 0 145.5 69.5t60.5 176.5t-62 179t-144 72zM377 1508q133 0 228 -103t95 -256q0 -152 -94.5 -253.5t-228.5 -101.5q-133 0 -227.5 101.5t-94.5 253.5q0 154 95 256.5t227 102.5z"/>
<glyph glyph-name="guillemotright" horiz-adv-x="870" unicode="»" d="M21 0l223 545l-223 543h148l222 -543l-222 -545h-148zM479 0l223 545l-223 543h147l223 -543l-223 -545h-147z"/>
<glyph glyph-name="onequarter" horiz-adv-x="1702" unicode="¼" d="M188 1489h187v-756h-110v658h-150zM388 -37l923 1545h112l-925 -1545h-110zM1443 258v248l-214 -248h214zM1554 786v-528h105v-97h-105v-170h-111v170h-432z"/>
<glyph glyph-name="onehalf" horiz-adv-x="1702" unicode="½" d="M177 1489h187v-756h-110v658h-150zM277 -37l923 1545h112l-925 -1545h-110zM1088 492h-106q2 119 85.5 196.5t216.5 77.5q124 0 202 -68.5t78 -163.5q0 -60 -33 -116t-143 -156l-190 -172h377v-99h-636l358 325q106 96 132 136.5t26 79.5q0 54 -49.5 95t-125.5 41 q-85 0 -135 -46t-57 -130z"/>
<glyph glyph-name="threequarters" horiz-adv-x="1702" unicode="¾" d="M209 1293h-112q27 106 97 160.5t173 54.5q116 0 189.5 -60.5t73.5 -142.5q0 -87 -91 -146q67 -32 102.5 -84t35.5 -110q0 -101 -84.5 -175.5t-222.5 -74.5q-125 0 -201.5 61.5t-99.5 179.5h109q20 -73 67.5 -107.5t124.5 -34.5q90 0 143.5 43.5t53.5 101.5q0 66 -60 103 t-194 42v94q102 0 152 32.5t50 75.5q0 40 -40.5 71.5t-107.5 31.5q-55 0 -92 -26t-66 -90zM431 -37l923 1545h112l-925 -1545h-110zM1436 258v248l-214 -248h214zM1547 786v-528h105v-97h-105v-170h-111v170h-432z"/>
<glyph glyph-name="questiondown" horiz-adv-x="1210" unicode="¿" d="M896 11h145q-2 -202 -120.5 -319.5t-317.5 -117.5q-196 0 -308 99t-112 246q0 70 31 129.5t92.5 107t216.5 108.5q195 78 237 117q41 39 41 93q0 58 -56.5 104t-146.5 46q-99 0 -152 -50.5t-65 -161.5h-146q7 167 103.5 260t259.5 93q162 0 258 -84t96 -208 q0 -60 -26.5 -113.5t-75 -89.5t-182.5 -91q-216 -88 -276 -132q-61 -44 -61 -125q0 -87 73.5 -147.5t196.5 -60.5q151 0 234 99q58 69 61 198zM604 1110q51 0 87 -36t36 -88t-36 -88t-87 -36t-87 36t-36 88q0 51 36 87.5t87 36.5z"/>
<glyph glyph-name="Agrave" horiz-adv-x="1515" unicode="À" d="M762 1159l-253 -533h503zM780 1471l686 -1471h-158l-231 484h-634l-230 -484h-164l695 1471h36zM697 1895l218 -308h-138l-295 308h215z"/>
<glyph glyph-name="Aacute" horiz-adv-x="1515" unicode="Á" d="M762 1159l-253 -533h503zM780 1471l686 -1471h-158l-231 484h-634l-230 -484h-164l695 1471h36zM825 1895h215l-295 -308h-138z"/>
<glyph glyph-name="Acircumflex" horiz-adv-x="1515" unicode="Â" d="M762 1159l-253 -533h503zM780 1471l686 -1471h-158l-231 484h-634l-230 -484h-164l695 1471h36zM691 1840h139l290 -257h-180l-176 152l-184 -152h-186z"/>
<glyph glyph-name="Atilde" horiz-adv-x="1515" unicode="Ã" d="M762 1159l-253 -533h503zM780 1471l686 -1471h-158l-231 484h-634l-230 -484h-164l695 1471h36zM1054 1789l70 -97q-72 -52 -121.5 -70t-104.5 -18q-72 0 -148 37q-65 32 -83 37q-24 7 -52 7q-35 0 -66.5 -12.5t-91.5 -56.5l-66 102q91 97 225 97q64 0 153 -40 q85 -39 134 -39q55 0 151 53z"/>
<glyph glyph-name="Adieresis" horiz-adv-x="1515" unicode="Ä" d="M762 1159l-253 -533h503zM780 1471l686 -1471h-158l-231 484h-634l-230 -484h-164l695 1471h36zM962 1816q48 0 82 -34t34 -82t-34 -82t-82 -34t-82 34t-34 82t34 82t82 34zM554 1816q48 0 82 -34t34 -82t-34 -82t-82 -34t-82 34t-34 82t34 82t82 34z"/>
<glyph glyph-name="Aring" horiz-adv-x="1515" unicode="Å" d="M762 1159l-253 -533h503zM780 1471l686 -1471h-158l-231 484h-634l-230 -484h-164l695 1471h36zM756 1888q-46 0 -78 -32.5t-32 -77.5t32 -77.5t78 -32.5q45 0 77 32.5t32 77.5t-32 77.5t-77 32.5zM757 1989q88 0 150.5 -62.5t62.5 -151.5q0 -88 -62 -150.5t-151 -62.5 q-88 0 -150.5 62.5t-62.5 150.5q0 89 62.5 151.5t150.5 62.5z"/>
<glyph glyph-name="AE" horiz-adv-x="2032" unicode="Æ" d="M578 620h441v681zM1 0l950 1471h910v-151h-693v-452h693v-145h-693v-579h693v-144h-842v482h-535l-312 -482h-171z"/>
<glyph glyph-name="Ccedilla" horiz-adv-x="1665" unicode="Ç" d="M1549 1198l-116 -89q-96 125 -230.5 189.5t-295.5 64.5q-176 0 -326 -84.5t-232.5 -227t-82.5 -320.5q0 -269 184.5 -449t465.5 -180q309 0 517 242l116 -88q-110 -140 -274.5 -216.5t-367.5 -76.5q-386 0 -609 257q-187 217 -187 524q0 323 226.5 543.5t567.5 220.5 q206 0 372 -81.5t272 -228.5zM811 0h88l-17 -118q23 3 38 3q49 0 82 -30.5t33 -76.5q0 -66 -60 -112t-169 -46q-89 0 -167 30l22 69q64 -20 120 -20q75 0 105 18.5t30 46.5q0 17 -16.5 30t-45.5 13q-24 0 -70 -9z"/>
<glyph glyph-name="Egrave" horiz-adv-x="1098" unicode="È" d="M180 1471h843v-145h-696v-460h690v-144h-690v-577h690v-145h-837v1471zM549 1895l218 -308h-138l-295 308h215z"/>
<glyph glyph-name="Eacute" horiz-adv-x="1098" unicode="É" d="M180 1471h843v-145h-696v-460h690v-144h-690v-577h690v-145h-837v1471zM677 1895h215l-295 -308h-138z"/>
<glyph glyph-name="Ecircumflex" horiz-adv-x="1098" unicode="Ê" d="M180 1471h843v-145h-696v-460h690v-144h-690v-577h690v-145h-837v1471zM543 1840h139l290 -257h-180l-176 152l-184 -152h-186z"/>
<glyph glyph-name="Edieresis" horiz-adv-x="1098" unicode="Ë" d="M180 1471h843v-145h-696v-460h690v-144h-690v-577h690v-145h-837v1471zM814 1816q48 0 82 -34t34 -82t-34 -82t-82 -34t-82 34t-34 82t34 82t82 34zM406 1816q48 0 82 -34t34 -82t-34 -82t-82 -34t-82 34t-34 82t34 82t82 34z"/>
<glyph glyph-name="Igrave" horiz-adv-x="463" unicode="Ì" d="M158 1471h147v-1471h-147v1471zM171 1895l218 -308h-138l-295 308h215z"/>
<glyph glyph-name="Iacute" horiz-adv-x="463" unicode="Í" d="M158 1471h147v-1471h-147v1471zM299 1895h215l-295 -308h-138z"/>
<glyph glyph-name="Icircumflex" horiz-adv-x="463" unicode="Î" d="M158 1471h147v-1471h-147v1471zM165 1840h139l290 -257h-180l-176 152l-184 -152h-186z"/>
<glyph glyph-name="Idieresis" horiz-adv-x="463" unicode="Ï" d="M158 1471h147v-1471h-147v1471zM436 1816q48 0 82 -34t34 -82t-34 -82t-82 -34t-82 34t-34 82t34 82t82 34zM28 1816q48 0 82 -34t34 -82t-34 -82t-82 -34t-82 34t-34 82t34 82t82 34z"/>
<glyph glyph-name="Eth" horiz-adv-x="1618" unicode="Ð" d="M354 667v-528h230q305 0 423 38q166 54 261.5 194.5t95.5 343.5q0 213 -103.5 364t-287.5 207q-138 42 -455 42h-164v-524h387v-137h-387zM213 667h-179v137h179v667h366q329 0 479 -53q213 -75 333.5 -260t120.5 -441q0 -221 -95.5 -389t-248 -248t-426.5 -80h-529v667z "/>
<glyph glyph-name="Ntilde" horiz-adv-x="1515" unicode="Ñ" d="M180 0v1471h32l978 -1126v1126h145v-1471h-33l-970 1112v-1112h-152zM1054 1789l70 -97q-72 -52 -121.5 -70t-104.5 -18q-72 0 -148 37q-65 32 -83 37q-24 7 -52 7q-35 0 -66.5 -12.5t-91.5 -56.5l-66 102q91 97 225 97q64 0 153 -40q85 -39 134 -39q55 0 151 53z"/>
<glyph glyph-name="Ograve" horiz-adv-x="1780" unicode="Ò" d="M887 1364q-163 0 -309 -85t-228 -229t-82 -321q0 -262 181.5 -442.5t437.5 -180.5q171 0 316.5 83t227 227t81.5 320q0 175 -81.5 316.5t-229.5 226.5t-314 85zM880 1508q334 0 559 -223t225 -549q0 -323 -224.5 -548t-547.5 -225q-327 0 -552 224t-225 542 q0 212 102.5 393t279.5 283.5t383 102.5zM829 1895l218 -308h-138l-295 308h215z"/>
<glyph glyph-name="Oacute" horiz-adv-x="1780" unicode="Ó" d="M887 1364q-163 0 -309 -85t-228 -229t-82 -321q0 -262 181.5 -442.5t437.5 -180.5q171 0 316.5 83t227 227t81.5 320q0 175 -81.5 316.5t-229.5 226.5t-314 85zM880 1508q334 0 559 -223t225 -549q0 -323 -224.5 -548t-547.5 -225q-327 0 -552 224t-225 542 q0 212 102.5 393t279.5 283.5t383 102.5zM958 1895h215l-295 -308h-138z"/>
<glyph glyph-name="Ocircumflex" horiz-adv-x="1780" unicode="Ô" d="M887 1364q-163 0 -309 -85t-228 -229t-82 -321q0 -262 181.5 -442.5t437.5 -180.5q171 0 316.5 83t227 227t81.5 320q0 175 -81.5 316.5t-229.5 226.5t-314 85zM880 1508q334 0 559 -223t225 -549q0 -323 -224.5 -548t-547.5 -225q-327 0 -552 224t-225 542 q0 212 102.5 393t279.5 283.5t383 102.5zM824 1840h139l290 -257h-180l-176 152l-184 -152h-186z"/>
<glyph glyph-name="Otilde" horiz-adv-x="1780" unicode="Õ" d="M887 1364q-163 0 -309 -85t-228 -229t-82 -321q0 -262 181.5 -442.5t437.5 -180.5q171 0 316.5 83t227 227t81.5 320q0 175 -81.5 316.5t-229.5 226.5t-314 85zM880 1508q334 0 559 -223t225 -549q0 -323 -224.5 -548t-547.5 -225q-327 0 -552 224t-225 542 q0 212 102.5 393t279.5 283.5t383 102.5zM1186 1789l70 -97q-72 -52 -121.5 -70t-104.5 -18q-72 0 -148 37q-65 32 -83 37q-24 7 -52 7q-35 0 -66.5 -12.5t-91.5 -56.5l-66 102q91 97 225 97q64 0 153 -40q85 -39 134 -39q55 0 151 53z"/>
<glyph glyph-name="Odieresis" horiz-adv-x="1780" unicode="Ö" d="M887 1364q-163 0 -309 -85t-228 -229t-82 -321q0 -262 181.5 -442.5t437.5 -180.5q171 0 316.5 83t227 227t81.5 320q0 175 -81.5 316.5t-229.5 226.5t-314 85zM880 1508q334 0 559 -223t225 -549q0 -323 -224.5 -548t-547.5 -225q-327 0 -552 224t-225 542 q0 212 102.5 393t279.5 283.5t383 102.5zM1094 1816q48 0 82 -34t34 -82t-34 -82t-82 -34t-82 34t-34 82t34 82t82 34zM686 1816q48 0 82 -34t34 -82t-34 -82t-82 -34t-82 34t-34 82t34 82t82 34z"/>
<glyph glyph-name="multiply" horiz-adv-x="1241" unicode="×" d="M712 735l332 -331l-92 -92l-331 331l-332 -331l-92 92l331 331l-331 332l92 92l332 -332l331 332l92 -92z"/>
<glyph glyph-name="Oslash" horiz-adv-x="1778" unicode="Ø" d="M1356 1153l-805 -949q152 -98 335 -98q171 0 316.5 83t227 227t81.5 320q0 244 -155 417zM444 291l811 954q-169 119 -369 119q-163 0 -309 -85t-228 -229t-82 -322q0 -255 177 -437zM1454 1269q100 -102 154.5 -238.5t54.5 -294.5q0 -323 -224.5 -548t-547.5 -225 q-245 0 -437 128l-164 -194l-107 87l165 194q-234 227 -234 551q0 212 103 393.5t281 283.5t391 102q257 0 467 -148l144 174l105 -87z"/>
<glyph glyph-name="Ugrave" horiz-adv-x="1341" unicode="Ù" d="M184 1471h147v-888q0 -158 6 -197q11 -87 51 -145.5t123 -98t167 -39.5q73 0 140 31t112 86t66 133q15 56 15 230v888h147v-888q0 -197 -38.5 -318.5t-154 -211.5t-279.5 -90q-178 0 -305 85t-170 225q-27 86 -27 310v888zM610 1895l218 -308h-138l-295 308h215z"/>
<glyph glyph-name="Uacute" horiz-adv-x="1341" unicode="Ú" d="M184 1471h147v-888q0 -158 6 -197q11 -87 51 -145.5t123 -98t167 -39.5q73 0 140 31t112 86t66 133q15 56 15 230v888h147v-888q0 -197 -38.5 -318.5t-154 -211.5t-279.5 -90q-178 0 -305 85t-170 225q-27 86 -27 310v888zM739 1895h215l-295 -308h-138z"/>
<glyph glyph-name="Ucircumflex" horiz-adv-x="1341" unicode="Û" d="M184 1471h147v-888q0 -158 6 -197q11 -87 51 -145.5t123 -98t167 -39.5q73 0 140 31t112 86t66 133q15 56 15 230v888h147v-888q0 -197 -38.5 -318.5t-154 -211.5t-279.5 -90q-178 0 -305 85t-170 225q-27 86 -27 310v888zM605 1840h139l290 -257h-180l-176 152 l-184 -152h-186z"/>
<glyph glyph-name="Udieresis" horiz-adv-x="1341" unicode="Ü" d="M184 1471h147v-888q0 -158 6 -197q11 -87 51 -145.5t123 -98t167 -39.5q73 0 140 31t112 86t66 133q15 56 15 230v888h147v-888q0 -197 -38.5 -318.5t-154 -211.5t-279.5 -90q-178 0 -305 85t-170 225q-27 86 -27 310v888zM875 1816q48 0 82 -34t34 -82t-34 -82t-82 -34 t-82 34t-34 82t34 82t82 34zM467 1816q48 0 82 -34t34 -82t-34 -82t-82 -34t-82 34t-34 82t34 82t82 34z"/>
<glyph glyph-name="Yacute" horiz-adv-x="1212" unicode="Ý" d="M63 1471h170l376 -606l370 606h170l-466 -768v-703h-145v703zM674 1895h215l-295 -308h-138z"/>
<glyph glyph-name="Thorn" horiz-adv-x="1212" unicode="Þ" d="M325 984v-500l249 -3q151 0 221 28t110 89t40 137q0 75 -40 136t-105.5 87t-214.5 26h-260zM178 1471h147v-344h146q251 0 339 -22q126 -31 206.5 -127.5t80.5 -242.5t-78 -241.5t-215 -129.5q-100 -24 -374 -24h-105v-340h-147v1471z"/>
<glyph glyph-name="germandbls" d="M162 0v995q0 226 43.5 322t143 157.5t234.5 61.5q177 0 285.5 -103t108.5 -259q0 -99 -50 -176t-139 -123q-49 -25 -137 -37q97 -15 149 -42q108 -57 169 -157t61 -231q0 -192 -117 -314t-300 -122q-123 0 -208 49v133q105 -49 188 -49q128 0 212.5 85.5t84.5 221.5 q0 151 -101.5 246t-293.5 101v157h32q139 0 223 73.5t84 178.5q0 99 -70 166t-178 67q-85 0 -156 -46.5t-103 -124.5q-24 -61 -24 -248v-982h-141z" unicode="ß"/>
<glyph glyph-name="agrave" horiz-adv-x="1399" unicode="à" d="M680 981q-117 0 -216 -57.5t-157.5 -161.5t-58.5 -220q0 -115 59 -220t158.5 -163.5t213.5 -58.5q115 0 218 58t158.5 157t55.5 223q0 189 -124.5 316t-306.5 127zM1240 1088v-1088h-138v187q-88 -107 -197.5 -161t-239.5 -54q-231 0 -394.5 167.5t-163.5 407.5 q0 235 165 402t397 167q134 0 242.5 -57t190.5 -171v200h138zM639 1598l218 -308h-138l-295 308h215z"/>
<glyph glyph-name="aacute" horiz-adv-x="1399" unicode="á" d="M680 981q-117 0 -216 -57.5t-157.5 -161.5t-58.5 -220q0 -115 59 -220t158.5 -163.5t213.5 -58.5q115 0 218 58t158.5 157t55.5 223q0 189 -124.5 316t-306.5 127zM1240 1088v-1088h-138v187q-88 -107 -197.5 -161t-239.5 -54q-231 0 -394.5 167.5t-163.5 407.5 q0 235 165 402t397 167q134 0 242.5 -57t190.5 -171v200h138zM767 1598h215l-295 -308h-138z"/>
<glyph glyph-name="acircumflex" horiz-adv-x="1399" unicode="â" d="M680 981q-117 0 -216 -57.5t-157.5 -161.5t-58.5 -220q0 -115 59 -220t158.5 -163.5t213.5 -58.5q115 0 218 58t158.5 157t55.5 223q0 189 -124.5 316t-306.5 127zM1240 1088v-1088h-138v187q-88 -107 -197.5 -161t-239.5 -54q-231 0 -394.5 167.5t-163.5 407.5 q0 235 165 402t397 167q134 0 242.5 -57t190.5 -171v200h138zM633 1542h139l290 -257h-180l-176 152l-184 -152h-186z"/>
<glyph glyph-name="atilde" horiz-adv-x="1399" unicode="ã" d="M680 981q-117 0 -216 -57.5t-157.5 -161.5t-58.5 -220q0 -115 59 -220t158.5 -163.5t213.5 -58.5q115 0 218 58t158.5 157t55.5 223q0 189 -124.5 316t-306.5 127zM1240 1088v-1088h-138v187q-88 -107 -197.5 -161t-239.5 -54q-231 0 -394.5 167.5t-163.5 407.5 q0 235 165 402t397 167q134 0 242.5 -57t190.5 -171v200h138zM996 1492l70 -97q-72 -52 -121.5 -70t-104.5 -18q-72 0 -148 37q-65 32 -83 37q-24 7 -52 7q-35 0 -66.5 -12.5t-91.5 -56.5l-66 102q91 97 225 97q64 0 153 -40q85 -39 134 -39q55 0 151 53z"/>
<glyph glyph-name="adieresis" horiz-adv-x="1399" unicode="ä" d="M680 981q-117 0 -216 -57.5t-157.5 -161.5t-58.5 -220q0 -115 59 -220t158.5 -163.5t213.5 -58.5q115 0 218 58t158.5 157t55.5 223q0 189 -124.5 316t-306.5 127zM1240 1088v-1088h-138v187q-88 -107 -197.5 -161t-239.5 -54q-231 0 -394.5 167.5t-163.5 407.5 q0 235 165 402t397 167q134 0 242.5 -57t190.5 -171v200h138zM904 1518q48 0 82 -34t34 -82t-34 -82t-82 -34t-82 34t-34 82t34 82t82 34zM496 1518q48 0 82 -34t34 -82t-34 -82t-82 -34t-82 34t-34 82t34 82t82 34z"/>
<glyph glyph-name="aring" horiz-adv-x="1399" unicode="å" d="M680 981q-117 0 -216 -57.5t-157.5 -161.5t-58.5 -220q0 -115 59 -220t158.5 -163.5t213.5 -58.5q115 0 218 58t158.5 157t55.5 223q0 189 -124.5 316t-306.5 127zM1240 1088v-1088h-138v187q-88 -107 -197.5 -161t-239.5 -54q-231 0 -394.5 167.5t-163.5 407.5 q0 235 165 402t397 167q134 0 242.5 -57t190.5 -171v200h138zM698 1590q-46 0 -78 -32.5t-32 -77.5t32 -77.5t78 -32.5q45 0 77 32.5t32 77.5t-32 77.5t-77 32.5zM699 1691q88 0 150.5 -62.5t62.5 -151.5q0 -88 -62 -150.5t-151 -62.5q-88 0 -150.5 62.5t-62.5 150.5 q0 89 62.5 151.5t150.5 62.5z"/>
<glyph glyph-name="ae" horiz-adv-x="2370" unicode="æ" d="M687 981q-114 0 -213.5 -57t-155 -157.5t-55.5 -222.5q0 -188 124 -313.5t305 -125.5t304.5 124.5t123.5 312.5q0 131 -53.5 228t-156 154t-223.5 57zM2093 651q-28 114 -81 181t-141 108.5t-181 41.5q-95 0 -184.5 -42.5t-146.5 -113t-82 -175.5h816zM1245 1088v-197 q106 127 205 176t232 49q246 0 406.5 -164.5t159.5 -421.5h-979q4 -116 62 -219t153.5 -157t211.5 -54q125 0 224 61.5t173 195.5l120 -60q-74 -155 -213 -240t-314 -85q-154 0 -275 69q-87 49 -166 153v-194h-128v201q-89 -111 -173 -159q-120 -70 -263 -70 q-231 0 -396 167.5t-165 408.5q0 156 74 285.5t205 206t278 76.5q141 0 264 -69q87 -50 176 -157v198h128z"/>
<glyph glyph-name="ccedilla" horiz-adv-x="1325" unicode="ç" d="M1212 862l-111 -69q-144 191 -393 191q-199 0 -330.5 -128t-131.5 -311q0 -119 60.5 -224t166 -163t236.5 -58q240 0 392 191l111 -73q-78 -117 -209.5 -181.5t-299.5 -64.5q-258 0 -428 164t-170 399q0 158 79.5 293.5t218.5 211.5t311 76q108 0 208.5 -33t170.5 -86 t119 -135zM642 0h88l-17 -118q23 3 38 3q49 0 82 -30.5t33 -76.5q0 -66 -60 -112t-169 -46q-89 0 -167 30l22 69q64 -20 120 -20q75 0 105 18.5t30 46.5q0 17 -16.5 30t-45.5 13q-24 0 -70 -9z"/>
<glyph glyph-name="egrave" horiz-adv-x="1331" unicode="è" d="M1072 654q-28 112 -81.5 179t-141.5 108t-185 41q-160 0 -275 -103q-84 -75 -127 -225h810zM1072 361l118 -62q-58 -114 -134 -184t-171 -106.5t-215 -36.5q-266 0 -416 174.5t-150 394.5q0 207 127 369q161 206 431 206q278 0 444 -211q118 -149 120 -372h-978 q4 -190 121 -311.5t289 -121.5q83 0 161.5 29t133.5 77t119 155zM605 1598l218 -308h-138l-295 308h215z"/>
<glyph glyph-name="eacute" horiz-adv-x="1331" unicode="é" d="M1072 654q-28 112 -81.5 179t-141.5 108t-185 41q-160 0 -275 -103q-84 -75 -127 -225h810zM1072 361l118 -62q-58 -114 -134 -184t-171 -106.5t-215 -36.5q-266 0 -416 174.5t-150 394.5q0 207 127 369q161 206 431 206q278 0 444 -211q118 -149 120 -372h-978 q4 -190 121 -311.5t289 -121.5q83 0 161.5 29t133.5 77t119 155zM734 1598h215l-295 -308h-138z"/>
<glyph glyph-name="ecircumflex" horiz-adv-x="1331" unicode="ê" d="M1072 654q-28 112 -81.5 179t-141.5 108t-185 41q-160 0 -275 -103q-84 -75 -127 -225h810zM1072 361l118 -62q-58 -114 -134 -184t-171 -106.5t-215 -36.5q-266 0 -416 174.5t-150 394.5q0 207 127 369q161 206 431 206q278 0 444 -211q118 -149 120 -372h-978 q4 -190 121 -311.5t289 -121.5q83 0 161.5 29t133.5 77t119 155zM600 1542h139l290 -257h-180l-176 152l-184 -152h-186z"/>
<glyph glyph-name="edieresis" horiz-adv-x="1331" unicode="ë" d="M1072 654q-28 112 -81.5 179t-141.5 108t-185 41q-160 0 -275 -103q-84 -75 -127 -225h810zM1072 361l118 -62q-58 -114 -134 -184t-171 -106.5t-215 -36.5q-266 0 -416 174.5t-150 394.5q0 207 127 369q161 206 431 206q278 0 444 -211q118 -149 120 -372h-978 q4 -190 121 -311.5t289 -121.5q83 0 161.5 29t133.5 77t119 155zM870 1518q48 0 82 -34t34 -82t-34 -82t-82 -34t-82 34t-34 82t34 82t82 34zM462 1518q48 0 82 -34t34 -82t-34 -82t-82 -34t-82 34t-34 82t34 82t82 34z"/>
<glyph glyph-name="igrave" horiz-adv-x="410" unicode="ì" d="M135 1088h141v-1088h-141v1088zM144 1598l218 -308h-138l-295 308h215z"/>
<glyph glyph-name="iacute" horiz-adv-x="410" unicode="í" d="M135 1088h141v-1088h-141v1088zM273 1598h215l-295 -308h-138z"/>
<glyph glyph-name="icircumflex" horiz-adv-x="410" unicode="î" d="M135 1088h141v-1088h-141v1088zM139 1542h139l290 -257h-180l-176 152l-184 -152h-186z"/>
<glyph glyph-name="idieresis" horiz-adv-x="410" unicode="ï" d="M135 1088h141v-1088h-141v1088zM409 1518q48 0 82 -34t34 -82t-34 -82t-82 -34t-82 34t-34 82t34 82t82 34zM1 1518q48 0 82 -34t34 -82t-34 -82t-82 -34t-82 34t-34 82t34 82t82 34z"/>
<glyph glyph-name="eth" horiz-adv-x="1341" unicode="ð" d="M680 982q-156 0 -281 -98q-153 -121 -153 -334q0 -189 124.5 -316.5t300.5 -127.5q114 0 213.5 57.5t155 158.5t55.5 226t-53.5 225t-150 154.5t-211.5 54.5zM430 1508h197q52 -37 102 -78l164 68l52 -107l-117 -47q217 -209 314 -406.5t97 -370.5q0 -166 -74.5 -304 t-206.5 -214.5t-292 -76.5q-232 0 -396.5 167t-164.5 408q0 238 162.5 403.5t385.5 165.5q116 0 251 -65q-94 127 -213 235l-218 -90l-52 106l175 73q-96 80 -166 133z"/>
<glyph glyph-name="ntilde" horiz-adv-x="1249" unicode="ñ" d="M156 1088h140v-195q84 112 186 167.5t222 55.5q122 0 216.5 -62t139.5 -167t45 -327v-560h-139v519q0 188 -16 251q-25 108 -94 162.5t-180 54.5q-127 0 -227.5 -84t-132.5 -208q-20 -81 -20 -296v-399h-140v1088zM921 1492l70 -97q-72 -52 -121.5 -70t-104.5 -18 q-72 0 -148 37q-65 32 -83 37q-24 7 -52 7q-35 0 -66.5 -12.5t-91.5 -56.5l-66 102q91 97 225 97q64 0 153 -40q85 -39 134 -39q55 0 151 53z"/>
<glyph glyph-name="ograve" horiz-adv-x="1341" unicode="ò" d="M671 979q-174 0 -299 -129t-125 -312q0 -118 57 -220t154 -157.5t213 -55.5t213 55.5t154 157.5t57 220q0 183 -125.5 312t-298.5 129zM671 1116q251 0 416 -182q150 -166 150 -393q0 -228 -158.5 -398.5t-407.5 -170.5q-250 0 -408.5 170.5t-158.5 398.5q0 226 150 392 q165 183 417 183zM610 1598l218 -308h-138l-295 308h215z"/>
<glyph glyph-name="oacute" horiz-adv-x="1341" unicode="ó" d="M671 979q-174 0 -299 -129t-125 -312q0 -118 57 -220t154 -157.5t213 -55.5t213 55.5t154 157.5t57 220q0 183 -125.5 312t-298.5 129zM671 1116q251 0 416 -182q150 -166 150 -393q0 -228 -158.5 -398.5t-407.5 -170.5q-250 0 -408.5 170.5t-158.5 398.5q0 226 150 392 q165 183 417 183zM739 1598h215l-295 -308h-138z"/>
<glyph glyph-name="ocircumflex" horiz-adv-x="1341" unicode="ô" d="M671 979q-174 0 -299 -129t-125 -312q0 -118 57 -220t154 -157.5t213 -55.5t213 55.5t154 157.5t57 220q0 183 -125.5 312t-298.5 129zM671 1116q251 0 416 -182q150 -166 150 -393q0 -228 -158.5 -398.5t-407.5 -170.5q-250 0 -408.5 170.5t-158.5 398.5q0 226 150 392 q165 183 417 183zM605 1542h139l290 -257h-180l-176 152l-184 -152h-186z"/>
<glyph glyph-name="otilde" horiz-adv-x="1341" unicode="õ" d="M671 979q-174 0 -299 -129t-125 -312q0 -118 57 -220t154 -157.5t213 -55.5t213 55.5t154 157.5t57 220q0 183 -125.5 312t-298.5 129zM671 1116q251 0 416 -182q150 -166 150 -393q0 -228 -158.5 -398.5t-407.5 -170.5q-250 0 -408.5 170.5t-158.5 398.5q0 226 150 392 q165 183 417 183zM967 1492l70 -97q-72 -52 -121.5 -70t-104.5 -18q-72 0 -148 37q-65 32 -83 37q-24 7 -52 7q-35 0 -66.5 -12.5t-91.5 -56.5l-66 102q91 97 225 97q64 0 153 -40q85 -39 134 -39q55 0 151 53z"/>
<glyph glyph-name="odieresis" horiz-adv-x="1341" unicode="ö" d="M671 979q-174 0 -299 -129t-125 -312q0 -118 57 -220t154 -157.5t213 -55.5t213 55.5t154 157.5t57 220q0 183 -125.5 312t-298.5 129zM671 1116q251 0 416 -182q150 -166 150 -393q0 -228 -158.5 -398.5t-407.5 -170.5q-250 0 -408.5 170.5t-158.5 398.5q0 226 150 392 q165 183 417 183zM875 1518q48 0 82 -34t34 -82t-34 -82t-82 -34t-82 34t-34 82t34 82t82 34zM467 1518q48 0 82 -34t34 -82t-34 -82t-82 -34t-82 34t-34 82t34 82t82 34z"/>
<glyph glyph-name="divide" horiz-adv-x="1124" unicode="÷" d="M461 466h201v-205h-201v205zM56 804h1012v-137h-1012v137zM461 1207h201v-202h-201v202z"/>
<glyph glyph-name="oslash" horiz-adv-x="1337" unicode="ø" d="M1007 802l-548 -644q103 -53 209 -53q116 0 213.5 55.5t154.5 157.5t57 219q0 144 -86 265zM367 229l560 658q-118 92 -258 92q-111 0 -209.5 -58.5t-156.5 -162t-58 -220.5q0 -86 32.5 -168.5t89.5 -140.5zM1102 913q133 -161 133 -372q0 -228 -158.5 -398.5 t-407.5 -170.5q-164 0 -299 82l-116 -137l-89 74l114 134q-177 171 -177 416q0 228 158 401.5t408 173.5q201 0 351 -120l116 137l92 -74z"/>
<glyph glyph-name="ugrave" horiz-adv-x="1245" unicode="ù" d="M138 1088h141v-508q0 -186 20 -256q30 -100 114.5 -158t201.5 -58t198.5 56.5t112.5 148.5q21 63 21 267v508h143v-534q0 -225 -52.5 -339t-158 -178.5t-264.5 -64.5t-265.5 64.5t-159 180t-52.5 347.5v524zM561 1598l218 -308h-138l-295 308h215z"/>
<glyph glyph-name="uacute" horiz-adv-x="1245" unicode="ú" d="M138 1088h141v-508q0 -186 20 -256q30 -100 114.5 -158t201.5 -58t198.5 56.5t112.5 148.5q21 63 21 267v508h143v-534q0 -225 -52.5 -339t-158 -178.5t-264.5 -64.5t-265.5 64.5t-159 180t-52.5 347.5v524zM690 1598h215l-295 -308h-138z"/>
<glyph glyph-name="ucircumflex" horiz-adv-x="1245" unicode="û" d="M138 1088h141v-508q0 -186 20 -256q30 -100 114.5 -158t201.5 -58t198.5 56.5t112.5 148.5q21 63 21 267v508h143v-534q0 -225 -52.5 -339t-158 -178.5t-264.5 -64.5t-265.5 64.5t-159 180t-52.5 347.5v524zM556 1542h139l290 -257h-180l-176 152l-184 -152h-186z"/>
<glyph glyph-name="udieresis" horiz-adv-x="1245" unicode="ü" d="M138 1088h141v-508q0 -186 20 -256q30 -100 114.5 -158t201.5 -58t198.5 56.5t112.5 148.5q21 63 21 267v508h143v-534q0 -225 -52.5 -339t-158 -178.5t-264.5 -64.5t-265.5 64.5t-159 180t-52.5 347.5v524zM826 1518q48 0 82 -34t34 -82t-34 -82t-82 -34t-82 34t-34 82 t34 82t82 34zM418 1518q48 0 82 -34t34 -82t-34 -82t-82 -34t-82 34t-34 82t34 82t82 34z"/>
<glyph glyph-name="yacute" horiz-adv-x="1098" unicode="ý" d="M39 1088h148l374 -838l363 838h149l-649 -1486h-148l210 480zM617 1598h215l-295 -308h-138z"/>
<glyph glyph-name="thorn" horiz-adv-x="1397" unicode="þ" d="M718 981q-182 0 -306.5 -127t-124.5 -316q0 -124 55.5 -223t159 -157t218.5 -58q113 0 212.5 58.5t158.5 163.5t59 220q0 116 -58.5 220t-157.5 161.5t-216 57.5zM158 1508h139v-620q83 114 191 171t241 57q232 0 397 -167t165 -402q0 -240 -163.5 -407.5t-394.5 -167.5 q-130 0 -239 54t-197 161v-585h-139v1906z"/>
<glyph glyph-name="dotlessi" horiz-adv-x="410" unicode="ı" d="M135 1088h141v-1088h-141v1088z"/>
<glyph glyph-name="OE" horiz-adv-x="2445" unicode="Œ" d="M891 1366q-247 0 -432.5 -187t-185.5 -439q0 -265 183 -449.5t447 -184.5q255 0 436 184.5t181 446.5q0 171 -83 314t-233 229t-313 86zM1522 1471h838v-145h-689v-457h689v-145h-689v-579h689v-145h-838v285q-99 -126 -188 -190t-199 -98t-241 -34q-369 0 -598 273 q-182 217 -182 492q0 208 102.5 390t287.5 286t392 104q198 0 378 -103q143 -82 248 -219v285z"/>
<glyph glyph-name="oe" horiz-adv-x="2329" unicode="œ" d="M2061 651q-41 158 -149 243.5t-254 85.5q-157 0 -275 -100q-91 -77 -132 -229h810zM672 981q-111 0 -209 -57.5t-155 -161.5t-57 -220q0 -118 56.5 -220t159.5 -161.5t214 -59.5q110 0 210 58.5t154 157t54 220.5q0 188 -124 316t-303 128zM2214 531h-976 q14 -223 139.5 -326.5t285.5 -103.5q130 0 234.5 67t163.5 193l119 -61q-94 -173 -221.5 -250.5t-304.5 -77.5q-98 0 -188.5 30.5t-154.5 80.5t-145 164q-91 -137 -213.5 -206t-275.5 -69q-235 0 -400 168t-165 410q0 270 206 437q159 129 360 129q163 0 299 -88 q99 -63 189 -200q84 133 178 196q136 92 313 92q233 0 395.5 -161.5t162.5 -387.5z"/>
<glyph glyph-name="Scaron" horiz-adv-x="1020" unicode="Š" d="M27 274l125 75q132 -243 305 -243q74 0 139 34.5t99 92.5t34 123q0 74 -50 145q-69 98 -252 236q-184 139 -229 201q-78 104 -78 225q0 96 46 175t129.5 124.5t181.5 45.5q104 0 194.5 -51.5t191.5 -189.5l-120 -91q-83 110 -141.5 145t-127.5 35q-89 0 -145.5 -54 t-56.5 -133q0 -48 20 -93t73 -98q29 -28 190 -147q191 -141 262 -251t71 -221q0 -160 -121.5 -278t-295.5 -118q-134 0 -243 71.5t-201 239.5zM576 1583h-139l-290 257h180l177 -152l183 152h186z"/>
<glyph glyph-name="scaron" horiz-adv-x="795" unicode="š" d="M703 969l-90 -93q-112 109 -219 109q-68 0 -116.5 -45t-48.5 -105q0 -53 40 -101q40 -49 168 -115q156 -81 212 -156q55 -76 55 -171q0 -134 -94 -227t-235 -93q-94 0 -179.5 41t-141.5 113l88 100q107 -121 227 -121q84 0 143 54t59 127q0 60 -39 107q-39 46 -176 116 q-147 76 -200 150t-53 169q0 124 84.5 206t213.5 82q150 0 302 -147zM463 1285h-139l-290 257h180l177 -152l183 152h186z"/>
<glyph glyph-name="Ydieresis" horiz-adv-x="1212" unicode="Ÿ" d="M63 1471h170l376 -606l370 606h170l-466 -768v-703h-145v703zM810 1816q48 0 82 -34t34 -82t-34 -82t-82 -34t-82 34t-34 82t34 82t82 34zM402 1816q48 0 82 -34t34 -82t-34 -82t-82 -34t-82 34t-34 82t34 82t82 34z"/>
<glyph glyph-name="circumflex" horiz-adv-x="1028" unicode="ˆ" d="M448 1542h139l290 -257h-180l-176 152l-184 -152h-186z"/>
<glyph glyph-name="caron" horiz-adv-x="1028" unicode="ˇ" d="M580 1285h-139l-290 257h180l177 -152l183 152h186z"/>
<glyph glyph-name="ring" horiz-adv-x="680" unicode="˚" d="M339 1590q-46 0 -78 -32.5t-32 -77.5t32 -77.5t78 -32.5q45 0 77 32.5t32 77.5t-32 77.5t-77 32.5zM340 1691q88 0 150.5 -62.5t62.5 -151.5q0 -88 -62 -150.5t-151 -62.5q-88 0 -150.5 62.5t-62.5 150.5q0 89 62.5 151.5t150.5 62.5z"/>
<glyph glyph-name="tilde" horiz-adv-x="899" unicode="˜" d="M746 1492l70 -97q-72 -52 -121.5 -70t-104.5 -18q-72 0 -148 37q-65 32 -83 37q-24 7 -52 7q-35 0 -66.5 -12.5t-91.5 -56.5l-66 102q91 97 225 97q64 0 153 -40q85 -39 134 -39q55 0 151 53z"/>
<glyph glyph-name="Alpha" horiz-adv-x="1515" unicode="Α" d="M762 1159l-253 -533h503zM780 1471l686 -1471h-158l-231 484h-634l-230 -484h-164l695 1471h36z"/>
<glyph glyph-name="Beta" horiz-adv-x="1176" unicode="Β" d="M327 708v-564h182q161 0 236 31.5t120.5 98.5t45.5 145q0 98 -64 171t-176 100q-75 18 -261 18h-83zM327 1327v-471h84q153 0 225 28.5t114 90t42 136.5q0 101 -70.5 158.5t-224.5 57.5h-170zM183 1471h290q175 0 269 -41.5t148.5 -127.5t54.5 -191q0 -98 -48 -178.5 t-141 -130.5q115 -39 177 -91.5t96.5 -127t34.5 -161.5q0 -177 -129.5 -299.5t-347.5 -122.5h-404v1471z"/>
<glyph glyph-name="Gamma" horiz-adv-x="946" unicode="Γ" d="M914 1326h-591v-1326h-146v1471h737v-145z"/>
<glyph glyph-name="Delta" horiz-adv-x="1515" unicode="Δ" d="M1239 145l-477 1014l-481 -1014h958zM1466 0h-1417l695 1471h36z"/>
<glyph glyph-name="Epsilon" horiz-adv-x="1098" unicode="Ε" d="M180 1471h843v-145h-696v-460h690v-144h-690v-577h690v-145h-837v1471z"/>
<glyph glyph-name="Zeta" horiz-adv-x="983" unicode="Ζ" d="M122 1329v142h776l-615 -1328h584v-143h-811l619 1329h-553z"/>
<glyph glyph-name="Eta" horiz-adv-x="1399" unicode="Η" d="M177 1471h148v-617h748v617h148v-1471h-148v710h-748v-710h-148v1471z"/>
<glyph glyph-name="Theta" horiz-adv-x="1780" unicode="Θ" d="M1258 672h-737v144h737v-144zM887 1364q-248 0 -433.5 -180.5t-185.5 -454.5q0 -261 179 -442t440 -181t443 179t182 451q0 291 -194.5 459.5t-430.5 168.5zM892 -37q-326 0 -551.5 221.5t-225.5 544.5q0 326 223 552.5t542 226.5q333 0 558.5 -220.5t225.5 -551.5 q0 -325 -223.5 -549t-548.5 -224z"/>
<glyph glyph-name="Iota" horiz-adv-x="463" unicode="Ι" d="M158 1471h147v-1471h-147v1471z"/>
<glyph glyph-name="Kappa" horiz-adv-x="1210" unicode="Κ" d="M179 1471h150v-552l587 552h199l-707 -660l762 -811h-195l-646 686v-686h-150v1471z"/>
<glyph glyph-name="Lambda" horiz-adv-x="1438" unicode="Λ" d="M1370 0h-160l-487 1137l-496 -1137h-160l640 1471h32z"/>
<glyph glyph-name="Mu" horiz-adv-x="1882" unicode="Μ" d="M112 0l209 1471h24l598 -1207l592 1207h24l211 -1471h-145l-144 1052l-520 -1052h-37l-527 1060l-143 -1060h-142z"/>
<glyph glyph-name="Nu" horiz-adv-x="1515" unicode="Ν" d="M180 0v1471h32l978 -1126v1126h145v-1471h-33l-970 1112v-1112h-152z"/>
<glyph glyph-name="Xi" horiz-adv-x="1087" unicode="Ξ" d="M972 0h-857v145h857v-145zM972 722h-857v144h857v-144zM972 1326h-857v145h857v-145z"/>
<glyph glyph-name="Omicron" horiz-adv-x="1780" unicode="Ο" d="M887 1364q-163 0 -309 -85t-228 -229t-82 -321q0 -262 181.5 -442.5t437.5 -180.5q171 0 316.5 83t227 227t81.5 320q0 175 -81.5 316.5t-229.5 226.5t-314 85zM880 1508q334 0 559 -223t225 -549q0 -323 -224.5 -548t-547.5 -225q-327 0 -552 224t-225 542 q0 212 102.5 393t279.5 283.5t383 102.5z"/>
<glyph glyph-name="Pi" horiz-adv-x="1399" unicode="Π" d="M1221 0h-148v1331h-748v-1331h-148v1471h1044v-1471z"/>
<glyph glyph-name="Rho" horiz-adv-x="1212" unicode="Ρ" d="M325 1328v-500l249 -3q151 0 221 27.5t110 89t40 137.5q0 74 -40 135.5t-105.5 87.5t-214.5 26h-260zM178 1471h293q252 0 340 -22q126 -31 206 -127.5t80 -242.5q0 -147 -78 -242.5t-215 -128.5q-100 -24 -374 -24h-105v-684h-147v1471z"/>
<glyph glyph-name="Sigma" horiz-adv-x="1027" unicode="Σ" d="M927 0h-861l411 734l-405 737h840v-142h-600l330 -596l-333 -590h618v-143z"/>
<glyph glyph-name="Tau" horiz-adv-x="872" unicode="Τ" d="M33 1328v143h807v-143h-328v-1328h-150v1328h-329z"/>
<glyph glyph-name="Upsilon" horiz-adv-x="1212" unicode="Υ" d="M63 1471h170l376 -606l370 606h170l-466 -768v-703h-145v703z"/>
<glyph glyph-name="Phi" horiz-adv-x="1760" unicode="Φ" d="M806 282v927q-237 -15 -395.5 -124.5t-158.5 -339.5q0 -205 146.5 -325.5t407.5 -137.5zM954 1209v-927q237 15 395.5 124.5t158.5 339.5q0 205 -146.5 325.5t-407.5 137.5zM954 145v-145h-148v145q-324 21 -515 179.5t-191 419.5q0 260 193 421t513 180v126h148v-126 q324 -21 515 -179.5t191 -419.5q0 -260 -193 -421t-513 -180z"/>
<glyph glyph-name="Chi" horiz-adv-x="1247" unicode="Χ" d="M101 1471h172l352 -574l355 574h170l-438 -713l467 -758h-172l-382 617l-384 -617h-172l469 758z"/>
<glyph glyph-name="Psi" horiz-adv-x="1620" unicode="Ψ" d="M1480 964q0 -206 -59.5 -325.5t-198.5 -194.5t-338 -85v-359h-148v359q-185 10 -314 71t-205.5 178t-76.5 367v496h151v-448q0 -182 28.5 -277.5t135.5 -163t281 -81.5v970h148v-970q182 14 286.5 84t131.5 160.5t27 277.5v448h151v-507z"/>
<glyph glyph-name="alpha" horiz-adv-x="1399" unicode="α" d="M680 981q-117 0 -216 -57.5t-157.5 -161.5t-58.5 -220q0 -115 59 -220t158.5 -163.5t213.5 -58.5q115 0 218 58t158.5 157t55.5 223q0 189 -124.5 316t-306.5 127zM1240 1088v-1088h-138v187q-88 -107 -197.5 -161t-239.5 -54q-231 0 -394.5 167.5t-163.5 407.5 q0 235 165 402t397 167q134 0 242.5 -57t190.5 -171v200h138z"/>
<glyph glyph-name="beta" horiz-adv-x="1221" unicode="β" d="M435 805v117q339 9 339 275q0 92 -56.5 149.5t-150.5 57.5q-131 0 -200.5 -72t-69.5 -258l1 -613q0 -162 98 -259t237 -97q145 0 243.5 100.5t98.5 247.5q0 145 -99.5 248.5t-370.5 103.5h-70zM297 164v-562h-141v1505q0 230 119 329.5t281 99.5q166 0 263.5 -88.5 t97.5 -236.5q0 -231 -219 -311q192 -19 306 -137t114 -301q0 -209 -139 -349.5t-344 -140.5q-214 0 -338 192z"/>
<glyph glyph-name="gamma" d="M1077 1088l-442 -966v-520h-138v522l-444 964h149l364 -792l361 792h150z" unicode="γ"/>
<glyph glyph-name="delta" horiz-adv-x="1171" unicode="δ" d="M586 806q-142 0 -240.5 -104t-98.5 -249q0 -146 97.5 -247t241.5 -101t241.5 101t97.5 247q0 145 -98.5 249t-240.5 104zM445 906q-165 111 -165 290q0 151 116.5 245.5t288.5 94.5q126 0 238 -28l-36 -125q-84 22 -191 22q-126 0 -199.5 -56.5t-73.5 -148.5 q0 -80 49 -137t258 -141q337 -135 337 -466q0 -204 -138.5 -344t-342.5 -140t-343 139.5t-139 344.5q0 330 341 450z"/>
<glyph glyph-name="epsilon" horiz-adv-x="866" unicode="ε" d="M827 116q-136 -145 -359 -145q-160 0 -262.5 93t-102.5 246q0 205 196 287q-150 61 -150 231q0 129 91.5 209.5t228.5 80.5q165 0 312 -123l-79 -97q-114 88 -227 88q-88 0 -139.5 -47.5t-51.5 -130.5q0 -78 53 -128t134 -50h73v-120h-86q-88 0 -146.5 -57t-58.5 -144 q0 -96 62 -151.5t165 -55.5q158 0 259 114z"/>
<glyph glyph-name="zeta" horiz-adv-x="953" unicode="ζ" d="M388 -406l36 126q63 -16 119 -16q247 0 247 158q0 59 -55 94t-207 64q-410 79 -410 485q0 211 146 419t472 461h-503v123h675v-123q-360 -303 -503.5 -495.5t-143.5 -374.5q0 -156 71.5 -245.5t260.5 -128.5q229 -47 284.5 -112.5t54.5 -160.5q0 -138 -105.5 -216 t-273.5 -78q-87 0 -165 20z"/>
<glyph glyph-name="eta" horiz-adv-x="1249" unicode="η" d="M1105 -398h-139v917q0 163 -16 254t-85.5 152.5t-188.5 61.5q-130 0 -228.5 -83.5t-125 -183t-26.5 -321.5v-399h-140v1088h140v-195q167 223 408 223q117 0 211 -58.5t142 -163.5t48 -334v-958z"/>
<glyph glyph-name="theta" horiz-adv-x="1341" unicode="θ" d="M1094 693h-846q11 -280 120 -436.5t303 -156.5t303 155.5t120 437.5zM1093 816q-13 274 -123 433t-299 159t-299 -158t-124 -434h845zM671 -28q-269 0 -418 209.5t-149 568.5q0 360 149.5 573t417.5 213t417 -213t149 -573q0 -358 -148.5 -568t-417.5 -210z"/>
<glyph glyph-name="iota" horiz-adv-x="410" unicode="ι" d="M135 1088h141v-1088h-141v1088z"/>
<glyph glyph-name="kappa" horiz-adv-x="1028" unicode="κ" d="M1040 0h-198l-546 489v-489h-141v1089h141v-439l503 438h206l-597 -519z"/>
<glyph glyph-name="lambda" horiz-adv-x="1098" unicode="λ" d="M1073 0h-149l-363 838l-374 -838h-148l447 1006l-220 502h148z"/>
<glyph glyph-name="mu" horiz-adv-x="1249" unicode="μ" d="M1093 1h-140v195q-168 -223 -408 -223q-174 0 -261 116v-487h-140v1487h140v-519q0 -163 16 -254t85.5 -152.5t187.5 -61.5q130 0 228.5 83.5t125 183t26.5 321.5v399h140v-1088z"/>
<glyph glyph-name="nu" d="M53 1088h149l364 -792l361 792h150l-498 -1088h-25z" unicode="ν"/>
<glyph glyph-name="xi" horiz-adv-x="953" unicode="ξ" d="M388 -406l36 126q63 -16 119 -16q247 0 247 158q0 51 -44.5 86.5t-236.5 71.5q-391 74 -391 455q0 145 83.5 255t227.5 155q-229 113 -229 311q0 159 121.5 249.5t313.5 90.5q154 0 279 -37l-33 -134q-115 40 -265 40q-124 0 -198.5 -63.5t-74.5 -165.5 q0 -112 113.5 -179t264.5 -67h119v-122h-202q-147 0 -262 -79t-115 -244q0 -140 68.5 -221.5t241.5 -119.5q207 -46 284 -97.5t77 -178.5q0 -138 -105.5 -216t-273.5 -78q-87 0 -165 20z"/>
<glyph glyph-name="omicron" horiz-adv-x="1341" unicode="ο" d="M671 979q-174 0 -299 -129t-125 -312q0 -118 57 -220t154 -157.5t213 -55.5t213 55.5t154 157.5t57 220q0 183 -125.5 312t-298.5 129zM671 1116q251 0 416 -182q150 -166 150 -393q0 -228 -158.5 -398.5t-407.5 -170.5q-250 0 -408.5 170.5t-158.5 398.5q0 226 150 392 q165 183 417 183z"/>
<glyph glyph-name="pi" horiz-adv-x="1373" unicode="π" d="M1323 965h-221v-965h-141v965h-549v-965h-141v965h-221v123h1273v-123z"/>
<glyph glyph-name="rho" horiz-adv-x="1372" unicode="ρ" d="M702 979q-178 0 -301 -130t-123 -311q0 -179 120.5 -306t303.5 -127q192 0 308 129t116 304q0 181 -123.5 311t-300.5 130zM275 205v-603h-140v909q0 266 162.5 435.5t404.5 169.5q243 0 404.5 -169.5t161.5 -405.5q0 -240 -163 -404.5t-403 -164.5q-268 0 -427 233z"/>
<glyph glyph-name="sigma1" horiz-adv-x="1185" unicode="ς" d="M1131 862l-111 -69q-144 191 -363 191q-177 0 -294.5 -123.5t-117.5 -315.5q0 -163 92 -257.5t325 -138.5q225 -42 309.5 -95t84.5 -186q0 -138 -105.5 -216t-273.5 -78q-87 0 -165 20l36 126q63 -16 119 -16q247 0 247 158q0 59 -54 94t-237 64q-519 83 -519 515 q0 253 160 417t399 164q316 0 468 -254z"/>
<glyph glyph-name="sigma" horiz-adv-x="1468" unicode="σ" d="M671 979q-175 0 -299.5 -128.5t-124.5 -312.5q0 -179 120.5 -306t303.5 -127q197 0 310.5 132.5t113.5 300.5q0 181 -123.5 311t-300.5 130zM1428 965h-371q180 -175 180 -424q0 -240 -163 -404.5t-403 -164.5q-241 0 -404 164t-163 405q0 235 162 405t405 170 q98 0 184 -28h573v-123z"/>
<glyph glyph-name="tau" horiz-adv-x="823" unicode="τ" d="M773 965h-291v-965h-141v965h-291v123h723v-123z"/>
<glyph glyph-name="upsilon" horiz-adv-x="1219" unicode="υ" d="M135 1088h141v-508q0 -163 18 -250.5t103 -154.5t215 -67q177 0 268.5 118t91.5 318q0 273 -254 445l77 128q320 -188 320 -599q0 -240 -136 -393t-367 -153q-214 0 -345.5 125t-131.5 467v524z"/>
<glyph glyph-name="phi" horiz-adv-x="1568" unicode="φ" d="M854 979v-866q466 43 466 425q0 201 -125.5 318t-340.5 123zM854 -26v-372h-141v373q-280 18 -444.5 167.5t-164.5 398.5q0 195 113.5 338t309.5 210l45 -133q-325 -116 -325 -418q0 -386 466 -425v1000q39 3 71 3q315 0 497.5 -153.5t182.5 -421.5q0 -248 -164.5 -398 t-445.5 -169z"/>
<glyph glyph-name="chi" horiz-adv-x="983" unicode="χ" d="M944 1088l-377 -700l424 -786h-160l-343 638l-344 -638h-151l419 780l-380 706h158l301 -559l300 559h153z"/>
<glyph glyph-name="psi" horiz-adv-x="1507" unicode="ψ" d="M1372 554q0 -326 -166 -449.5t-382 -130.5v-372h-140v372q-170 10 -288.5 68t-189.5 170t-71 352v524h139v-478q0 -174 26.5 -265.5t125 -156t258.5 -77.5v977h140v-978q165 13 261.5 79.5t121.5 152.5t25 268v478h140v-534z"/>
<glyph glyph-name="endash" horiz-adv-x="1024" unicode="–" d="M-12 637h1048v-129h-1048v129z"/>
<glyph glyph-name="emdash" horiz-adv-x="2048" unicode="—" d="M-12 637h2072v-129h-2072v129z"/>
<glyph glyph-name="quoteleft" horiz-adv-x="719" unicode="‘" d="M371 1508l78 -44q-38 -76 -51 -119t-20 -111h89v-275h-181v172q0 129 17.5 202.5t67.5 174.5z"/>
<glyph glyph-name="quotesinglbase" horiz-adv-x="725" unicode="‚" d="M350 -274l-77 43q38 76 51 119.5t19 111.5h-88v275h181v-172q0 -129 -17.5 -202.5t-68.5 -174.5z"/>
<glyph glyph-name="quotedblleft" horiz-adv-x="1028" unicode="“" d="M734 1508l78 -44q-38 -76 -51 -119t-20 -111h89v-275h-181v172q0 129 17 202.5t68 174.5zM289 1508l78 -44q-38 -76 -51 -119t-20 -111h89v-275h-181v172q0 129 17.5 202.5t67.5 174.5z"/>
<glyph glyph-name="quotedblright" horiz-adv-x="991" unicode="”" d="M276 959l-77 44q38 76 51 119t19 111h-88v275h181v-172q0 -129 -17.5 -202.5t-68.5 -174.5zM721 959l-77 44q38 76 51 119t19 111h-88v275h181v-172q0 -129 -17.5 -202.5t-68.5 -174.5z"/>
<glyph glyph-name="dagger" horiz-adv-x="1133" unicode="†" d="M489 1508h149l-23 -457l360 21v-149l-360 26l27 -1263h-153l29 1263l-361 -26v149l361 -21z"/>
<glyph glyph-name="daggerdbl" horiz-adv-x="1133" unicode="‡" d="M492 1508h147l-23 -354l358 23v-148l-358 27l23 -459l-23 -452l358 20v-148l-358 28l23 -359h-147l24 359l-357 -28v148l357 -20l-24 452l24 459l-357 -27v148l357 -23z"/>
<glyph glyph-name="ellipsis" horiz-adv-x="2048" unicode="…" d="M1707 220q50 0 86.5 -36t36.5 -88q0 -51 -36.5 -87.5t-86.5 -36.5q-51 0 -87 36.5t-36 87.5q0 52 36 88t87 36zM341 220q51 0 87 -36t36 -88q0 -51 -36 -87.5t-87 -36.5t-87 36.5t-36 87.5q0 52 36 88t87 36zM1024 220q51 0 87 -36t36 -88q0 -51 -36 -87.5t-87 -36.5 t-87 36.5t-36 87.5q0 52 36 88t87 36z"/>
<glyph glyph-name="perthousand" horiz-adv-x="2404" unicode="‰" d="M1996 522q-91 0 -155.5 -64t-64.5 -155t64.5 -155t155.5 -64t155 64t64 155t-64 155t-155 64zM1996 649q143 0 244 -101.5t101 -244.5t-101 -244.5t-244 -101.5q-144 0 -245 101.5t-101 244.5t101 244.5t245 101.5zM1198 522q-91 0 -155 -64t-64 -155t64 -155t155 -64 t155.5 64t64.5 155t-64.5 155t-155.5 64zM1198 649q143 0 244.5 -101.5t101.5 -244.5t-101.5 -244.5t-244.5 -101.5t-244.5 101.5t-101.5 244.5t101.5 244.5t244.5 101.5zM395 1381q-91 0 -155 -64.5t-64 -155.5t64 -155t155 -64t155.5 64t64.5 155t-64.5 155.5t-155.5 64.5 zM1384 1536l-1072 -1638h-132l975 1492q-173 -42 -422 -42l-54 1q62 -86 62 -182q0 -137 -95.5 -245t-253.5 -108q-145 0 -244 100.5t-99 244.5q0 96 45 174.5t128 126.5t170 48q37 0 122 -18q130 -28 282 -28q112 0 211.5 14.5t258.5 59.5h118z"/>
<glyph glyph-name="minute" horiz-adv-x="405" unicode="′" d="M232 1045h-103l43 463h148z"/>
<glyph glyph-name="second" horiz-adv-x="633" unicode="″" d="M152 1045h-104l43 463h148zM540 1045h-104l44 463h148z"/>
<glyph glyph-name="guilsinglleft" horiz-adv-x="514" unicode="‹" d="M445 1088l-223 -546l223 -542h-148l-222 542l222 546h148z"/>
<glyph glyph-name="guilsinglright" horiz-adv-x="514" unicode="›" d="M70 0l223 545l-223 543h148l222 -543l-222 -545h-148z"/>
<glyph glyph-name="radicalex" d="M-42 1869h1219v-74h-1219v74z" unicode="‾"/>
<glyph glyph-name="fraction" horiz-adv-x="340" unicode="⁄" d="M-347 -37l923 1545h112l-925 -1545h-110z"/>
<glyph glyph-name="fraction" horiz-adv-x="340" unicode="∕" d="M-347 -37l923 1545h112l-925 -1545h-110z"/>
<glyph glyph-name="Euro" d="M197 965q77 251 284.5 396.5t476.5 145.5q65 0 160 -14l-37 -141q-58 12 -120 12q-199 0 -362.5 -106t-238.5 -293h639l-36 -138h-637q-7 -46 -7 -96q0 -30 5 -78h591l-36 -137h-525q69 -195 235.5 -305.5t379.5 -110.5q65 0 139 17v-140q-64 -12 -150 -12 q-281 0 -485.5 146t-277.5 405h-148l35 137h88q-4 56 -4 90q0 32 4 84h-123l37 138h113z" unicode="€"/>
<glyph glyph-name="trademark" horiz-adv-x="2048" unicode="™" d="M770 1513v-137h-305v-725h-150v725h-303v137h758zM1966 1513v-862h-150v710l-321 -710h-99l-311 710v-710h-149v862h243l267 -597l282 597h238z"/>
<glyph glyph-name="arrowleft" horiz-adv-x="2048" unicode="←" d="M492 876h76q-81 -170 -195 -309h1595v-101h-1595q102 -102 198 -309h-78q-223 253 -414 341v45q177 71 413 333z"/>
<glyph glyph-name="arrowup" horiz-adv-x="1024" unicode="↑" d="M153 1050q262 236 333 413h46q87 -192 340 -415v-77q-207 96 -309 197v-1597h-101v1597q-139 -114 -309 -195v77z"/>
<glyph glyph-name="arrowright" horiz-adv-x="2048" unicode="→" d="M1555 876q237 -262 413 -333v-45q-191 -88 -414 -341h-77q95 207 197 309h-1595v101h1595q-114 139 -195 309h76z"/>
<glyph glyph-name="arrowdown" horiz-adv-x="1024" unicode="↓" d="M153 -16v76q170 -81 309 -195v1598h101v-1598q102 102 309 197v-77q-253 -223 -340 -414h-46q-71 176 -333 413z"/>
<glyph glyph-name="partialdiff" horiz-adv-x="1012" unicode="∂" d="M854 796q-248 -15 -359 -69t-185 -175t-74 -249q0 -83 51 -137t119 -54q87 0 186 73t168.5 224t93.5 387zM426 1138l-135 60q67 149 163.5 221t196.5 72q88 0 162 -56t117 -181.5t43 -327.5q0 -295 -87.5 -514.5t-231.5 -328t-290 -108.5q-138 0 -223 92t-85 255 q0 236 164 398q199 196 638 204q-4 191 -29.5 276.5t-72 124t-103.5 38.5q-143 0 -227 -225z"/>
<glyph glyph-name="product" horiz-adv-x="1685" unicode="∏" d="M162 1536h1362v-1962h-191v1788h-978v-1788h-193v1962z"/>
<glyph glyph-name="summation" horiz-adv-x="1460" unicode="∑" d="M139 1536h1237v-164h-988l607 -796l-646 -841h1037v-161h-1264v187l620 808l-603 791v176z"/>
<glyph glyph-name="minus" horiz-adv-x="1241" unicode="−" d="M115 804h1012v-137h-1012v137z"/>
<glyph glyph-name="radical" horiz-adv-x="1124" unicode="√" d="M1047 1869h74l-312 -1947l-496 1021l-198 -91l-34 64l301 151l405 -823z"/>
<glyph glyph-name="infinity" horiz-adv-x="1460" unicode="∞" d="M618 716q-77 97 -125.5 127t-94.5 30q-59 0 -97 -41.5t-38 -112.5q0 -70 39.5 -113t97.5 -43q101 0 218 153zM756 717q83 -128 152 -180q50 -38 110 -38q77 0 128 56.5t51 157.5q0 105 -52 161.5t-131 56.5q-53 0 -103.5 -36.5t-154.5 -177.5zM687 812q117 146 186 189 t147 43q110 0 199 -78t89 -243q0 -168 -84 -251.5t-204 -83.5q-87 0 -156.5 49t-176.5 183q-136 -171 -289 -171q-102 0 -174 77.5t-72 189.5t72 189.5t174 77.5q153 0 289 -171z"/>
<glyph glyph-name="intersection" horiz-adv-x="1206" unicode="∩" d="M239 0h-110v621l2 238q1 116 18.5 209t58.5 169t106 135.5t139.5 89.5t149.5 30q118 0 225 -68.5t165 -174t71.5 -224t13.5 -404.5v-621h-110v628q0 243 -10 348.5t-52 190t-127.5 139.5t-175.5 55t-174.5 -55t-126 -137t-52.5 -189.5t-11 -351.5v-628z"/>
<glyph glyph-name="approxequal" horiz-adv-x="1124" unicode="≈" d="M1070 651v-162q-112 -63 -160.5 -79.5t-91.5 -16.5q-95 0 -265 77q-132 60 -168.5 71.5t-68.5 11.5q-44 0 -97 -19.5t-165 -85.5v160q110 62 159 79t95 17q97 0 268 -81q118 -56 161.5 -69.5t78.5 -13.5q42 0 85 16.5t169 94.5zM1070 1023v-162q-112 -63 -160.5 -79.5 t-91.5 -16.5q-95 0 -265 77q-132 60 -168.5 71.5t-68.5 11.5q-44 0 -97 -19t-165 -86v160q110 63 159 79.5t95 16.5q97 0 268 -81q118 -56 161.5 -69.5t78.5 -13.5q42 0 85 16.5t169 94.5z"/>
<glyph glyph-name="notequal" horiz-adv-x="1124" unicode="≠" d="M742 1024h326v-137h-379l-117 -303h496v-137h-549l-187 -484h-138l186 484h-324v137h377l116 303h-493v137h545l186 484h142z"/>
<glyph glyph-name="equivalence" horiz-adv-x="1241" unicode="≡" d="M1127 403v-137h-1012v137h1012zM115 804h1012v-137h-1012v137zM1127 1205v-137h-1012v137h1012z"/>
<glyph glyph-name="lessequal" horiz-adv-x="1124" unicode="≤" d="M1079 231v-137h-1033v137h1033zM1079 481v-146l-1033 469v130l1033 471v-147l-839 -390z"/>
<glyph glyph-name="greaterequal" horiz-adv-x="1124" unicode="≥" d="M1079 231v-137h-1033v137h1033zM46 481l839 387l-839 390v147l1033 -471v-130l-1033 -469v146z"/>
<glyph glyph-name="lozenge" horiz-adv-x="1012" unicode="◊" d="M495 1325l-340 -616l340 -615l359 615zM549 1422l418 -713l-418 -709h-111l-391 709l391 713h111z"/>
<glyph glyph-name="spade" horiz-adv-x="1092" unicode="♠" d="M547 1231q19 -82 65 -169t203 -230q121 -111 169 -181t48 -152q0 -96 -64 -160t-156 -64q-154 0 -254 190q0 -229 101 -325t277 -103l7 -37h-793l8 37q182 0 282 105t101 282v41q-90 -190 -262 -190q-91 0 -155 66t-64 155q0 150 188 305q262 215 299 430z"/>
<glyph glyph-name="club" horiz-adv-x="1354" unicode="♣" d="M1103 0h-848l8 34q153 32 219 68t126 139q58 103 58 228l-1 42q-55 -117 -143 -177t-184 -61q-114 0 -196 81t-82 199q0 111 72 193t170 82q64 0 163 -51q-67 106 -67 182q0 113 79 193t197 79q118 1 198 -79t81 -188q0 -94 -69 -187q106 53 162 53q105 0 176 -82 t71 -191q0 -119 -81 -201t-193 -82q-78 0 -167 50t-165 187q4 -157 48 -251q45 -94 123 -144q78 -51 237 -82z"/>
<glyph glyph-name="heart" horiz-adv-x="1210" unicode="♥" d="M607 -24q-33 122 -93 228t-275 390q-101 133 -140 212t-39 163q0 109 74 185t183 76q206 0 290 -251q33 129 113 191t172 61q110 0 184 -75t74 -177q0 -84 -40 -179t-174 -264q-284 -360 -329 -560z"/>
<glyph glyph-name="diamond" horiz-adv-x="1038" unicode="♦" d="M517 1231q193 -323 461 -627q-52 -52 -214 -265t-247 -363q-101 190 -457 628q324 383 457 627z"/>
<glyph glyph-name="foursuperior" horiz-adv-x="705" unicode="" d="M451 1000v248l-214 -248h214zM562 1528v-528h105v-97h-105v-170h-111v170h-432z"/>
</font>
</defs>
</svg>
