<?xml version="1.0" standalone="no"?>
<!DOCTYPE svg PUBLIC "-//W3C//DTD SVG 1.1//EN" "http://www.w3.org/Graphics/SVG/1.1/DTD/svg11.dtd" >
<svg xmlns="http://www.w3.org/2000/svg">
<metadata></metadata>
<defs>
<font id="poiret_oneregular" horiz-adv-x="1206" >
<font-face units-per-em="2048" ascent="1638" descent="-410" />
<missing-glyph horiz-adv-x="716" />
<glyph horiz-adv-x="0" />
<glyph horiz-adv-x="682" />
<glyph horiz-adv-x="40" />
<glyph horiz-adv-x="40" />
<glyph unicode="&#xd;" horiz-adv-x="681" />
<glyph unicode=" "  horiz-adv-x="716" />
<glyph unicode="&#x09;" horiz-adv-x="716" />
<glyph unicode="&#xa0;" horiz-adv-x="716" />
<glyph unicode="!" horiz-adv-x="462" d="M164 49.5q0 63.5 67.5 63.5t67.5 -63.5t-67.5 -63.5t-67.5 63.5zM201 205v1331h67v-1331h-67z" />
<glyph unicode="&#x22;" horiz-adv-x="563" d="M143 1292v367h68v-367h-68zM352 1292v367h68v-367h-68z" />
<glyph unicode="#" horiz-adv-x="1376" d="M31 575v64h358l137 313h-495v64h522l227 516h68l-227 -516h378l228 516h67l-227 -516h279v-64h-308l-139 -313h447v-64h-474l-254 -575h-65l254 575h-381l-254 -575h-63l251 575h-329zM455 639h379l139 313h-379z" />
<glyph unicode="$" horiz-adv-x="1038" d="M72 182v107q53 -109 165.5 -181.5t241.5 -76.5v833q-153 68 -241 148t-88 217t100 224t229 101v115h64v-115q170 -12 274 -137v-98q-35 66 -113.5 115t-160.5 61v-586q80 -35 125 -56.5t110.5 -64.5t100.5 -83q88 -106 88 -252q0 -184 -123 -318.5t-301 -159.5v-125h-64 v121q-127 4 -236.5 61.5t-170.5 149.5zM217 1222.5q0 -104.5 67.5 -167t194.5 -121.5v561q-104 -18 -183 -93t-79 -179.5zM543 35q152 25 256 140.5t104 273t-117 251.5q-92 74 -243 140v-805z" />
<glyph unicode="%" horiz-adv-x="1417" d="M41 1227q0 135 97.5 233.5t237.5 98.5t237.5 -98.5t97.5 -233.5t-96.5 -235.5t-229.5 -100.5h-20q-133 0 -228.5 100.5t-95.5 235.5zM72 0l1140 1536h80l-1145 -1536h-75zM102 1223.5q0 -109.5 82 -191.5t192.5 -82t189.5 81t79 191.5t-79 193.5t-189.5 83t-192.5 -83 t-82 -192.5zM702 313.5q0 135.5 98.5 233.5t239 98t238.5 -98t98 -233.5t-97 -236t-232 -100.5h-21q-131 0 -227.5 100.5t-96.5 236zM768 310.5q0 -109.5 82 -191.5t190.5 -82t189.5 82t81 191.5t-81 192.5t-189.5 83t-190.5 -83t-82 -192.5z" />
<glyph unicode="&#x26;" horiz-adv-x="1425" d="M72 487q0 164 101 301.5t263 186.5q-76 37 -125 112.5t-49 159.5q0 129 92 219t231.5 90t233.5 -106v-109q-29 68 -96.5 113t-156.5 45t-163.5 -74.5t-74.5 -175t74.5 -175.5t177.5 -75h28v-57h-16q-184 0 -320.5 -136t-136.5 -321.5t135.5 -319.5t321.5 -134t321.5 133 t135.5 321v457h-285v57h631v-57h-285v-942h-61v262q-45 -123 -175.5 -207t-281.5 -84q-215 0 -367.5 152.5t-152.5 363.5z" />
<glyph unicode="'" horiz-adv-x="374" d="M154 1294v365h67v-365h-67z" />
<glyph unicode="(" horiz-adv-x="681" d="M174 752.5q0 265.5 122 507t335 415.5v-73q-389 -356 -389 -854q0 -246 102 -463t287 -383v-80q-211 178 -334 421.5t-123 509z" />
<glyph unicode=")" horiz-adv-x="684" d="M51 -98q186 164 288.5 382t102.5 463.5t-102 465t-289 382.5v62l8 4q213 -170 332 -406.5t119 -504t-123 -509t-336 -417.5v78z" />
<glyph unicode="*" horiz-adv-x="641" d="M72 1247v53h186l-145 144l41 41l145 -146v187h51v-187l142 146l43 -41l-144 -144h178v-53h-178l141 -137l-45 -43l-137 141v-182h-51v184l-141 -143l-43 43l141 137h-184z" />
<glyph unicode="+" horiz-adv-x="698" d="M31 793v63h286v285h68v-285h283v-63h-283v-275h-68v275h-286z" />
<glyph unicode="," horiz-adv-x="284" d="M72 49.5q0 63.5 70.5 63.5t70.5 -64q0 -14 -6 -33l-64 -145h-8v115q-63 0 -63 63.5z" />
<glyph unicode="-" horiz-adv-x="800" d="M82 793v63h637v-63h-637z" />
<glyph unicode="." horiz-adv-x="284" d="M72 49.5q0 63.5 70.5 63.5t70.5 -63.5t-70.5 -63.5t-70.5 63.5z" />
<glyph unicode="/" horiz-adv-x="1323" d="M51 0l1141 1532h80l-1145 -1532h-76z" />
<glyph unicode="0" horiz-adv-x="1753" d="M82 769.5q0 320.5 233.5 555t561 234.5t561 -233.5t233.5 -561.5q0 -207 -104.5 -389t-285.5 -292t-390 -110h-31q-317 0 -547.5 238t-230.5 558.5zM150 765q0 -302 212.5 -517t513 -215t514.5 215t214 517t-214 518t-514.5 216t-513 -216t-212.5 -518z" />
<glyph unicode="1" horiz-adv-x="493" d="M31 1473v59h309v-1532h-68v1473h-241z" />
<glyph unicode="2" horiz-adv-x="1304" d="M61 946q0 260 168 434t419 174t404.5 -170t153.5 -403q0 -338 -362 -565l-557 -348h913v-68h-1126l714 453q351 221 351 530q0 207 -135.5 360.5t-358.5 153.5t-371.5 -160.5t-148.5 -390.5h-64z" />
<glyph unicode="3" d="M61 473v43h64v-33q0 -186 134 -316t324.5 -130t327 130t136.5 318q0 129 -69 250t-179 168l-39 17l37 28q53 41 82.5 107.5t29.5 136.5q0 125 -93 217t-223 92t-227.5 -95t-101.5 -228h-65q4 158 117.5 269.5t274.5 111.5t272.5 -104.5t111.5 -255t-109 -269.5 q113 -68 180.5 -183.5t67.5 -250.5q0 -215 -154.5 -365.5t-371.5 -150.5t-372 145t-155 348z" />
<glyph unicode="4" horiz-adv-x="1003" d="M35 186l760 1370v-1302h178v-68h-178v-186h-68v186h-692zM135 254h592v1067z" />
<glyph unicode="5" horiz-adv-x="1329" d="M92 414h64q49 -164 188 -270.5t309 -106.5q215 0 366.5 152.5t151.5 368.5t-151.5 370.5t-366.5 154.5q-127 0 -239.5 -62.5t-186.5 -168.5h-71l71 684h840v-59h-780l-56 -527q72 92 184.5 141.5t237.5 49.5q244 0 414 -171t170 -412t-171 -409.5t-413 -168.5 q-195 0 -355.5 122.5t-205.5 311.5z" />
<glyph unicode="6" horiz-adv-x="1292" d="M68 547.5q0 236.5 206 474.5l449 514h78l-406 -465q35 27 115 46.5t154 19.5q225 0 396 -174.5t171 -412t-172 -406.5t-412.5 -169t-409.5 168t-169 404.5zM131 552q0 -214 151.5 -366.5t363.5 -152.5t361.5 152.5t149.5 367.5t-150.5 370.5t-359.5 155.5t-362.5 -156.5 t-153.5 -370.5z" />
<glyph unicode="7" horiz-adv-x="1095" d="M41 1473v59h1014l-791 -1532h-76l760 1473h-907z" />
<glyph unicode="8" horiz-adv-x="1165" d="M61 487q0 164 103.5 301.5t265.5 186.5q-76 37 -125 112.5t-49 159.5q0 129 92 219t224.5 90t225.5 -90t93 -219q0 -84 -45 -155.5t-123 -112.5q166 -41 273.5 -182.5t107.5 -309.5q0 -213 -152.5 -364.5t-367.5 -151.5t-369 152.5t-154 363.5zM129 484.5 q0 -185.5 134 -319.5t320.5 -134t319.5 134t133 320.5t-133 321.5t-318.5 135t-320.5 -136t-135 -321.5zM322 1249.5q0 -100.5 74.5 -175.5t176 -75t177 75t75.5 175.5t-75.5 175t-177 74.5t-176 -74.5t-74.5 -175z" />
<glyph unicode="9" horiz-adv-x="1292" d="M57 984q0 239 172 408t413 169t410 -169t169 -404.5t-207 -473.5l-449 -514h-78l406 465q-35 -27 -114.5 -46.5t-153.5 -19.5q-227 0 -397.5 173t-170.5 412zM131 983q0 -215 150.5 -370.5t359.5 -155.5t362.5 156.5t153.5 370.5t-151.5 366.5t-363.5 152.5 t-361.5 -152.5t-149.5 -367.5z" />
<glyph unicode=":" horiz-adv-x="485" d="M174 49.5q0 63.5 68.5 63.5t68.5 -63.5t-68.5 -63.5t-68.5 63.5zM174 598.5q0 63.5 68.5 63.5t68.5 -63.5t-68.5 -63.5t-68.5 63.5z" />
<glyph unicode=";" horiz-adv-x="489" d="M174 598.5q0 63.5 70.5 63.5t70.5 -63.5t-70.5 -63.5t-70.5 63.5zM174.5 49.5q-0.5 63.5 70 63.5t70.5 -64q0 -14 -6 -33l-63 -145h-8v115q-63 0 -63.5 63.5z" />
<glyph unicode="&#x3c;" horiz-adv-x="835" d="M154 848v61l641 373v-78l-555 -325l555 -328v-82z" />
<glyph unicode="=" horiz-adv-x="841" d="M102 682v59h637v-59h-637zM102 944v64h637v-64h-637z" />
<glyph unicode="&#x3e;" horiz-adv-x="835" d="M154 469v82l555 328l-555 325v78l641 -375v-59z" />
<glyph unicode="?" horiz-adv-x="1323" d="M92 1047q12 227 155.5 370.5t372 143.5t379 -149.5t150.5 -347.5t-145 -378q-141 -139 -345 -151v-338h-65v397h29q205 0 332.5 135t127.5 324.5t-134 318.5t-332.5 129t-322.5 -124t-132 -330h-70zM561 49.5q0 63.5 70.5 63.5t70.5 -63.5t-70.5 -63.5t-70.5 63.5z" />
<glyph unicode="@" horiz-adv-x="1802" d="M102 773.5q0 320.5 235.5 555t565.5 234.5t563.5 -233.5t233.5 -556t-231.5 -561.5t-553.5 -239h-30q-317 0 -550 240t-233 560.5zM170 769q0 -302 215 -519t516 -217t516 217t215 519t-214 518t-516 216t-517 -216t-215 -518zM414 768q0 199 143 341t344 142 q127 0 239.5 -63.5t178.5 -173.5v215h65v-922h-65v215q-66 -111 -178.5 -174t-239.5 -63q-201 0 -344 142t-143 341zM479 766q0 -172 126 -298t299 -126t296 126t123 299t-124 300t-296 127t-298 -128t-126 -300z" />
<glyph unicode="A" horiz-adv-x="1656" d="M61 0l766 1573l768 -1573h-71l-291 586h-821l-287 -586h-64zM438 645h770l-387 787z" />
<glyph unicode="B" horiz-adv-x="792" d="M154 0v1536h65q133 0 223 -83t90 -212q0 -78 -50 -159t-117 -105q158 -39 262 -168t104 -324.5t-149.5 -340t-362.5 -144.5h-65zM219 57h17q176 0 304 131t128 311.5t-127 310.5t-305 130h-17v-883zM219 995h17q92 0 162.5 75t70.5 172t-69.5 167t-163.5 70h-17v-484z " />
<glyph unicode="C" horiz-adv-x="1429" d="M92 772q0 326 235.5 560.5t563.5 234.5q219 0 416 -115v-76q-193 131 -416 131q-301 0 -516 -216t-215 -518t215 -519t516 -217q223 0 416 131v-76q-187 -115 -406 -115h-22q-211 0 -393.5 111t-288 294t-105.5 390z" />
<glyph unicode="D" horiz-adv-x="1077" d="M154 0v1536h65q344 0 555 -226.5t211 -542.5t-210 -541.5t-556 -225.5h-65zM219 63h17q299 0 490.5 207t191.5 497t-191.5 499t-490.5 209h-17v-1412z" />
<glyph unicode="E" horiz-adv-x="755" d="M154 0v1536h551v-59h-484v-836h404v-59h-404v-523h484v-59h-551z" />
<glyph unicode="F" horiz-adv-x="751" d="M154 0v1536h546v-59h-479v-832h400v-59h-400v-586h-67z" />
<glyph unicode="G" horiz-adv-x="1419" d="M92 772q0 326 235.5 560.5t563.5 234.5q219 0 416 -115v-76q-193 131 -416 131q-301 0 -516 -216t-215 -518t215 -519t516 -217q168 0 348 86v463h-508v59h576v-555q-180 -113 -406 -113h-22q-211 0 -393.5 111t-288 294t-105.5 390z" />
<glyph unicode="H" horiz-adv-x="1495" d="M154 0v1536h67v-891h1053v891h67v-1536h-67v586h-1053v-586h-67z" />
<glyph unicode="I" horiz-adv-x="395" d="M164 0v1536h67v-1536h-67z" />
<glyph unicode="J" horiz-adv-x="956" d="M41 86v84q129 -141 309 -141t282.5 121.5t102.5 312.5v1014h-379v59h447v-1065q0 -223 -122 -362.5t-319 -139.5h-20q-164 0 -301 117z" />
<glyph unicode="K" horiz-adv-x="1171" d="M154 0v1536h65v-563l649 563h82l-702 -612l882 -924h-90l-819 854v-854h-67z" />
<glyph unicode="L" horiz-adv-x="737" d="M154 0v1536h67v-1477h475v-59h-542z" />
<glyph unicode="M" horiz-adv-x="1882" d="M154 0v1536h98l690 -1417l692 1417h95v-1536h-68v1456l-725 -1485l-721 1485v-1456h-61z" />
<glyph unicode="N" horiz-adv-x="1497" d="M154 0v1559l1130 -1389v1366h59v-1559l-1130 1391v-1368h-59z" />
<glyph unicode="O" horiz-adv-x="1781" d="M92 773.5q0 320.5 235.5 555t565.5 234.5t563.5 -233.5t233.5 -556t-231.5 -561.5t-553.5 -239h-31q-317 0 -549.5 240t-232.5 560.5zM160 769q0 -302 215 -519t516 -217t516 217t215 519t-214 518t-516 216t-517 -216t-215 -518z" />
<glyph unicode="P" horiz-adv-x="798" d="M152 0v1536h67q213 0 362.5 -146.5t149.5 -345t-154.5 -342t-340.5 -143.5h-17v-559h-67zM219 616h17q172 0 300 127t128 301.5t-130.5 303.5t-297.5 129h-17v-861z" />
<glyph unicode="Q" horiz-adv-x="1781" d="M92 770q0 326 235.5 560.5t565.5 234.5t563.5 -233.5t233.5 -561.5q0 -182 -85 -349t-227 -280l166 -166h-90l-127 127q-195 -127 -426 -127h-22q-211 0 -393.5 111t-288 294t-105.5 390zM160 771q0 -302 215 -519t516 -217q207 0 391 112l-354 351h88l315 -312 q131 104 211 260t80 324q0 303 -214 519t-516 216t-517 -216t-215 -518z" />
<glyph unicode="R" horiz-adv-x="833" d="M154 0v1536h88q199 0 349 -146.5t150 -344t-153.5 -343t-329.5 -145.5h-14l528 -557h-88l-465 487v-487h-65zM219 616h37q166 0 293 127t127 301.5t-131 303.5t-299 129h-27v-861z" />
<glyph unicode="S" horiz-adv-x="1019" d="M82 182v111q53 -117 156.5 -189.5t257 -72.5t266 98t112.5 262v12q0 102 -53 187.5t-133 139.5t-174 113.5t-174 111t-133 129t-53 169.5v15q0 143 92 219t227 76q188 0 299 -140v-104q-47 86 -128 135t-181.5 49t-171 -62.5t-70.5 -170.5v-10q0 -129 144 -236 q61 -45 138 -89t153.5 -94t139 -106.5t102.5 -138.5t40 -180v-21q0 -195 -132 -309.5t-327 -114.5q-256 0 -397 211z" />
<glyph unicode="T" horiz-adv-x="854" d="M41 1477v59h772v-59h-350v-1477h-68v1477h-354z" />
<glyph unicode="U" horiz-adv-x="1222" d="M154 432v1104h67v-1102q0 -174 112.5 -288.5t278.5 -114.5t277.5 113.5t111.5 289.5v1102h68v-1100q0 -201 -130 -333t-316 -132h-21q-188 0 -318 131t-130 330z" />
<glyph unicode="V" horiz-adv-x="1609" d="M41 1536h74l696 -1423l692 1423h66l-764 -1571z" />
<glyph unicode="W" horiz-adv-x="2095" d="M41 1536h76l608 -1407l285 666l-318 741h74l285 -674l292 674h58l-320 -739l291 -674l621 1413h55l-682 -1563l-326 750l-325 -750z" />
<glyph unicode="X" horiz-adv-x="989" d="M41 0l416 858l-338 678h78l299 -608l297 608h65l-330 -676l420 -860h-76l-383 788l-385 -788h-63z" />
<glyph unicode="Y" horiz-adv-x="1073" d="M41 1536h74l432 -850l424 850h61l-457 -922v-614h-67v614z" />
<glyph unicode="Z" horiz-adv-x="874" d="M51 0l676 1477h-676v59h778l-677 -1477h671v-59h-772z" />
<glyph unicode="[" horiz-adv-x="440" d="M147 -170v1841h263v-59h-195v-1723h195v-59h-263z" />
<glyph unicode="\" horiz-adv-x="1323" d="M51 1532h78l1143 -1532h-78z" />
<glyph unicode="]" horiz-adv-x="440" d="M31 -111h198v1723h-198v59h266v-1841h-266v59z" />
<glyph unicode="^" horiz-adv-x="675" d="M31 1106l286 285h45l283 -285h-84l-221 221l-223 -221h-86z" />
<glyph unicode="_" horiz-adv-x="733" d="M51 0v63h631v-63h-631z" />
<glyph unicode="`" horiz-adv-x="432" d="M31 1319h84l286 -236h-86z" />
<glyph unicode="a" horiz-adv-x="1165" d="M72 460.5q0 198.5 143 341t344 142.5q131 0 251 -69.5t167 -184.5v232h65v-922h-65v229q-57 -117 -172 -184.5t-246 -67.5q-201 0 -344 142.5t-143 341zM137 459q0 -172 126 -298t299 -126t296 126t123 299t-124 300t-296 127t-298 -128t-126 -300z" />
<glyph unicode="b" horiz-adv-x="1165" d="M123 0v1536h65v-840q55 113 173 180.5t245 67.5q203 0 345.5 -142.5t142.5 -341t-142.5 -341t-345.5 -142.5q-123 0 -239.5 67t-178.5 179v-223h-65zM184 459q0 -172 126 -298t299 -126t296 126t123 299t-124 300t-296 127t-298 -128t-126 -300z" />
<glyph unicode="c" horiz-adv-x="974" d="M72 459.5q0 195.5 143 338t352 142.5t357 -158v-104q-63 94 -160.5 149.5t-204.5 55.5q-170 0 -296 -126t-126 -300t126 -300t296 -126q106 0 203.5 55t161.5 152v-107q-144 -158 -355 -158h-18q-197 0 -338 145.5t-141 341z" />
<glyph unicode="d" horiz-adv-x="1165" d="M72 460.5q0 198.5 142 341t345 142.5q127 0 245 -67.5t173 -180.5v840h65v-1536h-65v223q-61 -113 -178 -179.5t-240 -66.5q-203 0 -345 142.5t-142 341zM137 460q0 -173 123 -299t296 -126t299 126t126 298t-126 300t-298 128t-296 -127t-124 -300z" />
<glyph unicode="e" horiz-adv-x="1013" d="M82 462.5q0 194.5 143.5 337t354.5 142.5t362 -168l-643 -635q133 -106 256 -106t220 56t161 151v-105q-145 -160 -352 -160h-19q-195 0 -339 146.5t-144 341zM147 469q0 -164 109 -287l596 592q-127 111 -290 111t-289 -126t-126 -290z" />
<glyph unicode="f" horiz-adv-x="516" d="M123 0v948q0 152 102.5 249t247.5 97v-57q-119 0 -202 -82t-83 -207v-538h287v-58h-287v-352h-65z" />
<glyph unicode="g" horiz-adv-x="1167" d="M72 458.5q0 198.5 143 341t344 142.5q133 0 249 -66.5t171 -183.5v230h65v-836q0 -238 -131 -375t-344 -137q-117 0 -227.5 53.5t-171.5 139.5v94q53 -98 167 -164t232 -66q180 0 295 122t115 333v137q-55 -113 -174 -180.5t-246 -67.5q-201 0 -344 142.5t-143 341z M137 459q0 -174 126 -300t299 -126t296 126t123 300t-123 300t-296 126t-299 -126t-126 -300z" />
<glyph unicode="h" horiz-adv-x="1052" d="M123 0v1534h65v-791q102 201 355 201q172 0 289.5 -118.5t117.5 -288.5v-537h-65v537q0 143 -100.5 246.5t-242 103.5t-248 -104.5t-106.5 -245.5v-537h-65z" />
<glyph unicode="i" horiz-adv-x="364" d="M123 1200q0 55 59.5 55t59.5 -55t-59.5 -55t-59.5 55zM150 0v920h65v-920h-65z" />
<glyph unicode="j" horiz-adv-x="495" d="M-10 -348q121 0 205 82t84 207v981h65v-981q0 -152 -103.5 -249.5t-250.5 -97.5v58zM254 1200q0 55 59.5 55t59.5 -55t-59.5 -55t-59.5 55z" />
<glyph unicode="k" horiz-adv-x="794" d="M123 0v1532h65v-930l365 320h84l-422 -369l528 -553h-88l-467 485v-485h-65z" />
<glyph unicode="l" horiz-adv-x="514" d="M123 328v1208h65v-1208q0 -125 83 -207t202 -82v-57q-145 0 -247.5 97t-102.5 249z" />
<glyph unicode="m" horiz-adv-x="1527" d="M123 0v922h65v-129q41 61 122 106t168 45t167 -60.5t117 -156.5q31 98 118 157.5t212 59.5t219 -90t94 -244v-610h-66v610q0 119 -77.5 198t-187 79t-194.5 -82t-85 -191v-614h-66v614q0 111 -78 192t-188.5 81t-192.5 -82t-82 -191v-614h-65z" />
<glyph unicode="n" horiz-adv-x="1073" d="M123 0v922h65v-187q104 209 357 209q172 0 288.5 -118.5t116.5 -288.5v-537h-65v537q0 141 -99.5 245.5t-241 104.5t-249 -104.5t-107.5 -245.5v-537h-65z" />
<glyph unicode="o" horiz-adv-x="1118" d="M72 464.5q0 194.5 143 337t345 142.5t344.5 -142.5t142.5 -338t-139.5 -341t-338.5 -145.5h-18q-197 0 -338 146.5t-141 341zM137 459q0 -172 126 -298t299 -126t296 126t123 299t-124 300t-296 127t-298 -128t-126 -300z" />
<glyph unicode="p" horiz-adv-x="1165" d="M123 -410v1332h65v-226q55 113 173 180.5t245 67.5q203 0 345.5 -142.5t142.5 -341t-142.5 -341t-345.5 -142.5q-123 0 -239.5 67t-178.5 179v-633h-65zM184 459q0 -172 126 -298t299 -126t296 126t123 299t-124 300t-296 127t-298 -128t-126 -300z" />
<glyph unicode="q" horiz-adv-x="1165" d="M72 460.5q0 198.5 143 341t344 142.5q131 0 251 -69.5t167 -184.5v232h65v-1332h-65v639q-57 -117 -172 -184.5t-246 -67.5q-201 0 -344 142.5t-143 341zM137 459q0 -172 126 -298t299 -126t296 126t123 299t-124 300t-296 127t-298 -128t-126 -300z" />
<glyph unicode="r" horiz-adv-x="712" d="M123 0v922h65v-138q37 70 115 115t174 45t185 -65v-82q-91 90 -199.5 90t-191.5 -82t-83 -191v-614h-65z" />
<glyph unicode="s" horiz-adv-x="704" d="M66 109v98q78 -172 249 -172q106 0 179 65.5t73 146.5t-46 136t-111.5 94t-130 77t-110.5 92t-46 127t58.5 123t150.5 50t157 -72v-83q-65 98 -165 98q-53 0 -94.5 -35t-41.5 -86t46.5 -94t111 -79t130 -77t111.5 -104.5t46 -145.5q0 -121 -91 -206t-220 -85 q-82 0 -153 36t-103 96z" />
<glyph unicode="t" horiz-adv-x="493" d="M102 334v958h66v-372h283v-58h-283v-528q0 -125 83 -207t202 -82v-57q-145 0 -248 97t-103 249z" />
<glyph unicode="u" horiz-adv-x="1032" d="M102 385v537h66v-537q0 -141 99.5 -245.5t240.5 -104.5t248.5 104.5t107.5 245.5v537h66v-922h-66v186q-104 -209 -356 -209q-172 0 -289 119t-117 289z" />
<glyph unicode="v" horiz-adv-x="1009" d="M51 922h72l389 -809l387 809h59l-452 -949z" />
<glyph unicode="w" horiz-adv-x="1400" d="M51 922h68l379 -805l178 375l-199 426h66l166 -363l170 367h61l-201 -430l176 -379l375 807h60l-437 -943l-208 449l-211 -449z" />
<glyph unicode="x" horiz-adv-x="886" d="M43 0l363 553l-244 369h76l204 -312l205 312h66l-238 -363l371 -559h-76l-332 502l-329 -502h-66z" />
<glyph unicode="y" horiz-adv-x="1032" d="M102 385v537h66v-537q0 -141 103.5 -245.5t244.5 -104.5t244.5 104.5t103.5 245.5v537h66v-893q0 -182 -127 -309.5t-311 -127.5q-221 0 -351 170l4 103q57 -98 150.5 -156.5t196.5 -58.5q152 0 262 109.5t110 263.5v155q-100 -201 -350 -201q-170 0 -291 120t-121 288z " />
<glyph unicode="z" horiz-adv-x="743" d="M51 0l524 864h-469v58h586l-526 -865h520v-57h-635z" />
<glyph unicode="{" horiz-adv-x="526" d="M70 768q86 25 145 101.5t59 166.5v330q0 96 59.5 179t151.5 128v-61q-66 -33 -104.5 -98.5t-38.5 -147.5v-330q0 -80 -36 -152.5t-101 -115.5q137 -90 137 -264v-346q0 -82 39 -147.5t104 -102.5v-62q-92 43 -151.5 129t-59.5 183v346q0 90 -59 164.5t-145 99.5z" />
<glyph unicode="|" horiz-adv-x="374" d="M154 0v1532h67v-1532h-67z" />
<glyph unicode="}" horiz-adv-x="526" d="M41 -92q147 80 147 250v346q0 176 136 264q-63 41 -99.5 114.5t-36.5 153.5v330q0 82 -39.5 147.5t-107.5 98.5v61q94 -45 154.5 -128t60.5 -179v-330q0 -88 59.5 -165.5t141.5 -102.5q-82 -25 -141.5 -99.5t-59.5 -164.5v-346q0 -94 -61.5 -182.5t-153.5 -129.5v62z" />
<glyph unicode="~" horiz-adv-x="1091" d="M154 647v105q80 90 180 98q96 0 230 -74t212 -74t162 134v-99q-82 -94 -165 -94t-221 74t-216 74q-100 -8 -182 -144z" />
<glyph unicode="&#xa1;" horiz-adv-x="462" d="M164 1486.5q0 63.5 67.5 63.5t67.5 -63.5t-67.5 -63.5t-67.5 63.5zM201 0v1331h67v-1331h-67z" />
<glyph unicode="&#xa2;" horiz-adv-x="1107" d="M102 459.5q0 193.5 125 334t348 140.5h11v221h69v-221h11q229 0 370 -152v-104q-63 92 -162.5 145.5t-207.5 53.5h-11v-838h11q111 0 209 53t161 146v-107q-66 -72 -165 -110.5t-207 -38.5h-9v-299h-69v299h-8q-217 0 -346.5 142t-129.5 335.5zM174 457 q0 -174 104.5 -296t296.5 -122h11v838h-11q-193 0 -297 -123t-104 -297z" />
<glyph unicode="&#xa3;" horiz-adv-x="1083" d="M41 0q102 190 256 207v375h-188v57h188v483q0 186 102.5 308t268.5 122h18q139 0 256 -102v-72q-49 55 -120.5 89t-145.5 34q-147 0 -230.5 -106.5t-83.5 -272.5v-483h414v-57h-411v-375q96 0 230 -74t212 -74t162 134h73q-121 -197 -239 -197q-82 0 -220.5 74.5 t-217.5 74.5h-68q-100 -8 -182 -145h-74z" />
<glyph unicode="&#xa4;" horiz-adv-x="1726" d="M72 759.5q0 307.5 204 551.5l-174 170l52 53l172 -174q223 199 529 199t542 -211l182 184l45 -53l-178 -179q209 -240 209 -538.5t-205 -530.5l174 -170l-49 -51l-170 170q-240 -205 -549 -205t-526 205l-176 -176l-50 51l175 176q-207 221 -207 528.5zM141 760 q0 -309 212 -514t504 -205t513 212t221 519t-206.5 513t-514 206t-518.5 -211t-211 -520z" />
<glyph unicode="&#xa5;" horiz-adv-x="1093" d="M51 1536h72l432 -850l424 850h63l-424 -854h250v-64h-282v-202h282v-60h-282v-356h-68v356h-287v60h287v202h-287v64h252z" />
<glyph unicode="&#xa6;" horiz-adv-x="440" d="M184 0v580h72v-580h-72zM184 954v582h72v-582h-72z" />
<glyph unicode="&#xa7;" horiz-adv-x="872" d="M102 768q0 123 86 212t209 97q-90 55 -136 106.5t-46 139.5t72.5 155.5t172 67.5t183.5 -71v-109q-80 123 -169 123t-141 -49t-52 -125q0 -49 22.5 -75t33.5 -39t36.5 -30.5t35 -24.5t38 -22.5t30.5 -17.5l58 -31q143 -82 182 -137q53 -76 53 -183.5t-86 -197.5 t-211 -102q90 -55 137 -106.5t47 -141.5t-74.5 -156.5t-183 -66.5t-184.5 75v113q78 -129 184 -129q80 0 135.5 48t55.5 126q0 113 -199 215l-53 29q-170 88 -215 192q-21 52 -21 115zM174 765.5q0 -106.5 80 -179t186.5 -72.5t182 75t75.5 180t-79.5 179t-186 74 t-182.5 -75t-76 -181.5z" />
<glyph unicode="&#xa8;" horiz-adv-x="393" d="M31 1198q0 55 59.5 55t59.5 -55t-59.5 -55t-59.5 55zM250 1198q0 55 56 55t56 -55t-56 -55t-56 55z" />
<glyph unicode="&#xa9;" horiz-adv-x="1822" d="M113 773.5q0 320.5 235.5 555t565 234.5t563 -233.5t233.5 -556t-231 -561.5t-553 -239h-31q-317 0 -549.5 240t-232.5 560.5zM180 769q0 -302 215 -519t516 -217t516 217t215 519t-214 518t-516 216t-517 -216t-215 -518zM426 774.5q0 194.5 143.5 336.5t352 142 t356.5 -157v-105q-63 94 -160.5 149.5t-204.5 55.5q-170 0 -295.5 -126t-125.5 -300t125.5 -300t295.5 -126q106 0 203.5 55.5t161.5 151.5v-107q-143 -157 -350 -157h-31q-190 0 -330.5 146.5t-140.5 341z" />
<glyph unicode="&#xab;" horiz-adv-x="989" d="M143 438v54l447 395v-88l-377 -334l377 -336v-92zM502 438v54l446 395v-88l-377 -334l377 -336v-92z" />
<glyph unicode="&#xac;" horiz-adv-x="839" d="M102 578v63h635v-256h-63v193h-572z" />
<glyph unicode="&#xad;" horiz-adv-x="841" d="M102 578v63h637v-63h-637z" />
<glyph unicode="&#xae;" horiz-adv-x="1822" d="M113 773.5q0 320.5 235.5 555t565 234.5t563 -233.5t233.5 -556t-231 -561.5t-553 -239h-31q-317 0 -549.5 240t-232.5 560.5zM180 769q0 -302 215 -519t516 -217t516 217t215 519t-214 518t-516 216t-517 -216t-215 -518zM690 315v922h203q125 0 214 -89t89 -205 t-63.5 -197.5t-163.5 -106.5l237 -324h-84l-225 318h-143v-318h-64zM754 688h143q94 0 167 75t73 172t-73 172t-167 75h-143v-494z" />
<glyph unicode="&#xaf;" horiz-adv-x="698" d="M154 1159v58h403v-58h-403z" />
<glyph unicode="&#xb0;" horiz-adv-x="391" d="M41 1383.5q0 62.5 45 107.5t109.5 45t109.5 -45t45 -107.5t-45 -108.5t-106 -46h-9q-61 0 -105 46t-44 108.5zM92 1382q0 -41 31 -72.5t73 -31.5t71.5 30.5t29.5 73.5t-29.5 74t-71.5 31t-73 -32t-31 -73z" />
<glyph unicode="&#xb1;" horiz-adv-x="923" d="M143 344v64h637v-64h-637zM143 793v63h287v285h68v-285h282v-63h-282v-275h-68v275h-287z" />
<glyph unicode="&#xb4;" horiz-adv-x="432" d="M31 1083l286 236h84l-284 -236h-86z" />
<glyph unicode="&#xb5;" horiz-adv-x="1136" d="M154 -410v1332h67v-537q0 -141 103.5 -245.5t245 -104.5t245 104.5t103.5 245.5v537h65v-922h-65v178q-55 -90 -150.5 -145.5t-202 -55.5t-199 51.5t-147.5 139.5v-578h-65z" />
<glyph unicode="&#xb6;" horiz-adv-x="1155" d="M154 1234q0 124 88 213t215 89h637v-59h-185v-1887h-63v1887h-291v-1887h-63v1342h-41q-125 0 -211 89t-86 213z" />
<glyph unicode="&#xb7;" horiz-adv-x="434" d="M154 598.5q0 63.5 63.5 63.5t63.5 -63.5t-63.5 -63.5t-63.5 63.5z" />
<glyph unicode="&#xb8;" horiz-adv-x="290" d="M31 18h51v-118h20q66 0 112 -45t46 -107v-8q0 -61 -45 -105.5t-113 -44.5h-71v52h71q47 0 78 29.5t31 72.5t-30.5 72.5t-78.5 29.5h-71v172z" />
<glyph unicode="&#xbb;" horiz-adv-x="989" d="M41 37v92l377 336l-377 334v88l446 -395v-54zM399 37v92l377 336l-377 334v88l447 -395v-54z" />
<glyph unicode="&#xbf;" horiz-adv-x="1282" d="M113 482.5q0 197.5 145 377.5q141 139 344 152v338h66v-398h-29q-205 0 -333 -135t-128 -324.5t134 -318.5t333 -129t323 124t132 331h69q-12 -227 -155.5 -370.5t-371.5 -143.5t-378.5 149.5t-150.5 347zM559 1497.5q0 63.5 70.5 63.5t70.5 -63.5t-70.5 -63.5 t-70.5 63.5z" />
<glyph unicode="&#xc0;" horiz-adv-x="1656" d="M61 0l766 1573l768 -1573h-71l-291 586h-821l-287 -586h-64zM438 645h770l-387 787zM643 1933h84l287 -235h-86z" />
<glyph unicode="&#xc1;" horiz-adv-x="1656" d="M61 0l766 1573l768 -1573h-71l-291 586h-821l-287 -586h-64zM438 645h770l-387 787zM643 1698l287 235h84l-285 -235h-86z" />
<glyph unicode="&#xc2;" horiz-adv-x="1656" d="M61 0l766 1573l768 -1573h-71l-291 586h-821l-287 -586h-64zM438 645h770l-387 787zM526 1698l275 235h61l271 -235h-84l-220 186l-217 -186h-86z" />
<glyph unicode="&#xc3;" horiz-adv-x="1656" d="M61 0l766 1573l768 -1573h-71l-291 586h-821l-287 -586h-64zM438 645h770l-387 787zM479 1737q80 164 195 164h18q61 0 153.5 -54.5t149 -54.5t119.5 100h64q-97 -157 -185 -157q-59 0 -160.5 56t-163 55t-126.5 -109h-64z" />
<glyph unicode="&#xc4;" horiz-adv-x="1656" d="M61 0l766 1573l768 -1573h-71l-291 586h-821l-287 -586h-64zM438 645h770l-387 787zM662 1812.5q0 55.5 59 55.5t59 -55.5t-59 -55.5t-59 55.5zM881 1812.5q0 55.5 56 55.5t56 -55.5t-56 -55.5t-56 55.5z" />
<glyph unicode="&#xc5;" horiz-adv-x="1656" d="M61 0l766 1573l768 -1573h-71l-291 586h-821l-287 -586h-64zM438 645h770l-387 787zM674 1817.5q0 62.5 45 107.5t109.5 45t109.5 -45t45 -107.5t-45.5 -108.5t-106.5 -46h-8q-61 0 -105 46t-44 108.5zM725 1817q0 -41 30.5 -73t72.5 -32t72 31t30 74t-30 73.5t-72 30.5 t-72.5 -31.5t-30.5 -72.5z" />
<glyph unicode="&#xc6;" horiz-adv-x="1415" d="M51 0l762 1536h551v-59h-483v-830h403v-59h-403v-529h483v-59h-551v586h-412l-286 -586h-64zM428 645h385v772z" />
<glyph unicode="&#xc7;" horiz-adv-x="1470" d="M113 783.5q0 314.5 235.5 549t562.5 234.5q219 0 416 -115v-76q-193 131 -416 131q-301 0 -516 -216t-215 -518t215 -519t516 -217q223 0 416 131v-76q-186 -115 -405 -115h-17v-77h21q66 0 111.5 -45t45.5 -107v-8q0 -61 -45 -105.5t-112 -44.5h-72v52h72 q47 0 77.5 29.5t30.5 72.5t-30.5 72.5t-77.5 29.5h-72v134q-305 16 -523 252.5t-218 551z" />
<glyph unicode="&#xc8;" horiz-adv-x="796" d="M174 0v1536h551v-59h-483v-836h403v-59h-403v-523h483v-59h-551zM268 1933h84l287 -235h-86z" />
<glyph unicode="&#xc9;" horiz-adv-x="796" d="M174 0v1536h551v-59h-483v-836h403v-59h-403v-523h483v-59h-551zM266 1698l287 235h84l-285 -235h-86z" />
<glyph unicode="&#xca;" horiz-adv-x="796" d="M152 1698l274 235h61l271 -235h-84l-219 186l-217 -186h-86zM174 0v1536h551v-59h-483v-836h403v-59h-403v-523h483v-59h-551z" />
<glyph unicode="&#xcb;" horiz-adv-x="796" d="M174 0v1536h551v-59h-483v-836h403v-59h-403v-523h483v-59h-551zM281 1812.5q0 55.5 59 55.5t59 -55.5t-59 -55.5t-59 55.5zM500 1812.5q0 55.5 56 55.5t56 -55.5t-56 -55.5t-56 55.5z" />
<glyph unicode="&#xcc;" horiz-adv-x="436" d="M33 1933h84l286 -235h-86zM184 0v1536h68v-1536h-68z" />
<glyph unicode="&#xcd;" horiz-adv-x="436" d="M33 1698l286 235h84l-284 -235h-86zM184 0v1536h68v-1536h-68z" />
<glyph unicode="&#xce;" horiz-adv-x="436" d="M-84 1698l274 235h62l270 -235h-84l-219 186l-217 -186h-86zM184 0v1536h68v-1536h-68z" />
<glyph unicode="&#xcf;" horiz-adv-x="436" d="M51 1812.5q0 55.5 59.5 55.5t59.5 -55.5t-59.5 -55.5t-59.5 55.5zM184 0v1536h68v-1536h-68zM270 1812.5q0 55.5 56.5 55.5t56.5 -55.5t-56.5 -55.5t-56.5 55.5z" />
<glyph unicode="&#xd0;" horiz-adv-x="1077" d="M31 739v60h123v737h65q344 0 555 -226.5t211 -542.5t-210 -541.5t-556 -225.5h-65v739h-123zM219 63h17q299 0 490.5 207t191.5 497t-191.5 499t-490.5 209h-17v-676h254v-60h-254v-676z" />
<glyph unicode="&#xd1;" horiz-adv-x="1538" d="M174 0v1559l1131 -1389v1366h59v-1559l-1131 1391v-1368h-59zM420 1737q80 164 194 164h19q61 0 153.5 -54.5t148.5 -54.5t120 100h63q-96 -157 -184 -157q-59 0 -160.5 56t-163 55t-127.5 -109h-63z" />
<glyph unicode="&#xd2;" horiz-adv-x="1822" d="M113 773.5q0 320.5 235.5 555t565 234.5t563 -233.5t233.5 -556t-231.5 -561.5t-552.5 -239h-31q-317 0 -549.5 240t-232.5 560.5zM180 769q0 -302 215 -519t516 -217t516 217t215 519t-214 518t-516 216t-517 -216t-215 -518zM725 1933h84l287 -235h-86z" />
<glyph unicode="&#xd3;" horiz-adv-x="1822" d="M113 773.5q0 320.5 235.5 555t565 234.5t563 -233.5t233.5 -556t-231.5 -561.5t-552.5 -239h-31q-317 0 -549.5 240t-232.5 560.5zM180 769q0 -302 215 -519t516 -217t516 217t215 519t-214 518t-516 216t-517 -216t-215 -518zM725 1698l287 235h84l-285 -235h-86z" />
<glyph unicode="&#xd4;" horiz-adv-x="1822" d="M113 773.5q0 320.5 235.5 555t565 234.5t563 -233.5t233.5 -556t-231.5 -561.5t-552.5 -239h-31q-317 0 -549.5 240t-232.5 560.5zM180 769q0 -302 215 -519t516 -217t516 217t215 519t-214 518t-516 216t-517 -216t-215 -518zM608 1698l275 235h61l270 -235h-84 l-219 186l-217 -186h-86z" />
<glyph unicode="&#xd5;" horiz-adv-x="1822" d="M113 773.5q0 320.5 235.5 555t565 234.5t563 -233.5t233.5 -556t-231.5 -561.5t-552.5 -239h-31q-317 0 -549.5 240t-232.5 560.5zM180 769q0 -302 215 -519t516 -217t516 217t215 519t-214 518t-516 216t-517 -216t-215 -518zM561 1737q80 164 195 164h18 q61 0 153.5 -54.5t149 -54.5t119.5 100h64q-97 -157 -185 -157q-59 0 -160.5 56t-163 55t-126.5 -109h-64z" />
<glyph unicode="&#xd6;" horiz-adv-x="1822" d="M113 773.5q0 320.5 235.5 555t565 234.5t563 -233.5t233.5 -556t-231.5 -561.5t-552.5 -239h-31q-317 0 -549.5 240t-232.5 560.5zM180 769q0 -302 215 -519t516 -217t516 217t215 519t-214 518t-516 216t-517 -216t-215 -518zM745 1812.5q0 55.5 59.5 55.5t59.5 -55.5 t-59.5 -55.5t-59.5 55.5zM965 1812.5q0 55.5 56 55.5t56 -55.5t-56 -55.5t-56 55.5z" />
<glyph unicode="&#xd7;" horiz-adv-x="804" d="M154 1032l45 45l202 -203l201 201l49 -47l-202 -203l200 -198l-45 -45l-201 198l-192 -192l-49 47l194 194z" />
<glyph unicode="&#xd8;" horiz-adv-x="1802" d="M102 768q0 326 235.5 560.5t563.5 234.5q248 0 453 -142l82 111h80l-113 -150q139 -113 218 -272.5t79 -341.5q0 -317 -231.5 -556t-553.5 -239h-30q-238 0 -432 138l-82 -111h-76l111 147q-141 115 -222.5 277t-81.5 344zM170 768q0 -170 72.5 -318.5t199.5 -252.5 l875 1175q-193 131 -416 131q-301 0 -516 -216t-215 -519zM489 162q190 -129 412 -129q301 0 516 217t215 518q0 168 -70.5 314.5t-195.5 250.5z" />
<glyph unicode="&#xd9;" horiz-adv-x="1263" d="M174 432v1104h68v-1102q0 -174 112.5 -288.5t278.5 -114.5t277.5 113.5t111.5 289.5v1102h68v-1100q0 -201 -130.5 -333t-316.5 -132h-20q-188 0 -318.5 131t-130.5 330zM446 1933h84l287 -235h-86z" />
<glyph unicode="&#xda;" horiz-adv-x="1263" d="M174 432v1104h68v-1102q0 -174 112.5 -288.5t278.5 -114.5t277.5 113.5t111.5 289.5v1102h68v-1100q0 -201 -130.5 -333t-316.5 -132h-20q-188 0 -318.5 131t-130.5 330zM446 1698l287 235h84l-285 -235h-86z" />
<glyph unicode="&#xdb;" horiz-adv-x="1263" d="M174 432v1104h68v-1102q0 -174 112.5 -288.5t278.5 -114.5t277.5 113.5t111.5 289.5v1102h68v-1100q0 -201 -130.5 -333t-316.5 -132h-20q-188 0 -318.5 131t-130.5 330zM328 1698l274 235h62l270 -235h-84l-219 186l-217 -186h-86z" />
<glyph unicode="&#xdc;" horiz-adv-x="1263" d="M174 432v1104h68v-1102q0 -174 112.5 -288.5t278.5 -114.5t277.5 113.5t111.5 289.5v1102h68v-1100q0 -201 -130.5 -333t-316.5 -132h-20q-188 0 -318.5 131t-130.5 330zM465 1812.5q0 55.5 59.5 55.5t59.5 -55.5t-59.5 -55.5t-59.5 55.5zM684 1812.5q0 55.5 56.5 55.5 t56.5 -55.5t-56.5 -55.5t-56.5 55.5z" />
<glyph unicode="&#xdd;" horiz-adv-x="1114" d="M61 1536h74l432 -850l424 850h62l-457 -922v-614h-68v614zM371 1698l286 235h84l-284 -235h-86z" />
<glyph unicode="&#xde;" horiz-adv-x="839" d="M154 0v1534h65v-242h19q199 0 349 -146.5t150 -345t-155.5 -343t-343.5 -144.5h-19v-313h-65zM219 373h19q172 0 303 125t131 301t-131 305t-303 129h-19v-860z" />
<glyph unicode="&#xdf;" horiz-adv-x="1171" d="M154 0v1161q0 119 85 203t205.5 84t205.5 -84t85 -209t-114 -221q197 -8 333 -145.5t136 -333t-141.5 -335.5t-340.5 -140q-96 0 -194 40v70q94 -51 194 -51q170 0 295 124t125 295t-124 293.5t-296 122.5h-166v60q92 0 160 68.5t68 159.5t-67.5 159t-158 68t-158 -68 t-67.5 -160v-1161h-65z" />
<glyph unicode="&#xe0;" d="M92 460.5q0 198.5 143.5 341t344.5 142.5q131 0 250.5 -69.5t166.5 -184.5v232h66v-922h-66v229q-57 -117 -171.5 -184.5t-245.5 -67.5q-201 0 -344.5 142.5t-143.5 341zM158 459q0 -172 126 -298t299 -126t295.5 126t122.5 299t-123.5 300t-295.5 127t-298 -128 t-126 -300zM418 1319h84l286 -236h-86z" />
<glyph unicode="&#xe1;" d="M92 460.5q0 198.5 143.5 341t344.5 142.5q131 0 250.5 -69.5t166.5 -184.5v232h66v-922h-66v229q-57 -117 -171.5 -184.5t-245.5 -67.5q-201 0 -344.5 142.5t-143.5 341zM158 459q0 -172 126 -298t299 -126t295.5 126t122.5 299t-123.5 300t-295.5 127t-298 -128 t-126 -300zM418 1083l287 236h83l-284 -236h-86z" />
<glyph unicode="&#xe2;" d="M92 460.5q0 198.5 143.5 341t344.5 142.5q131 0 250.5 -69.5t166.5 -184.5v232h66v-922h-66v229q-57 -117 -171.5 -184.5t-245.5 -67.5q-201 0 -344.5 142.5t-143.5 341zM158 459q0 -172 126 -298t299 -126t295.5 126t122.5 299t-123.5 300t-295.5 127t-298 -128 t-126 -300zM299 1083l274 236h62l270 -236h-84l-219 187l-217 -187h-86z" />
<glyph unicode="&#xe3;" d="M92 460.5q0 198.5 143.5 341t344.5 142.5q131 0 250.5 -69.5t166.5 -184.5v232h66v-922h-66v229q-57 -117 -171.5 -184.5t-245.5 -67.5q-201 0 -344.5 142.5t-143.5 341zM158 459q0 -172 126 -298t299 -126t295.5 126t122.5 299t-123.5 300t-295.5 127t-298 -128 t-126 -300zM254 1122q80 164 195 164h18q61 0 153.5 -54t148.5 -54t120 100h63q-96 -158 -184 -158q-59 0 -160.5 56.5t-163 55.5t-127.5 -110h-63z" />
<glyph unicode="&#xe4;" d="M92 460.5q0 198.5 143.5 341t344.5 142.5q131 0 250.5 -69.5t166.5 -184.5v232h66v-922h-66v229q-57 -117 -171.5 -184.5t-245.5 -67.5q-201 0 -344.5 142.5t-143.5 341zM158 459q0 -172 126 -298t299 -126t295.5 126t122.5 299t-123.5 300t-295.5 127t-298 -128 t-126 -300zM436 1198q0 55 59.5 55t59.5 -55t-59.5 -55t-59.5 55zM655 1198q0 55 56.5 55t56.5 -55t-56.5 -55t-56.5 55z" />
<glyph unicode="&#xe5;" d="M92 460.5q0 198.5 143.5 341t344.5 142.5q131 0 250.5 -69.5t166.5 -184.5v232h66v-922h-66v229q-57 -117 -171.5 -184.5t-245.5 -67.5q-201 0 -344.5 142.5t-143.5 341zM158 459q0 -172 126 -298t299 -126t295.5 126t122.5 299t-123.5 300t-295.5 127t-298 -128 t-126 -300zM449 1203.5q0 62.5 45 107.5t109.5 45t109.5 -45t45 -107.5t-45.5 -108.5t-106.5 -46h-8q-61 0 -105 46t-44 108.5zM500 1202q0 -41 30.5 -72.5t72.5 -31.5t72 30.5t30 73.5t-30 74t-72 31t-72.5 -32t-30.5 -73z" />
<glyph unicode="&#xe6;" horiz-adv-x="1908" d="M82 460.5q0 198.5 143.5 341t343.5 142.5q127 0 240 -63.5t178 -173.5v215h53v-228q63 113 176 181.5t248 68.5q221 0 373 -168l-643 -635q133 -106 256 -106t220 56t161 151v-105q-145 -160 -352 -160h-31q-127 0 -235.5 70t-172.5 182v-229h-53v215 q-66 -111 -178.5 -174.5t-239.5 -63.5q-201 0 -344 142.5t-143 341zM147 459q0 -172 126 -298t299 -126t296 126t123 299t-124 300t-296 127t-298 -128t-126 -300zM1040 472q0 -163 111 -288l596 592q-127 111 -291 111t-290 -126t-126 -289z" />
<glyph unicode="&#xe7;" horiz-adv-x="1015" d="M92 472q0 183 143.5 325.5t352.5 142.5t356 -158v-104q-63 94 -160.5 149.5t-203.5 55.5q-170 0 -296 -126t-126 -300t126 -300t296 -126q106 0 203.5 55t160.5 152v-107q-143 -158 -354 -158h-19q-25 0 -30 2v-75h20q66 0 112 -45t46 -107v-8q0 -61 -45 -105.5 t-113 -44.5h-72v52h72q47 0 78 29.5t31 72.5t-31 72.5t-78 29.5h-72v136q-170 29 -283.5 168t-113.5 322z" />
<glyph unicode="&#xe8;" horiz-adv-x="1054" d="M102 462.5q0 194.5 143.5 337t354.5 142.5t363 -168l-644 -635q133 -106 256 -106t220.5 56t160.5 151v-105q-145 -160 -352 -160h-18q-195 0 -339.5 146.5t-144.5 341zM168 469q0 -164 108 -287l596 592q-127 111 -289.5 111t-288.5 -126t-126 -290zM342 1319h84 l287 -236h-86z" />
<glyph unicode="&#xe9;" horiz-adv-x="1054" d="M102 462.5q0 194.5 143.5 337t354.5 142.5t363 -168l-644 -635q133 -106 256 -106t220.5 56t160.5 151v-105q-145 -160 -352 -160h-18q-195 0 -339.5 146.5t-144.5 341zM168 469q0 -164 108 -287l596 592q-127 111 -289.5 111t-288.5 -126t-126 -290zM342 1083l287 236 h84l-285 -236h-86z" />
<glyph unicode="&#xea;" horiz-adv-x="1054" d="M102 462.5q0 194.5 143.5 337t354.5 142.5t363 -168l-644 -635q133 -106 256 -106t220.5 56t160.5 151v-105q-145 -160 -352 -160h-18q-195 0 -339.5 146.5t-144.5 341zM168 469q0 -164 108 -287l596 592q-127 111 -289.5 111t-288.5 -126t-126 -290zM223 1083l275 236 h61l270 -236h-84l-219 187l-217 -187h-86z" />
<glyph unicode="&#xeb;" horiz-adv-x="1054" d="M102 462.5q0 194.5 143.5 337t354.5 142.5t363 -168l-644 -635q133 -106 256 -106t220.5 56t160.5 151v-105q-145 -160 -352 -160h-18q-195 0 -339.5 146.5t-144.5 341zM168 469q0 -164 108 -287l596 592q-127 111 -289.5 111t-288.5 -126t-126 -290zM360 1198 q0 55 59.5 55t59.5 -55t-59.5 -55t-59.5 55zM580 1198q0 55 56 55t56 -55t-56 -55t-56 55z" />
<glyph unicode="&#xec;" horiz-adv-x="405" d="M18 1319h84l287 -236h-86zM170 0v920h66v-920h-66z" />
<glyph unicode="&#xed;" horiz-adv-x="405" d="M18 1083l287 236h84l-285 -236h-86zM170 0v920h66v-920h-66z" />
<glyph unicode="&#xee;" horiz-adv-x="405" d="M-100 1083l274 236h62l270 -236h-84l-219 187l-217 -187h-86zM170 0v920h66v-920h-66z" />
<glyph unicode="&#xef;" horiz-adv-x="405" d="M37 1198q0 55 59.5 55t59.5 -55t-59.5 -55t-59.5 55zM170 0v920h66v-920h-66zM256 1198q0 55 56.5 55t56.5 -55t-56.5 -55t-56.5 55z" />
<glyph unicode="&#xf0;" horiz-adv-x="1169" d="M113 459.5q0 195.5 142 338t345 142.5q131 0 248 -69.5t176 -192.5v18q0 322 -426 492l-379 -156v60l301 127l-301 124v60l375 -154l348 148v-64l-272 -114q100 -43 164.5 -83t128.5 -108q124 -133 124 -405v-156q0 -195 -140 -344.5t-331 -149.5h-30q-197 0 -335 145.5 t-138 341zM178 456q0 -173 123 -299t296 -126t299 126t126 298t-126 300t-298 128t-296 -127t-124 -300z" />
<glyph unicode="&#xf1;" horiz-adv-x="1114" d="M143 0v922h66v-187q104 209 356 209q172 0 289 -118.5t117 -288.5v-537h-66v537q0 141 -99 245.5t-240.5 104.5t-249 -104.5t-107.5 -245.5v-537h-66zM207 1122q80 164 194 164h19q61 0 153.5 -54t148.5 -54t120 100h63q-96 -158 -184 -158q-59 0 -160.5 56.5t-163 55.5 t-127.5 -110h-63z" />
<glyph unicode="&#xf2;" horiz-adv-x="1159" d="M92 464.5q0 194.5 143.5 337t345 142.5t344 -142.5t142.5 -338t-139.5 -341t-337.5 -145.5h-19q-196 0 -337.5 146.5t-141.5 341zM158 459q0 -172 126 -298t299 -126t295.5 126t122.5 299t-123.5 300t-295.5 127t-298 -128t-126 -300zM393 1319h84l287 -236h-86z" />
<glyph unicode="&#xf3;" horiz-adv-x="1159" d="M92 464.5q0 194.5 143.5 337t345 142.5t344 -142.5t142.5 -338t-139.5 -341t-337.5 -145.5h-19q-196 0 -337.5 146.5t-141.5 341zM158 459q0 -172 126 -298t299 -126t295.5 126t122.5 299t-123.5 300t-295.5 127t-298 -128t-126 -300zM393 1083l287 236h84l-285 -236h-86 z" />
<glyph unicode="&#xf4;" horiz-adv-x="1159" d="M92 464.5q0 194.5 143.5 337t345 142.5t344 -142.5t142.5 -338t-139.5 -341t-337.5 -145.5h-19q-196 0 -337.5 146.5t-141.5 341zM158 459q0 -172 126 -298t299 -126t295.5 126t122.5 299t-123.5 300t-295.5 127t-298 -128t-126 -300zM276 1083l275 236h61l271 -236h-84 l-219 187l-218 -187h-86z" />
<glyph unicode="&#xf5;" horiz-adv-x="1159" d="M92 464.5q0 194.5 143.5 337t345 142.5t344 -142.5t142.5 -338t-139.5 -341t-337.5 -145.5h-19q-196 0 -337.5 146.5t-141.5 341zM158 459q0 -172 126 -298t299 -126t295.5 126t122.5 299t-123.5 300t-295.5 127t-298 -128t-126 -300zM229 1122q80 164 195 164h18 q61 0 153.5 -54t149 -54t119.5 100h64q-97 -158 -185 -158q-59 0 -160.5 56.5t-163 55.5t-126.5 -110h-64z" />
<glyph unicode="&#xf6;" horiz-adv-x="1159" d="M92 464.5q0 194.5 143.5 337t345 142.5t344 -142.5t142.5 -338t-139.5 -341t-337.5 -145.5h-19q-196 0 -337.5 146.5t-141.5 341zM158 459q0 -172 126 -298t299 -126t295.5 126t122.5 299t-123.5 300t-295.5 127t-298 -128t-126 -300zM414 1198q0 55 59 55t59 -55 t-59 -55t-59 55zM633 1198q0 55 56 55t56 -55t-56 -55t-56 55z" />
<glyph unicode="&#xf7;" horiz-adv-x="944" d="M154 793v63h637v-63h-637zM408 585.5q0 63.5 70.5 63.5t70.5 -63.5t-70.5 -63.5t-70.5 63.5zM408 1077.5q0 63.5 70.5 63.5t70.5 -63.5t-70.5 -63.5t-70.5 63.5z" />
<glyph unicode="&#xf8;" horiz-adv-x="1138" d="M82 447q0 212 143.5 354.5t343.5 142.5q145 0 267 -78l41 56h79l-71 -95q172 -147 172 -353t-138.5 -351.5t-334.5 -145.5h-31q-139 0 -248 76l-39 -53h-76l68 90q-176 145 -176 357zM147 450.5q0 -180.5 148 -311.5l504 678q-107 70 -230 70q-170 0 -296 -128 t-126 -308.5zM344 102q102 -68 225 -67q176 0 299 126t123 307t-143 310z" />
<glyph unicode="&#xf9;" horiz-adv-x="1073" d="M123 385v537h65v-537q0 -141 99.5 -245.5t241 -104.5t249 104.5t107.5 245.5v537h65v-922h-65v186q-104 -209 -357 -209q-172 0 -288.5 119t-116.5 289zM350 1319h84l287 -236h-86z" />
<glyph unicode="&#xfa;" horiz-adv-x="1073" d="M123 385v537h65v-537q0 -141 99.5 -245.5t241 -104.5t249 104.5t107.5 245.5v537h65v-922h-65v186q-104 -209 -357 -209q-172 0 -288.5 119t-116.5 289zM350 1083l287 236h84l-285 -236h-86z" />
<glyph unicode="&#xfb;" horiz-adv-x="1073" d="M123 385v537h65v-537q0 -141 99.5 -245.5t241 -104.5t249 104.5t107.5 245.5v537h65v-922h-65v186q-104 -209 -357 -209q-172 0 -288.5 119t-116.5 289zM233 1083l275 236h61l271 -236h-84l-219 187l-218 -187h-86z" />
<glyph unicode="&#xfc;" horiz-adv-x="1073" d="M123 385v537h65v-537q0 -141 99.5 -245.5t241 -104.5t249 104.5t107.5 245.5v537h65v-922h-65v186q-104 -209 -357 -209q-172 0 -288.5 119t-116.5 289zM371 1198q0 55 59 55t59 -55t-59 -55t-59 55zM590 1198q0 55 56 55t56 -55t-56 -55t-56 55z" />
<glyph unicode="&#xfd;" horiz-adv-x="1073" d="M123 385v537h65v-537q0 -141 103.5 -245.5t245 -104.5t245 104.5t103.5 245.5v537h65v-893q0 -182 -127 -309.5t-311 -127.5q-221 0 -350 170l4 103q57 -98 150.5 -156.5t195.5 -58.5q152 0 262.5 109.5t110.5 263.5v155q-100 -201 -350 -201q-170 0 -291 120t-121 288z M350 1083l287 236h84l-285 -236h-86z" />
<glyph unicode="&#xfe;" d="M154 -410v1698h65v-581q68 109 181.5 172t236.5 63q203 0 345 -142.5t142 -341t-142 -341t-345 -142.5q-125 0 -237.5 63.5t-180.5 172.5v-621h-65zM215 459q0 -174 126 -300t299 -126t296 126t123 300t-123 300t-296 126t-299 -126t-126 -300z" />
<glyph unicode="&#xff;" horiz-adv-x="1073" d="M123 385v537h65v-537q0 -141 103.5 -245.5t245 -104.5t245 104.5t103.5 245.5v537h65v-893q0 -182 -127 -309.5t-311 -127.5q-221 0 -350 170l4 103q57 -98 150.5 -156.5t195.5 -58.5q152 0 262.5 109.5t110.5 263.5v155q-100 -201 -350 -201q-170 0 -291 120t-121 288z M371 1198q0 55 59 55t59 -55t-59 -55t-59 55zM590 1198q0 55 56 55t56 -55t-56 -55t-56 55z" />
<glyph unicode="&#x152;" horiz-adv-x="1554" d="M102 776.5q0 319.5 229.5 539.5t559.5 220h592v-59h-484v-836h404v-59h-404v-523h484v-59h-609q-319 0 -545.5 228.5t-226.5 548zM170 772q0 -301 210 -507t511 -206h41v1418h-41q-303 0 -512 -202t-209 -503z" />
<glyph unicode="&#x153;" horiz-adv-x="1679" d="M113 464.5q0 194.5 143 337t331.5 142.5t330.5 -115q141 119 317 119q221 0 373 -168l-641 -637q131 -104 253.5 -104t220 56.5t161.5 150.5v-105q-145 -160 -353 -159h-30q-168 0 -299 114q-132 -119 -306 -119h-30q-190 0 -330.5 146.5t-140.5 341zM178 459 q0 -172 126 -298t299 -126t296 126t123 299t-124 300t-296 127t-298 -128t-126 -300zM961 784q127 -139 126 -323q0 -70 -18 -131l449 450q-127 111 -282 111t-275 -107z" />
<glyph unicode="&#x178;" horiz-adv-x="1114" d="M61 1536h74l432 -850l424 850h62l-457 -922v-614h-68v614zM391 1812.5q0 55.5 59.5 55.5t59.5 -55.5t-59.5 -55.5t-59.5 55.5zM610 1812.5q0 55.5 56.5 55.5t56.5 -55.5t-56.5 -55.5t-56.5 55.5z" />
<glyph unicode="&#x2c6;" horiz-adv-x="675" d="M37 1083l274 236h62l270 -236h-84l-219 187l-217 -187h-86z" />
<glyph unicode="&#x2dc;" horiz-adv-x="759" d="M31 1122q80 164 194 164h19q61 0 153 -54t148.5 -54t120.5 100h63q-96 -158 -184 -158q-59 0 -160.5 56.5t-163 55.5t-127.5 -110h-63z" />
<glyph unicode="&#x2000;" horiz-adv-x="985" />
<glyph unicode="&#x2001;" horiz-adv-x="1970" />
<glyph unicode="&#x2002;" horiz-adv-x="985" />
<glyph unicode="&#x2003;" horiz-adv-x="1970" />
<glyph unicode="&#x2004;" horiz-adv-x="656" />
<glyph unicode="&#x2005;" horiz-adv-x="492" />
<glyph unicode="&#x2006;" horiz-adv-x="328" />
<glyph unicode="&#x2007;" horiz-adv-x="328" />
<glyph unicode="&#x2008;" horiz-adv-x="246" />
<glyph unicode="&#x2009;" horiz-adv-x="394" />
<glyph unicode="&#x200a;" horiz-adv-x="109" />
<glyph unicode="&#x2010;" horiz-adv-x="800" d="M82 793v63h637v-63h-637z" />
<glyph unicode="&#x2011;" horiz-adv-x="800" d="M82 793v63h637v-63h-637z" />
<glyph unicode="&#x2012;" horiz-adv-x="800" d="M82 793v63h637v-63h-637z" />
<glyph unicode="&#x2013;" horiz-adv-x="835" d="M102 578v63h631v-63h-631z" />
<glyph unicode="&#x2014;" horiz-adv-x="1011" d="M31 578v63h950v-63h-950z" />
<glyph unicode="&#x2018;" horiz-adv-x="450" d="M205 1161v242q0 96 53 164.5t141 95.5v-72q-120 -55 -120 -188v-242h-74z" />
<glyph unicode="&#x2019;" horiz-adv-x="450" d="M51 1163v72q121 55 121 188v236h74v-236q0 -96 -53.5 -164.5t-141.5 -95.5z" />
<glyph unicode="&#x201a;" horiz-adv-x="419" d="M41 -336q121 56 121 189v213h74v-213q0 -96 -53.5 -165t-141.5 -96v72z" />
<glyph unicode="&#x201c;" horiz-adv-x="704" d="M205 1161v242q0 96 53 164.5t141 95.5v-72q-120 -55 -120 -188v-242h-74zM459 1161v242q0 96 53 164.5t141 95.5v-72q-121 -55 -121 -188v-242h-73z" />
<glyph unicode="&#x201d;" horiz-adv-x="704" d="M51 1161v72q121 55 121 188v238h74v-238q0 -96 -53.5 -164.5t-141.5 -95.5zM305 1161v72q121 55 121 188v238h74v-238q0 -96 -53.5 -164.5t-141.5 -95.5z" />
<glyph unicode="&#x201e;" horiz-adv-x="673" d="M41 -338q121 55 121 188v211h74v-211q0 -96 -53.5 -164.5t-141.5 -95.5v72zM295 -338q121 55 121 188v211h73v-211q0 -96 -53 -164.5t-141 -95.5v72z" />
<glyph unicode="&#x2022;" horiz-adv-x="645" d="M225 585.5q0 96.5 97.5 96.5t97.5 -96q0 -45 -26.5 -71t-71.5 -26q-97 0 -97 96.5z" />
<glyph unicode="&#x2026;" horiz-adv-x="1036" d="M154 49.5q0 63.5 70.5 63.5t70.5 -63.5t-70.5 -63.5t-70.5 63.5zM455 49.5q0 63.5 70.5 63.5t70.5 -63.5t-70.5 -63.5t-70.5 63.5zM741 49.5q0 63.5 71 63.5t71 -63.5t-71 -63.5t-71 63.5z" />
<glyph unicode="&#x202f;" horiz-adv-x="394" />
<glyph unicode="&#x2039;" horiz-adv-x="641" d="M154 438v54l446 395v-88l-377 -334l377 -336v-92z" />
<glyph unicode="&#x203a;" horiz-adv-x="641" d="M41 37v92l377 336l-377 334v88l446 -395v-54z" />
<glyph unicode="&#x205f;" horiz-adv-x="492" />
<glyph unicode="&#x20ac;" horiz-adv-x="1435" d="M154 769.5q0 320.5 233 555t561 234.5q217 0 416 -119l-25 -62q-174 121 -403 121t-432 -170t-271 -407h910l-23 -60h-897q-6 -47 -6 -99t10 -118h799l-22 -59h-764q68 -236 265 -394.5t429.5 -158.5t425.5 131v-76q-186 -115 -397 -115h-31q-317 0 -547.5 238 t-230.5 558.5z" />
<glyph unicode="&#x2122;" horiz-adv-x="1370" d="M72 1483v53h487v-53h-213v-527h-61v527h-213zM702 954v582h56l243 -471l248 471h49v-582h-63v432l-240 -450l-235 453v-435h-58z" />
<glyph unicode="&#x25fc;" horiz-adv-x="921" d="M0 0v922h922v-922h-922z" />
<glyph unicode="&#xfb01;" horiz-adv-x="839" d="M123 0v948q0 152 102.5 249t247.5 97v-57q-119 0 -202 -82t-83 -207v-538h437v510h65v-920h-65v352h-437v-352h-65zM598 1263.5q0 55.5 59.5 55.5t59.5 -55.5t-59.5 -55.5t-59.5 55.5z" />
<glyph unicode="&#xfb02;" horiz-adv-x="989" d="M123 0v948q0 152 102.5 249t247.5 97v-57q-119 0 -202 -82t-83 -207v-538h410v886h66v-968q0 -125 82.5 -207t201.5 -82v-57q-145 0 -247.5 97t-102.5 249v24h-410v-352h-65z" />
<glyph unicode="&#xfb03;" horiz-adv-x="1314" d="M123 0v948q0 152 102.5 249t247.5 97v-57q-119 0 -202 -82t-83 -207v-538h410v538q0 152 102.5 249t247.5 97v-57q-119 0 -201.5 -82t-82.5 -207v-538h436v510h65v-920h-65v352h-436v-352h-66v352h-410v-352h-65zM1073 1269.5q0 55.5 59.5 55.5t59.5 -55.5t-59.5 -55.5 t-59.5 55.5z" />
<glyph unicode="&#xfb04;" horiz-adv-x="1505" d="M123 0v948q0 152 102.5 249t247.5 97v-57q-119 0 -202 -82t-83 -207v-538h410v538q0 152 102.5 249t247.5 97v-57q-119 0 -201.5 -82t-82.5 -207v-538h444v882h66v-964q0 -125 82.5 -207t201.5 -82v-57q-145 0 -247.5 97t-102.5 249v24h-444v-352h-66v352h-410v-352h-65z " />
</font>
</defs>
</svg>
