<?xml version="1.0" standalone="no"?>
<!DOCTYPE svg PUBLIC "-//W3C//DTD SVG 1.1//EN" "http://www.w3.org/Graphics/SVG/1.1/DTD/svg11.dtd" >
<svg>
<metadata>
Created by FontForge 20110222 at Fri Aug  9 12:11:11 2013
 By Orthosie Webhosting
(c) 1992, 1994, 1997, 2000, 2004 Adobe Systems Incorporated. All rights reserved.
</metadata>
<defs>
<font id="MyriadProSemiboldItalic" horiz-adv-x="389" >
  <font-face 
    font-family="MyriadProSemiboldItalic"
    font-weight="600"
    font-style="italic"
    font-stretch="normal"
    units-per-em="1000"
    panose-1="2 11 6 3 3 4 3 9 2 4"
    ascent="750"
    descent="-250"
    x-height="487"
    cap-height="674"
    bbox="-194 -250 1165 972"
    underline-thickness="50"
    underline-position="-50"
    slope="-11"
    unicode-range="U+0020-FB04"
  />
<missing-glyph horiz-adv-x="500" 
d="M0 0v700h500v-700h-500zM250 395l170 255h-340zM280 350l170 -255v510zM80 50h340l-170 255zM50 605v-510l170 255z" />
    <glyph glyph-name="f_f_j" unicode="ffj" horiz-adv-x="813" 
d="M801 693l-33 -90q-48 22 -102 22q-108 0 -129 -117l-3 -21h272l-89 -477q-24 -123 -66 -169q-44 -50 -123 -50q-35 0 -63 7l14 89q13 -3 35 -3q31 0 51.5 24.5t32.5 89.5l76 399h-157l-75 -397h-116l75 397h-176l-75 -397h-116l75 397h-64l17 90h64l4 20q21 96 72 147
q52 54 138 54q45 0 80 -21l-39 -86q-21 12 -44 12q-31 0 -53 -20q-27 -27 -39 -89l-3 -17h177l4 21q20 101 86 156.5t168 55.5q80 0 124 -27z" />
    <glyph glyph-name="f_j" unicode="fj" horiz-adv-x="522" 
d="M510 693l-33 -90q-48 22 -102 22q-108 0 -129 -117l-3 -21h272l-89 -477q-24 -123 -66 -169q-44 -50 -123 -50q-35 0 -62 7l13 89q15 -3 35 -3q31 0 51 24.5t33 89.5l75 399h-156l-74 -397h-116l75 397h-64l17 90h64l4 21q20 101 86 156.5t168 55.5q80 0 124 -27z" />
    <glyph glyph-name="f_f" unicode="ff" horiz-adv-x="600" 
d="M704 708l-22 -92q-21 8 -47 8q-40 0 -64 -31.5t-33 -81.5l-4 -24h101l-17 -90h-101l-75 -397h-116l75 397h-176l-74 -397h-117l75 397h-63l17 90h64l3 18q20 100 72 152q51 51 132 51q39 0 69 -14l-33 -89q-16 8 -36 8q-67 0 -89 -109l-4 -17h177l5 25q20 111 81 164
q51 45 128 45q46 0 72 -13z" />
    <glyph glyph-name="f_f_i" unicode="ffi" horiz-adv-x="826" 
d="M801 693l-33 -90q-48 22 -102 22q-108 0 -129 -117l-3 -21h273l-93 -487h-116l75 397h-156l-74 -397h-117l75 397h-176l-75 -397h-116l75 397h-64l17 90h64l4 20q21 96 72 147q52 54 138 54q46 0 81 -21l-40 -86q-21 12 -44 12q-31 0 -53 -20q-27 -27 -39 -89l-3 -17h177
l4 21q20 101 86 156.5t168 55.5q80 0 124 -27z" />
    <glyph glyph-name="f_f_l" unicode="ffl" horiz-adv-x="826" 
d="M421 688l-37 -86q-22 11 -46 11q-32 0 -54 -22q-27 -27 -39 -87l-3 -17h176l4 21q19 106 96 164q64 49 168 49q98 0 157 -37l-129 -684h-117l117 617q-20 11 -59 11q-48 0 -77.5 -33t-39.5 -86l-4 -22h92l-17 -90h-92l-75 -397h-116l75 397h-176l-75 -397h-116l75 397
h-64l17 90h64l3 18q19 97 72 149q54 54 138 54q46 0 82 -20z" />
    <glyph glyph-name="f_i" unicode="fi" horiz-adv-x="535" 
d="M151 0h-115l75 397h-64l17 90h64l4 21q19 101 85.5 156.5t168.5 55.5q80 0 124 -27l-33 -90q-48 22 -102 22q-108 0 -129 -117l-3 -21h272l-92 -487h-117l75 397h-155z" />
    <glyph glyph-name="f_l" unicode="fl" horiz-adv-x="535" 
d="M151 0h-116l75 397h-64l17 90h64l4 21q19 106 96 164q64 49 168 49q98 0 157 -37l-129 -684h-117l117 617q-20 11 -59 11q-48 0 -77.5 -33t-39.5 -86l-4 -22h92l-17 -90h-92z" />
    <glyph glyph-name=".notdef" horiz-adv-x="500" 
d="M0 0v700h500v-700h-500zM250 395l170 255h-340zM280 350l170 -255v510zM80 50h340l-170 255zM50 605v-510l170 255z" />
    <glyph glyph-name=".null" horiz-adv-x="0" 
 />
    <glyph glyph-name="nonmarkingreturn" horiz-adv-x="333" 
 />
    <glyph glyph-name="space" unicode=" " horiz-adv-x="183" 
 />
    <glyph glyph-name="exclam" unicode="!" horiz-adv-x="254" 
d="M166 209h-91l71 465h128zM87 -11q-30 0 -49.5 20.5t-19.5 50.5q0 35 23.5 60t58.5 25q31 0 50.5 -20.5t19.5 -52.5q0 -35 -23.5 -59t-59.5 -24z" />
    <glyph glyph-name="quotedbl" unicode="&#x22;" horiz-adv-x="350" 
d="M118 692h112l-69 -262h-74zM290 692h113l-69 -262h-74z" />
    <glyph glyph-name="numbersign" unicode="#" horiz-adv-x="519" 
d="M209 262h88l40 130h-88zM126 0h-75l58 187h-82l13 75h94l41 130h-86l12 75h97l58 183h73l-57 -183h89l58 183h74l-58 -183h82l-13 -75h-92l-40 -130h85l-13 -75h-97l-58 -187h-75l58 187h-88z" />
    <glyph glyph-name="dollar" unicode="$" horiz-adv-x="519" 
d="M232 -87h-79l18 98q-39 1 -80 16t-65 33l37 89q65 -47 148 -47q50 0 82.5 24.5t32.5 63.5q0 30 -19 53t-65 46q-138 71 -138 166q0 72 53 123.5t137 59.5l19 93h79l-18 -92q76 -4 120 -36l-38 -86q-60 34 -126 34q-46 0 -73.5 -22.5t-27.5 -56.5q0 -27 21.5 -48t77.5 -49
q124 -64 124 -166q0 -84 -57 -136t-144 -61z" />
    <glyph glyph-name="percent" unicode="%" horiz-adv-x="826" 
d="M267 661q62 0 97 -40.5t35 -102.5q0 -108 -56.5 -182.5t-141.5 -74.5q-62 0 -99 40.5t-37 109.5q0 100 56.5 175t145.5 75zM253 592q-42 0 -69.5 -60.5t-27.5 -123.5q0 -78 55 -78q43 0 70 62t27 125q0 75 -55 75zM220 -12h-74l486 673h73zM658 392q62 0 97 -40.5
t35 -102.5q0 -108 -56.5 -182.5t-141.5 -74.5q-62 0 -99 40.5t-37 109.5q0 100 56.5 175t145.5 75zM644 323q-42 0 -69.5 -60.5t-27.5 -123.5q0 -78 55 -78q43 0 70 62t27 125q0 75 -55 75z" />
    <glyph glyph-name="ampersand" unicode="&#x26;" horiz-adv-x="631" 
d="M576 0h-138q-9 10 -23 28.5t-18 24.5q-77 -64 -185 -64q-90 0 -143.5 48.5t-53.5 125.5q0 134 165 212l1 3q-37 64 -37 118q0 80 56 134.5t141 54.5q71 0 113 -39.5t42 -102.5q0 -112 -169 -191v-3q42 -68 104 -155q57 69 96 185h108q-60 -171 -151 -259q40 -60 92 -120z
M245 78q59 0 105 44q-87 122 -129 189q-87 -58 -87 -129q0 -45 29 -74.5t82 -29.5zM330 607q-34 0 -57 -28t-23 -71q0 -47 30 -94q111 52 111 127q0 29 -15 47.5t-46 18.5z" />
    <glyph glyph-name="quotesingle" unicode="'" horiz-adv-x="184" 
d="M121 692h113l-69 -261h-74z" />
    <glyph glyph-name="parenleft" unicode="(" horiz-adv-x="301" 
d="M269 691h90q-87 -104 -143 -241.5t-56 -291.5q0 -147 47 -275h-84q-59 124 -59 272q0 164 58 301.5t147 234.5z" />
    <glyph glyph-name="parenright" unicode=")" horiz-adv-x="301" 
d="M51 -117h-91q87 105 143 242.5t56 292.5q0 148 -47 273h85q58 -121 58 -271q0 -164 -57.5 -301.5t-146.5 -235.5z" />
    <glyph glyph-name="asterisk" unicode="*" horiz-adv-x="435" 
d="M343 685l72 -43l-117 -126l1 -2l159 27l-17 -87l-148 24l-1 -3l89 -123l-81 -44l-43 149l-3 -1l-76 -149l-68 46l116 123l-1 3l-156 -25l16 87l144 -27v2l-85 125l81 44l43 -147h2z" />
    <glyph glyph-name="plus" unicode="+" horiz-adv-x="596" 
d="M261 532h81v-226h212v-78h-212v-228h-81v228h-212v78h212v226z" />
    <glyph glyph-name="comma" unicode="," horiz-adv-x="238" 
d="M35 -113l-86 -8q73 145 107 264l130 10q-67 -155 -151 -266z" />
    <glyph glyph-name="hyphen" unicode="-" horiz-adv-x="315" 
d="M46 309h250l-16 -85h-250z" />
    <glyph glyph-name="period" unicode="." horiz-adv-x="238" 
d="M88 -10q-30 0 -49.5 20.5t-19.5 51.5q0 36 23.5 61t58.5 25q31 0 51 -21t20 -53q0 -36 -23.5 -60t-60.5 -24z" />
    <glyph glyph-name="slash" unicode="/" horiz-adv-x="326" 
d="M40 -40h-86l372 725h87z" />
    <glyph glyph-name="zero" unicode="0" horiz-adv-x="519" 
d="M336 661q92 0 134 -61t42 -153q0 -80 -19 -159.5t-54.5 -147t-93 -109.5t-127.5 -42q-91 0 -134 63t-43 166q0 108 33.5 207.5t103 167.5t158.5 68zM323 568q-48 0 -88.5 -64t-59.5 -144t-19 -147q0 -131 76 -131q39 0 72 41t52 100.5t29.5 118.5t10.5 102q0 124 -73 124
z" />
    <glyph glyph-name="one" unicode="1" horiz-adv-x="519" 
d="M182 0l102 538h-2l-120 -56l-7 91l166 77h96l-123 -650h-112z" />
    <glyph glyph-name="two" unicode="2" horiz-adv-x="519" 
d="M420 0h-421l14 76l121 95q127 107 184 173.5t57 130.5q0 37 -24 62.5t-70 25.5q-73 0 -136 -43l-26 84q85 57 189 57q91 0 139 -48t48 -121q0 -49 -18.5 -95t-57 -90.5t-76 -79.5t-95.5 -81l-61 -45l1 -2h250z" />
    <glyph glyph-name="three" unicode="3" horiz-adv-x="519" 
d="M12 32l37 92q60 -36 135 -36q67 0 105 34t38 81q0 49 -36.5 74t-99.5 25h-29l18 90h27q56 0 104 27.5t48 76.5q0 31 -21.5 49t-63.5 18q-77 0 -129 -34l-20 88q76 44 171 44q82 0 134 -40t52 -107q0 -60 -41 -103.5t-103 -60.5v-2q51 -11 81 -50.5t30 -93.5
q0 -95 -79.5 -155t-189.5 -60q-54 0 -100.5 12.5t-67.5 30.5z" />
    <glyph glyph-name="four" unicode="4" horiz-adv-x="519" 
d="M367 0h-109l31 167h-278l15 78l326 405h138l-74 -392h81l-17 -91h-81zM146 258h160l36 175q1 7 28 116h-4q-75 -112 -79 -118l-141 -171v-2z" />
    <glyph glyph-name="five" unicode="5" horiz-adv-x="519" 
d="M512 650l-20 -100h-226l-40 -130q11 2 30 2q73 0 125 -36q74 -45 74 -144q0 -116 -82.5 -184.5t-202.5 -68.5q-51 0 -93.5 11t-62.5 26l32 92q52 -31 128 -31q63 0 111.5 38t48.5 96q0 111 -159 111q-25 0 -77 -4l92 322h322z" />
    <glyph glyph-name="six" unicode="6" horiz-adv-x="519" 
d="M493 660l-17 -97q-23 1 -57 -3q-86 -11 -149.5 -62.5t-92.5 -128.5h2q61 64 146 64q73 0 117 -50.5t44 -129.5q0 -104 -71.5 -184t-178.5 -80q-98 0 -150 61.5t-52 160.5q0 107 46.5 201.5t115.5 150.5q103 85 242 95q30 4 55 2zM242 80q54 0 89 50.5t35 111.5
q0 49 -24 75.5t-67 26.5q-33 0 -63 -20t-50 -53q-9 -16 -11 -32q-3 -21 -3 -43q0 -51 25 -83.5t69 -32.5z" />
    <glyph glyph-name="seven" unicode="7" horiz-adv-x="519" 
d="M126 650h418l-15 -79q-153 -240 -366 -571h-129q62 93 362 548v2h-289z" />
    <glyph glyph-name="eight" unicode="8" horiz-adv-x="519" 
d="M325 661q78 0 129 -41t51 -112q0 -106 -122 -161v-3q45 -25 68.5 -64.5t23.5 -84.5q0 -95 -74.5 -150.5t-172.5 -55.5q-96 0 -152 46t-56 119q0 67 41 115.5t105 73.5v3q-67 50 -67 124q0 83 66.5 137t159.5 54zM240 75q47 0 80 30.5t33 79.5q0 79 -98 114
q-47 -12 -80 -46.5t-33 -84.5q0 -40 25.5 -66.5t72.5 -26.5zM310 575q-41 0 -70 -29t-29 -68q0 -66 85 -95q41 14 68.5 43.5t27.5 68.5q0 34 -20.5 57t-61.5 23z" />
    <glyph glyph-name="nine" unicode="9" horiz-adv-x="519" 
d="M52 -9l14 97q20 -1 61 2q72 8 133 51q77 56 111 144h-2q-53 -57 -135 -57q-76 0 -121 49t-45 123q0 104 74.5 182.5t179.5 78.5q96 0 145 -60.5t49 -156.5q0 -110 -49 -209t-117 -155q-95 -75 -224 -87q-42 -4 -74 -2zM310 570q-50 0 -86.5 -47.5t-36.5 -108.5
q0 -44 23 -71t63 -27q67 0 106 57q10 14 14 30q6 23 6 59q0 49 -22 78.5t-67 29.5z" />
    <glyph glyph-name="colon" unicode=":" horiz-adv-x="238" 
d="M152 326q-30 0 -49.5 20.5t-19.5 51.5q0 35 23.5 60t58.5 25q31 0 50.5 -20.5t19.5 -52.5q0 -36 -23.5 -60t-59.5 -24zM88 -11q-30 0 -49.5 20.5t-19.5 51.5q0 35 23.5 60t58.5 25q31 0 50.5 -20.5t19.5 -52.5q0 -36 -23.5 -60t-59.5 -24z" />
    <glyph glyph-name="semicolon" unicode=";" horiz-adv-x="238" 
d="M34 -113l-85 -8q73 145 107 264l129 10q-70 -160 -151 -266zM157 326q-30 0 -49.5 20.5t-19.5 51.5q0 35 23.5 60t58.5 25q31 0 50.5 -20.5t19.5 -52.5q0 -36 -23.5 -60t-59.5 -24z" />
    <glyph glyph-name="less" unicode="&#x3c;" horiz-adv-x="596" 
d="M64 231v71l463 230v-89l-366 -176v-2l366 -176v-89z" />
    <glyph glyph-name="equal" unicode="=" horiz-adv-x="596" 
d="M555 331h-506v78h506v-78zM555 128h-506v78h506v-78z" />
    <glyph glyph-name="greater" unicode="&#x3e;" horiz-adv-x="596" 
d="M547 304v-76l-464 -228v89l372 176v2l-372 177v88z" />
    <glyph glyph-name="question" unicode="?" horiz-adv-x="413" 
d="M241 207h-113q0 5 1 13.5t2 12.5q11 85 94 173q5 5 20 21t20.5 22.5t16 20t14.5 21.5t8 19.5t4 22.5q0 57 -66 58q-59 0 -105 -28l-17 83q67 40 154 40q71 0 113 -37.5t42 -93.5q0 -37 -17 -73t-36.5 -59t-56.5 -60q-62 -63 -73 -130q-1 -5 -2.5 -13.5t-2.5 -12.5z
M152 -11q-30 0 -49 20.5t-19 50.5q0 35 23 60t58 25q31 0 51 -20.5t20 -52.5q0 -36 -24 -59.5t-60 -23.5z" />
    <glyph glyph-name="at" unicode="@" horiz-adv-x="736" 
d="M435 252l17 103q-18 6 -39 6q-57 0 -97 -47t-40 -112q0 -31 15 -49.5t42 -18.5q34 0 64 36t38 82zM508 -15l17 -52q-75 -38 -178 -38q-131 0 -220.5 86.5t-89.5 228.5q0 103 45 190t130.5 140t194.5 53q131 0 214 -81.5t83 -208.5q0 -107 -53 -172.5t-131 -65.5
q-35 0 -57.5 21t-23.5 61h-3q-50 -82 -135 -82q-47 0 -78.5 35t-31.5 94q0 95 66.5 164.5t169.5 69.5q69 0 113 -23l-31 -183q-18 -97 27 -98q39 -2 70.5 45.5t31.5 129.5q0 106 -64 172.5t-177 66.5q-122 0 -207.5 -88.5t-85.5 -231.5q0 -124 71 -195.5t188 -71.5
q83 0 145 34z" />
    <glyph glyph-name="A" unicode="A" horiz-adv-x="596" 
d="M400 192h-212l-92 -192h-124l338 674h146l85 -674h-122zM225 282h168l-19 168q-4 48 -10 128h-2q-5 -12 -24.5 -58.5t-30.5 -69.5z" />
    <glyph glyph-name="B" unicode="B" horiz-adv-x="553" 
d="M26 6l124 658q75 15 162 15q105 0 162 -40q65 -40 65 -115q0 -61 -40 -104.5t-100 -59.5v-3q49 -15 78.5 -53.5t29.5 -94.5q0 -99 -87 -159q-78 -55 -238 -55q-97 0 -156 11zM250 583l-35 -185h54q67 0 108.5 29.5t41.5 80.5q0 80 -107 80q-42 0 -62 -5zM197 312
l-41 -222q27 -3 61 -3q72 0 119.5 31.5t47.5 94.5q0 51 -37 75t-95 24h-55z" />
    <glyph glyph-name="C" unicode="C" horiz-adv-x="571" 
d="M501 114l11 -94q-66 -31 -176 -31q-132 0 -209.5 76t-77.5 207q0 104 42 190.5t116 141.5q106 80 251 80q100 0 147 -30l-34 -94q-44 24 -127 24q-102 0 -171 -63q-46 -40 -72 -101t-26 -133q0 -90 47.5 -144t143.5 -54q80 0 135 25z" />
    <glyph glyph-name="D" unicode="D" horiz-adv-x="666" 
d="M26 6l125 659q86 14 178 14q165 0 247 -80q77 -70 77 -199q0 -95 -36.5 -177.5t-100.5 -135.5q-112 -92 -315 -92q-105 0 -175 11zM252 579l-92 -485q31 -4 74 -4q138 0 213 84q80 85 80 224q0 88 -49 137.5t-151 49.5q-47 0 -75 -6z" />
    <glyph glyph-name="E" unicode="E" horiz-adv-x="496" 
d="M459 398l-19 -98h-242l-38 -201h272l-19 -99h-389l128 674h374l-19 -99h-257l-34 -177h243z" />
    <glyph glyph-name="F" unicode="F" horiz-adv-x="490" 
d="M25 0l128 674h371l-19 -99h-254l-37 -190h236l-19 -98h-235l-54 -287h-117z" />
    <glyph glyph-name="G" unicode="G" horiz-adv-x="651" 
d="M619 370l-65 -340q-100 -37 -205 -37q-142 0 -223 78q-77 76 -77 204q0 90 35.5 170.5t99.5 136.5q116 99 288 99q110 0 170 -30l-36 -98q-60 28 -143 28q-110 0 -188 -67q-45 -39 -72 -101t-27 -130q0 -92 49 -141.5t143 -49.5q52 0 87 15l32 169h-119l18 94h233z" />
    <glyph glyph-name="H" unicode="H" horiz-adv-x="648" 
d="M153 674h116l-52 -273h274l52 273h117l-128 -674h-117l57 298h-274l-57 -298h-116z" />
    <glyph glyph-name="I" unicode="I" horiz-adv-x="256" 
d="M150 674h116l-128 -674h-116z" />
    <glyph glyph-name="J" unicode="J" horiz-adv-x="383" 
d="M201 234l84 440h116l-86 -453q-23 -123 -80 -177.5t-162 -54.5q-70 0 -106 17l23 99q36 -13 83 -13q52 0 83 32t45 110z" />
    <glyph glyph-name="K" unicode="K" horiz-adv-x="556" 
d="M24 0l128 674h115l-59 -313h3q2 2 64 77l209 236h146l-278 -291l164 -383h-127l-128 310l-76 -71l-46 -239h-115z" />
    <glyph glyph-name="L" unicode="L" horiz-adv-x="467" 
d="M25 0l128 674h116l-108 -572h264l-19 -102h-381z" />
    <glyph glyph-name="M" unicode="M" horiz-adv-x="802" 
d="M701 0h-113l44 317q30 189 42 247h-3q-65 -147 -112 -237l-165 -319h-91l-35 314q-11 104 -18 242h-2q-4 -19 -24.5 -113t-29.5 -134l-78 -317h-108l172 674h153l36 -315q12 -147 13 -194h4q34 92 85 193l163 316h156z" />
    <glyph glyph-name="N" unicode="N" horiz-adv-x="651" 
d="M133 0h-109l128 674h134l118 -313q35 -98 60 -211h3q4 88 30 228l56 296h109l-128 -674h-119l-121 319q-44 126 -64 217l-3 -1q-9 -86 -40 -247z" />
    <glyph glyph-name="O" unicode="O" horiz-adv-x="688" 
d="M411 685q129 0 197 -78.5t68 -200.5q0 -92 -32 -178t-90 -143q-98 -96 -240 -96q-126 0 -196 79.5t-70 198.5q0 92 33.5 179t93.5 145q96 94 236 94zM397 587q-75 0 -133 -58q-43 -43 -67.5 -115t-24.5 -141q0 -83 39 -134.5t120 -51.5q74 0 131 57q41 42 65.5 116.5
t24.5 141.5q0 36 -7 67t-23.5 58.5t-48.5 43.5t-76 16z" />
    <glyph glyph-name="P" unicode="P" horiz-adv-x="535" 
d="M24 0l126 663q66 16 162 16q113 0 173 -48q62 -48 62 -134q0 -57 -24 -105t-62 -78q-80 -64 -211 -64q-18 0 -63 5l-49 -255h-114zM248 580l-43 -229q29 -6 61 -6q72 0 118 41t46 102q0 98 -117 98q-44 0 -65 -6z" />
    <glyph glyph-name="Q" unicode="Q" horiz-adv-x="688" 
d="M612 -15l-41 -93q-151 40 -245 83q-38 16 -47 16q-100 6 -165.5 80.5t-65.5 197.5q0 87 31.5 172.5t88.5 143.5q47 48 110.5 74t132.5 26q88 0 149 -40t88 -101.5t27 -137.5q0 -87 -30.5 -172.5t-84.5 -140.5q-49 -49 -112 -71l-1 -3q99 -22 165 -34zM397 587
q-74 0 -133 -57q-42 -43 -67.5 -118t-25.5 -142q0 -81 39 -132.5t118 -51.5q76 0 132 56q42 42 67 118t25 145q0 34 -7 63.5t-23 57.5t-48 44.5t-77 16.5z" />
    <glyph glyph-name="R" unicode="R" horiz-adv-x="556" 
d="M25 0l127 663q69 16 165 16q112 0 170 -43q63 -46 63 -123q0 -72 -44 -122t-112 -71v-3q59 -23 69 -128q16 -170 23 -189h-120q-7 29 -17 161q-4 63 -27.5 90t-70.5 27h-57l-53 -278h-116zM251 581l-40 -215h66q67 0 109.5 37.5t42.5 92.5q0 45 -31.5 68t-83.5 23
q-42 0 -63 -6z" />
    <glyph glyph-name="S" unicode="S" horiz-adv-x="490" 
d="M5 37l40 96q65 -43 152 -43q52 0 88 26.5t36 73.5q0 32 -22 57t-72 52q-137 74 -137 176q0 94 71.5 151.5t176.5 57.5q95 0 150 -34l-38 -96q-57 31 -121 30q-54 0 -85.5 -26t-31.5 -62q0 -32 24 -56t77 -53q131 -69 131 -179q0 -100 -73 -159t-187 -59q-58 1 -106 14.5
t-73 32.5z" />
    <glyph glyph-name="T" unicode="T" horiz-adv-x="503" 
d="M144 0l108 572h-186l20 102h491l-20 -102h-188l-108 -572h-117z" />
    <glyph glyph-name="U" unicode="U" horiz-adv-x="639" 
d="M150 674h117l-75 -393q-8 -42 -8 -82q0 -52 29 -82t81 -30q131 0 167 193l75 394h117l-75 -392q-29 -152 -101.5 -222.5t-197.5 -70.5q-98 -1 -154.5 51.5t-56.5 155.5q0 38 9 94z" />
    <glyph glyph-name="V" unicode="V" horiz-adv-x="579" 
d="M298 0h-133l-83 674h119l39 -371q10 -89 15 -182h2q42 105 83 187l180 366h129z" />
    <glyph glyph-name="W" unicode="W" horiz-adv-x="848" 
d="M252 0h-128l-29 674h117l7 -347q1 -92 -3 -199h2q55 148 76 196l150 350h127l5 -340q1 -89 -3 -203h2q32 99 71 196l145 347h123l-304 -674h-126l-10 325q-2 89 4 210h-2q-50 -144 -76 -205z" />
    <glyph glyph-name="X" unicode="X" horiz-adv-x="547" 
d="M494 0h-124l-53 150q-20 52 -40 116h-2q-42 -70 -73 -118l-98 -148h-140l257 344l-122 330h123l51 -149q26 -81 33 -108h3q29 52 65 109l102 148h139l-252 -331z" />
    <glyph glyph-name="Y" unicode="Y" horiz-adv-x="546" 
d="M271 0h-117l53 277l-131 397h125l53 -192q20 -82 27 -118h2q30 53 70 120l122 190h138l-289 -395z" />
    <glyph glyph-name="Z" unicode="Z" horiz-adv-x="540" 
d="M-23 0l13 69l421 502v3h-295l19 100h452l-14 -73l-416 -498l1 -3h325l-19 -100h-487z" />
    <glyph glyph-name="bracketleft" unicode="[" horiz-adv-x="301" 
d="M198 -112h-189l152 798h189l-13 -70h-100l-125 -658h99z" />
    <glyph glyph-name="backslash" unicode="\" horiz-adv-x="333" 
d="M312 -40h-84l-172 725h84z" />
    <glyph glyph-name="bracketright" unicode="]" horiz-adv-x="301" 
d="M119 686h189l-152 -798h-189l13 70h100l125 658h-99z" />
    <glyph glyph-name="asciicircum" unicode="^" horiz-adv-x="596" 
d="M540 182h-90l-154 371h-2l-154 -371h-89l206 468h78z" />
    <glyph glyph-name="underscore" unicode="_" horiz-adv-x="500" 
d="M-52 -75h500l-10 -50h-500z" />
    <glyph glyph-name="grave" unicode="`" 
d="M130 694h119l71 -148h-84z" />
    <glyph glyph-name="a" unicode="a" horiz-adv-x="540" 
d="M448 0h-107q0 27 8 109h-2q-65 -120 -175 -120q-65 0 -104.5 46t-39.5 120q0 64 22 124t63.5 109.5t108.5 79.5t149 30q78 0 148 -22l-51 -254q-23 -121 -20 -222zM363 275l25 128q-20 5 -48 5q-78 0 -134.5 -72.5t-56.5 -159.5q0 -93 70 -93q44 0 86 51.5t58 140.5z" />
    <glyph glyph-name="b" unicode="b" horiz-adv-x="545" 
d="M152 710h117l-60 -294l2 -1q61 83 159 83q73 0 110 -50t37 -122q0 -59 -20.5 -117.5t-58 -108.5t-99 -80.5t-135.5 -30.5q-78 0 -120.5 33t-42.5 98q0 39 10 84zM176 243l-9 -45q-7 -31 -6 -58q2 -62 65 -62q72 0 120.5 74t48.5 153q0 43 -19.5 70.5t-57.5 27.5
q-46 0 -86.5 -44t-55.5 -116z" />
    <glyph glyph-name="c" unicode="c" horiz-adv-x="430" 
d="M363 107l5 -89q-58 -28 -140 -28q-91 0 -144 53t-53 141q0 130 88 221.5t221 91.5q57 0 100 -18l-30 -91q-34 15 -74 15q-81 0 -132 -62t-51 -143q0 -54 29 -84t78 -30q53 0 103 23z" />
    <glyph glyph-name="d" unicode="d" horiz-adv-x="544" 
d="M451 710h116l-102 -536q-17 -89 -22 -174h-107l10 86h-2q-63 -97 -167 -97q-66 0 -107 49t-41 131q0 133 86.5 231t217.5 98q42 0 75 -14zM362 241l29 148q-24 19 -67 19q-73 0 -123.5 -67.5t-50.5 -152.5q0 -47 19.5 -76t58.5 -29q42 0 81 43t53 115z" />
    <glyph glyph-name="e" unicode="e" horiz-adv-x="479" 
d="M391 113l11 -85q-75 -39 -172 -39q-98 0 -149 54.5t-51 147.5q0 117 78 212t198 95q72 0 114.5 -37.5t42.5 -99.5q0 -168 -319 -161q-5 -39 13 -69q29 -50 100 -50q72 0 134 32zM353 361q0 23 -17 36.5t-45 13.5q-51 0 -87 -37.5t-48 -86.5q97 -1 147 15.5t50 58.5z" />
    <glyph glyph-name="f" unicode="f" horiz-adv-x="308" 
d="M150 0h-116l75 397h-64l18 90h63l5 25q19 109 81 164q51 45 128 45q46 0 72 -13l-22 -93q-20 9 -47 9q-40 0 -64 -31.5t-33 -81.5l-4 -24h101l-17 -90h-101z" />
    <glyph glyph-name="g" unicode="g" horiz-adv-x="543" 
d="M11 -176l29 89q48 -29 128 -29q61 0 101 34t57 115l12 55h-2q-59 -86 -153 -86q-70 0 -111 50t-41 122q0 62 21.5 119.5t61 103.5t101 73.5t134.5 27.5q93 0 169 -34l-74 -402q-30 -158 -100 -217q-66 -54 -180 -54q-100 0 -153 33zM364 250l28 145q-26 12 -65 12
q-74 0 -124 -66.5t-50 -148.5q0 -43 18.5 -71t59.5 -28q43 0 81.5 45.5t51.5 111.5z" />
    <glyph glyph-name="h" unicode="h" horiz-adv-x="550" 
d="M136 0h-116l135 710h116l-57 -296h2q68 84 163 84q53 0 87.5 -33.5t34.5 -97.5q0 -38 -9 -85l-53 -282h-116l52 273q6 38 6 64q0 66 -61 66q-44 0 -85 -48t-55 -123z" />
    <glyph glyph-name="i" unicode="i" horiz-adv-x="249" 
d="M136 0h-116l93 487h116zM190 557q-26 0 -42.5 17t-16.5 45q0 30 20.5 50t49.5 20q28 0 45 -17t17 -45q-1 -32 -21.5 -51t-51.5 -19z" />
    <glyph glyph-name="j" unicode="j" horiz-adv-x="254" 
d="M122 487h116l-89 -477q-24 -123 -66 -169q-44 -50 -123 -50q-35 0 -63 7l14 89q14 -3 34 -3q31 0 51.5 24.5t33.5 89.5zM195 557q-26 0 -42.5 17t-16.5 45q0 30 20.5 50t49.5 20q28 0 45 -17t17 -45q-1 -32 -21.5 -51t-51.5 -19z" />
    <glyph glyph-name="k" unicode="k" horiz-adv-x="496" 
d="M136 0h-116l135 710h116l-83 -434h2q27 33 45 53l145 158h144l-210 -200l140 -287h-129l-100 223l-57 -53z" />
    <glyph glyph-name="l" unicode="l" horiz-adv-x="249" 
d="M136 0h-116l135 710h117z" />
    <glyph glyph-name="m" unicode="m" horiz-adv-x="821" 
d="M133 0h-113l62 336q10 52 24 151h101l-11 -85h2q66 96 170 96q53 0 82 -29t32 -71q66 98 173 100q52 0 85 -33.5t33 -96.5q0 -31 -8 -83l-53 -285h-113l50 272q7 33 7 61q0 70 -59 70q-42 0 -80 -47.5t-52 -122.5l-43 -233h-113l53 276q6 40 6 57q0 70 -59 70
q-41 0 -81 -50t-53 -123z" />
    <glyph glyph-name="n" unicode="n" horiz-adv-x="550" 
d="M136 0h-116l63 336q11 54 25 151h104l-11 -87h2q68 98 175 98q55 0 89.5 -34t34.5 -100q0 -37 -9 -80l-53 -284h-117l52 275q6 36 6 58q0 70 -61 70q-43 0 -85 -48.5t-57 -129.5z" />
    <glyph glyph-name="o" unicode="o" horiz-adv-x="543" 
d="M313 498q94 0 146.5 -58t52.5 -143q0 -127 -79.5 -217.5t-201.5 -90.5q-91 0 -145 56.5t-54 144.5q0 127 79.5 217.5t201.5 90.5zM299 408q-65 0 -106 -69.5t-41 -145.5q0 -51 25.5 -82.5t69.5 -31.5q62 0 103.5 69t41.5 148q0 44 -22.5 78t-70.5 34z" />
    <glyph glyph-name="p" unicode="p" horiz-adv-x="545" 
d="M95 -198h-116l96 504q11 63 28 183h105l-11 -82h2q64 89 164 91q75 0 114.5 -51.5t39.5 -128.5q0 -132 -81 -230.5t-202 -98.5q-61 0 -97 21h-2zM174 223l-21 -119q30 -25 78 -25q66 0 115 72t49 158q0 38 -18.5 66t-58.5 28q-46 0 -87.5 -49t-56.5 -131z" />
    <glyph glyph-name="q" unicode="q" horiz-adv-x="545" 
d="M395 -198h-117l59 276h-2q-28 -43 -70.5 -66t-87.5 -23q-68 0 -108 50.5t-40 129.5q0 83 36 156.5t111 123t175 49.5q77 0 169 -30zM363 246l28 148q-23 13 -67 13q-72 0 -123 -68.5t-51 -154.5q0 -48 19.5 -74.5t51.5 -26.5q47 0 88 46.5t54 116.5z" />
    <glyph glyph-name="r" unicode="r" horiz-adv-x="347" 
d="M136 0h-116l57 300q9 45 25 187h101q-6 -69 -11 -102h3q26 51 65.5 82t86.5 31q5 0 13.5 -0.5t12.5 -0.5l-23 -114q-6 1 -22 1q-59 0 -99.5 -52.5t-55.5 -135.5z" />
    <glyph glyph-name="s" unicode="s" horiz-adv-x="397" 
d="M2 25l30 83q57 -32 117 -32q34 0 54.5 17t20.5 43q0 23 -14 39.5t-50 35.5q-96 51 -96 127q0 70 55.5 115t141.5 45q74 0 114 -25l-29 -84q-42 22 -91 22q-33 0 -53.5 -15.5t-20.5 -40.5q0 -37 63 -68q101 -54 101 -131q0 -79 -58 -123.5t-149 -43.5q-89 2 -136 36z" />
    <glyph glyph-name="t" unicode="t" horiz-adv-x="333" 
d="M147 578l120 34l-23 -125h109l-18 -90h-109l-38 -196q-9 -41 -9 -69q0 -44 43 -44q22 0 40 3l-11 -91q-24 -10 -76 -10q-57 0 -86 27.5t-29 72.5q0 39 10 90l42 217h-65l17 90h65z" />
    <glyph glyph-name="u" unicode="u" horiz-adv-x="545" 
d="M407 487h117l-64 -336q-10 -52 -24 -151h-104l11 85h-2q-72 -96 -169 -96q-57 0 -92 33.5t-35 104.5q0 40 10 87l52 273h116l-50 -266q-8 -38 -8 -67q0 -69 62 -69q42 0 81.5 46t54.5 119z" />
    <glyph glyph-name="v" unicode="v" horiz-adv-x="486" 
d="M48 487h120l31 -242q3 -29 8 -70t6 -57h3q23 60 53 124l121 245h129l-271 -487h-117z" />
    <glyph glyph-name="w" unicode="w" horiz-adv-x="721" 
d="M56 487h116l9 -237q3 -72 -2 -144h2q16 45 57 137l118 244h97l20 -237q6 -88 5 -144h2q24 76 50 143l105 238h118l-239 -487h-109l-22 212q-6 76 -5 144h-2q-53 -129 -57 -139l-109 -217h-109z" />
    <glyph glyph-name="x" unicode="x" horiz-adv-x="472" 
d="M55 487h128l37 -88q7 -16 13 -31t11.5 -29t7.5 -20h3q5 7 22 33t30 43l70 92h134l-205 -237l114 -250h-128l-39 92q-20 48 -33 87h-2q-45 -71 -50 -78l-76 -101h-135l212 251z" />
    <glyph glyph-name="y" unicode="y" horiz-adv-x="472" 
d="M45 487h122l38 -234q15 -87 19 -122h2q39 98 47 116l104 240h124l-178 -359q-93 -185 -178 -268q-71 -68 -150 -84l-27 100q57 21 86 43q53 37 86 97q5 9 2 22z" />
    <glyph glyph-name="z" unicode="z" horiz-adv-x="434" 
d="M-24 0l13 71l193 211q56 60 111 107l1 3h-227l19 95h366l-14 -75l-190 -207q-56 -61 -110 -108v-2h246l-18 -95h-390z" />
    <glyph glyph-name="braceleft" unicode="{" horiz-adv-x="301" 
d="M32 255l12 65q46 1 64.5 20.5t25.5 50.5q4 25 8.5 79.5t9.5 82.5q24 133 166 133h31l-14 -70h-18q-64 -1 -81 -79q-4 -20 -6.5 -65t-7.5 -71q-8 -51 -32 -77.5t-65 -35.5v-2q60 -14 60 -73q0 -39 -24 -105q-23 -69 -23 -95q0 -53 54 -54h17l-13 -70h-24q-125 0 -125 104
q0 36 25 113q25 71 25 98q0 21 -15 36t-50 15z" />
    <glyph glyph-name="bar" unicode="|" horiz-adv-x="229" 
d="M91 750h82v-1000h-82v1000z" />
    <glyph glyph-name="braceright" unicode="}" horiz-adv-x="301" 
d="M282 319l-12 -65q-46 -1 -64.5 -20.5t-25.5 -50.5q-4 -24 -8.5 -79t-9.5 -82q-24 -133 -166 -133h-31l14 70h18q63 0 81 78q4 21 6.5 65.5t7.5 70.5q8 51 32 77.5t65 35.5v2q-60 16 -60 73q0 21 23 104q23 71 23 97q0 53 -54 54h-17l13 70h24q125 0 125 -104
q0 -40 -24 -114q-25 -71 -25 -98q0 -21 15 -36t50 -15z" />
    <glyph glyph-name="asciitilde" unicode="~" horiz-adv-x="596" 
d="M134 201h-79q-1 84 34.5 126.5t94.5 42.5q55 0 136 -45q75 -41 107 -41q44 0 47 81h79q4 -89 -31.5 -129t-93.5 -40q-56 0 -143 49q-67 38 -100 38q-48 0 -51 -82z" />
    <glyph glyph-name="uni00A0" unicode="&#xa0;" horiz-adv-x="183" 
 />
    <glyph glyph-name="exclamdown" unicode="&#xa1;" horiz-adv-x="254" 
d="M108 -192h-128l107 463h92zM167 491q30 0 49 -20.5t19 -50.5q0 -35 -23 -60t-58 -25q-31 0 -51 20.5t-20 52.5q0 36 23.5 60t60.5 23z" />
    <glyph glyph-name="cent" unicode="&#xa2;" horiz-adv-x="519" 
d="M297 -13h-79l19 100q-75 13 -116 67q-38 50 -38 127q0 114 72 195.5t177 98.5l18 97h79l-18 -94q55 -2 89 -22l-37 -88q-35 20 -89 20q-68 0 -117.5 -56t-49.5 -138q0 -54 31 -86t85 -32q46 0 96 21l7 -87q-47 -23 -111 -25z" />
    <glyph glyph-name="sterling" unicode="&#xa3;" horiz-adv-x="519" 
d="M444 0h-426l12 68q44 19 79.5 58t48.5 84q9 27 9 71h-92l16 85h76q2 71 12 115q20 84 77.5 132t145.5 48q64 0 101 -24l-32 -90q-31 17 -75 17q-46 0 -74 -27.5t-37 -74.5q-7 -40 -7 -96h142l-16 -85h-129q-4 -40 -13 -68q-20 -70 -76 -112v-2h274z" />
    <glyph glyph-name="currency" unicode="&#xa4;" horiz-adv-x="519" 
d="M273 543q71 0 114 -38l75 80l56 -59l-83 -75q34 -47 34 -117q0 -71 -35 -120l81 -77l-56 -57l-72 81q-45 -40 -115 -40q-71 0 -114 38l-69 -80l-56 58l79 75q-37 49 -37 119q0 69 37 120l-82 75l57 59l72 -80q44 38 114 38zM271 462q-46 0 -76.5 -37t-30.5 -93
q0 -62 33.5 -96t74.5 -34q44 0 76 33.5t32 97.5q0 55 -30 92t-79 37z" />
    <glyph glyph-name="yen" unicode="&#xa5;" horiz-adv-x="519" 
d="M262 0h-109l31 167h-148l12 61h148l13 68h-149l12 61h119l-105 293h121l47 -181q18 -75 23 -101h3q46 80 59 103l119 179h128l-224 -293h118l-12 -61h-150l-13 -68h150l-12 -61h-149z" />
    <glyph glyph-name="brokenbar" unicode="&#xa6;" horiz-adv-x="229" 
d="M91 174h82v-350h-82v350zM91 674h82v-350h-82v350z" />
    <glyph glyph-name="section" unicode="&#xa7;" horiz-adv-x="531" 
d="M168 342q0 -25 17 -45t61 -39q73 -32 95 -47q49 29 49 75q0 49 -64 82q-88 40 -103 49q-24 -12 -39.5 -32t-15.5 -43zM504 650l-30 -73q-54 31 -123 31q-42 0 -69.5 -19t-27.5 -49q0 -24 21 -40t75 -38q68 -28 104.5 -62t36.5 -87q0 -89 -94 -144q26 -27 26 -72
q0 -82 -64 -124t-150 -42q-107 0 -169 45l33 75q65 -42 137 -42q46 0 74.5 19t28.5 52q0 24 -21 43.5t-74 42.5q-71 30 -111 64t-40 84q0 44 28.5 81.5t77.5 62.5q-25 29 -25 67q0 74 63.5 117t149.5 43q90 0 143 -35z" />
    <glyph glyph-name="dieresis" unicode="&#xa8;" 
d="M166 561q-24 0 -40.5 16.5t-16.5 42.5q0 28 19 46.5t46 18.5q26 0 41.5 -16.5t15.5 -41.5q0 -29 -18.5 -47.5t-46.5 -18.5zM361 561q-24 0 -40.5 16.5t-16.5 42.5q0 28 19 46.5t46 18.5q26 0 41.5 -16.5t15.5 -41.5q0 -29 -18.5 -47.5t-46.5 -18.5z" />
    <glyph glyph-name="copyright" unicode="&#xa9;" horiz-adv-x="674" 
d="M363 648q126 0 213.5 -90t87.5 -218q0 -129 -87.5 -219.5t-214.5 -90.5t-216 90.5t-89 219.5q0 128 89.5 218t216.5 90zM361 598q-103 0 -174.5 -75.5t-71.5 -184.5t71.5 -183.5t175.5 -74.5q102 -1 173 74t71 185q0 109 -71 184t-174 75zM496 492l-13 -48q-39 24 -97 24
q-62 0 -96 -35.5t-34 -95.5q0 -57 35 -94.5t95 -37.5q62 0 102 26l13 -46q-47 -32 -124 -32q-85 0 -134 51t-49 130q0 83 57 134.5t135 51.5q36 0 68 -9t42 -19z" />
    <glyph glyph-name="ordfeminine" unicode="&#xaa;" horiz-adv-x="378" 
d="M350 267h-80q0 27 3 57h-2q-42 -63 -113 -63q-43 0 -70.5 31.5t-27.5 84.5q0 88 58 151t163 63q61 0 112 -20l-36 -203q-7 -44 -7 -101zM281 413l18 108q-17 6 -39 6q-47 0 -79 -40.5t-32 -93.5q0 -64 49 -64q27 0 51 24.5t32 59.5z" />
    <glyph glyph-name="guillemotleft" unicode="&#xab;" horiz-adv-x="438" 
d="M261 440l-147 -189l98 -186h-85l-100 187l141 188h93zM441 440l-147 -189l98 -186h-85l-100 187l140 188h94z" />
    <glyph glyph-name="logicalnot" unicode="&#xac;" horiz-adv-x="596" 
d="M41 412h506v-300h-81v222h-425v78z" />
    <glyph glyph-name="uni00AD" unicode="&#xad;" horiz-adv-x="315" 
d="M46 309h250l-16 -85h-250z" />
    <glyph glyph-name="registered" unicode="&#xae;" horiz-adv-x="403" 
d="M233 493v-61h-45v161q26 6 68 6t60 -13q17 -10 17 -34q0 -28 -35 -38v-2q24 -8 31 -41q7 -30 11 -39h-48q-5 6 -12 37q-4 24 -30 24h-17zM234 567v-43h16q34 0 34 22t-31 22q-5 0 -11 -0.5t-8 -0.5zM258 684q72 0 122 -49t50 -119q0 -71 -50 -120.5t-123 -49.5
t-123.5 49.5t-50.5 120.5q0 70 51 119t124 49zM255 645q-53 0 -88.5 -37.5t-35.5 -92.5t36 -92.5t90 -37.5q53 -1 89 37t36 93t-36 92.5t-91 37.5z" />
    <glyph glyph-name="macron" unicode="&#xaf;" 
d="M158 655h234l-13 -67h-234z" />
    <glyph glyph-name="degree" unicode="&#xb0;" horiz-adv-x="339" 
d="M232 685q61 0 99.5 -39.5t38.5 -95.5q0 -61 -44 -102t-102 -41q-60 0 -99 39t-39 96q0 59 43 101t103 42zM229 626q-32 0 -53 -26t-21 -58q0 -33 20.5 -54.5t51.5 -21.5t52.5 24t21.5 59q0 31 -18 54t-54 23z" />
    <glyph glyph-name="plusminus" unicode="&#xb1;" horiz-adv-x="596" 
d="M257 576h81v-183h212v-78h-212v-187h-81v187h-212v78h212v183zM45 78h505v-78h-505v78z" />
    <glyph glyph-name="twosuperior" unicode="&#xb2;" horiz-adv-x="322" 
d="M332 406h-286l9 49l75 58q76 58 111.5 95.5t35.5 72.5q0 46 -55 46q-44 0 -86 -30l-17 60q60 44 134 44q56 0 90.5 -28t34.5 -76q0 -28 -12 -54.5t-37.5 -52t-46.5 -42.5t-58 -44l-31 -24v-2h152z" />
    <glyph glyph-name="threesuperior" unicode="&#xb3;" horiz-adv-x="315" 
d="M133 706l-10 60q53 35 126 35q53 0 87.5 -25.5t34.5 -63.5q0 -69 -94 -96v-2q32 -7 54 -30t22 -56q0 -58 -50 -92.5t-126 -34.5q-80 0 -125 31l30 63q37 -27 91 -27q37 0 59.5 17.5t22.5 43.5q0 27 -24.5 41t-63.5 14h-19l12 57h18q36 0 65 15t29 40q0 38 -51 38
q-48 0 -88 -28z" />
    <glyph glyph-name="acute" unicode="&#xb4;" 
d="M285 694h123l-131 -148h-88z" />
    <glyph glyph-name="mu" unicode="&#xb5;" horiz-adv-x="543" 
d="M223 487l-53 -281q-23 -122 66 -122q30 0 58 26.5t45 61.5q12 22 17 48l51 267h117l-64 -336q-7 -38 0 -53.5t30 -16.5l-24 -86q-20 -6 -38 -6q-75 0 -78 95h-3q-52 -92 -133 -92q-61 0 -83 43l-10 -54q-24 -124 -21 -179h-104q-10 43 16 180l95 505h116z" />
    <glyph glyph-name="paragraph" unicode="&#xb6;" horiz-adv-x="518" 
d="M233 -51h-79l61 312q-2 1 -6 1t-6 1q-53 13 -91.5 56t-38.5 111q0 112 86 178t233 66q92 0 129 -9l-138 -716h-78l124 650h-72z" />
    <glyph glyph-name="periodcentered" unicode="&#xb7;" horiz-adv-x="238" 
d="M113 181q-30 0 -49.5 20.5t-19.5 51.5q0 36 23.5 61t58.5 25q31 0 51 -21t20 -53q0 -36 -23.5 -60t-60.5 -24z" />
    <glyph glyph-name="cedilla" unicode="&#xb8;" 
d="M127 4h66l-36 -51q26 -6 42 -23t16 -41q0 -45 -35.5 -69t-82.5 -24t-73 19l22 51q24 -15 53 -15q16 0 28 8t12 23q0 32 -69 38z" />
    <glyph glyph-name="onesuperior" unicode="&#xb9;" horiz-adv-x="253" 
d="M230 406h-95l59 310h-1l-75 -32l-8 66l112 46h82z" />
    <glyph glyph-name="ordmasculine" unicode="&#xba;" horiz-adv-x="366" 
d="M239 591q67 0 105.5 -38t38.5 -99q0 -85 -53.5 -139t-136.5 -54q-63 0 -101.5 39t-38.5 96q0 85 53.5 140t132.5 55zM231 528q-38 0 -63.5 -41t-25.5 -91q0 -33 17 -52.5t44 -19.5q37 0 63.5 40t26.5 94q0 70 -62 70z" />
    <glyph glyph-name="guillemotright" unicode="&#xbb;" horiz-adv-x="437" 
d="M153 255l-98 185h85l100 -188l-141 -187h-93zM333 255l-98 185h85l100 -188l-141 -187h-93z" />
    <glyph glyph-name="onequarter" unicode="&#xbc;" horiz-adv-x="793" 
d="M657 0h-89l18 96h-193l10 53l221 245h108l-45 -235h55l-12 -63h-55zM598 159l18 93q3 15 9.5 39.5t7.5 29.5h-3q-29 -41 -46 -62l-89 -99l2 -1h101zM225 266h-95l59 310h-1l-75 -32l-8 66l112 46h82zM187 -11h-77l486 672h77z" />
    <glyph glyph-name="onehalf" unicode="&#xbd;" horiz-adv-x="793" 
d="M219 266h-95l60 310h-2l-75 -32l-8 66l112 46h83zM166 -11h-75l489 672h75zM703 0h-284l9 49l74 58q78 61 112.5 97t34.5 71q0 46 -54 46q-43 0 -87 -30l-17 60q62 44 135 44q55 0 89.5 -28t34.5 -76q0 -28 -12 -54.5t-37.5 -52t-46.5 -42.5t-58 -44l-31 -24v-2h152z" />
    <glyph glyph-name="threequarters" unicode="&#xbe;" horiz-adv-x="793" 
d="M220 -11h-77l486 672h77zM117 566l-10 60q53 35 126 35q53 0 87.5 -25.5t34.5 -63.5q0 -69 -94 -96l-1 -2q33 -7 54.5 -30t21.5 -56q-1 -58 -50.5 -92.5t-125.5 -34.5q-80 0 -125 31l30 63q37 -27 91 -27q37 0 59.5 17.5t22.5 43.5q0 27 -24.5 41t-62.5 14h-19l12 57h18
q36 0 65 15t29 40q0 38 -51 38q-48 0 -88 -28zM669 0h-90l18 96h-193l10 53l222 245h107l-44 -235h54l-12 -63h-54zM609 159l18 93q3 15 9.5 39.5t7.5 29.5h-2q-40 -54 -47 -62l-89 -99l2 -1h101z" />
    <glyph glyph-name="questiondown" unicode="&#xbf;" horiz-adv-x="413" 
d="M180 274h113q0 -12 -3 -26q-9 -82 -94 -173q-30 -31 -42 -45t-26 -38t-14 -44q0 -57 67 -58q60 0 104 27l18 -83q-69 -39 -154 -39q-72 0 -114 38t-42 96q0 50 27.5 93t81.5 97q62 62 73 129zM268 491h2q30 0 49 -20.5t19 -50.5q0 -35 -23.5 -60t-58.5 -25
q-31 0 -50.5 20.5t-19.5 52.5q0 35 23.5 59t58.5 24z" />
    <glyph glyph-name="Agrave" unicode="&#xc0;" horiz-adv-x="596" 
d="M400 192h-212l-92 -192h-124l338 674h146l85 -674h-122zM225 282h168l-19 168q-4 48 -10 128h-2q-5 -12 -24.5 -58.5t-30.5 -69.5zM228 832h133l77 -121h-97z" />
    <glyph glyph-name="Aacute" unicode="&#xc1;" horiz-adv-x="596" 
d="M400 192h-212l-92 -192h-124l338 674h146l85 -674h-122zM225 282h168l-19 168q-4 48 -10 128h-2q-5 -12 -24.5 -58.5t-30.5 -69.5zM420 832h137l-134 -122h-100z" />
    <glyph glyph-name="Acircumflex" unicode="&#xc2;" horiz-adv-x="596" 
d="M400 192h-212l-91 -192h-124l337 674h146l85 -674h-121zM226 282h168l-19 168q-4 39 -11 128h-2q-4 -10 -23.5 -57.5t-31.5 -70.5zM361 832h89l80 -122h-86l-44 66h-2l-65 -66h-94z" />
    <glyph glyph-name="Atilde" unicode="&#xc3;" horiz-adv-x="596" 
d="M399 192h-211l-92 -192h-124l338 674h145l85 -674h-121zM225 282h168l-19 168q-4 48 -10 128h-2q-5 -12 -24.5 -58.5t-30.5 -69.5zM308 714h-60q9 54 33.5 84t57.5 30q29 0 62 -20q29 -19 42 -19q21 0 34 42h59q-18 -111 -93 -111q-32 0 -61 19q-31 18 -42 18
q-21 0 -32 -43z" />
    <glyph glyph-name="Adieresis" unicode="&#xc4;" horiz-adv-x="596" 
d="M400 192h-212l-92 -192h-124l338 674h146l85 -674h-122zM225 282h168l-19 168q-4 48 -10 128h-2q-5 -12 -24.5 -58.5t-30.5 -69.5zM288 715q-23 0 -39.5 16.5t-16.5 40.5q0 27 19 45.5t45 18.5q25 0 40.5 -17t15.5 -40q0 -27 -18.5 -45.5t-45.5 -18.5zM485 715
q-23 0 -39.5 16.5t-16.5 40.5q0 27 19 45.5t45 18.5q25 0 40.5 -17t15.5 -40q0 -27 -18.5 -45.5t-45.5 -18.5z" />
    <glyph glyph-name="Aring" unicode="&#xc5;" horiz-adv-x="596" 
d="M400 192h-212l-92 -192h-124l338 674h145l85 -674h-121zM225 282h168l-19 168q-4 48 -10 128h-2q-5 -12 -24.5 -58.5t-30.5 -69.5zM403 882q44 0 72.5 -24t28.5 -66q-1 -44 -33 -70t-81 -26q-43 0 -71.5 24t-29.5 62q-1 44 31.5 72t82.5 28zM397 839q-20 0 -33 -15.5
t-13 -38.5q0 -19 11.5 -32.5t31.5 -13.5q21 0 34.5 14.5t13.5 36.5t-12 35.5t-33 13.5z" />
    <glyph glyph-name="AE" unicode="&#xc6;" horiz-adv-x="812" 
d="M74 0h-124l429 674h437l-18 -99h-254l-18 -180h241l-18 -98h-228l-18 -198h256l-19 -99h-356l18 209h-197zM261 306h148l16 178q10 102 10 103h-3q-33 -60 -59 -102z" />
    <glyph glyph-name="Ccedilla" unicode="&#xc7;" horiz-adv-x="572" 
d="M500 116l12 -93q-67 -32 -154 -33l-27 -37q27 -6 42.5 -23.5t15.5 -42.5q0 -44 -36 -66.5t-82 -22.5q-47 0 -72 20l21 47q25 -14 52 -14q40 0 40 31t-68 37l50 73q-116 11 -180.5 86.5t-64.5 194.5q0 104 42 190t116 141q106 80 250 80q50 0 90.5 -9.5t56.5 -20.5
l-33 -94q-46 24 -127 24q-101 0 -172 -63q-45 -39 -71 -101t-26 -133q0 -90 47.5 -144t142.5 -54q79 0 135 27z" />
    <glyph glyph-name="Egrave" unicode="&#xc8;" horiz-adv-x="496" 
d="M459 398l-19 -98h-242l-38 -201h272l-19 -99h-389l128 674h374l-19 -99h-257l-34 -177h243zM203 832h133l76 -121h-96z" />
    <glyph glyph-name="Eacute" unicode="&#xc9;" horiz-adv-x="496" 
d="M459 398l-19 -98h-242l-38 -201h272l-19 -99h-389l128 674h374l-19 -99h-257l-34 -177h243zM378 832h137l-134 -122h-101z" />
    <glyph glyph-name="Ecircumflex" unicode="&#xca;" horiz-adv-x="496" 
d="M459 398l-19 -98h-242l-38 -201h272l-19 -99h-389l128 674h374l-19 -99h-257l-34 -177h243zM321 832h89l80 -122h-87l-44 66h-2l-64 -66h-95z" />
    <glyph glyph-name="Edieresis" unicode="&#xcb;" horiz-adv-x="496" 
d="M459 398l-19 -98h-242l-38 -201h272l-19 -99h-388l127 674h374l-19 -99h-257l-33 -177h242zM254 715q-23 0 -39.5 16.5t-16.5 40.5q0 27 19 45.5t45 18.5q25 0 40.5 -17t15.5 -40q0 -27 -18.5 -45.5t-45.5 -18.5zM451 715q-23 0 -39.5 16.5t-16.5 40.5q0 27 19 45.5
t45 18.5q25 0 40.5 -17t15.5 -40q0 -27 -18.5 -45.5t-45.5 -18.5z" />
    <glyph glyph-name="Igrave" unicode="&#xcc;" horiz-adv-x="256" 
d="M150 674h116l-128 -674h-116zM69 832h133l76 -121h-96z" />
    <glyph glyph-name="Iacute" unicode="&#xcd;" horiz-adv-x="256" 
d="M150 674h117l-128 -674h-117zM248 832h137l-134 -122h-101z" />
    <glyph glyph-name="Icircumflex" unicode="&#xce;" horiz-adv-x="256" 
d="M150 674h116l-128 -674h-116zM185 832h89l80 -122h-86l-44 66h-2l-65 -66h-94z" />
    <glyph glyph-name="Idieresis" unicode="&#xcf;" horiz-adv-x="256" 
d="M150 674h117l-128 -674h-116zM121 715q-23 0 -39.5 16.5t-16.5 40.5q0 27 19 45.5t45 18.5q25 0 40.5 -17t15.5 -40q0 -27 -18.5 -45.5t-45.5 -18.5zM318 715q-23 0 -39.5 16.5t-16.5 40.5q0 27 19 45.5t45 18.5q25 0 40.5 -17t15.5 -40q0 -27 -18.5 -45.5t-45.5 -18.5z
" />
    <glyph glyph-name="Eth" unicode="&#xd0;" horiz-adv-x="676" 
d="M12 300l19 97h80l50 268q89 14 178 14q168 0 245 -77q79 -69 79 -202q0 -94 -37.5 -177t-101.5 -135q-114 -92 -313 -92q-105 0 -175 11l56 293h-80zM374 397l-19 -97h-146l-39 -205q31 -4 76 -4q131 0 209 84q82 87 82 221q0 89 -48.5 139t-149.5 50q-49 0 -76 -5
l-35 -183h146z" />
    <glyph glyph-name="Ntilde" unicode="&#xd1;" horiz-adv-x="651" 
d="M134 0h-109l128 674h134l118 -313q37 -109 60 -211h2q6 99 30 228l56 296h109l-127 -674h-119l-121 319q-44 126 -64 217l-3 -1q-13 -107 -40 -247zM344 715h-60q9 55 33.5 85t57.5 30q29 0 62 -20q29 -19 42 -19q21 0 34 42h59q-18 -111 -93 -111q-32 0 -61 19
q-31 18 -42 18q-21 0 -32 -44z" />
    <glyph glyph-name="Ograve" unicode="&#xd2;" horiz-adv-x="688" 
d="M314 -11q-126 0 -196 79.5t-70 198.5q0 92 33.5 179t93.5 145q96 94 236 94q129 0 197 -78.5t68 -200.5q0 -92 -32 -178t-90 -143q-98 -96 -240 -96zM331 87q74 0 131 57q41 42 65.5 116.5t24.5 141.5q0 36 -7 67t-23.5 58.5t-48.5 43.5t-76 16q-75 0 -133 -58
q-43 -43 -67.5 -115t-24.5 -141q0 -83 39 -134.5t120 -51.5zM275 832h134l76 -121h-97z" />
    <glyph glyph-name="Oacute" unicode="&#xd3;" horiz-adv-x="688" 
d="M314 -11q-126 0 -196 79.5t-70 198.5q0 92 33.5 179t93.5 145q96 94 236 94q129 0 197 -78.5t68 -200.5q0 -92 -32 -178t-90 -143q-98 -96 -240 -96zM331 87q74 0 131 57q41 42 65.5 116.5t24.5 141.5q0 36 -7 67t-23.5 58.5t-48.5 43.5t-76 16q-75 0 -133 -58
q-43 -43 -67.5 -115t-24.5 -141q0 -83 39 -134.5t120 -51.5zM461 834h137l-134 -122h-101z" />
    <glyph glyph-name="Ocircumflex" unicode="&#xd4;" horiz-adv-x="688" 
d="M314 -11q-126 0 -196 79.5t-70 198.5q0 92 33.5 179t93.5 145q96 94 236 94q129 0 197 -78.5t68 -200.5q0 -92 -32 -178t-90 -143q-98 -96 -240 -96zM331 87q74 0 131 57q41 42 65.5 116.5t24.5 141.5q0 36 -7 67t-23.5 58.5t-48.5 43.5t-76 16q-75 0 -133 -58
q-43 -43 -67.5 -115t-24.5 -141q0 -83 39 -134.5t120 -51.5zM398 832h89l80 -122h-86l-44 66h-2l-65 -66h-94z" />
    <glyph glyph-name="Otilde" unicode="&#xd5;" horiz-adv-x="688" 
d="M314 -11q-126 0 -196 79.5t-70 198.5q0 92 33.5 179t93.5 145q96 94 236 94q129 0 197 -78.5t68 -200.5q0 -92 -32 -178t-90 -143q-98 -96 -240 -96zM331 87q74 0 131 57q41 42 65.5 116.5t24.5 141.5q0 36 -7 67t-23.5 58.5t-48.5 43.5t-76 16q-75 0 -133 -58
q-43 -43 -67.5 -115t-24.5 -141q0 -83 39 -134.5t120 -51.5zM353 715h-60q9 55 33.5 85t57.5 30q29 0 62 -20q29 -19 42 -19q21 0 34 42h59q-18 -111 -93 -111q-32 0 -61 19q-31 18 -42 18q-21 0 -32 -44z" />
    <glyph glyph-name="Odieresis" unicode="&#xd6;" horiz-adv-x="688" 
d="M313 -11q-125 0 -195 79.5t-70 198.5q0 92 33.5 179t93.5 145q96 94 236 94q129 0 197 -78.5t68 -200.5q0 -92 -32 -178t-90 -143q-98 -96 -241 -96zM330 87q75 0 132 57q41 42 65.5 116.5t24.5 141.5q0 36 -7 67t-23.5 58.5t-48.5 43.5t-76 16q-75 0 -133 -58
q-43 -43 -67.5 -115t-24.5 -141q0 -83 39 -134.5t119 -51.5zM335 715q-23 0 -39.5 16.5t-16.5 40.5q0 27 19 45.5t45 18.5q25 0 40.5 -17t15.5 -40q0 -27 -18.5 -45.5t-45.5 -18.5zM532 715q-23 0 -39.5 16.5t-16.5 40.5q0 27 19 45.5t45 18.5q25 0 40.5 -17t15.5 -40
q0 -27 -18.5 -45.5t-45.5 -18.5z" />
    <glyph glyph-name="multiply" unicode="&#xd7;" horiz-adv-x="596" 
d="M48 470l55 56l197 -209l198 209l55 -55l-199 -208l199 -206l-56 -57l-198 209l-197 -209l-53 57l197 206z" />
    <glyph glyph-name="Oslash" unicode="&#xd8;" horiz-adv-x="686" 
d="M84 -56l-56 53l75 88q-56 75 -56 188q0 90 32 172t90 140q100 100 237 100q100 0 162 -49l74 87l61 -48l-79 -93q50 -67 50 -178q0 -90 -32 -174.5t-87 -141.5q-46 -47 -108.5 -73t-128.5 -26q-96 0 -155 47zM186 183l312 369q-34 36 -100 36q-73 0 -131 -54t-84 -137
q-35 -113 0 -214h3zM538 480l-306 -361q34 -33 98 -33q67 0 122.5 50.5t82.5 130.5q37 111 6 213h-3z" />
    <glyph glyph-name="Ugrave" unicode="&#xd9;" horiz-adv-x="639" 
d="M150 674h117l-75 -393q-8 -42 -8 -82q0 -52 29 -82t81 -30q131 0 167 193l75 394h117l-75 -392q-29 -152 -101.5 -222.5t-197.5 -70.5q-98 -1 -154.5 51.5t-56.5 155.5q0 38 9 94zM262 832h133l77 -121h-97z" />
    <glyph glyph-name="Uacute" unicode="&#xda;" horiz-adv-x="639" 
d="M150 674h117l-75 -393q-8 -42 -8 -82q0 -52 29 -82t81 -30q131 0 167 193l75 394h117l-75 -392q-29 -152 -101.5 -222.5t-197.5 -70.5q-98 -1 -154.5 51.5t-56.5 155.5q0 38 9 94zM435 832h137l-134 -122h-101z" />
    <glyph glyph-name="Ucircumflex" unicode="&#xdb;" horiz-adv-x="639" 
d="M150 674h117l-75 -393q-8 -42 -8 -82q0 -52 29 -82t81 -30q131 0 167 193l75 394h117l-75 -392q-29 -152 -101.5 -222.5t-197.5 -70.5q-98 -1 -154.5 51.5t-56.5 155.5q0 38 9 94zM386 832h89l80 -122h-86l-44 66h-2l-65 -66h-94z" />
    <glyph glyph-name="Udieresis" unicode="&#xdc;" horiz-adv-x="639" 
d="M150 674h117l-75 -393q-8 -42 -8 -82q0 -52 29 -82t81 -30q131 0 167 193l75 394h117l-75 -392q-29 -152 -101.5 -222.5t-196.5 -70.5q-98 -1 -155 51.5t-57 155.5q0 38 9 94zM314 715q-23 0 -39.5 16.5t-16.5 40.5q0 27 19 45.5t45 18.5q25 0 40.5 -17t15.5 -40
q0 -27 -18.5 -45.5t-45.5 -18.5zM511 715q-23 0 -39.5 16.5t-16.5 40.5q0 27 19 45.5t45 18.5q25 0 40.5 -17t15.5 -40q0 -27 -18.5 -45.5t-45.5 -18.5z" />
    <glyph glyph-name="Yacute" unicode="&#xdd;" horiz-adv-x="546" 
d="M271 0h-117l53 277l-131 397h125l53 -192q20 -82 27 -118h2q30 53 70 120l122 190h138l-289 -395zM381 832h137l-134 -122h-100z" />
    <glyph glyph-name="Thorn" unicode="&#xde;" horiz-adv-x="535" 
d="M24 0l128 674h114l-24 -126q32 5 73 5q103 0 156 -49q53 -47 53 -123q0 -117 -83 -180t-204 -63q-47 0 -71 4l-28 -142h-114zM224 454l-40 -216q27 -6 63 -6q67 0 113.5 37.5t46.5 96.5q0 47 -31.5 70.5t-86.5 23.5q-39 0 -65 -6z" />
    <glyph glyph-name="germandbls" unicode="&#xdf;" horiz-adv-x="561" 
d="M136 0h-116l86 454q50 267 267 267q77 0 125.5 -42.5t48.5 -110.5q0 -63 -41 -104q-77 -34 -77 -86q0 -33 32 -78q47 -68 47 -128q0 -88 -58 -135.5t-148 -47.5q-66 0 -105 23l28 86q33 -18 75 -18q40 0 64.5 21.5t24.5 57.5q0 35 -32 81q-48 69 -48 115t29.5 82.5
t74.5 58.5q19 23 19 60q0 30 -19 50.5t-56 20.5q-48 0 -82.5 -41t-50.5 -123z" />
    <glyph glyph-name="agrave" unicode="&#xe0;" horiz-adv-x="540" 
d="M448 0h-107q0 27 8 109h-2q-65 -120 -175 -120q-65 0 -104.5 46t-39.5 120q0 64 22 124t63.5 109.5t108.5 79.5t149 30q78 0 148 -22l-51 -254q-23 -121 -20 -222zM363 275l25 128q-20 5 -48 5q-78 0 -134.5 -72.5t-56.5 -159.5q0 -93 70 -93q44 0 86 51.5t58 140.5z
M213 694h119l71 -148h-84z" />
    <glyph glyph-name="aacute" unicode="&#xe1;" horiz-adv-x="540" 
d="M448 0h-107q0 27 8 109h-2q-65 -120 -175 -120q-65 0 -104.5 46t-39.5 120q0 64 22 124t63.5 109.5t108.5 79.5t149 30q78 0 148 -22l-51 -254q-23 -121 -20 -222zM363 275l25 128q-20 5 -48 5q-78 0 -134.5 -72.5t-56.5 -159.5q0 -93 70 -93q44 0 86 51.5t58 140.5z
M393 694h123l-131 -148h-88z" />
    <glyph glyph-name="acircumflex" unicode="&#xe2;" horiz-adv-x="540" 
d="M448 0h-107q0 27 8 109h-2q-65 -120 -175 -120q-65 0 -104.5 46t-39.5 120q0 64 22 124t63.5 109.5t108.5 79.5t149 30q78 0 148 -22l-51 -254q-23 -121 -20 -222zM363 275l25 128q-20 5 -48 5q-78 0 -134.5 -72.5t-56.5 -159.5q0 -93 70 -93q44 0 86 51.5t58 140.5z
M330 694h81l72 -148h-79l-41 84h-2l-64 -84h-86z" />
    <glyph glyph-name="atilde" unicode="&#xe3;" horiz-adv-x="540" 
d="M448 0h-107q0 27 8 109h-2q-65 -120 -175 -120q-65 0 -104.5 46t-39.5 120q0 64 22 124t63.5 109.5t108.5 79.5t149 30q78 0 148 -22l-51 -254q-23 -121 -20 -222zM363 275l25 128q-20 5 -48 5q-78 0 -134.5 -72.5t-56.5 -159.5q0 -93 70 -93q44 0 86 51.5t58 140.5z
M268 563h-60q7 53 29.5 83.5t57.5 30.5q26 0 62 -21q28 -18 39 -18q12 0 18.5 9t12.5 34h59q-16 -111 -88 -111q-32 0 -62 20q-23 18 -39 18q-20 0 -29 -45z" />
    <glyph glyph-name="adieresis" unicode="&#xe4;" horiz-adv-x="540" 
d="M448 0h-107q0 27 8 109h-2q-65 -120 -175 -120q-65 0 -104.5 46t-39.5 120q0 64 22 124t63.5 109.5t108.5 79.5t149 30q78 0 148 -22l-51 -254q-23 -121 -20 -222zM363 275l25 128q-20 5 -48 5q-78 0 -134.5 -72.5t-56.5 -159.5q0 -93 70 -93q44 0 86 51.5t58 140.5z
M245 561h-2q-24 0 -40.5 16.5t-16.5 42.5q0 28 19 46.5t46 18.5q26 0 41.5 -16.5t15.5 -41.5q0 -29 -18 -47.5t-45 -18.5zM439 561q-24 0 -40.5 16.5t-16.5 42.5q0 28 19 46.5t46 18.5q26 0 41.5 -16.5t15.5 -41.5q0 -29 -18.5 -47.5t-46.5 -18.5z" />
    <glyph glyph-name="aring" unicode="&#xe5;" horiz-adv-x="540" 
d="M448 0h-107q0 27 8 109h-2q-65 -120 -175 -120q-65 0 -104.5 46t-39.5 120q0 64 22 124t63.5 109.5t108.5 79.5t149 30q78 0 148 -22l-51 -254q-23 -121 -20 -222zM363 275l25 128q-20 5 -48 5q-78 0 -134.5 -72.5t-56.5 -159.5q0 -93 70 -93q43 0 85 52t59 140zM354 728
q44 0 72.5 -24.5t28.5 -68.5q-1 -45 -34 -72t-81 -27q-42 0 -71 24.5t-30 64.5q-1 46 31.5 74.5t83.5 28.5zM348 684q-22 0 -35.5 -16t-13.5 -40q0 -20 12.5 -34t32.5 -14q23 0 37 15.5t14 39.5q0 21 -12.5 35t-34.5 14z" />
    <glyph glyph-name="ae" unicode="&#xe6;" horiz-adv-x="743" 
d="M656 113l7 -83q-70 -41 -170 -41q-57 0 -99.5 25t-60.5 71h-3q-65 -96 -183 -96q-65 0 -103.5 37t-38.5 93q0 66 46 112t115 65.5t153 17.5l3 15q6 30 -15 57.5t-70 27.5q-67 0 -132 -41l-20 75q78 50 166 50q116 0 142 -89h3q29 42 76 65.5t101 23.5q74 0 114 -37.5
t40 -88.5q0 -50 -24.5 -83.5t-71.5 -49t-100 -20.5t-124 -2q-7 -51 7 -83q27 -53 106 -53q64 0 136 32zM298 187l9 49q-30 1 -59 -3t-59 -13.5t-48.5 -31t-18.5 -51.5q0 -27 16.5 -42.5t45.5 -15.5q40 0 72.5 28.5t41.5 79.5zM614 362q0 20 -16.5 35t-45.5 15q-51 0 -86 -36
t-45 -77q38 -2 73 -0.5t61.5 7t42.5 19.5t16 37z" />
    <glyph glyph-name="ccedilla" unicode="&#xe7;" horiz-adv-x="429" 
d="M362 107l5 -89q-52 -23 -101 -27l-28 -37q26 -6 42 -24.5t16 -43.5q0 -43 -35 -66.5t-80 -23.5q-50 0 -76 19l22 51q25 -15 54 -15q16 0 27.5 8t11.5 23q0 32 -69 38l50 72q-83 6 -127 59.5t-44 132.5q0 130 88 221.5t221 91.5q60 0 100 -19l-30 -90q-34 15 -74 15
q-81 0 -132 -62.5t-51 -143.5q0 -53 28.5 -83.5t77.5 -30.5q52 0 104 24z" />
    <glyph glyph-name="egrave" unicode="&#xe8;" horiz-adv-x="479" 
d="M391 113l11 -85q-75 -39 -172 -39q-98 0 -149 54.5t-51 147.5q0 117 78 212t198 95q72 0 114.5 -37.5t42.5 -99.5q0 -168 -319 -161q-5 -39 13 -69q29 -50 100 -50q72 0 134 32zM353 361q0 23 -17 36.5t-45 13.5q-51 0 -87 -37.5t-48 -86.5q97 -1 147 15.5t50 58.5z
M178 694h119l71 -148h-84z" />
    <glyph glyph-name="eacute" unicode="&#xe9;" horiz-adv-x="479" 
d="M391 113l11 -85q-75 -39 -172 -39q-98 0 -149 54.5t-51 147.5q0 117 78 212t198 95q72 0 114.5 -37.5t42.5 -99.5q0 -168 -319 -161q-5 -39 13 -69q29 -50 100 -50q72 0 134 32zM353 361q0 23 -17 36.5t-45 13.5q-51 0 -87 -37.5t-48 -86.5q97 -1 147 15.5t50 58.5z
M351 694h123l-131 -148h-88z" />
    <glyph glyph-name="ecircumflex" unicode="&#xea;" horiz-adv-x="479" 
d="M391 113l11 -85q-75 -39 -172 -39q-98 0 -149 54.5t-51 147.5q0 117 78 212t198 95q72 0 114.5 -37.5t42.5 -99.5q0 -168 -319 -161q-5 -39 13 -69q29 -50 100 -50q72 0 134 32zM353 361q0 23 -17 36.5t-45 13.5q-51 0 -87 -37.5t-48 -86.5q97 -1 147 15.5t50 58.5z
M292 694h81l72 -148h-79l-41 84h-2l-63 -84h-87z" />
    <glyph glyph-name="edieresis" unicode="&#xeb;" horiz-adv-x="479" 
d="M391 113l11 -85q-75 -39 -172 -39q-98 0 -149 54.5t-51 147.5q0 117 78 212t198 95q72 0 114.5 -37.5t42.5 -99.5q0 -168 -319 -161q-5 -39 13 -69q29 -50 100 -50q72 0 134 32zM353 361q0 23 -17 36.5t-45 13.5q-51 0 -87 -37.5t-48 -86.5q97 -1 147 15.5t50 58.5z
M222 561q-24 0 -40.5 16.5t-16.5 42.5q0 28 19 46.5t46 18.5q26 0 41.5 -16.5t15.5 -41.5q0 -29 -18.5 -47.5t-46.5 -18.5zM417 561q-24 0 -40.5 16.5t-16.5 42.5q0 28 19 46.5t46 18.5q26 0 41.5 -16.5t15.5 -41.5q0 -29 -18.5 -47.5t-46.5 -18.5z" />
    <glyph glyph-name="igrave" unicode="&#xec;" horiz-adv-x="249" 
d="M137 0h-117l93 487h116zM41 694h119l71 -148h-84z" />
    <glyph glyph-name="iacute" unicode="&#xed;" horiz-adv-x="249" 
d="M136 0h-116l93 487h116zM222 694h123l-132 -148h-87z" />
    <glyph glyph-name="icircumflex" unicode="&#xee;" horiz-adv-x="249" 
d="M136 0h-116l93 487h116zM162 694h81l72 -148h-79l-41 84h-2l-64 -84h-86z" />
    <glyph glyph-name="idieresis" unicode="&#xef;" horiz-adv-x="249" 
d="M136 0h-116l92 487h117zM92 561q-24 0 -40.5 16.5t-16.5 42.5q0 28 19 46.5t46 18.5q26 0 41.5 -16.5t15.5 -41.5q0 -29 -18.5 -47.5t-46.5 -18.5zM288 561q-24 0 -40.5 16.5t-16.5 42.5q0 28 19 46.5t46 18.5q26 0 41.5 -16.5t15.5 -41.5q0 -29 -18.5 -47.5t-46.5 -18.5
z" />
    <glyph glyph-name="eth" unicode="&#xf0;" horiz-adv-x="539" 
d="M241 79q62 0 102 61.5t42 142.5q2 46 -11 70q-25 40 -78 40q-63 0 -105 -64t-42 -140q0 -47 24 -78.5t68 -31.5zM156 491l-18 52l124 54q-36 32 -86 55l54 66q69 -28 133 -79l137 58l20 -52l-112 -47q101 -106 101 -265q0 -152 -79.5 -248t-198.5 -96q-96 0 -149 57.5
t-53 143.5q0 117 74.5 201.5t183.5 86.5q58 2 91 -34l2 2q-24 67 -71 112z" />
    <glyph glyph-name="ntilde" unicode="&#xf1;" horiz-adv-x="550" 
d="M136 0h-116l63 336q11 54 25 151h104l-11 -87h2q68 98 175 98q55 0 89.5 -34t34.5 -100q0 -37 -9 -80l-53 -284h-117l52 275q6 36 6 58q0 70 -61 70q-43 0 -85 -48.5t-57 -129.5zM261 563h-60q7 53 30 83.5t58 30.5q26 0 62 -21q28 -18 39 -18q12 0 18.5 9t12.5 34h59
q-16 -111 -88 -111q-32 0 -62 20q-25 18 -40 18q-20 0 -29 -45z" />
    <glyph glyph-name="ograve" unicode="&#xf2;" horiz-adv-x="543" 
d="M231 -11q-91 0 -145 56.5t-54 144.5q0 127 79.5 217.5t201.5 90.5q94 0 146.5 -58t52.5 -143q0 -127 -79.5 -217.5t-201.5 -90.5zM247 79q62 0 103.5 69t41.5 148q0 44 -22.5 78t-70.5 34q-65 0 -106 -69.5t-41 -145.5q0 -51 25.5 -82.5t69.5 -31.5zM185 694h119l71 -148
h-84z" />
    <glyph glyph-name="oacute" unicode="&#xf3;" horiz-adv-x="543" 
d="M231 -11q-91 0 -145 56.5t-54 144.5q0 127 79.5 217.5t201.5 90.5q94 0 146.5 -58t52.5 -143q0 -127 -79.5 -217.5t-201.5 -90.5zM247 79q62 0 103.5 69t41.5 148q0 44 -22.5 78t-70.5 34q-65 0 -106 -69.5t-41 -145.5q0 -51 25.5 -82.5t69.5 -31.5zM362 694h123
l-131 -148h-88z" />
    <glyph glyph-name="ocircumflex" unicode="&#xf4;" horiz-adv-x="543" 
d="M231 -11q-91 0 -145 56.5t-54 144.5q0 127 79.5 217.5t201.5 90.5q94 0 146.5 -58t52.5 -143q0 -127 -79.5 -217.5t-201.5 -90.5zM247 79q62 0 103.5 69t41.5 148q0 44 -22.5 78t-70.5 34q-65 0 -106 -69.5t-41 -145.5q0 -51 25.5 -82.5t69.5 -31.5zM309 694h81l72 -148
h-79l-41 84h-2l-64 -84h-86z" />
    <glyph glyph-name="otilde" unicode="&#xf5;" horiz-adv-x="543" 
d="M231 -11q-91 0 -145 56.5t-54 144.5q0 127 79.5 217.5t201.5 90.5q94 0 146.5 -58t52.5 -143q0 -127 -79.5 -217.5t-201.5 -90.5zM247 79q62 0 103.5 69t41.5 148q0 44 -22.5 78t-70.5 34q-65 0 -106 -69.5t-41 -145.5q0 -51 25.5 -82.5t69.5 -31.5zM248 563h-60
q7 53 29.5 83.5t57.5 30.5q26 0 62 -21q30 -18 40 -18q12 0 18.5 9t12.5 34h59q-16 -111 -88 -111q-31 0 -63 20q-23 18 -39 18q-20 0 -29 -45z" />
    <glyph glyph-name="odieresis" unicode="&#xf6;" horiz-adv-x="543" 
d="M231 -11q-91 0 -145 56.5t-54 144.5q0 127 79.5 217.5t201.5 90.5q94 0 146.5 -58t52.5 -143q0 -127 -79.5 -217.5t-201.5 -90.5zM247 79q62 0 103.5 69t41.5 148q0 44 -22.5 78t-70.5 34q-65 0 -106 -69.5t-41 -145.5q0 -51 25.5 -82.5t69.5 -31.5zM237 561
q-24 0 -40.5 16.5t-16.5 42.5q0 28 19 46.5t46 18.5q26 0 41.5 -16.5t15.5 -41.5q0 -29 -18.5 -47.5t-46.5 -18.5zM432 561q-24 0 -40.5 16.5t-16.5 42.5q0 28 19 46.5t46 18.5q26 0 41.5 -16.5t15.5 -41.5q0 -29 -18.5 -47.5t-46.5 -18.5z" />
    <glyph glyph-name="divide" unicode="&#xf7;" horiz-adv-x="596" 
d="M301 376q-28 0 -45.5 18.5t-17.5 47.5t18 47.5t46 18.5q29 0 46 -18t18 -48q0 -29 -17.5 -47.5t-47.5 -18.5zM555 228h-506v78h506v-78zM301 26q-28 0 -45.5 18.5t-17.5 47.5t18 47.5t46 18.5q29 0 46 -18t18 -48q0 -29 -17.5 -47.5t-47.5 -18.5z" />
    <glyph glyph-name="oslash" unicode="&#xf8;" horiz-adv-x="543" 
d="M55 -48l-36 36l59 68q-46 53 -46 138q0 124 80 214t200 90q67 0 114 -31l58 66l39 -34l-57 -67q47 -56 47 -135q0 -132 -80.5 -220t-192.5 -88q-77 0 -123 34zM163 151l196 238q-21 23 -62 23q-63 0 -104 -66t-42 -134q0 -38 10 -61h2zM382 335l-198 -235q25 -25 65 -25
q59 0 101.5 63.5t43.5 136.5q0 31 -9 60h-3z" />
    <glyph glyph-name="ugrave" unicode="&#xf9;" horiz-adv-x="545" 
d="M407 487h117l-64 -336q-10 -52 -24 -151h-104l11 85h-2q-72 -96 -169 -96q-57 0 -92 33.5t-35 104.5q0 40 10 87l52 273h116l-50 -266q-8 -38 -8 -67q0 -69 62 -69q42 0 81.5 46t54.5 119zM186 694h119l71 -148h-84z" />
    <glyph glyph-name="uacute" unicode="&#xfa;" horiz-adv-x="545" 
d="M407 487h117l-64 -336q-10 -52 -24 -151h-104l11 85h-2q-72 -96 -169 -96q-57 0 -92 33.5t-35 104.5q0 40 10 87l52 273h116l-50 -266q-8 -38 -8 -67q0 -69 62 -69q42 0 81.5 46t54.5 119zM361 694h123l-132 -148h-87z" />
    <glyph glyph-name="ucircumflex" unicode="&#xfb;" horiz-adv-x="545" 
d="M407 487h117l-64 -336q-10 -52 -24 -151h-104l11 85h-2q-72 -96 -169 -96q-57 0 -92 33.5t-35 104.5q0 40 10 87l52 273h116l-50 -266q-8 -38 -8 -67q0 -69 62 -69q42 0 81.5 46t54.5 119zM313 694h81l72 -148h-79l-41 84h-2l-64 -84h-86z" />
    <glyph glyph-name="udieresis" unicode="&#xfc;" horiz-adv-x="545" 
d="M407 487h117l-64 -336q-10 -52 -24 -151h-104l11 85h-2q-72 -96 -169 -96q-57 0 -92 33.5t-35 104.5q0 40 10 87l52 273h116l-50 -266q-8 -38 -8 -67q0 -69 62 -69q42 0 81.5 46t54.5 119zM236 561q-24 0 -40.5 16.5t-16.5 42.5q0 28 19 46.5t46 18.5q26 0 41.5 -16.5
t15.5 -41.5q0 -29 -18.5 -47.5t-46.5 -18.5zM432 561q-24 0 -40.5 16.5t-16.5 42.5q0 28 19 46.5t46 18.5q26 0 41.5 -16.5t15.5 -41.5q0 -29 -18.5 -47.5t-46.5 -18.5z" />
    <glyph glyph-name="yacute" unicode="&#xfd;" horiz-adv-x="472" 
d="M45 487h122l38 -234q15 -87 19 -122h2q39 98 47 116l104 240h124l-178 -359q-93 -185 -178 -268q-71 -68 -150 -84l-27 100q57 21 86 43q53 37 86 97q5 9 2 22zM325 694h123l-131 -148h-88z" />
    <glyph glyph-name="thorn" unicode="&#xfe;" horiz-adv-x="547" 
d="M-21 -198l165 872h116l-50 -259h2q57 83 151 83q75 0 115 -51t40 -130q-1 -135 -82.5 -231.5t-200.5 -96.5q-62 0 -98 21h-3l-39 -208h-116zM174 218l-22 -116q31 -24 79 -24q66 0 115 71.5t49 157.5q0 39 -18.5 67.5t-56.5 28.5q-46 0 -88 -49t-58 -136z" />
    <glyph glyph-name="ydieresis" unicode="&#xff;" horiz-adv-x="472" 
d="M45 487h122l38 -234q15 -87 19 -122h2q39 98 47 116l105 240h123l-177 -359q-95 -186 -179 -268q-71 -68 -150 -84l-27 100q57 21 86 43q53 37 86 97q5 9 2 22zM193 561q-24 0 -40.5 16.5t-16.5 42.5q0 28 19 46.5t46 18.5q26 0 41.5 -16.5t15.5 -41.5q0 -29 -18.5 -47.5
t-46.5 -18.5zM389 561q-24 0 -40.5 16.5t-16.5 42.5q0 28 19 46.5t46 18.5q26 0 41.5 -16.5t15.5 -41.5q0 -29 -18.5 -47.5t-46.5 -18.5z" />
    <glyph glyph-name="Amacron" unicode="&#x100;" horiz-adv-x="596" 
d="M400 192h-212l-92 -192h-124l338 674h146l85 -674h-122zM225 282h168l-19 168q-4 48 -10 128h-2q-5 -12 -24.5 -58.5t-30.5 -69.5zM282 802h243l-13 -68h-243z" />
    <glyph glyph-name="amacron" unicode="&#x101;" horiz-adv-x="540" 
d="M448 0h-107q0 27 8 109h-2q-65 -120 -175 -120q-65 0 -104.5 46t-39.5 120q0 64 22 124t63.5 109.5t108.5 79.5t149 30q78 0 148 -22l-51 -254q-23 -121 -20 -222zM363 275l25 128q-20 5 -48 5q-78 0 -134.5 -72.5t-56.5 -159.5q0 -93 70 -93q44 0 86 51.5t58 140.5z
M240 655h234l-14 -67h-234z" />
    <glyph glyph-name="Abreve" unicode="&#x102;" horiz-adv-x="596" 
d="M400 192h-212l-92 -192h-124l338 674h146l85 -674h-122zM225 282h168l-19 168q-4 48 -10 128h-2q-5 -12 -24.5 -58.5t-30.5 -69.5zM275 840h68q-1 -22 12.5 -36.5t43.5 -14.5q59 0 70 51h70q-9 -51 -45.5 -83t-100.5 -32q-66 0 -95 32.5t-23 82.5z" />
    <glyph glyph-name="abreve" unicode="&#x103;" horiz-adv-x="540" 
d="M448 0h-107q0 27 8 109h-2q-65 -120 -175 -120q-65 0 -104.5 46t-39.5 120q0 64 22 124t63.5 109.5t108.5 79.5t149 30q78 0 148 -22l-51 -254q-23 -121 -20 -222zM363 275l25 128q-20 5 -48 5q-78 0 -134.5 -72.5t-56.5 -159.5q0 -93 70 -93q44 0 86 51.5t58 140.5z
M231 687h63q-1 -27 11.5 -44.5t38.5 -17.5q55 0 72 62h64q-9 -58 -45.5 -92t-94.5 -34q-64 0 -90 35t-19 91z" />
    <glyph glyph-name="Aogonek" unicode="&#x104;" horiz-adv-x="596" 
d="M456 674l84 -674h-54q-44 -55 -44 -94q0 -40 41 -40q23 0 45 9l9 -59q-36 -29 -94 -29q-42 0 -65.5 22.5t-23.5 61.5q0 55 65 132l-19 189h-212l-92 -192h-124l338 674h146zM225 282h168l-19 168q-4 48 -10 128h-3q-47 -113 -54 -128z" />
    <glyph glyph-name="aogonek" unicode="&#x105;" horiz-adv-x="540" 
d="M519 476l-49 -254q-23 -121 -20 -222h-31q-53 -53 -53 -98q0 -16 10.5 -26t27.5 -10q26 0 48 9l9 -59q-36 -29 -94 -29q-42 0 -65.5 22.5t-23.5 61.5q0 55 65 132q1 40 8 106h-2q-66 -120 -176 -120q-65 0 -104.5 46t-39.5 119q0 64 22 124.5t63.5 110t108.5 79.5t149 30
q79 0 147 -22zM364 275l23 128q-18 5 -46 5q-78 0 -134.5 -72.5t-56.5 -159.5q0 -93 70 -93q44 0 86 51.5t58 140.5z" />
    <glyph glyph-name="Cacute" unicode="&#x106;" horiz-adv-x="571" 
d="M501 114l11 -94q-66 -31 -176 -31q-132 0 -209.5 76t-77.5 207q0 104 42 190.5t116 141.5q106 80 251 80q100 0 147 -30l-34 -94q-44 24 -127 24q-102 0 -171 -63q-46 -40 -72 -101t-26 -133q0 -90 47.5 -144t143.5 -54q80 0 135 25zM452 836h137l-134 -122h-100z" />
    <glyph glyph-name="cacute" unicode="&#x107;" horiz-adv-x="430" 
d="M363 107l5 -89q-58 -28 -140 -28q-91 0 -144 53t-53 141q0 130 88 221.5t221 91.5q57 0 100 -18l-30 -91q-34 15 -74 15q-81 0 -132 -62t-51 -143q0 -54 29 -84t78 -30q53 0 103 23zM339 694h123l-131 -148h-88z" />
    <glyph glyph-name="Ccircumflex" unicode="&#x108;" horiz-adv-x="571" 
d="M501 114l11 -94q-66 -31 -176 -31q-132 0 -209.5 76t-77.5 207q0 104 42 190.5t116 141.5q106 80 251 80q100 0 147 -30l-34 -94q-44 24 -127 24q-102 0 -171 -63q-46 -40 -72 -101t-26 -133q0 -90 47.5 -144t143.5 -54q80 0 135 25zM394 834h89l80 -122h-86l-44 66h-2
l-65 -66h-94z" />
    <glyph glyph-name="ccircumflex" unicode="&#x109;" horiz-adv-x="430" 
d="M363 107l5 -89q-58 -28 -140 -28q-91 0 -144 53t-53 141q0 130 88 221.5t221 91.5q57 0 100 -18l-30 -91q-34 15 -74 15q-81 0 -132 -62t-51 -143q0 -54 29 -84t78 -30q53 0 103 23zM276 694h82l72 -148h-80l-41 84h-2l-63 -84h-86z" />
    <glyph glyph-name="Cdotaccent" unicode="&#x10a;" horiz-adv-x="571" 
d="M501 114l12 -94q-67 -31 -177 -31q-132 0 -209.5 76t-77.5 207q0 105 42 191t117 141q106 80 250 80q50 0 90.5 -9.5t56.5 -20.5l-34 -94q-44 24 -126 24q-101 0 -172 -63q-46 -40 -72 -101t-26 -133q0 -90 47.5 -144t143.5 -54q80 0 135 25zM435 718q-23 0 -40 16.5
t-17 40.5q0 28 19 46.5t46 18.5q25 0 41 -17t16 -41q0 -27 -19 -45.5t-46 -18.5z" />
    <glyph glyph-name="cdotaccent" unicode="&#x10b;" horiz-adv-x="430" 
d="M363 107l5 -89q-58 -28 -140 -28q-91 0 -144 53t-53 141q0 130 88 221.5t221 91.5q60 0 100 -19l-30 -90q-34 15 -73 15q-81 0 -132.5 -62t-51.5 -143q0 -54 29 -84t78 -30q53 0 103 23zM317 560q-24 0 -40.5 16.5t-16.5 42.5q0 29 19 47.5t46 18.5q26 0 42 -16.5
t16 -42.5q0 -29 -18.5 -47.5t-47.5 -18.5z" />
    <glyph glyph-name="Ccaron" unicode="&#x10c;" horiz-adv-x="571" 
d="M501 114l11 -94q-66 -31 -176 -31q-132 0 -209.5 76t-77.5 207q0 104 42 190.5t116 141.5q106 80 251 80q100 0 147 -30l-34 -94q-44 24 -127 24q-102 0 -171 -63q-46 -40 -72 -101t-26 -133q0 -90 47.5 -144t143.5 -54q80 0 135 25zM462 714h-89l-80 122h87l43 -67h2
l65 67h94z" />
    <glyph glyph-name="ccaron" unicode="&#x10d;" horiz-adv-x="430" 
d="M363 107l5 -89q-58 -28 -140 -28q-91 0 -144 53t-53 141q0 130 88 221.5t221 91.5q57 0 100 -18l-30 -91q-34 15 -74 15q-81 0 -132 -62t-51 -143q0 -54 29 -84t78 -30q53 0 103 23zM343 546h-81l-73 148h79l42 -85h2l65 85h85z" />
    <glyph glyph-name="Dcaron" unicode="&#x10e;" horiz-adv-x="666" 
d="M26 6l125 659q86 14 178 14q165 0 247 -80q77 -70 77 -199q0 -95 -36.5 -177.5t-100.5 -135.5q-112 -92 -315 -92q-105 0 -175 11zM252 579l-92 -485q31 -4 74 -4q138 0 213 84q80 85 80 224q0 88 -49 137.5t-151 49.5q-47 0 -75 -6zM419 710h-89l-80 122h87l43 -67h3
l64 67h95z" />
    <glyph glyph-name="dcaron" unicode="&#x10f;" horiz-adv-x="553" 
d="M451 710h116l-102 -536q-17 -89 -22 -174h-107l10 86h-2q-63 -97 -167 -97q-66 0 -107 49t-41 131q0 133 86.5 231t217.5 98q42 0 75 -14zM362 241l29 148q-24 19 -67 19q-73 0 -123.5 -67.5t-50.5 -152.5q0 -47 19.5 -76t58.5 -29q42 0 81 43t53 115zM606 514l-40 47
q54 38 54 98q0 27 -15 45l82 16q24 -20 24 -62q0 -47 -31.5 -86t-73.5 -58z" />
    <glyph glyph-name="Dcroat" unicode="&#x110;" horiz-adv-x="676" 
d="M12 300l19 97h80l50 268q89 14 178 14q168 0 245 -77q79 -69 79 -202q0 -94 -37.5 -177t-101.5 -135q-114 -92 -313 -92q-105 0 -175 11l56 293h-80zM374 397l-19 -97h-146l-39 -205q31 -4 76 -4q131 0 209 84q82 87 82 221q0 89 -48.5 139t-149.5 50q-49 0 -76 -5
l-35 -183h146z" />
    <glyph glyph-name="dcroat" unicode="&#x111;" horiz-adv-x="544" 
d="M362 241l29 148q-24 19 -67 19q-73 0 -123.5 -67.5t-50.5 -152.5q0 -47 19.5 -76t58.5 -29q42 0 81 43t53 115zM243 616h190l18 94h116l-18 -94h78l-13 -67h-78l-71 -375q-17 -89 -22 -174h-107l10 86h-2q-63 -97 -167 -97q-66 0 -107 49t-41 131q0 133 86.5 231
t217.5 98q42 0 75 -14l12 65h-190z" />
    <glyph glyph-name="Emacron" unicode="&#x112;" horiz-adv-x="496" 
d="M459 398l-19 -98h-242l-38 -201h272l-19 -99h-389l128 674h374l-19 -99h-257l-34 -177h243zM237 802h243l-13 -68h-243z" />
    <glyph glyph-name="emacron" unicode="&#x113;" horiz-adv-x="479" 
d="M391 113l11 -85q-75 -39 -172 -39q-98 0 -149 54.5t-51 147.5q0 117 78 212t198 95q72 0 114.5 -37.5t42.5 -99.5q0 -168 -319 -161q-5 -39 13 -69q29 -50 100 -50q72 0 134 32zM353 361q0 23 -17 36.5t-45 13.5q-51 0 -87 -37.5t-48 -86.5q97 -1 147 15.5t50 58.5z
M203 655h233l-13 -67h-234z" />
    <glyph glyph-name="Ebreve" unicode="&#x114;" horiz-adv-x="496" 
d="M458 398l-19 -98h-241l-38 -201h272l-19 -99h-389l128 674h374l-20 -99h-256l-34 -177h242zM226 835h68q-1 -22 12.5 -36.5t43.5 -14.5q58 0 71 51h69q-9 -51 -45.5 -83t-100.5 -32q-65 0 -94.5 32t-23.5 83z" />
    <glyph glyph-name="ebreve" unicode="&#x115;" horiz-adv-x="479" 
d="M391 113l11 -85q-75 -39 -172 -39q-98 0 -149 54.5t-51 147.5q0 117 78 212t198 95q72 0 114.5 -37.5t42.5 -99.5q0 -168 -319 -161q-5 -39 13 -69q29 -50 100 -50q72 0 134 32zM353 361q0 23 -17 36.5t-45 13.5q-51 0 -87 -37.5t-48 -86.5q97 -1 147 15.5t50 58.5z
M200 687h63q-1 -27 11.5 -44.5t38.5 -17.5q55 0 72 62h64q-9 -58 -45.5 -92t-94.5 -34q-64 0 -90 35t-19 91z" />
    <glyph glyph-name="Edotaccent" unicode="&#x116;" horiz-adv-x="496" 
d="M459 398l-19 -98h-242l-38 -201h272l-19 -99h-388l127 674h375l-20 -99h-257l-33 -177h242zM349 715q-23 0 -40 16.5t-17 40.5q0 28 19 46.5t46 18.5q25 0 41 -17t16 -41q0 -27 -19 -45.5t-46 -18.5z" />
    <glyph glyph-name="edotaccent" unicode="&#x117;" horiz-adv-x="479" 
d="M391 113l11 -85q-75 -39 -172 -39q-98 0 -149 54.5t-51 147.5q0 117 78 212t198 95q72 0 114.5 -37.5t42.5 -99.5q0 -168 -319 -161q-5 -39 13 -69q29 -50 100 -50q72 0 134 32zM353 361q0 23 -17 36.5t-45 13.5q-51 0 -87 -37.5t-48 -86.5q97 -1 147 15.5t50 58.5z
M314 560q-24 0 -40.5 16.5t-16.5 42.5q0 29 19 47.5t46 18.5q26 0 42 -16.5t16 -42.5q0 -29 -18.5 -47.5t-47.5 -18.5z" />
    <glyph glyph-name="Eogonek" unicode="&#x118;" horiz-adv-x="496" 
d="M25 0l128 674h374l-20 -99h-256l-34 -177h242l-19 -98h-242l-38 -201h273l-19 -99h-18q-81 -55 -81 -106q0 -30 30 -30q23 0 45 10l15 -59q-39 -29 -95 -29q-40 0 -63 21t-23 56q0 38 26.5 75t62.5 62h-288z" />
    <glyph glyph-name="eogonek" unicode="&#x119;" horiz-adv-x="479" 
d="M353 361q0 23 -17 36.5t-45 13.5q-51 0 -87 -37.5t-48 -86.5q97 -1 147 15.5t50 58.5zM333 -121l13 -60q-44 -27 -97 -27q-40 0 -61.5 21t-21.5 56q0 67 75 121v1h-26q-92 4 -138.5 57.5t-46.5 142.5q0 117 78 212t198 95q72 0 114.5 -37.5t42.5 -99.5q0 -168 -319 -161
q-5 -39 13 -69q29 -50 100 -50q72 0 134 32l11 -85q-22 -10 -48 -21q-97 -56 -97 -106q0 -32 30 -32q22 0 46 10z" />
    <glyph glyph-name="Ecaron" unicode="&#x11a;" horiz-adv-x="496" 
d="M459 398l-19 -98h-241l-39 -201h272l-19 -99h-388l128 674h374l-20 -99h-256l-34 -177h242zM387 710h-89l-80 123h87l43 -68h2l65 68h94z" />
    <glyph glyph-name="ecaron" unicode="&#x11b;" horiz-adv-x="479" 
d="M391 113l11 -85q-75 -39 -172 -39q-98 0 -149 54.5t-51 147.5q0 117 78 212t198 95q72 0 114.5 -37.5t42.5 -99.5q0 -168 -319 -161q-5 -39 13 -69q29 -50 100 -50q72 0 134 32zM353 361q0 23 -17 36.5t-45 13.5q-51 0 -87 -37.5t-48 -86.5q97 -1 147 15.5t50 58.5z
M343 546h-81l-73 148h79l42 -85h2l65 85h85z" />
    <glyph glyph-name="Gcircumflex" unicode="&#x11c;" horiz-adv-x="651" 
d="M619 370l-65 -340q-100 -37 -205 -37q-142 0 -223 78q-77 76 -77 204q0 90 35.5 170.5t99.5 136.5q116 99 288 99q110 0 170 -30l-36 -98q-60 28 -143 28q-110 0 -188 -67q-45 -39 -72 -101t-27 -130q0 -92 49 -141.5t143 -49.5q52 0 87 15l32 169h-119l18 94h233z
M421 832h89l80 -122h-86l-44 66h-2l-65 -66h-94z" />
    <glyph glyph-name="gcircumflex" unicode="&#x11d;" horiz-adv-x="543" 
d="M11 -176l29 89q48 -29 128 -29q61 0 101 34t57 115l12 55h-2q-59 -86 -153 -86q-70 0 -111 50t-41 122q0 62 21.5 119.5t61 103.5t101 73.5t134.5 27.5q93 0 169 -34l-74 -402q-30 -158 -100 -217q-66 -54 -180 -54q-100 0 -153 33zM364 250l28 145q-26 12 -65 12
q-74 0 -124 -66.5t-50 -148.5q0 -43 18.5 -71t59.5 -28q43 0 81.5 45.5t51.5 111.5zM314 694h81l72 -148h-79l-41 84h-2l-64 -84h-86z" />
    <glyph glyph-name="Gbreve" unicode="&#x11e;" horiz-adv-x="651" 
d="M619 370l-65 -340q-100 -37 -205 -37q-142 0 -223 78q-77 76 -77 204q0 90 35.5 170.5t99.5 136.5q116 99 288 99q110 0 170 -30l-36 -98q-60 28 -143 28q-110 0 -188 -67q-45 -39 -72 -101t-27 -130q0 -92 49 -141.5t143 -49.5q52 0 87 15l32 169h-119l18 94h233z
M318 836h68q-1 -22 12.5 -36.5t43.5 -14.5q58 0 71 51h69q-9 -51 -45.5 -83t-100.5 -32q-65 0 -94.5 32t-23.5 83z" />
    <glyph glyph-name="gbreve" unicode="&#x11f;" horiz-adv-x="543" 
d="M11 -176l29 89q48 -29 128 -29q61 0 101 34t57 115l12 55h-2q-59 -86 -153 -86q-70 0 -111 50t-41 122q0 62 21.5 119.5t61 103.5t101 73.5t134.5 27.5q93 0 169 -34l-74 -402q-30 -158 -100 -217q-66 -54 -180 -54q-100 0 -153 33zM364 250l28 145q-26 12 -65 12
q-74 0 -124 -66.5t-50 -148.5q0 -43 18.5 -71t59.5 -28q43 0 81.5 45.5t51.5 111.5zM232 687h63q0 -62 50 -62q30 0 48 18t24 44h65q-10 -58 -47 -92t-94 -34q-64 0 -90 35t-19 91z" />
    <glyph glyph-name="Gdotaccent" unicode="&#x120;" horiz-adv-x="651" 
d="M619 370l-65 -340q-100 -37 -205 -37q-142 0 -223 78q-77 76 -77 204q0 90 35.5 170.5t99.5 136.5q116 99 288 99q112 0 170 -30l-36 -98q-60 28 -143 28q-110 0 -188 -67q-45 -39 -72 -101t-27 -130q0 -92 49 -141.5t143 -49.5q52 0 87 15l32 169h-119l18 94h233z
M454 715q-23 0 -40 16.5t-17 40.5q0 28 19 46.5t46 18.5q25 0 41 -17t16 -41q0 -27 -19 -45.5t-46 -18.5z" />
    <glyph glyph-name="gdotaccent" unicode="&#x121;" horiz-adv-x="543" 
d="M11 -176l29 89q48 -29 128 -29q61 0 101 34t57 115l12 55h-3q-58 -86 -152 -86q-70 0 -111 50t-41 122q-1 83 35.5 156t111 120.5t170.5 47.5q92 0 170 -34l-74 -402q-30 -157 -101 -217q-64 -54 -179 -54q-100 0 -153 33zM364 250l27 145q-26 12 -64 12
q-74 0 -124 -66.5t-50 -148.5q0 -43 18.5 -71t59.5 -28q43 0 81.5 45.5t51.5 111.5zM345 560q-24 0 -40.5 16.5t-16.5 42.5q0 29 19 47.5t46 18.5q26 0 42 -16.5t16 -42.5q0 -29 -18.5 -47.5t-47.5 -18.5z" />
    <glyph glyph-name="Gcommaaccent" unicode="&#x122;" horiz-adv-x="651" 
d="M619 370l-65 -340q-100 -37 -205 -37q-142 0 -223 78q-77 76 -77 204q0 90 35.5 170.5t99.5 136.5q116 99 288 99q110 0 170 -30l-36 -98q-60 28 -143 28q-110 0 -188 -67q-45 -39 -72 -101t-27 -130q0 -92 49 -141.5t143 -49.5q52 0 87 15l32 169h-119l18 94h233z
M213 -231l-12 55q33 5 57 23t24 48q0 28 -22 48l89 16q27 -23 27 -62q0 -60 -49 -92.5t-114 -35.5z" />
    <glyph glyph-name="gcommaaccent" unicode="&#x123;" horiz-adv-x="543" 
d="M11 -176l29 89q48 -29 128 -29q61 0 101 34t57 115l12 55h-2q-59 -86 -153 -86q-70 0 -111 50t-41 122q0 62 21.5 119.5t61 103.5t101 73.5t134.5 27.5q93 0 169 -34l-74 -402q-28 -157 -100 -217q-66 -54 -180 -54q-100 0 -153 33zM364 250l28 145q-26 12 -65 12
q-74 0 -124 -66.5t-50 -148.5q0 -42 19 -70.5t59 -28.5q43 0 81.5 45.5t51.5 111.5zM445 721l12 -55q-34 -5 -58.5 -23t-24.5 -48q0 -28 22 -48l-84 -16q-27 23 -27 61q0 60 48.5 93t111.5 36z" />
    <glyph glyph-name="Hcircumflex" unicode="&#x124;" horiz-adv-x="648" 
d="M153 674h116l-52 -273h274l52 273h117l-128 -674h-117l57 298h-274l-57 -298h-116zM390 832h89l80 -122h-86l-44 66h-2l-65 -66h-94z" />
    <glyph glyph-name="hcircumflex" unicode="&#x125;" horiz-adv-x="550" 
d="M136 0h-116l135 710h116l-57 -296h2q68 84 163 84q53 0 87.5 -33.5t34.5 -97.5q0 -38 -9 -85l-53 -282h-116l52 273q6 38 6 64q0 66 -61 66q-44 0 -85 -48t-55 -123zM194 860h89l80 -122h-86l-44 66h-2l-65 -66h-94z" />
    <glyph glyph-name="Hbar" unicode="&#x126;" horiz-adv-x="648" 
d="M505 476h-274l-17 -93h274zM53 550h76l24 124h117l-24 -124h274l23 124h117l-23 -124h69l-15 -74h-68l-91 -476h-116l52 280h-274l-52 -280h-117l90 476h-77z" />
    <glyph glyph-name="hbar" unicode="&#x127;" horiz-adv-x="550" 
d="M49 615h88l18 95h116l-18 -95h174l-13 -67h-174l-26 -134h2q68 84 163 84q53 0 87.5 -33.5t34.5 -97.5q0 -38 -9 -85l-53 -282h-116l52 273q6 38 6 64q0 66 -61 66q-44 0 -85 -48t-55 -123l-44 -232h-116l104 548h-88z" />
    <glyph glyph-name="Itilde" unicode="&#x128;" horiz-adv-x="256" 
d="M150 674h116l-128 -674h-116zM143 714h-60q9 54 33.5 84t57.5 30q29 0 62 -20q29 -19 42 -19q21 0 34 42h59q-18 -111 -93 -111q-32 0 -61 19q-31 18 -42 18q-21 0 -32 -43z" />
    <glyph glyph-name="itilde" unicode="&#x129;" horiz-adv-x="249" 
d="M136 0h-117l93 487h117zM120 563h-60q7 53 29.5 83.5t57.5 30.5q26 0 62 -21q30 -18 40 -18q12 0 18.5 9t12.5 34h59q-16 -111 -88 -111q-31 0 -63 20q-23 18 -39 18q-20 0 -29 -45z" />
    <glyph glyph-name="Imacron" unicode="&#x12a;" horiz-adv-x="256" 
d="M150 674h116l-128 -674h-116zM113 802h243l-13 -68h-244z" />
    <glyph glyph-name="imacron" unicode="&#x12b;" horiz-adv-x="249" 
d="M137 0h-117l93 487h116zM88 655h234l-13 -67h-234z" />
    <glyph glyph-name="Ibreve" unicode="&#x12c;" horiz-adv-x="256" 
d="M150 674h116l-128 -674h-116zM106 838h67q0 -51 57 -51t70 51h69q-9 -51 -45 -83t-100 -32q-66 0 -95 32t-23 83z" />
    <glyph glyph-name="ibreve" unicode="&#x12d;" horiz-adv-x="249" 
d="M136 0h-116l93 487h116zM85 687h62q0 -62 51 -62q30 0 47.5 18t23.5 44h65q-9 -58 -46 -92t-94 -34q-64 0 -90 35t-19 91z" />
    <glyph glyph-name="Iogonek" unicode="&#x12e;" horiz-adv-x="256" 
d="M267 674l-128 -674h-48q-44 -53 -44 -94q0 -40 41 -40q23 0 45 9l9 -59q-36 -29 -94 -29q-42 0 -65.5 22.5t-23.5 61.5q0 52 64 132l127 671h117z" />
    <glyph glyph-name="iogonek" unicode="&#x12f;" horiz-adv-x="249" 
d="M190 561q-28 0 -45.5 18.5t-17.5 47.5q0 32 21.5 53t52.5 21q29 0 47.5 -18t18.5 -48q-1 -33 -23 -53.5t-54 -20.5zM229 487l-93 -487h-48q-44 -53 -44 -94q0 -40 41 -40q25 0 45 9l10 -59q-38 -29 -95 -29q-42 0 -65.5 22.5t-23.5 61.5q0 52 64 132l92 484h117z" />
    <glyph glyph-name="Idotaccent" unicode="&#x130;" horiz-adv-x="256" 
d="M151 674h116l-128 -674h-116zM227 715q-23 0 -40 16.5t-17 40.5q0 28 19 46.5t46 18.5q25 0 41 -17t16 -41q0 -27 -19 -45.5t-46 -18.5z" />
    <glyph glyph-name="dotlessi" unicode="&#x131;" horiz-adv-x="249" 
d="M136 0h-116l93 487h116z" />
    <glyph glyph-name="IJ" unicode="&#x132;" horiz-adv-x="639" 
d="M150 674h117l-128 -674h-117zM457 234l83 440h117l-86 -453q-24 -124 -80.5 -178t-162.5 -54q-68 0 -106 17l24 99q34 -13 82 -13q52 0 83 32t46 110z" />
    <glyph glyph-name="ij" unicode="&#x133;" horiz-adv-x="502" 
d="M136 0h-116l93 487h116zM190 557q-26 0 -42.5 17t-16.5 45q0 30 20.5 50t49.5 20q28 0 45 -17t17 -45q-1 -32 -21.5 -51t-51.5 -19zM372 487h115l-89 -477q-24 -123 -66 -169q-44 -50 -123 -50q-35 0 -63 7l14 89q14 -3 35 -3q31 0 51 24.5t33 89.5zM444 557
q-26 0 -42.5 17t-16.5 45q0 30 20.5 50t49.5 20q28 0 45 -17t17 -45q-1 -32 -21.5 -51t-51.5 -19z" />
    <glyph glyph-name="Jcircumflex" unicode="&#x134;" horiz-adv-x="383" 
d="M202 234l83 440h116l-86 -453q-23 -124 -79.5 -178t-162.5 -54q-70 0 -106 17l23 99q36 -13 83 -13q52 0 83 32t46 110zM325 832h89l80 -122h-86l-44 66h-2l-65 -66h-94z" />
    <glyph glyph-name="jcircumflex" unicode="&#x135;" horiz-adv-x="254" 
d="M123 487h116l-90 -477q-22 -122 -65 -169q-44 -50 -123 -50q-36 0 -63 7l13 89q15 -3 35 -3q31 0 51.5 24.5t33.5 89.5zM166 694h79l72 -148h-78l-41 89h-2l-64 -89h-85z" />
    <glyph glyph-name="Kcommaaccent" unicode="&#x136;" horiz-adv-x="556" 
d="M24 0l128 674h116l-60 -313h4q8 11 63 77l210 236h145l-278 -291l164 -383h-126l-129 310l-75 -71l-47 -239h-115zM135 -231l-13 55q32 5 56.5 23t24.5 48q0 28 -22 48l89 16q27 -21 27 -61q0 -60 -49 -93t-113 -36z" />
    <glyph glyph-name="kcommaaccent" unicode="&#x137;" horiz-adv-x="496" 
d="M136 0h-116l135 710h116l-83 -434h2q38 45 44 53l146 158h144l-210 -200l140 -287h-129l-100 223l-57 -53zM105 -231l-13 55q32 5 56.5 23t24.5 48q0 28 -22 48l89 16q27 -21 27 -61q0 -60 -49 -93t-113 -36z" />
    <glyph glyph-name="kgreenlandic" unicode="&#x138;" horiz-adv-x="496" 
d="M136 0h-116l93 487h115l-40 -211h2q27 33 45 53l145 158h144l-210 -200l140 -287h-129l-100 223l-57 -53z" />
    <glyph glyph-name="Lacute" unicode="&#x139;" horiz-adv-x="467" 
d="M24 0l128 674h117l-109 -572h265l-20 -102h-381zM275 832h137l-134 -122h-101z" />
    <glyph glyph-name="lacute" unicode="&#x13a;" horiz-adv-x="249" 
d="M137 0h-117l136 710h116zM254 867h137l-134 -122h-101z" />
    <glyph glyph-name="Lcommaaccent" unicode="&#x13b;" horiz-adv-x="467" 
d="M24 0l128 674h117l-109 -572h265l-19 -102h-382zM100 -231l-13 55q33 5 57 23t24 48q0 28 -22 48l89 16q27 -21 27 -61q0 -60 -49 -93t-113 -36z" />
    <glyph glyph-name="lcommaaccent" unicode="&#x13c;" horiz-adv-x="249" 
d="M137 0h-117l136 710h116zM-23 -231l-13 55q32 5 56.5 23t24.5 48q0 28 -22 48l89 16q27 -21 27 -61q0 -60 -49 -93t-113 -36z" />
    <glyph glyph-name="Lcaron" unicode="&#x13d;" horiz-adv-x="467" 
d="M25 0l128 674h116l-109 -572h265l-19 -102h-381zM312 489l-13 55q33 5 57 23t24 48q0 28 -22 48l89 16q27 -21 27 -62q0 -59 -49 -92t-113 -36z" />
    <glyph glyph-name="lcaron" unicode="&#x13e;" horiz-adv-x="256" 
d="M136 0h-116l136 710h116zM316 514l-42 44q22 16 38 43t16 58q0 27 -15 45l82 16q24 -20 24 -62q0 -52 -32 -90.5t-71 -53.5z" />
    <glyph glyph-name="Ldot" unicode="&#x13f;" horiz-adv-x="469" 
d="M25 0l128 674h116l-109 -572h265l-19 -102h-381zM364 312q-23 0 -40 16.5t-17 40.5q0 27 19 45.5t46 18.5q25 0 41 -17t16 -40q0 -27 -19 -45.5t-46 -18.5z" />
    <glyph glyph-name="ldot" unicode="&#x140;" horiz-adv-x="315" 
d="M137 0h-117l136 710h116zM300 301q-22 0 -38 16t-16 41q0 28 17.5 46t44.5 18q24 0 39 -16t15 -41q0 -28 -17.5 -46t-44.5 -18z" />
    <glyph glyph-name="Lslash" unicode="&#x141;" horiz-adv-x="476" 
d="M415 0h-381l47 251l-89 -56l18 88l88 56l64 335h116l-48 -253l140 88l-17 -89l-140 -88l-43 -230h264z" />
    <glyph glyph-name="lslash" unicode="&#x142;" horiz-adv-x="260" 
d="M142 0h-116l48 253l-74 -52l17 90l75 52l70 367h116l-53 -276l80 56l-17 -90l-80 -56z" />
    <glyph glyph-name="Nacute" unicode="&#x143;" horiz-adv-x="651" 
d="M133 0h-109l128 674h134l118 -313q35 -98 60 -211h3q4 88 30 228l56 296h109l-128 -674h-119l-121 319q-44 126 -64 217l-3 -1q-9 -86 -40 -247zM441 832h137l-134 -122h-100z" />
    <glyph glyph-name="nacute" unicode="&#x144;" horiz-adv-x="550" 
d="M136 0h-116l63 336q11 54 25 151h104l-11 -87h2q68 98 175 98q55 0 89.5 -34t34.5 -100q0 -37 -9 -80l-53 -284h-117l52 275q6 36 6 58q0 70 -61 70q-43 0 -85 -48.5t-57 -129.5zM374 694h123l-131 -148h-88z" />
    <glyph glyph-name="Ncommaaccent" unicode="&#x145;" horiz-adv-x="651" 
d="M133 0h-109l128 674h134l118 -313q33 -92 61 -211h2q4 88 30 228l56 296h109l-128 -674h-119l-120 319q-41 113 -65 217l-3 -1q-9 -86 -40 -247zM187 -231l-13 55q32 5 56.5 23t24.5 48q0 28 -22 48l89 16q27 -21 27 -61q0 -60 -49 -93t-113 -36z" />
    <glyph glyph-name="ncommaaccent" unicode="&#x146;" horiz-adv-x="550" 
d="M136 0h-116l63 336q11 54 25 151h104l-11 -87h2q68 98 175 98q55 0 89.5 -34t34.5 -100q0 -37 -9 -80l-53 -284h-117l52 275q6 36 6 58q0 70 -61 70q-43 0 -85 -48.5t-57 -129.5zM132 -231l-13 55q32 5 56.5 23t24.5 48q0 28 -22 48l89 16q27 -21 27 -61q0 -60 -49 -93
t-113 -36z" />
    <glyph glyph-name="Ncaron" unicode="&#x147;" horiz-adv-x="651" 
d="M133 0h-109l128 674h134l118 -313q35 -98 60 -211h3q4 88 30 228l56 296h109l-128 -674h-119l-121 319q-44 126 -64 217l-3 -1q-9 -86 -40 -247zM460 710h-89l-80 122h87l43 -67h2l65 67h94z" />
    <glyph glyph-name="ncaron" unicode="&#x148;" horiz-adv-x="550" 
d="M136 0h-116l63 336q11 54 25 151h104l-11 -87h2q68 98 175 98q55 0 89.5 -34t34.5 -100q0 -37 -9 -80l-53 -284h-117l52 275q6 36 6 58q0 70 -61 70q-43 0 -85 -48.5t-57 -129.5zM360 546h-81l-73 148h79l42 -85h2l65 85h85z" />
    <glyph glyph-name="napostrophe" unicode="&#x149;" horiz-adv-x="550" 
d="M136 0h-116l63 336q11 54 25 151h104l-11 -87h2q68 98 175 98q55 0 89.5 -34t34.5 -100q0 -37 -9 -80l-53 -284h-117l52 275q6 36 6 58q0 70 -61 70q-43 0 -85 -48.5t-57 -129.5zM75 544l-14 55q20 6 35.5 25t15.5 44q0 31 -21 50l83 15q27 -21 27 -63q0 -57 -40 -90
t-86 -36z" />
    <glyph glyph-name="Eng" unicode="&#x14a;" horiz-adv-x="651" 
d="M289 -205l-10 94q112 11 136 106l-121 324q-44 126 -64 217l-3 -1q-9 -86 -40 -247l-54 -288h-109l128 674h134l118 -313q35 -98 60 -211h3q4 97 30 228l56 296h109l-121 -637q-25 -130 -89 -184t-163 -58z" />
    <glyph glyph-name="eng" unicode="&#x14b;" horiz-adv-x="550" 
d="M216 -184l-12 96q53 6 84 36t45 100l42 227q6 36 6 58q0 70 -61 70q-43 0 -85 -48.5t-57 -129.5l-42 -225h-116l63 336q14 73 25 151h104l-11 -87h2q68 98 174 98q56 0 90.5 -34t34.5 -101q0 -36 -9 -79l-43 -232q-24 -125 -82.5 -177.5t-151.5 -58.5z" />
    <glyph glyph-name="Omacron" unicode="&#x14c;" horiz-adv-x="688" 
d="M314 -11q-126 0 -196 79.5t-70 198.5q0 92 33.5 179t93.5 145q96 94 236 94q129 0 197 -78.5t68 -200.5q0 -92 -32 -178t-90 -143q-98 -96 -240 -96zM331 87q74 0 131 57q41 42 65.5 116.5t24.5 141.5q0 36 -7 67t-23.5 58.5t-48.5 43.5t-76 16q-75 0 -133 -58
q-43 -43 -67.5 -115t-24.5 -141q0 -83 39 -134.5t120 -51.5zM323 802h244l-13 -68h-244z" />
    <glyph glyph-name="omacron" unicode="&#x14d;" horiz-adv-x="543" 
d="M231 -11q-91 0 -145 56.5t-54 144.5q0 127 79.5 217.5t201.5 90.5q94 0 146.5 -58t52.5 -143q0 -127 -79.5 -217.5t-201.5 -90.5zM247 79q62 0 103.5 69t41.5 148q0 44 -22.5 78t-70.5 34q-65 0 -106 -69.5t-41 -145.5q0 -51 25.5 -82.5t69.5 -31.5zM234 655h234l-13 -67
h-234z" />
    <glyph glyph-name="Obreve" unicode="&#x14e;" horiz-adv-x="688" 
d="M314 -11q-126 0 -196 79.5t-70 198.5q0 92 33.5 179t93.5 145q96 94 236 94q129 0 197 -78.5t68 -200.5q0 -92 -32 -178t-90 -143q-98 -96 -240 -96zM331 87q74 0 131 57q41 42 65.5 116.5t24.5 141.5q0 36 -7 67t-23.5 58.5t-48.5 43.5t-76 16q-75 0 -133 -58
q-43 -43 -67.5 -115t-24.5 -141q0 -83 39 -134.5t120 -51.5zM317 839h67q0 -51 57 -51t70 51h69q-8 -51 -44.5 -83t-100.5 -32q-66 0 -95 32t-23 83z" />
    <glyph glyph-name="obreve" unicode="&#x14f;" horiz-adv-x="543" 
d="M231 -11q-91 0 -145 56.5t-54 144.5q0 127 79.5 217.5t201.5 90.5q94 0 146.5 -58t52.5 -143q0 -127 -79.5 -217.5t-201.5 -90.5zM247 79q62 0 103.5 69t41.5 148q0 44 -22.5 78t-70.5 34q-65 0 -106 -69.5t-41 -145.5q0 -51 25.5 -82.5t69.5 -31.5zM229 687h63
q-1 -27 11.5 -44.5t38.5 -17.5q55 0 72 62h64q-9 -58 -45.5 -92t-94.5 -34q-64 0 -90 35t-19 91z" />
    <glyph glyph-name="Ohungarumlaut" unicode="&#x150;" horiz-adv-x="688" 
d="M314 -11q-126 0 -196 79.5t-70 198.5q0 92 33.5 179t93.5 145q96 94 236 94q129 0 197 -78.5t68 -200.5q0 -92 -32 -178t-90 -143q-98 -96 -240 -96zM331 87q74 0 131 57q41 42 65.5 116.5t24.5 141.5q0 36 -7 67t-23.5 58.5t-48.5 43.5t-76 16q-75 0 -133 -58
q-43 -43 -67.5 -115t-24.5 -141q0 -83 39 -134.5t120 -51.5zM380 833h120l-124 -116h-87zM547 833h120l-124 -116h-87z" />
    <glyph glyph-name="ohungarumlaut" unicode="&#x151;" horiz-adv-x="543" 
d="M231 -11q-91 0 -145 56.5t-54 144.5q0 127 79.5 217.5t201.5 90.5q94 0 146.5 -58t52.5 -143q0 -127 -79.5 -217.5t-201.5 -90.5zM247 79q62 0 103.5 69t41.5 148q0 44 -22.5 78t-70.5 34q-65 0 -106 -69.5t-41 -145.5q0 -51 25.5 -82.5t69.5 -31.5zM277 693h107
l-123 -148h-73zM438 693h107l-123 -148h-72z" />
    <glyph glyph-name="OE" unicode="&#x152;" horiz-adv-x="890" 
d="M825 99l-18 -99h-342q-28 0 -57 -4q-29 -5 -77 -5q-137 0 -212 80t-75 204q0 81 27.5 154.5t78 130t129.5 90t174 33.5q45 0 83 -5q56 -4 68 -4h315l-19 -99h-262l-33 -178h247l-19 -98h-247l-38 -200h277zM431 97l90 479q-26 9 -76 9q-125 0 -201 -88.5t-76 -213.5
q0 -87 49 -140.5t143 -53.5q40 0 71 8z" />
    <glyph glyph-name="oe" unicode="&#x153;" horiz-adv-x="814" 
d="M727 113l10 -83q-70 -41 -166 -41q-122 0 -164 99h-2q-63 -99 -183 -99q-85 0 -138 57t-53 149q0 126 76.5 214.5t188.5 88.5q59 0 100.5 -26.5t59.5 -74.5h1q32 48 82.5 74.5t106.5 26.5q74 0 113 -39t39 -91q0 -51 -26.5 -85t-74.5 -50.5t-98.5 -22.5t-116.5 -6
q-6 -39 12 -72q31 -50 103 -50q64 0 130 31zM244 80q63 0 103 70.5t40 144.5q0 49 -21 81.5t-69 32.5q-65 0 -105.5 -66.5t-40.5 -144.5q0 -53 25 -85.5t68 -32.5zM689 360q0 22 -17 36.5t-49 14.5q-47 0 -81 -37t-47 -84q56 -1 94.5 3t69 20.5t30.5 46.5z" />
    <glyph glyph-name="Racute" unicode="&#x154;" horiz-adv-x="556" 
d="M25 0l127 663q69 16 165 16q112 0 170 -43q63 -46 63 -123q0 -72 -44 -122t-112 -71v-3q59 -23 69 -128q16 -170 23 -189h-120q-7 29 -17 161q-4 63 -27.5 90t-70.5 27h-57l-53 -278h-116zM251 581l-40 -215h66q67 0 109.5 37.5t42.5 92.5q0 45 -31.5 68t-83.5 23
q-42 0 -63 -6zM374 832h136l-133 -122h-101z" />
    <glyph glyph-name="racute" unicode="&#x155;" horiz-adv-x="347" 
d="M136 0h-116l57 300q9 45 25 187h101q-6 -69 -11 -102h3q26 51 65.5 82t86.5 31q5 0 13.5 -0.5t12.5 -0.5l-23 -114q-6 1 -22 1q-59 0 -99.5 -52.5t-55.5 -135.5zM270 694h123l-131 -148h-88z" />
    <glyph glyph-name="Rcommaaccent" unicode="&#x156;" horiz-adv-x="556" 
d="M25 0l126 663q69 16 165 16q113 0 171 -43q63 -46 63 -123q0 -72 -44 -122t-112 -71v-3q59 -23 69 -128q16 -170 23 -189h-120q-8 25 -18 161q-4 63 -27.5 90t-70.5 27h-57l-53 -278h-115zM251 581l-41 -215h66q67 0 110 37t43 93q0 45 -32 68t-84 23q-43 0 -62 -6z
M135 -231l-13 55q32 5 56.5 23t24.5 48q0 28 -22 48l89 16q27 -21 27 -61q0 -60 -49 -93t-113 -36z" />
    <glyph glyph-name="rcommaaccent" unicode="&#x157;" horiz-adv-x="347" 
d="M136 0h-116l57 300q9 45 25 187h101q-6 -69 -11 -102h3q26 51 65.5 82t86.5 31q5 0 13.5 -0.5t12.5 -0.5l-23 -114q-6 1 -22 1q-59 0 -99.5 -52.5t-55.5 -135.5zM0 -231l-13 55q32 5 56.5 23t24.5 48q0 28 -22 48l89 16q27 -21 27 -61q0 -60 -49 -93t-113 -36z" />
    <glyph glyph-name="Rcaron" unicode="&#x158;" horiz-adv-x="556" 
d="M25 0l127 663q69 16 165 16q112 0 170 -43q63 -46 63 -123q0 -72 -44 -122t-112 -71v-3q59 -23 69 -128q16 -170 23 -189h-120q-7 29 -17 161q-4 63 -27.5 90t-70.5 27h-57l-53 -278h-116zM251 581l-40 -215h66q67 0 109.5 37.5t42.5 92.5q0 45 -31.5 68t-83.5 23
q-42 0 -63 -6zM382 710h-89l-80 122h87l43 -67h2l65 67h94z" />
    <glyph glyph-name="rcaron" unicode="&#x159;" horiz-adv-x="347" 
d="M136 0h-116l57 300q9 45 25 187h101q-6 -69 -11 -102h3q26 51 65.5 82t86.5 31q5 0 13.5 -0.5t12.5 -0.5l-23 -114q-6 1 -22 1q-59 0 -99.5 -52.5t-55.5 -135.5zM278 546h-82l-72 148h79l41 -85h3l64 85h86z" />
    <glyph glyph-name="Sacute" unicode="&#x15a;" horiz-adv-x="490" 
d="M5 37l40 96q65 -43 152 -43q52 0 88 26.5t36 73.5q0 32 -22 57t-72 52q-137 74 -137 176q0 94 71.5 151.5t176.5 57.5q95 0 150 -34l-38 -96q-57 31 -121 30q-54 0 -85.5 -26t-31.5 -62q0 -32 24 -56t77 -53q131 -69 131 -179q0 -100 -73 -159t-187 -59q-58 1 -106 14.5
t-73 32.5zM359 833h137l-134 -122h-100z" />
    <glyph glyph-name="sacute" unicode="&#x15b;" horiz-adv-x="397" 
d="M2 25l30 83q57 -32 117 -32q34 0 54.5 17t20.5 43q0 23 -14 39.5t-50 35.5q-96 51 -96 127q0 70 55.5 115t141.5 45q74 0 114 -25l-29 -84q-42 22 -91 22q-33 0 -53.5 -15.5t-20.5 -40.5q0 -37 63 -68q101 -54 101 -131q0 -79 -58 -123.5t-149 -43.5q-89 2 -136 36z
M284 694h123l-131 -148h-88z" />
    <glyph glyph-name="Scircumflex" unicode="&#x15c;" horiz-adv-x="490" 
d="M5 37l40 96q65 -43 152 -43q52 0 88 26.5t36 73.5q0 32 -22 57t-72 52q-137 74 -137 176q0 94 71.5 151.5t176.5 57.5q95 0 150 -34l-38 -96q-57 31 -121 30q-54 0 -85.5 -26t-31.5 -62q0 -32 24 -56t77 -53q131 -69 131 -179q0 -100 -73 -159t-187 -59q-58 1 -106 14.5
t-73 32.5zM310 832h89l80 -122h-86l-44 66h-2l-65 -66h-94z" />
    <glyph glyph-name="scircumflex" unicode="&#x15d;" horiz-adv-x="397" 
d="M2 25l30 83q57 -32 117 -32q34 0 54.5 17t20.5 43q0 23 -14 39.5t-50 35.5q-96 51 -96 127q0 70 55.5 115t141.5 45q74 0 114 -25l-29 -84q-42 22 -91 22q-33 0 -53.5 -15.5t-20.5 -40.5q0 -37 63 -68q101 -54 101 -131q0 -79 -58 -123.5t-149 -43.5q-89 2 -136 36z
M237 694h82l72 -148h-80l-41 84h-2l-63 -84h-86z" />
    <glyph glyph-name="Scedilla" unicode="&#x15e;" horiz-adv-x="490" 
d="M488 650l-38 -96q-55 30 -121 30q-54 0 -85.5 -26t-31.5 -62q0 -32 24 -56t77 -53q131 -69 131 -179q0 -83 -52 -139.5t-139 -72.5l-30 -42q26 -6 42 -24t16 -43q0 -44 -35.5 -67.5t-82.5 -23.5t-73 19l22 51q24 -15 53 -15q16 0 28 8t12 23q0 32 -70 38l48 70h-11
q-40 0 -90 13t-77 34l40 96q65 -43 152 -43q52 0 88 26.5t36 73.5q0 32 -22 57t-72 52q-137 74 -137 176q0 94 71.5 151.5t176.5 57.5q95 0 150 -34z" />
    <glyph glyph-name="scedilla" unicode="&#x15f;" horiz-adv-x="397" 
d="M375 473l-29 -84q-42 22 -91 22q-33 0 -53.5 -15.5t-20.5 -40.5q0 -37 63 -68q101 -52 101 -131q0 -63 -38.5 -104.5t-102.5 -55.5l-31 -42q26 -6 42 -23t16 -41q0 -44 -35.5 -67.5t-82.5 -23.5t-73 19l22 49q24 -15 53 -15q16 0 28 8t12 23q0 31 -69 38l47 69h-4
q-33 0 -70.5 10.5t-56.5 24.5l30 83q57 -32 117 -32q34 0 54.5 17t20.5 43q0 23 -14 39.5t-50 35.5q-96 51 -96 127q0 70 55.5 115t141.5 45q74 0 114 -25z" />
    <glyph glyph-name="Scaron" unicode="&#x160;" horiz-adv-x="490" 
d="M5 37l40 96q65 -43 152 -43q52 0 88 26.5t36 73.5q0 32 -22 57t-72 52q-137 74 -137 176q0 94 71.5 151.5t176.5 57.5q95 0 150 -34l-38 -96q-57 31 -121 30q-54 0 -85.5 -26t-31.5 -62q0 -32 24 -56t77 -53q131 -69 131 -179q0 -100 -73 -159t-187 -59q-58 1 -106 14.5
t-73 32.5zM373 710h-89l-80 122h87l42 -67h3l65 67h94z" />
    <glyph glyph-name="scaron" unicode="&#x161;" horiz-adv-x="397" 
d="M2 25l30 83q57 -32 117 -32q34 0 54.5 17t20.5 43q0 23 -14 39.5t-50 35.5q-96 51 -96 127q0 70 55.5 115t141.5 45q74 0 114 -25l-29 -84q-42 22 -91 22q-33 0 -53.5 -15.5t-20.5 -40.5q0 -37 63 -68q101 -54 101 -131q0 -79 -58 -123.5t-149 -43.5q-89 2 -136 36z
M296 546h-81l-73 148h79l41 -85h3l64 85h86z" />
    <glyph glyph-name="Tcommaaccent" unicode="&#x162;" horiz-adv-x="503" 
d="M144 0l108 572h-186l20 102h491l-20 -102h-188l-108 -572h-117zM101 -231l-13 55q32 5 56.5 23t24.5 48q0 28 -22 48l89 16q27 -21 27 -61q0 -60 -49 -93t-113 -36z" />
    <glyph glyph-name="tcommaaccent" unicode="&#x163;" horiz-adv-x="333" 
d="M147 578l120 34l-23 -125h109l-18 -90h-109l-38 -196q-9 -41 -9 -69q0 -44 43 -44q22 0 40 3l-11 -91q-24 -10 -76 -10q-57 0 -86 27.5t-29 72.5q0 39 10 90l42 217h-65l17 90h65zM27 -231l-13 55q32 5 56.5 23t24.5 48q0 29 -22 49l89 16q27 -23 27 -62q0 -59 -48.5 -92
t-113.5 -37z" />
    <glyph glyph-name="Tcaron" unicode="&#x164;" horiz-adv-x="503" 
d="M144 0l108 572h-186l20 102h491l-20 -102h-188l-108 -572h-117zM382 710h-89l-80 122h87l43 -67h2l65 67h94z" />
    <glyph glyph-name="tcaron" unicode="&#x165;" horiz-adv-x="333" 
d="M147 578l121 34l-24 -125h110l-18 -90h-110l-38 -196q-9 -41 -9 -69q0 -44 44 -44q23 0 39 3l-11 -91q-24 -10 -76 -10q-57 0 -86 27.5t-29 72.5q0 39 10 90l42 217h-65l17 90h65zM347 539l-27 50q45 20 45 67q0 29 -19 51l81 16q12 -9 20.5 -27t8.5 -37q0 -50 -35 -82
t-74 -38z" />
    <glyph glyph-name="Tbar" unicode="&#x166;" horiz-adv-x="503" 
d="M445 304h-126l-58 -304h-116l57 304h-121l15 75h120l37 193h-187l20 102h491l-20 -102h-188l-37 -193h128z" />
    <glyph glyph-name="tbar" unicode="&#x167;" horiz-adv-x="333" 
d="M40 307h55l17 90h-65l17 90h65l18 91l120 34l-23 -125h109l-18 -90h-109l-18 -90h92l-13 -67h-92l-10 -54q-6 -30 -6 -54q0 -44 43 -44q22 0 40 3l-11 -91q-24 -10 -76 -10q-57 0 -86 27.5t-29 72.5q0 30 10 90l12 60h-55z" />
    <glyph glyph-name="Utilde" unicode="&#x168;" horiz-adv-x="639" 
d="M150 674h117l-75 -393q-8 -42 -8 -82q0 -52 29.5 -82t81.5 -30q64 0 105.5 46t61.5 147l75 394h116l-75 -392q-28 -151 -101 -222t-197 -71q-98 -1 -155 51.5t-57 155.5q0 38 9 94zM342 715h-60q9 55 33.5 85t57.5 30q29 0 62 -20q29 -19 42 -19q21 0 34 42h59
q-18 -111 -93 -111q-32 0 -61 19q-31 18 -42 18q-21 0 -32 -44z" />
    <glyph glyph-name="utilde" unicode="&#x169;" horiz-adv-x="545" 
d="M407 487h117l-64 -336q-10 -52 -24 -151h-104l11 85h-2q-72 -96 -169 -96q-57 0 -92 33.5t-35 104.5q0 40 10 87l52 273h116l-50 -266q-8 -38 -8 -67q0 -69 62 -69q42 0 81.5 46t54.5 119zM269 563h-60q7 53 29.5 83.5t57.5 30.5q26 0 62 -21q28 -18 39 -18q12 0 18.5 9
t12.5 34h59q-16 -111 -88 -111q-32 0 -62 20q-23 18 -39 18q-20 0 -29 -45z" />
    <glyph glyph-name="Umacron" unicode="&#x16a;" horiz-adv-x="639" 
d="M150 674h117l-75 -393q-8 -42 -8 -82q0 -52 29 -82t81 -30q131 0 167 193l75 394h117l-75 -392q-29 -152 -101.5 -222.5t-197.5 -70.5q-98 -1 -154.5 51.5t-56.5 155.5q0 38 9 94zM304 802h243l-13 -68h-243z" />
    <glyph glyph-name="umacron" unicode="&#x16b;" horiz-adv-x="545" 
d="M407 487h117l-64 -336q-10 -52 -24 -151h-104l11 85h-2q-72 -96 -169 -96q-57 0 -92 33.5t-35 104.5q0 40 10 87l52 273h116l-50 -266q-8 -38 -8 -67q0 -69 62 -69q42 0 81.5 46t54.5 119zM231 655h234l-13 -67h-234z" />
    <glyph glyph-name="Ubreve" unicode="&#x16c;" horiz-adv-x="639" 
d="M150 674h117l-75 -393q-8 -42 -8 -82q0 -52 29 -82t81 -30q131 0 167 193l75 394h117l-75 -392q-29 -152 -101.5 -222.5t-197.5 -70.5q-98 -1 -154.5 51.5t-56.5 155.5q0 38 9 94zM297 834h67q0 -51 57 -51t70 51h69q-8 -51 -44.5 -83t-100.5 -32q-66 0 -95 32t-23 83z
" />
    <glyph glyph-name="ubreve" unicode="&#x16d;" horiz-adv-x="545" 
d="M407 487h117l-64 -336q-10 -52 -24 -151h-104l11 85h-2q-72 -96 -169 -96q-57 0 -92 33.5t-35 104.5q0 40 10 87l52 273h116l-50 -266q-8 -38 -8 -67q0 -69 62 -69q42 0 81.5 46t54.5 119zM220 687h63q0 -62 51 -62q57 0 71 62h65q-9 -58 -46 -92t-94 -34q-64 0 -90.5 35
t-19.5 91z" />
    <glyph glyph-name="Uring" unicode="&#x16e;" horiz-adv-x="639" 
d="M150 674h117l-75 -393q-8 -42 -8 -82q0 -52 29.5 -82t81.5 -30q130 0 166 193l75 394h116l-74 -392q-29 -152 -101.5 -222.5t-196.5 -70.5q-98 -1 -155 51.5t-57 155.5q0 38 9 94zM420 880q44 0 72.5 -24t28.5 -65q-1 -44 -33 -70t-81 -26q-43 0 -71.5 23.5t-29.5 61.5
q-1 44 31.5 72t82.5 28zM414 837q-20 0 -33 -15t-13 -38q0 -19 11.5 -32.5t31.5 -13.5q21 0 34.5 14.5t13.5 36.5q0 21 -12 34.5t-33 13.5z" />
    <glyph glyph-name="uring" unicode="&#x16f;" horiz-adv-x="545" 
d="M407 487h117l-64 -336q-10 -52 -24 -151h-104l11 85h-2q-72 -96 -169 -96q-57 0 -92 33.5t-35 104.5q0 40 10 87l52 273h116l-50 -266q-8 -38 -8 -67q0 -69 62 -69q42 0 81.5 46t54.5 119zM352 728h2q44 0 72.5 -24.5t28.5 -68.5q-1 -45 -34 -72t-81 -27q-42 0 -71 24.5
t-30 64.5q-1 46 31.5 74.5t81.5 28.5zM348 684q-22 0 -35.5 -16t-13.5 -40q0 -20 12.5 -34t32.5 -14q23 0 37 15.5t14 39.5q0 21 -12.5 35t-34.5 14z" />
    <glyph glyph-name="Uhungarumlaut" unicode="&#x170;" horiz-adv-x="639" 
d="M150 674h117l-75 -393q-8 -42 -8 -82q0 -52 29 -82t81 -30q131 0 167 193l75 394h117l-75 -392q-29 -152 -101.5 -222.5t-197.5 -70.5q-98 -1 -154.5 51.5t-56.5 155.5q0 38 9 94zM356 833h121l-124 -116h-87zM523 833h120l-123 -116h-87z" />
    <glyph glyph-name="uhungarumlaut" unicode="&#x171;" horiz-adv-x="545" 
d="M407 487h117l-64 -336q-10 -52 -24 -151h-104l11 85h-2q-72 -96 -169 -96q-57 0 -92 33.5t-35 104.5q0 40 10 87l52 273h116l-50 -266q-8 -38 -8 -67q0 -69 62 -69q42 0 81.5 46t54.5 119zM283 693h107l-123 -148h-72zM444 693h107l-122 -148h-73z" />
    <glyph glyph-name="Uogonek" unicode="&#x172;" horiz-adv-x="639" 
d="M376 -119l14 -61q-37 -24 -93 -24q-41 0 -64 21t-23 58q0 57 67 115h-22q-86 5 -136.5 57t-50.5 149q0 36 9 94l73 384h117l-75 -393q-8 -42 -8 -82q0 -52 29.5 -82t81.5 -30q130 0 166 193l76 394h116l-75 -392q-40 -214 -173 -269q-32 -15 -53 -32q-51 -37 -51 -77
q0 -30 31 -30q18 0 44 7z" />
    <glyph glyph-name="uogonek" unicode="&#x173;" horiz-adv-x="545" 
d="M524 487l-64 -336q-10 -52 -24 -151l-34 2q-44 -53 -44 -94q0 -40 41 -40q23 0 45 9l9 -59q-36 -29 -94 -29q-42 0 -65.5 22.5t-23.5 61.5q0 52 64 132l9 80h-2q-72 -96 -169 -96q-57 0 -92 33.5t-35 104.5q0 40 10 87l52 273h116l-50 -266q-8 -38 -8 -67q0 -69 62 -69
q42 0 81.5 46t54.5 119l44 237h117z" />
    <glyph glyph-name="Wcircumflex" unicode="&#x174;" horiz-adv-x="848" 
d="M252 0h-128l-29 674h117l7 -347q1 -92 -3 -199h2q55 148 76 196l150 350h127l5 -340q1 -89 -3 -203h2q32 99 71 196l145 347h123l-304 -674h-126l-10 325q-2 89 4 210h-2q-50 -144 -76 -205zM489 832h89l80 -122h-86l-44 66h-2l-65 -66h-94z" />
    <glyph glyph-name="wcircumflex" unicode="&#x175;" horiz-adv-x="721" 
d="M56 487h117l8 -237q3 -72 -2 -144h3q15 45 56 137l118 244h97l21 -237q6 -107 4 -144h2q25 80 51 143l104 238h118l-238 -487h-109l-23 212q-5 80 -5 144h-2q-48 -118 -58 -139l-108 -217h-109zM401 694h81l72 -148h-79l-41 84h-2l-64 -84h-86z" />
    <glyph glyph-name="Ycircumflex" unicode="&#x176;" horiz-adv-x="546" 
d="M271 0h-117l53 277l-131 397h125l53 -192q20 -82 27 -118h2q30 53 70 120l122 190h138l-289 -395zM322 832h89l80 -122h-86l-45 66h-2l-64 -66h-94z" />
    <glyph glyph-name="ycircumflex" unicode="&#x177;" horiz-adv-x="472" 
d="M45 487h122l38 -234q15 -87 19 -122h2q39 98 47 116l104 240h124l-178 -359q-93 -185 -178 -268q-71 -68 -150 -84l-27 100q57 21 86 43q53 37 86 97q5 9 2 22zM268 694h81l72 -148h-79l-41 84h-2l-64 -84h-86z" />
    <glyph glyph-name="Ydieresis" unicode="&#x178;" horiz-adv-x="546" 
d="M272 0h-117l53 277l-131 397h124l53 -192q19 -75 28 -118h2q30 53 70 120l121 190h139l-290 -395zM254 715q-23 0 -39.5 16.5t-16.5 40.5q0 27 19 45.5t45 18.5q25 0 40.5 -17t15.5 -40q0 -27 -18.5 -45.5t-45.5 -18.5zM451 715q-23 0 -39.5 16.5t-16.5 40.5
q0 27 19 45.5t45 18.5q25 0 40.5 -17t15.5 -40q0 -27 -18.5 -45.5t-45.5 -18.5z" />
    <glyph glyph-name="Zacute" unicode="&#x179;" horiz-adv-x="540" 
d="M-23 0l13 69l421 502v3h-295l19 100h452l-14 -73l-416 -498l1 -3h325l-19 -100h-487zM394 832h137l-134 -122h-101z" />
    <glyph glyph-name="zacute" unicode="&#x17a;" horiz-adv-x="434" 
d="M-24 0l13 71l193 211q56 60 111 107l1 3h-227l19 95h366l-14 -75l-190 -207q-56 -61 -110 -108v-2h246l-18 -95h-390zM311 694h123l-131 -148h-88z" />
    <glyph glyph-name="Zdotaccent" unicode="&#x17b;" horiz-adv-x="540" 
d="M-23 0l13 69l421 502l-1 3h-294l19 100h452l-14 -73l-416 -498l1 -3h325l-19 -100h-487zM363 715q-23 0 -40 16.5t-17 40.5q0 28 19 46.5t46 18.5q25 0 41 -17t16 -41q0 -27 -19 -45.5t-46 -18.5z" />
    <glyph glyph-name="zdotaccent" unicode="&#x17c;" horiz-adv-x="434" 
d="M-23 0l12 71l193 211q50 53 111 107l1 3h-226l18 95h366l-14 -75l-189 -207q-56 -60 -110 -108l-1 -2h247l-19 -95h-389zM283 560q-24 0 -40.5 16.5t-16.5 42.5q0 29 19 47.5t46 18.5q26 0 42 -16.5t16 -42.5q0 -29 -18.5 -47.5t-47.5 -18.5z" />
    <glyph glyph-name="Zcaron" unicode="&#x17d;" horiz-adv-x="540" 
d="M-23 0l13 69l421 502v3h-295l19 100h452l-14 -73l-416 -498l1 -3h325l-19 -100h-487zM406 710h-89l-80 122h87l43 -67h2l65 67h94z" />
    <glyph glyph-name="zcaron" unicode="&#x17e;" horiz-adv-x="434" 
d="M-24 0l13 71l193 211q56 60 111 107l1 3h-227l19 95h366l-14 -75l-190 -207q-56 -61 -110 -108v-2h246l-18 -95h-390zM316 546h-81l-72 148h79l41 -85h2l65 85h86z" />
    <glyph glyph-name="florin" unicode="&#x192;" horiz-adv-x="519" 
d="M121 321l13 85h90l10 40q10 40 23 71t37.5 67t65.5 56.5t94 20.5q49 -1 74 -17l-30 -85q-24 11 -51 11q-72 0 -100 -122l-10 -42h108l-13 -85h-115l-48 -195q-25 -103 -71 -158.5t-131 -55.5q-52 0 -82 19l25 83q22 -11 53 -11q34 0 57.5 35t43.5 118l40 165h-83z" />
    <glyph glyph-name="Ohorn" unicode="&#x1a0;" horiz-adv-x="688" 
d="M651 742l91 15q13 -28 13 -73q0 -56 -32 -88.5t-86 -31.5q38 -61 38 -158q0 -92 -31.5 -178t-89.5 -143q-98 -96 -241 -96q-125 0 -195 79.5t-70 198.5q0 91 33.5 178.5t92.5 145.5q99 94 237 94q64 0 121 -23q6 -3 20.5 -10t22.5 -10.5t19.5 -6.5t21.5 -3q47 0 47 53
q0 30 -12 57zM397 588q-74 0 -133 -59q-42 -42 -67 -115t-25 -141q0 -83 39 -134.5t120 -51.5q74 0 131 57q41 42 65.5 116.5t24.5 141.5q0 37 -7 67.5t-23.5 58.5t-48.5 44t-76 16z" />
    <glyph glyph-name="ohorn" unicode="&#x1a1;" horiz-adv-x="545" 
d="M299 408q-65 0 -106 -69t-40 -146q0 -51 25 -82.5t69 -31.5q62 0 103.5 69.5t41.5 147.5q0 44 -22.5 78t-70.5 34zM501 560l88 15q10 -26 10 -64q0 -53 -29 -83.5t-80 -32.5q23 -43 23 -98q0 -127 -80 -217.5t-202 -90.5q-91 0 -145 56t-54 145q0 127 79.5 217.5
t201.5 90.5q48 0 86 -16q5 -2 20.5 -9.5t26.5 -11t22 -3.5q44 0 44 48q0 27 -11 54z" />
    <glyph glyph-name="Uhorn" unicode="&#x1af;" horiz-adv-x="652" 
d="M640 609l-62 -327q-29 -152 -101.5 -222.5t-196.5 -70.5q-98 -1 -155 51.5t-57 156.5q0 47 9 93l73 384h117l-75 -393q-8 -42 -8 -82q0 -52 29.5 -82t81.5 -30q129 0 166 193l75 394h89q62 0 62 56q0 20 -8 48l86 15q8 -23 8 -54q0 -59 -34 -93.5t-99 -36.5z" />
    <glyph glyph-name="uhorn" unicode="&#x1b0;" horiz-adv-x="561" 
d="M548 591l86 14q9 -24 9 -54q0 -56 -33.5 -91.5t-97.5 -36.5l-52 -272q-10 -52 -24 -151h-104l11 85l-2 1q-71 -97 -169 -97q-57 0 -92 33.5t-35 105.5q0 39 10 86l52 273h116l-50 -266q-8 -38 -8 -67q0 -69 62 -69q42 0 82 46t54 119l45 237h88q62 0 62 55q0 21 -10 49z
" />
    <glyph glyph-name="Aringacute" unicode="&#x1fa;" horiz-adv-x="596" 
d="M395 692q-44 0 -69.5 22t-25.5 58q0 38 30.5 63.5t77.5 25.5q42 0 66.5 -22t24.5 -58q0 -39 -28.5 -64t-75.5 -25zM398 736q21 0 33.5 12t12.5 30q0 17 -11.5 28.5t-30.5 11.5q-20 0 -32.5 -12.5t-12.5 -30.5q0 -17 11.5 -28t29.5 -11zM466 964h135l-138 -85h-102z
M400 192h-212l-92 -192h-124l338 674h146l85 -674h-121zM225 282h169l-19 168q-9 108 -11 128h-2q-5 -12 -24.5 -58.5t-30.5 -69.5z" />
    <glyph glyph-name="aringacute" unicode="&#x1fb;" horiz-adv-x="540" 
d="M448 0h-107q0 26 8 110l-3 -1q-65 -120 -174 -120q-65 0 -104.5 46t-39.5 120q0 64 22 124t63.5 109.5t108.5 79.5t149 30q78 0 148 -22l-51 -254q-23 -121 -20 -222zM363 275l24 128q-18 5 -47 5q-78 0 -134.5 -72.5t-56.5 -159.5q0 -93 70 -93q43 0 85 52t59 140z
M447 853h125l-156 -114h-89zM374 716q44 0 72.5 -24.5t28.5 -68.5q-1 -45 -34 -72t-80 -27q-43 0 -71.5 24.5t-29.5 64.5q-1 46 31 74.5t83 28.5zM368 672q-22 0 -35.5 -16t-13.5 -40q0 -20 13 -34t33 -14q22 0 36.5 16t14.5 39q0 21 -13 35t-35 14z" />
    <glyph glyph-name="AEacute" unicode="&#x1fc;" horiz-adv-x="812" 
d="M74 0h-124l429 674h437l-18 -99h-254l-18 -180h241l-18 -98h-228l-18 -198h256l-19 -99h-356l18 209h-197zM261 306h148l16 178q10 102 10 103h-3q-33 -60 -59 -102zM574 833h137l-134 -123h-101z" />
    <glyph glyph-name="aeacute" unicode="&#x1fd;" horiz-adv-x="743" 
d="M656 113l7 -83q-70 -41 -170 -41q-57 0 -99.5 25t-60.5 71h-3q-65 -96 -183 -96q-65 0 -103.5 37t-38.5 93q0 66 46 112t115 65.5t153 17.5l3 15q6 30 -15 57.5t-70 27.5q-67 0 -132 -41l-20 75q78 50 166 50q116 0 142 -89h3q29 42 76 65.5t101 23.5q74 0 114 -37.5
t40 -88.5q0 -50 -24.5 -83.5t-71.5 -49t-100 -20.5t-124 -2q-7 -51 7 -83q27 -53 106 -53q64 0 136 32zM298 187l9 49q-30 1 -59 -3t-59 -13.5t-48.5 -31t-18.5 -51.5q0 -27 16.5 -42.5t45.5 -15.5q40 0 72.5 28.5t41.5 79.5zM614 362q0 20 -16.5 35t-45.5 15q-51 0 -86 -36
t-45 -77q38 -2 73 -0.5t61.5 7t42.5 19.5t16 37zM462 694h123l-131 -148h-88z" />
    <glyph glyph-name="Oslashacute" unicode="&#x1fe;" horiz-adv-x="686" 
d="M84 -56l-56 53l75 88q-56 75 -56 188q0 90 32 172t90 140q100 100 237 100q100 0 162 -49l74 87l61 -48l-79 -93q50 -67 50 -178q0 -90 -32 -174.5t-87 -141.5q-46 -47 -108.5 -73t-128.5 -26q-96 0 -155 47zM186 183l312 369q-34 36 -100 36q-73 0 -131 -54t-84 -137
q-35 -113 0 -214h3zM538 480l-306 -361q34 -33 98 -33q67 0 122.5 50.5t82.5 130.5q37 111 6 213h-3zM460 836h136l-134 -122h-100z" />
    <glyph glyph-name="oslashacute" unicode="&#x1ff;" horiz-adv-x="543" 
d="M55 -48l-36 36l59 68q-46 53 -46 138q0 124 80 214t200 90q67 0 114 -31l58 66l39 -34l-57 -67q47 -56 47 -135q0 -132 -80.5 -220t-192.5 -88q-77 0 -123 34zM163 151l196 238q-21 23 -62 23q-63 0 -104 -66t-42 -134q0 -38 10 -61h2zM382 335l-198 -235q25 -25 65 -25
q59 0 101.5 63.5t43.5 136.5q0 31 -9 60h-3zM364 694h123l-131 -148h-88z" />
    <glyph glyph-name="Scommaaccent" unicode="&#x218;" horiz-adv-x="490" 
d="M5 37l40 96q65 -43 152 -43q52 0 88 26.5t36 73.5q0 32 -22 57t-72 52q-137 74 -137 176q0 94 71.5 151.5t176.5 57.5q95 0 150 -34l-38 -96q-57 31 -121 30q-54 0 -85.5 -26t-31.5 -62q0 -32 24 -56t77 -53q131 -69 131 -179q0 -100 -73 -159t-187 -59q-58 1 -106 14.5
t-73 32.5zM101 -231l-12 55q32 5 56.5 23t24.5 48q0 29 -22 49l89 16q27 -23 27 -62q0 -59 -49 -92t-114 -37z" />
    <glyph glyph-name="scommaaccent" unicode="&#x219;" horiz-adv-x="397" 
d="M2 25l30 83q57 -32 117 -32q34 0 54.5 17t20.5 43q0 23 -14 39.5t-50 35.5q-96 51 -96 127q0 70 55.5 115t141.5 45q74 0 114 -25l-29 -84q-42 22 -91 22q-33 0 -53.5 -15.5t-20.5 -40.5q0 -37 63 -68q101 -54 101 -131q0 -79 -58 -123.5t-149 -43.5q-89 2 -136 36z
M53 -232l-12 55q32 5 56.5 23t24.5 48q0 29 -22 49l89 16q27 -23 27 -62q0 -59 -49 -92t-114 -37z" />
    <glyph glyph-name="uni021A" unicode="&#x21a;" horiz-adv-x="503" 
d="M144 0l108 572h-186l20 102h491l-20 -102h-188l-108 -572h-117zM101 -231l-13 55q32 5 56.5 23t24.5 48q0 28 -22 48l89 16q27 -21 27 -61q0 -60 -49 -93t-113 -36z" />
    <glyph glyph-name="uni021B" unicode="&#x21b;" horiz-adv-x="333" 
d="M147 578l120 34l-23 -125h109l-18 -90h-109l-38 -196q-9 -41 -9 -69q0 -44 43 -44q22 0 40 3l-11 -91q-24 -10 -76 -10q-57 0 -86 27.5t-29 72.5q0 39 10 90l42 217h-65l17 90h65zM27 -231l-13 55q32 5 56.5 23t24.5 48q0 29 -22 49l89 16q27 -23 27 -62q0 -59 -48.5 -92
t-113.5 -37z" />
    <glyph glyph-name="uni021C" unicode="&#x21c;" horiz-adv-x="492" 
d="M-1 -120l-9 93q144 14 238.5 72.5t94.5 145.5q0 40 -28.5 69t-88.5 29q-33 0 -89 -15l-13 79q91 20 157 63t66 103q0 33 -26 52t-65 19q-46 0 -115 -32l-21 77q86 50 182 50q79 0 125 -39.5t46 -98.5q0 -112 -144 -180v-2q61 -11 101.5 -54.5t40.5 -106.5
q0 -131 -126.5 -219t-325.5 -105z" />
    <glyph glyph-name="uni021D" unicode="&#x21d;" horiz-adv-x="418" 
d="M-51 -208l-8 92q27 2 58.5 6.5t79 18t84 32t63 51t26.5 73.5q0 35 -28.5 57.5t-80.5 21.5q-35 0 -82 -14l-12 80q204 47 204 137q-1 25 -21.5 40.5t-57.5 15.5q-47 0 -111 -30l-21 74q86 51 178 51q69 0 111 -35.5t42 -84.5q0 -103 -125 -155v-2q56 -11 92 -49.5
t36 -91.5q0 -85 -63.5 -150.5t-158.5 -99t-205 -38.5z" />
    <glyph glyph-name="uni0232" unicode="&#x232;" horiz-adv-x="546" 
d="M271 0h-117l53 277l-131 397h125l53 -192q20 -82 27 -118h2q30 53 70 120l122 190h138l-289 -395zM257 802h244l-13 -68h-244z" />
    <glyph glyph-name="uni0233" unicode="&#x233;" horiz-adv-x="472" 
d="M45 487h122l38 -234q15 -87 19 -122h2q39 98 47 116l104 240h124l-178 -359q-93 -185 -178 -268q-71 -68 -150 -84l-27 100q57 21 86 43q53 37 86 97q5 9 2 22zM199 655h234l-13 -67h-234z" />
    <glyph glyph-name="circumflex" unicode="&#x2c6;" 
d="M236 694h81l72 -148h-79l-41 84h-2l-64 -84h-86z" />
    <glyph glyph-name="caron" unicode="&#x2c7;" 
d="M298 546h-81l-73 148h79l41 -85h3l64 85h86z" />
    <glyph glyph-name="uni02C9" unicode="&#x2c9;" 
d="M158 655h234l-13 -67h-234z" />
    <glyph glyph-name="breve" unicode="&#x2d8;" 
d="M154 687h63q0 -62 51 -62q30 0 47.5 18t23.5 44h65q-10 -58 -47 -92t-94 -34q-64 0 -90 35t-19 91z" />
    <glyph glyph-name="dotaccent" unicode="&#x2d9;" 
d="M262 560q-24 0 -40.5 16.5t-16.5 42.5q0 29 19 47.5t46 18.5q26 0 42 -16.5t16 -42.5q0 -29 -18.5 -47.5t-47.5 -18.5z" />
    <glyph glyph-name="ring" unicode="&#x2da;" horiz-adv-x="390" 
d="M276 728q44 0 72.5 -24.5t28.5 -68.5q-1 -45 -34 -72t-81 -27q-42 0 -71 24.5t-30 64.5q-1 46 31.5 74.5t83.5 28.5zM270 684q-22 0 -35.5 -16t-13.5 -40q0 -20 12.5 -34t32.5 -14q23 0 37 15.5t14 39.5q0 21 -12.5 35t-34.5 14z" />
    <glyph glyph-name="ogonek" unicode="&#x2db;" 
d="M132 2h73q-58 -54 -58 -98q0 -38 40 -38q24 0 46 9l9 -59q-41 -29 -95 -29q-41 0 -64.5 21.5t-23.5 59.5q0 64 73 134z" />
    <glyph glyph-name="tilde" unicode="&#x2dc;" 
d="M191 563h-60q7 53 29.5 83.5t57.5 30.5q26 0 62 -21q28 -18 39 -18q12 0 18.5 9t12.5 34h59q-16 -111 -88 -111q-30 0 -62 20q-23 18 -39 18q-20 0 -29 -45z" />
    <glyph glyph-name="hungarumlaut" unicode="&#x2dd;" 
d="M212 693h107l-122 -148h-73zM374 693h107l-123 -148h-72z" />
    <glyph glyph-name="uni037E" unicode="&#x37e;" horiz-adv-x="243" 
d="M48 -113l-85 -8q69 154 93 260l129 3q-61 -144 -137 -255zM152 304q-31 0 -51 21.5t-20 53.5q0 37 24 63t61 26q32 0 52.5 -21.5t20.5 -55.5q0 -38 -24.5 -62.5t-62.5 -24.5z" />
    <glyph glyph-name="tonos" unicode="&#x384;" horiz-adv-x="347" 
d="M286 694h121l-131 -148h-86z" />
    <glyph glyph-name="dieresistonos" unicode="&#x385;" horiz-adv-x="395" 
d="M242 709h98l-96 -162h-65zM111 563q-22 0 -37 14.5t-15 37.5q0 26 17 42.5t42 16.5q23 0 37 -15t14 -38q0 -25 -16.5 -41.5t-41.5 -16.5zM386 563q-22 0 -37 14.5t-15 37.5q0 26 17 42.5t42 16.5q23 0 37 -15t14 -38q0 -25 -16.5 -41.5t-41.5 -16.5z" />
    <glyph glyph-name="Alphatonos" unicode="&#x386;" horiz-adv-x="596" 
d="M400 192h-212l-92 -192h-124l338 674h146l85 -674h-122zM225 282h168l-19 168q-4 48 -10 128h-2q-5 -12 -24.5 -58.5t-30.5 -69.5zM89 674h101l-56 -165h-68z" />
    <glyph glyph-name="anoteleia" unicode="&#x387;" horiz-adv-x="243" 
d="M124 235q-32 0 -52 21t-20 54q0 37 24 63.5t61 26.5q33 0 53.5 -21.5t20.5 -55.5q0 -38 -24.5 -63t-62.5 -25z" />
    <glyph glyph-name="Epsilontonos" unicode="&#x388;" horiz-adv-x="535" 
d="M498 398l-19 -98h-242l-38 -201h272l-19 -99h-389l128 674h374l-19 -99h-257l-34 -177h243zM32 674h100l-55 -165h-68z" />
    <glyph glyph-name="Etatonos" unicode="&#x389;" horiz-adv-x="686" 
d="M190 674h116l-52 -273h274l52 273h117l-128 -674h-117l57 298h-274l-57 -298h-116zM31 674h101l-56 -165h-68z" />
    <glyph glyph-name="Iotatonos" unicode="&#x38a;" horiz-adv-x="295" 
d="M189 674h116l-128 -674h-116zM32 674h101l-55 -165h-68z" />
    <glyph glyph-name="Omicrontonos" unicode="&#x38c;" horiz-adv-x="716" 
d="M342 -11q-126 0 -196 79.5t-70 198.5q0 90 32.5 175.5t89.5 144.5q100 98 241 98q129 0 197 -78.5t68 -200.5q0 -90 -31 -175t-87 -142q-98 -100 -244 -100zM359 87q61 0 113 49t80 121t28 145q0 36 -7 67t-23.5 58.5t-48.5 43.5t-76 16q-64 0 -117 -50t-80.5 -121
t-27.5 -143q0 -83 39 -134.5t120 -51.5zM30 674h101l-56 -165h-68z" />
    <glyph glyph-name="Upsilontonos" unicode="&#x38e;" horiz-adv-x="643" 
d="M143 583l28 97q40 -2 84 -25.5t71 -62.5q68 -94 58 -233h6q46 140 145 232q43 39 89.5 62.5t80.5 26.5l9 -103q-69 -24 -145.5 -99.5t-122.5 -181.5q-31 -71 -43 -138l-29 -158h-117l30 159q13 74 12 134q-2 120 -43.5 196.5t-112.5 93.5zM21 674h100l-55 -165h-68z" />
    <glyph glyph-name="Omegatonos" unicode="&#x38f;" horiz-adv-x="732" 
d="M170 90l1 5q-37 36 -62.5 93.5t-25.5 123.5q0 158 104 265.5t255 107.5q127 0 201 -76.5t74 -188.5q0 -107 -52 -192t-121 -133v-5h126l-16 -90h-268l12 73q79 49 137 135.5t58 198.5q0 78 -42 130.5t-119 52.5q-98 0 -162.5 -88t-64.5 -210q0 -73 25.5 -130t67.5 -89
l-13 -73h-268l16 90h137zM32 674h101l-56 -165h-68z" />
    <glyph glyph-name="iotadieresistonos" unicode="&#x390;" horiz-adv-x="249" 
d="M224 487l-67 -352q-6 -30 1.5 -42t32.5 -11l-22 -86q-19 -7 -47 -7q-88 0 -88 89q0 23 13 90l60 319h117zM184 703h100l-97 -162h-65zM53 556q-21 0 -35.5 14t-14.5 37q0 25 16.5 41t40.5 16q22 0 36 -15t14 -36q0 -25 -16.5 -41t-40.5 -16zM329 556q-21 0 -35.5 14
t-14.5 37q0 25 16.5 41t40.5 16q22 0 36 -15t14 -36q0 -25 -16 -41t-41 -16z" />
    <glyph glyph-name="Alpha" unicode="&#x391;" horiz-adv-x="596" 
d="M400 192h-212l-92 -192h-124l338 674h146l85 -674h-122zM225 282h168l-19 168q-4 48 -10 128h-2q-5 -12 -24.5 -58.5t-30.5 -69.5z" />
    <glyph glyph-name="Beta" unicode="&#x392;" horiz-adv-x="553" 
d="M26 6l124 658q75 15 162 15q105 0 162 -40q65 -40 65 -115q0 -61 -40 -104.5t-100 -59.5v-3q49 -15 78.5 -53.5t29.5 -94.5q0 -99 -87 -159q-78 -55 -238 -55q-97 0 -156 11zM250 583l-35 -185h54q67 0 108.5 29.5t41.5 80.5q0 80 -107 80q-42 0 -62 -5zM197 312
l-41 -222q27 -3 61 -3q72 0 119.5 31.5t47.5 94.5q0 51 -37 75t-95 24h-55z" />
    <glyph glyph-name="Gamma" unicode="&#x393;" horiz-adv-x="458" 
d="M152 674h376l-19 -99h-258l-109 -575h-118z" />
    <glyph glyph-name="uni0394" unicode="&#x394;" horiz-adv-x="618" 
d="M-26 0l11 65l334 609h141l108 -609l-11 -65h-583zM122 95h320l-55 324q-17 133 -20 152h-3q-29 -65 -66 -138z" />
    <glyph glyph-name="Epsilon" unicode="&#x395;" horiz-adv-x="496" 
d="M459 398l-19 -98h-242l-38 -201h272l-19 -99h-389l128 674h374l-19 -99h-257l-34 -177h243z" />
    <glyph glyph-name="Zeta" unicode="&#x396;" horiz-adv-x="540" 
d="M-23 0l13 69l421 502v3h-295l19 100h452l-14 -73l-416 -498l1 -3h325l-19 -100h-487z" />
    <glyph glyph-name="Eta" unicode="&#x397;" horiz-adv-x="648" 
d="M153 674h116l-52 -273h274l52 273h117l-128 -674h-117l57 298h-274l-57 -298h-116z" />
    <glyph glyph-name="Theta" unicode="&#x398;" horiz-adv-x="688" 
d="M313 -11q-125 0 -195 79.5t-70 198.5q0 89 32.5 175t89.5 145q98 98 241 98q129 0 196.5 -78.5t67.5 -200.5q0 -90 -31 -175t-87 -142q-97 -100 -244 -100zM330 86q61 0 113.5 49.5t80.5 122t28 144.5q0 37 -7 67.5t-23.5 58.5t-48.5 44t-77 16q-64 0 -117 -50
t-80.5 -122t-27.5 -143q0 -83 39 -135t120 -52zM254 392h234l-16 -93h-233z" />
    <glyph glyph-name="Iota" unicode="&#x399;" horiz-adv-x="256" 
d="M150 674h116l-128 -674h-116z" />
    <glyph glyph-name="Kappa" unicode="&#x39a;" horiz-adv-x="556" 
d="M24 0l128 674h115l-59 -313h3q2 2 64 77l209 236h146l-278 -291l164 -383h-127l-128 310l-76 -71l-46 -239h-115z" />
    <glyph glyph-name="Lambda" unicode="&#x39b;" horiz-adv-x="596" 
d="M542 0h-124l-47 430q0 3 -9 140h-3q-24 -68 -57 -140l-203 -430h-127l336 674h148z" />
    <glyph glyph-name="Mu" unicode="&#x39c;" horiz-adv-x="802" 
d="M701 0h-113l44 317q30 189 42 247h-3q-65 -147 -112 -237l-165 -319h-91l-35 314q-11 104 -18 242h-2q-4 -19 -24.5 -113t-29.5 -134l-78 -317h-108l172 674h153l36 -315q12 -147 13 -194h4q34 92 85 193l163 316h156z" />
    <glyph glyph-name="Nu" unicode="&#x39d;" horiz-adv-x="651" 
d="M133 0h-109l128 674h134l118 -313q35 -98 60 -211h3q4 88 30 228l56 296h109l-128 -674h-119l-121 319q-44 126 -64 217l-3 -1q-9 -86 -40 -247z" />
    <glyph glyph-name="Xi" unicode="&#x39e;" horiz-adv-x="549" 
d="M130 674h448l-17 -98h-448zM112 396h383l-16 -97h-383zM14 99h473l-17 -99h-473z" />
    <glyph glyph-name="Omicron" unicode="&#x39f;" horiz-adv-x="688" 
d="M314 -11q-126 0 -196 79.5t-70 198.5q0 90 32.5 175.5t89.5 144.5q100 98 241 98q129 0 197 -78.5t68 -200.5q0 -90 -31 -175t-87 -142q-98 -100 -244 -100zM331 87q61 0 113 49t80 121t28 145q0 36 -7 67t-23.5 58.5t-48.5 43.5t-76 16q-64 0 -117 -50t-80.5 -121
t-27.5 -143q0 -83 39 -134.5t120 -51.5z" />
    <glyph glyph-name="Pi" unicode="&#x3a0;" horiz-adv-x="639" 
d="M651 674l-127 -674h-116l108 576h-266l-109 -576h-116l127 674h499z" />
    <glyph glyph-name="Rho" unicode="&#x3a1;" horiz-adv-x="535" 
d="M24 0l126 663q66 16 162 16q113 0 173 -48q62 -48 62 -134q0 -57 -24 -105t-62 -78q-80 -64 -211 -64q-18 0 -63 5l-49 -255h-114zM248 580l-43 -229q29 -6 61 -6q72 0 118 41t46 102q0 98 -117 98q-44 0 -65 -6z" />
    <glyph glyph-name="Sigma" unicode="&#x3a3;" horiz-adv-x="547" 
d="M161 103v-4h338l-16 -99h-499l11 72l261 266l-159 254l14 82h458l-17 -98h-310v-4l149 -239z" />
    <glyph glyph-name="Tau" unicode="&#x3a4;" horiz-adv-x="503" 
d="M144 0l108 572h-186l20 102h491l-20 -102h-188l-108 -572h-117z" />
    <glyph glyph-name="Upsilon" unicode="&#x3a5;" horiz-adv-x="551" 
d="M53 583l28 97q40 -2 84 -25.5t71 -62.5q68 -94 58 -233h6q46 140 145 232q43 39 89.5 62.5t80.5 26.5l9 -103q-69 -24 -145.5 -99.5t-122.5 -181.5q-31 -71 -43 -138l-29 -158h-117l30 159q13 74 12 134q-2 120 -43.5 196.5t-112.5 93.5z" />
    <glyph glyph-name="Phi" unicode="&#x3a6;" horiz-adv-x="732" 
d="M259 -27l11 55q-95 12 -158.5 80t-63.5 177q0 84 32.5 155.5t83.5 115.5t109.5 69t113.5 25l11 51h110l-10 -51q93 -11 157 -79.5t64 -177.5q0 -83 -30.5 -152.5t-79.5 -114t-108.5 -70.5t-120.5 -28l-11 -55h-110zM287 114l84 451q-73 -2 -139 -81t-66 -196
q0 -71 33.5 -118t87.5 -56zM481 565l-85 -451q83 5 144 83.5t61 194.5q0 73 -33.5 119t-86.5 54z" />
    <glyph glyph-name="Chi" unicode="&#x3a7;" horiz-adv-x="547" 
d="M494 0h-124l-53 150q-20 52 -40 116h-2q-42 -70 -73 -118l-98 -148h-140l257 344l-122 330h123l52 -149q19 -60 32 -108h3q33 59 66 109l101 148h139l-252 -331z" />
    <glyph glyph-name="Psi" unicode="&#x3a8;" horiz-adv-x="671" 
d="M714 674l-39 -209q-24 -129 -101 -197.5t-195 -73.5l-36 -194h-110l37 194q-39 4 -73 16t-64.5 34.5t-48 60.5t-17.5 87q0 30 8 78l39 204h113l-37 -195q-8 -46 -8 -73q0 -58 25 -86t79 -35l73 389h109l-73 -389q67 5 109 51t62 151l35 187h113z" />
    <glyph glyph-name="uni03A9" unicode="&#x3a9;" horiz-adv-x="702" 
d="M141 90l1 5q-37 36 -62.5 93.5t-25.5 123.5q0 158 104 265.5t255 107.5q127 0 201 -76.5t74 -188.5q0 -107 -52 -192t-122 -133v-5h127l-16 -90h-268l12 73q79 49 137 135.5t58 198.5q0 78 -42.5 130.5t-119.5 52.5q-97 0 -161.5 -88t-64.5 -210q0 -73 25.5 -130
t67.5 -89l-13 -73h-268l16 90h137z" />
    <glyph glyph-name="Iotadieresis" unicode="&#x3aa;" horiz-adv-x="256" 
d="M118 712q-24 0 -40 16t-16 41q0 28 18.5 46t45.5 18q25 0 40.5 -16.5t15.5 -40.5q0 -28 -18.5 -46t-45.5 -18zM315 712q-24 0 -40 16t-16 41q0 28 18.5 46t45.5 18q25 0 40.5 -16.5t15.5 -40.5q0 -28 -18.5 -46t-45.5 -18zM150 674h117l-128 -674h-117z" />
    <glyph glyph-name="Upsilondieresis" unicode="&#x3ab;" horiz-adv-x="551" 
d="M255 701q-24 0 -40 16t-16 41q0 28 18.5 46t45.5 18q25 0 40.5 -16.5t15.5 -40.5q0 -28 -18.5 -46t-45.5 -18zM452 701q-24 0 -40 16t-16 41q0 28 18.5 46t45.5 18q25 0 40.5 -16.5t15.5 -40.5q0 -28 -18.5 -46t-45.5 -18zM53 583l28 97q40 -2 84 -25.5t71 -62.5
q68 -94 58 -233h6q46 140 145 232q43 39 89.5 62.5t80.5 26.5l9 -103q-69 -24 -145.5 -99.5t-122.5 -181.5q-29 -66 -43 -138l-29 -158h-117l30 159q13 74 12 134q-2 120 -43.5 196.5t-112.5 93.5z" />
    <glyph glyph-name="alphatonos" unicode="&#x3ac;" horiz-adv-x="560" 
d="M370 694h121l-131 -148h-86zM366 83h-3q-66 -94 -172 -94q-72 0 -116.5 48.5t-44.5 131.5q0 139 80.5 234t175.5 95q102 0 130 -83l4 -1q9 33 24 73h98q-13 -49 -27 -111q-32 -146 -45 -214q-16 -84 31 -82l-23 -86q-15 -5 -36 -5q-76 0 -76 94zM150 184q0 -46 22.5 -74
t62.5 -28q38 0 72.5 33t50.5 78q8 20 15 59q6 36 6 54q0 44 -22 73t-62 29q-56 0 -100.5 -68.5t-44.5 -155.5z" />
    <glyph glyph-name="epsilontonos" unicode="&#x3ad;" horiz-adv-x="423" 
d="M301 694h121l-131 -148h-86zM334 216h-52q-61 0 -100 -19t-39 -59q0 -28 28 -43.5t71 -15.5q67 0 136 30l6 -81q-69 -39 -178 -39q-82 0 -136 31.5t-54 95.5q0 56 38.5 94.5t90.5 47.5l1 4q-78 22 -78 91q0 59 59.5 102t157.5 43q94 0 140 -36l-29 -74q-41 26 -106 26
q-47 0 -75.5 -18.5t-28.5 -46.5q0 -55 116 -55h46z" />
    <glyph glyph-name="etatonos" unicode="&#x3ae;" horiz-adv-x="550" 
d="M366 694h121l-131 -148h-86zM201 400h2q68 98 175 98q54 0 89 -34t35 -100q0 -39 -9 -80l-57 -301q-25 -141 -22 -181h-109q-13 31 15 180l55 293q6 32 6 58q0 70 -61 70q-43 0 -84.5 -48.5t-56.5 -129.5l-42 -225h-117l64 336q19 111 14 151h102q9 -29 1 -87z" />
    <glyph glyph-name="iotatonos" unicode="&#x3af;" horiz-adv-x="249" 
d="M226 694h121l-131 -148h-86zM223 487l-66 -351q-6 -31 1.5 -43.5t32.5 -10.5l-22 -86q-19 -7 -48 -7q-87 0 -87 89q0 26 13 89l60 320h116z" />
    <glyph glyph-name="upsilondieresistonos" unicode="&#x3b0;" horiz-adv-x="520" 
d="M374 487h108q13 -33 13 -89q0 -70 -17 -140t-49.5 -131.5t-88.5 -99.5t-125 -38q-78 0 -125.5 42.5t-47.5 117.5q0 20 10 72l18 99q25 131 20 167h111q13 -22 -1 -91l-30 -162q-9 -56 -9 -66q0 -38 21 -60.5t51 -22.5q44 0 78.5 48.5t52 121t17.5 152.5q0 50 -7 80z
M294 703h99l-96 -162h-65zM163 556q-21 0 -35.5 14t-14.5 37q0 25 16.5 41t40.5 16q22 0 36 -15t14 -36q0 -25 -16.5 -41t-40.5 -16zM438 556q-21 0 -35.5 14t-14.5 37q0 25 16.5 41t40.5 16q22 0 36 -15t14 -36q0 -25 -16 -41t-41 -16z" />
    <glyph glyph-name="alpha" unicode="&#x3b1;" horiz-adv-x="560" 
d="M366 83h-3q-66 -94 -172 -94q-72 0 -116.5 48.5t-44.5 131.5q0 139 80.5 234t175.5 95q102 0 130 -83l4 -1q9 33 24 73h98q-13 -49 -27 -111q-32 -146 -45 -214q-16 -84 31 -82l-23 -86q-15 -5 -36 -5q-76 0 -76 94zM150 184q0 -46 22.5 -74t62.5 -28q38 0 72.5 33
t50.5 78q8 20 15 59q6 36 6 54q0 44 -22 73t-62 29q-56 0 -100.5 -68.5t-44.5 -155.5z" />
    <glyph glyph-name="beta" unicode="&#x3b2;" horiz-adv-x="549" 
d="M107 -198h-108q-12 42 14 176l83 444q31 175 113 244q64 55 150 55q73 0 117 -44t44 -109q0 -62 -31 -109.5t-80 -70.5l-1 -5q45 -12 76.5 -56t31.5 -105q0 -104 -69.5 -168.5t-159.5 -64.5q-95 0 -145 55h-2l-12 -65q-24 -129 -21 -177zM266 332l14 75q12 0 18 2
q50 6 81 44t31 93q0 37 -18.5 60t-50.5 23q-94 0 -128 -185l-55 -299q15 -28 44.5 -47.5t67.5 -19.5q52 0 89.5 40t37.5 100q0 49 -30 79.5t-77 34.5h-24z" />
    <glyph glyph-name="gamma" unicode="&#x3b3;" horiz-adv-x="463" 
d="M192 -198h-115q37 171 36 265q-1 96 -31 216t-64 204h128q25 -56 45 -156.5t21 -197.5h4q116 174 141 313q4 30 4 41h115q2 -17 -3 -45q-16 -87 -79 -198t-157 -219q-10 -11 -13 -27q-1 -7 -32 -196z" />
    <glyph glyph-name="delta" unicode="&#x3b4;" horiz-adv-x="538" 
d="M508 651l-43 -69q-21 21 -53.5 37.5t-63.5 16.5q-26 0 -39 -10.5t-13 -26.5q0 -11 8.5 -24t17 -21.5t28.5 -27.5l62 -60q94 -87 94 -197q0 -111 -75.5 -195.5t-193.5 -84.5q-91 0 -150 58t-59 150q0 102 61.5 174.5t148.5 108.5v4l-19 22q-44 49 -44 92q0 51 45 87
t113 36q110 0 175 -70zM331 385l-37 38q-62 -30 -104 -87.5t-42 -134.5q0 -57 30 -91.5t74 -34.5q55 0 95 51.5t40 125.5q0 80 -56 133z" />
    <glyph glyph-name="epsilon" unicode="&#x3b5;" horiz-adv-x="423" 
d="M334 216h-53q-61 0 -100 -19t-39 -59q0 -28 28 -43.5t71 -15.5q67 0 136 30l6 -82q-68 -38 -178 -38q-82 0 -136 31.5t-54 95.5q0 56 38.5 94.5t91.5 47.5l1 4q-78 22 -78 91q0 59 59.5 102t157.5 43q94 0 140 -36l-29 -74q-41 26 -106 26q-47 0 -75.5 -18.5t-28.5 -46.5
q0 -55 116 -55h46z" />
    <glyph glyph-name="zeta" unicode="&#x3b6;" horiz-adv-x="411" 
d="M465 707l3 -79q-111 -59 -211.5 -179t-100.5 -230q0 -92 84 -128q36 -19 130 -33q8 -1 8 -10q0 -33 -32.5 -98t-66.5 -99l-72 24q11 16 27 50t21 55q-54 9 -95 27q-127 53 -127 190q0 111 84.5 230.5t194.5 189.5v4h-62q-67 0 -101 14l22 77q27 -5 124 -5h170z" />
    <glyph glyph-name="eta" unicode="&#x3b7;" horiz-adv-x="550" 
d="M200 400h3q68 98 175 98q54 0 89 -34t35 -100q0 -39 -9 -80l-57 -301q-27 -137 -22 -181h-110q-13 32 16 180l55 293q6 32 6 58q0 70 -61 70q-43 0 -84.5 -48.5t-56.5 -129.5l-42 -225h-117l63 336q20 105 14 151h102q10 -32 1 -87z" />
    <glyph glyph-name="theta" unicode="&#x3b8;" horiz-adv-x="538" 
d="M230 -11q-91 0 -141 61.5t-50 177.5q0 86 21 174q32 140 106.5 229.5t181.5 89.5q88 0 136 -63t48 -166q0 -70 -14 -145q-31 -160 -103.5 -259t-184.5 -99zM179 406h232q8 49 8 96q0 62 -21.5 98.5t-63.5 36.5q-57 0 -96.5 -65t-58.5 -166zM395 321h-232
q-11 -66 -11 -109q0 -66 23.5 -102.5t65.5 -36.5q108 0 154 248z" />
    <glyph glyph-name="iota" unicode="&#x3b9;" horiz-adv-x="249" 
d="M223 487l-66 -352q-6 -31 1.5 -43t32.5 -11l-22 -85q-17 -7 -47 -7q-89 0 -89 90q0 13 14 91l60 317h116z" />
    <glyph glyph-name="kappa" unicode="&#x3ba;" horiz-adv-x="495" 
d="M293 263l-1 -3q32 -11 53.5 -42t46.5 -88l56 -130h-127l-41 99q-24 55 -44.5 81.5t-50.5 26.5h-10l-38 -207h-116l68 366q17 94 11 121h110q14 -25 1 -88l-23 -121h5q52 52 201 209h133v-5q-96 -93 -234 -219z" />
    <glyph glyph-name="lambda" unicode="&#x3bb;" horiz-adv-x="458" 
d="M299 0l-37 257q-9 59 -12 91h-6q-24 -60 -38 -92l-122 -256h-122l239 455q10 17 10 28q0 4 -2 20q-22 121 -91 122h-16l23 89q23 4 40 3q70 -3 104 -57.5t57 -170.5l92 -489h-119z" />
    <glyph glyph-name="uni03BC" unicode="&#x3bc;" horiz-adv-x="543" 
d="M223 487l-53 -281q-23 -122 66 -122q30 0 58 26.5t45 61.5q12 22 17 48l51 267h117l-64 -336q-7 -38 0 -53.5t30 -16.5l-24 -86q-20 -6 -38 -6q-75 0 -78 95h-3q-52 -92 -133 -92q-61 0 -83 43l-10 -54q-24 -124 -21 -179h-104q-10 43 16 180l95 505h116z" />
    <glyph glyph-name="nu" unicode="&#x3bd;" horiz-adv-x="464" 
d="M32 487h123q7 -50 31 -244q2 -20 6 -62t7 -65h4q126 200 150 321q6 27 6 50h114q0 -27 -3 -43q-31 -173 -246 -444h-111q-38 240 -81 487z" />
    <glyph glyph-name="xi" unicode="&#x3be;" horiz-adv-x="437" 
d="M382 350h-31q-91 0 -145.5 -41t-54.5 -106q0 -90 121 -122q51 -14 124 -23q8 -1 8 -12q0 -29 -35.5 -97.5t-63.5 -96.5l-73 25q11 16 27 50.5t21 53.5q-50 6 -92 20q-67 21 -114.5 65t-47.5 118q0 82 54 141.5t126 76.5l1 5q-40 16 -64 49.5t-24 75.5q0 78 65 133.5
t172 55.5q85 0 129 -32l-30 -76q-35 23 -92 23t-91.5 -31t-34.5 -77q0 -44 33.5 -67.5t91.5 -27.5q10 -1 34 -1z" />
    <glyph glyph-name="omicron" unicode="&#x3bf;" horiz-adv-x="543" 
d="M230 -11q-91 0 -145 56.5t-54 144.5q0 127 79.5 217.5t202.5 90.5q94 0 146.5 -58t52.5 -143q0 -127 -79.5 -217.5t-202.5 -90.5zM246 79q62 0 104 69t42 148q0 44 -22.5 78t-71.5 34q-65 0 -106 -69.5t-41 -145.5q0 -51 25.5 -82.5t69.5 -31.5z" />
    <glyph glyph-name="pi" unicode="&#x3c0;" horiz-adv-x="552" 
d="M553 396h-64l-45 -243q-19 -105 -16 -153h-112q-12 29 10 145l47 251h-125q-12 -58 -21 -94q-58 -227 -114 -302h-112q61 98 112 299q11 38 23 97q-64 0 -96 -9l-2 68q37 32 158 32h378z" />
    <glyph glyph-name="rho" unicode="&#x3c1;" horiz-adv-x="553" 
d="M103 -198h-110q-7 44 18 176l41 219q31 169 116 240q71 61 167 61q86 0 138 -56t52 -141q0 -129 -77.5 -220.5t-178.5 -91.5q-42 0 -76.5 16t-50.5 43h-2l-13 -70q-24 -127 -24 -176zM175 230l-6 -27q-3 -17 -3 -38q0 -30 26 -58t69 -28q57 0 100.5 63t43.5 150
q0 48 -23.5 79.5t-67.5 31.5q-49 0 -85.5 -44t-53.5 -129z" />
    <glyph glyph-name="uni03C2" unicode="&#x3c2;" horiz-adv-x="428" 
d="M286 -148l-73 25q34 50 48 103q-47 8 -89 24q-57 21 -100.5 69.5t-43.5 128.5q0 118 84.5 207t211.5 89q69 0 114 -25l-32 -83q-34 17 -81 17q-71 0 -123.5 -54t-52.5 -134q0 -97 102 -133q48 -17 124 -29q8 -1 8 -12q0 -33 -32.5 -97t-64.5 -96z" />
    <glyph glyph-name="sigma" unicode="&#x3c3;" horiz-adv-x="564" 
d="M451 420l-1 -5q30 -20 44.5 -59.5t14.5 -74.5q0 -115 -79 -203.5t-198 -88.5q-92 0 -146.5 56t-54.5 145q0 127 79 217.5t200 90.5h120h66h96l-15 -88q-39 0 -126 10zM246 79q62 0 103.5 69.5t41.5 147.5q0 45 -22.5 78.5t-69.5 33.5q-66 0 -107 -69t-41 -146
q0 -51 25.5 -82.5t69.5 -31.5z" />
    <glyph glyph-name="tau" unicode="&#x3c4;" horiz-adv-x="411" 
d="M293 83l-18 -85q-22 -9 -53 -9q-109 0 -109 110q0 33 9 76l41 221h-44q-59 0 -97 -8v69q46 30 157 30h261l-22 -91h-139l-42 -231q-5 -22 -5 -41q0 -42 40 -42q14 0 21 1z" />
    <glyph glyph-name="upsilon" unicode="&#x3c5;" horiz-adv-x="520" 
d="M374 487h108q13 -33 13 -91q0 -70 -17 -139.5t-49.5 -130.5t-88 -99t-124.5 -38q-78 0 -126 42.5t-48 116.5q0 16 9 72l19 100q25 133 20 167h111q13 -22 -1 -91l-30 -162q-9 -52 -9 -67q0 -37 21.5 -59.5t51.5 -22.5q43 0 77.5 47.5t52 120.5t17.5 154q0 50 -7 80z" />
    <glyph glyph-name="phi" unicode="&#x3c6;" horiz-adv-x="653" 
d="M241 71l48 260q15 84 57.5 125.5t102.5 41.5q73 0 123 -55.5t50 -141.5q0 -138 -88.5 -224t-203.5 -88l-35 -187h-105l36 187q-79 10 -137 65t-58 147q0 62 21.5 116.5t54.5 90t66.5 58.5t64.5 32l40 -59q-49 -26 -91 -85t-42 -144q0 -53 24.5 -90.5t71.5 -48.5zM400 361
l-55 -290q70 5 117 70.5t47 155.5q0 49 -19 83t-49 34q-32 0 -41 -53z" />
    <glyph glyph-name="chi" unicode="&#x3c7;" horiz-adv-x="449" 
d="M43 487h121l40 -145q9 -34 25 -104h5q39 72 56 99q15 25 44.5 75t44.5 75h118q-200 -302 -226 -340l106 -342l-112 -25l-42 149q-25 89 -35 130h-5q-7 -13 -15.5 -28t-21 -36t-20.5 -35q-13 -21 -51 -84t-58 -96l-97 36q26 38 105.5 157.5t122.5 185.5z" />
    <glyph glyph-name="psi" unicode="&#x3c8;" horiz-adv-x="661" 
d="M516 487h106q14 -37 14 -95q0 -173 -81.5 -285t-219.5 -118l-35 -187h-106l35 187q-80 7 -131.5 53t-51.5 133q0 42 8 81l21 110q16 87 14 121h105q11 -20 -2 -90l-25 -138q-8 -46 -8 -81q1 -50 24.5 -76t61.5 -29l101 541h105l-101 -541q69 1 121.5 87.5t52.5 240.5
q0 60 -8 86z" />
    <glyph glyph-name="omega" unicode="&#x3c9;" horiz-adv-x="698" 
d="M510 491h105q20 -23 35 -69.5t15 -100.5q0 -137 -67.5 -234.5t-164.5 -97.5q-90 0 -114 82h-4q-49 -82 -136 -82q-63 0 -106 48.5t-43 139.5q0 98 42 186t88 128h113v-3q-47 -45 -86 -127.5t-39 -171.5q0 -49 17 -75t43 -26q28 0 48.5 29.5t28.5 75.5l31 174h107
l-31 -154q-8 -46 -8 -59q0 -27 13 -46.5t39 -19.5q44 0 79 75t35 172q0 102 -40 153v3z" />
    <glyph glyph-name="iotadieresis" unicode="&#x3ca;" horiz-adv-x="249" 
d="M80 551q-24 0 -40 16t-16 41q0 28 18 46t45 18q26 0 41.5 -16t15.5 -41q0 -28 -18.5 -46t-45.5 -18zM275 551q-24 0 -40 16t-16 41q0 28 18.5 46t45.5 18q25 0 40.5 -16.5t15.5 -40.5q0 -28 -18.5 -46t-45.5 -18zM224 487l-67 -352q-5 -31 2.5 -43t32.5 -11l-23 -85
q-17 -7 -47 -7q-87 0 -87 87q0 21 12 91l61 320h116z" />
    <glyph glyph-name="upsilondieresis" unicode="&#x3cb;" horiz-adv-x="520" 
d="M199 551q-24 0 -40 16t-16 41q0 28 18.5 46t45.5 18q25 0 40.5 -16.5t15.5 -40.5q0 -28 -18.5 -46t-45.5 -18zM394 551q-24 0 -40 16t-16 41q0 28 18.5 46t45.5 18q25 0 40.5 -16.5t15.5 -40.5q0 -28 -18.5 -46t-45.5 -18zM373 487h109q13 -33 13 -89q0 -70 -17 -140
t-49.5 -131.5t-88.5 -99.5t-125 -38q-79 0 -126 42t-47 119q0 24 10 71l18 99q25 131 20 167h111q13 -22 -1 -91l-30 -162q-9 -58 -9 -66q0 -39 21 -61t51 -22q44 0 78.5 48.5t52 121t17.5 152.5q0 54 -8 80z" />
    <glyph glyph-name="omicrontonos" unicode="&#x3cc;" horiz-adv-x="543" 
d="M355 694h121l-132 -148h-86zM230 -11q-91 0 -145 56.5t-54 144.5q0 127 79.5 217.5t202.5 90.5q94 0 146.5 -58t52.5 -143q0 -127 -79.5 -217.5t-202.5 -90.5zM246 79q62 0 104 69t42 148q0 44 -22.5 78t-71.5 34q-65 0 -106 -69.5t-41 -145.5q0 -51 25.5 -82.5
t69.5 -31.5z" />
    <glyph glyph-name="upsilontonos" unicode="&#x3cd;" horiz-adv-x="520" 
d="M325 694h121l-131 -148h-86zM374 487h108q13 -33 13 -89q0 -70 -17 -140t-49.5 -131.5t-88.5 -99.5t-125 -38q-78 0 -125.5 42.5t-47.5 117.5q0 22 10 72l18 99q25 131 20 167h111q13 -22 -1 -91l-30 -162q-9 -63 -9 -66q0 -39 21 -61t51 -22q44 0 78.5 48.5t52 121
t17.5 152.5q0 50 -7 80z" />
    <glyph glyph-name="omegatonos" unicode="&#x3ce;" horiz-adv-x="698" 
d="M437 694h121l-131 -148h-86zM510 491h105q20 -23 35 -69.5t15 -100.5q0 -137 -67.5 -234.5t-164.5 -97.5q-90 0 -114 82h-4q-49 -82 -136 -82q-63 0 -106 48.5t-43 139.5q0 98 42 186t88 128h113v-3q-47 -45 -86 -127.5t-39 -171.5q0 -49 17 -75t43 -26q28 0 48.5 29.5
t28.5 75.5l31 174h107l-31 -154q-8 -46 -8 -59q0 -27 12.5 -46.5t38.5 -19.5q45 0 80 75t35 172q0 102 -40 153v3z" />
    <glyph glyph-name="uni0401" unicode="&#x401;" horiz-adv-x="496" 
d="M459 398l-19 -98h-242l-38 -201h272l-19 -99h-388l127 674h374l-19 -99h-257l-33 -177h242zM254 715q-23 0 -39.5 16.5t-16.5 40.5q0 27 19 45.5t45 18.5q25 0 40.5 -17t15.5 -40q0 -27 -18.5 -45.5t-45.5 -18.5zM451 715q-23 0 -39.5 16.5t-16.5 40.5q0 27 19 45.5
t45 18.5q25 0 40.5 -17t15.5 -40q0 -27 -18.5 -45.5t-45.5 -18.5z" />
    <glyph glyph-name="uni0402" unicode="&#x402;" horiz-adv-x="667" 
d="M88 674h515l-20 -101h-225l-28 -153h2q47 30 112 30q85 0 132.5 -59t47.5 -155q0 -82 -27 -155.5t-76 -123.5q-41 -43 -92.5 -69t-100.5 -32l-18 98q71 16 118 66q72 77 72 203q0 58 -25.5 94t-76.5 36q-42 0 -86 -28l-61 -325h-115l107 573h-176z" />
    <glyph glyph-name="uni0403" unicode="&#x403;" horiz-adv-x="428" 
d="M153 674h349l-20 -102h-232l-109 -572h-116zM362 832h137l-134 -122h-100z" />
    <glyph glyph-name="uni0404" unicode="&#x404;" horiz-adv-x="557" 
d="M603 653l-34 -93q-50 26 -130 26q-95 -1 -164 -55.5t-89 -144.5h297l-15 -93h-292q-2 -14 -2 -28q1 -74 49 -126t138 -52q72 0 140 29l12 -92q-68 -35 -181 -35q-136 0 -209.5 80.5t-73.5 210.5q0 93 34 172.5t97 134.5q113 97 270 97q94 0 153 -31z" />
    <glyph glyph-name="uni0405" unicode="&#x405;" horiz-adv-x="490" 
d="M5 37l40 96q65 -43 152 -43q52 0 88 26.5t36 73.5q0 32 -22 57t-72 52q-137 74 -137 176q0 94 71.5 151.5t176.5 57.5q95 0 150 -34l-38 -96q-55 30 -121 30q-54 0 -85.5 -26t-31.5 -62q0 -32 24 -56t77 -53q131 -69 131 -179q0 -100 -73 -159t-187 -59q-57 0 -105.5 14
t-73.5 33z" />
    <glyph glyph-name="uni0406" unicode="&#x406;" horiz-adv-x="256" 
d="M150 674h116l-128 -674h-116z" />
    <glyph glyph-name="uni0407" unicode="&#x407;" horiz-adv-x="256" 
d="M150 674h117l-128 -674h-116zM121 715q-23 0 -39.5 16.5t-16.5 40.5q0 27 19 45.5t45 18.5q25 0 40.5 -17t15.5 -40q0 -27 -18.5 -45.5t-45.5 -18.5zM318 715q-23 0 -39.5 16.5t-16.5 40.5q0 27 19 45.5t45 18.5q25 0 40.5 -17t15.5 -40q0 -27 -18.5 -45.5t-45.5 -18.5z
" />
    <glyph glyph-name="uni0408" unicode="&#x408;" horiz-adv-x="383" 
d="M201 234l84 440h116l-86 -453q-23 -123 -80 -177.5t-162 -54.5q-70 0 -106 17l23 99q36 -13 83 -13q52 0 83 32t45 110z" />
    <glyph glyph-name="uni0409" unicode="&#x409;" horiz-adv-x="894" 
d="M215 674h400l-47 -243q30 6 75 6q96 0 156 -49.5t60 -143.5q0 -101 -69 -165q-90 -86 -269 -86q-84 0 -149 9l108 573h-172l-35 -182q-50 -262 -144 -346q-62 -56 -154 -57l-10 98q57 4 92 42q69 67 104 255zM549 339l-46 -250q24 -3 56 -3q70 0 123 38t53 106
q0 57 -34.5 85.5t-90.5 28.5q-31 0 -61 -5z" />
    <glyph glyph-name="uni040A" unicode="&#x40a;" horiz-adv-x="903" 
d="M153 674h116l-51 -264h239l50 264h116l-49 -251q32 6 75 6q95 0 156.5 -49t61.5 -143q0 -95 -68 -160q-89 -84 -269 -84q-85 0 -150 9l59 313h-239l-59 -315h-116zM556 330l-45 -241q24 -3 58 -3q71 0 122.5 37.5t51.5 101.5q0 55 -36.5 83t-92.5 28q-32 0 -58 -6z" />
    <glyph glyph-name="uni040B" unicode="&#x40b;" horiz-adv-x="675" 
d="M87 674h509l-19 -100h-223l-32 -168h2q63 43 145 43q73 0 110 -41.5t36 -109.5q0 -33 -12 -103l-35 -195h-116l36 190q9 47 9 80q0 35 -21 58t-66 23q-59 0 -106 -41l-59 -310h-114l108 574h-172z" />
    <glyph glyph-name="uni040C" unicode="&#x40c;" horiz-adv-x="557" 
d="M153 674h115l-57 -293h19l251 293h143l-291 -309q55 -17 83.5 -67t45.5 -134q3 -17 9 -47.5t9.5 -46t8.5 -36t10 -34.5h-120q-12 33 -33 155q-14 74 -42 107.5t-90 33.5h-18l-56 -296h-116zM398 832h137l-134 -122h-100z" />
    <glyph glyph-name="uni040E" unicode="&#x40e;" horiz-adv-x="529" 
d="M80 674h128l70 -269q12 -47 30 -126h3q10 24 29 69.5t30 70.5l114 255h133l-173 -340q-36 -71 -58 -111.5t-58.5 -94t-69.5 -83.5q-59 -56 -143 -56q-49 0 -80 15l22 95q19 -8 51 -8q66 0 109 83q12 18 4 43zM233 833h84q-5 -60 46 -60t64 60h86q-11 -54 -52 -84.5
t-104 -30.5q-64 0 -95 30.5t-29 84.5z" />
    <glyph glyph-name="uni040F" unicode="&#x40f;" horiz-adv-x="630" 
d="M152 674h118l-109 -575h256l109 575h116l-127 -674h-188l-43 -179h-93l27 179h-193z" />
    <glyph glyph-name="uni0410" unicode="&#x410;" horiz-adv-x="596" 
d="M400 192h-212l-92 -192h-124l338 674h146l85 -674h-122zM225 282h168l-19 168q-4 48 -10 128h-2q-5 -12 -24.5 -58.5t-30.5 -69.5z" />
    <glyph glyph-name="uni0411" unicode="&#x411;" horiz-adv-x="548" 
d="M153 674h378l-18 -100h-262l-29 -151q28 7 76 7q93 0 152.5 -49t59.5 -141q0 -111 -82 -176q-89 -71 -249 -71q-88 0 -153 9zM204 335l-46 -247q21 -4 59 -4q67 0 119 38t52 104q0 56 -33.5 85.5t-90.5 29.5q-24 0 -60 -6z" />
    <glyph glyph-name="uni0412" unicode="&#x412;" horiz-adv-x="557" 
d="M26 6l124 658q75 15 162 15q105 0 162 -40q65 -40 65 -115q0 -61 -40 -104.5t-100 -59.5v-3q49 -15 78.5 -53.5t29.5 -94.5q0 -99 -87 -159q-78 -55 -238 -55q-97 0 -156 11zM250 583l-35 -185h54q67 0 108.5 29.5t41.5 80.5q0 80 -107 80q-42 0 -62 -5zM197 312
l-41 -222q27 -3 61 -3q72 0 119.5 31.5t47.5 94.5q0 51 -37 75t-95 24h-55z" />
    <glyph glyph-name="uni0413" unicode="&#x413;" horiz-adv-x="428" 
d="M153 674h349l-20 -102h-232l-109 -572h-116z" />
    <glyph glyph-name="uni0414" unicode="&#x414;" horiz-adv-x="634" 
d="M230 674h392l-109 -578l61 -4l-61 -259h-94l26 167h-377l-42 -167h-93l44 259l50 4q61 84 104 181q42 101 65 220zM318 574l-22 -112q-21 -113 -61 -208q-37 -90 -86 -156h248l90 476h-169z" />
    <glyph glyph-name="uni0415" unicode="&#x415;" horiz-adv-x="496" 
d="M459 398l-19 -98h-242l-38 -201h272l-19 -99h-389l128 674h374l-19 -99h-257l-34 -177h243z" />
    <glyph glyph-name="uni0416" unicode="&#x416;" horiz-adv-x="812" 
d="M95 674h124l133 -295h17l54 295h111l-55 -295h19l237 295h132l-279 -309q57 -16 86 -67t44 -130q20 -127 35 -168h-118q-10 32 -32 165q-12 67 -38.5 99.5t-80.5 32.5h-19l-55 -297h-113l56 298h-17q-55 0 -93 -34t-71 -102q-63 -135 -79 -162h-123q15 23 29 50.5
t34 70.5t27 58q45 91 88 132t116 54z" />
    <glyph glyph-name="uni0417" unicode="&#x417;" horiz-adv-x="481" 
d="M131 307l16 89h39q64 0 110.5 28.5t45.5 84.5q0 38 -25 59.5t-64 21.5q-65 0 -134 -39l-24 83q79 51 183 51q78 0 131.5 -39.5t53.5 -117.5q0 -66 -43 -111.5t-107 -60.5l-1 -2q54 -12 88 -52t34 -100q0 -101 -76.5 -157t-185.5 -56q-107 0 -184 51l37 89q68 -41 147 -41
q59 0 100.5 31.5t41.5 87.5q0 50 -42 75.5t-95 24.5h-46z" />
    <glyph glyph-name="uni0418" unicode="&#x418;" horiz-adv-x="646" 
d="M153 674h111l-48 -249q-33 -169 -62 -282h2q54 88 154 227l222 304h125l-128 -674h-110l48 254q32 162 56 258l-2 1q-54 -92 -153 -231l-209 -282h-134z" />
    <glyph glyph-name="uni0419" unicode="&#x419;" horiz-adv-x="646" 
d="M153 674h110l-47 -249q-33 -169 -62 -282h2q54 88 154 227l222 304h125l-128 -674h-110l48 254q32 162 56 258l-3 1q-52 -91 -152 -231l-209 -282h-134zM290 831h84q-5 -60 46 -60t64 60h86q-11 -54 -52 -84.5t-104 -30.5q-64 0 -95 30.5t-29 84.5z" />
    <glyph glyph-name="uni041A" unicode="&#x41a;" horiz-adv-x="557" 
d="M153 674h115l-57 -293h19l251 293h143l-291 -309q55 -17 83.5 -67t45.5 -134q3 -17 9 -47.5t9.5 -46t8.5 -36t10 -34.5h-120q-12 33 -33 155q-14 74 -42 107.5t-90 33.5h-18l-56 -296h-116z" />
    <glyph glyph-name="uni041B" unicode="&#x41b;" horiz-adv-x="615" 
d="M214 674h412l-128 -674h-117l110 575h-185l-35 -183q-25 -133 -58 -215t-82 -127q-58 -58 -156 -61l-11 98q58 6 94 46q66 66 101 250z" />
    <glyph glyph-name="uni041C" unicode="&#x41c;" horiz-adv-x="802" 
d="M701 0h-113l44 317q30 189 42 247h-3q-65 -147 -112 -237l-165 -319h-91l-35 314q-11 104 -18 242h-2q-4 -19 -24.5 -113t-29.5 -134l-78 -317h-108l172 674h153l36 -315q12 -147 13 -194h4q34 92 85 193l163 316h156z" />
    <glyph glyph-name="uni041D" unicode="&#x41d;" horiz-adv-x="648" 
d="M153 674h116l-52 -273h274l52 273h117l-128 -674h-117l57 298h-274l-57 -298h-116z" />
    <glyph glyph-name="uni041E" unicode="&#x41e;" horiz-adv-x="688" 
d="M314 -11q-126 0 -196 79.5t-70 198.5q0 90 32.5 175.5t89.5 144.5q100 98 241 98q129 0 197 -78.5t68 -200.5q0 -90 -31 -175t-87 -142q-98 -100 -244 -100zM331 87q61 0 113 49t80 121t28 145q0 36 -7 67t-23.5 58.5t-48.5 43.5t-76 16q-64 0 -117 -50t-80.5 -121
t-27.5 -143q0 -83 39 -134.5t120 -51.5z" />
    <glyph glyph-name="uni041F" unicode="&#x41f;" horiz-adv-x="633" 
d="M153 674h492l-128 -674h-117l110 575h-259l-110 -575h-116z" />
    <glyph glyph-name="uni0420" unicode="&#x420;" horiz-adv-x="535" 
d="M24 0l126 663q66 16 162 16q113 0 173 -48q62 -48 62 -134q0 -57 -24 -105t-62 -78q-79 -64 -211 -64q-18 0 -63 5l-49 -255h-114zM248 580l-43 -229q29 -6 61 -6q72 0 118 41t46 102q0 98 -117 98q-44 0 -65 -6z" />
    <glyph glyph-name="uni0421" unicode="&#x421;" horiz-adv-x="570" 
d="M501 114l11 -94q-66 -31 -176 -31q-132 0 -209.5 76t-77.5 207q0 104 42 190.5t116 141.5q106 80 251 80q100 0 147 -30l-34 -94q-44 24 -127 24q-102 0 -171 -63q-46 -40 -72 -101t-26 -133q0 -90 47.5 -144t143.5 -54q80 0 135 25z" />
    <glyph glyph-name="uni0422" unicode="&#x422;" horiz-adv-x="503" 
d="M144 0l108 572h-186l20 102h491l-20 -102h-188l-108 -572h-117z" />
    <glyph glyph-name="uni0423" unicode="&#x423;" horiz-adv-x="529" 
d="M80 674h128l70 -269q12 -47 30 -126h3q10 24 29 69.5t30 70.5l114 255h133l-173 -340q-41 -78 -60 -113t-56 -90.5t-70 -85.5q-59 -56 -143 -56q-49 0 -80 15l22 95q19 -8 51 -8q66 0 109 83q12 18 4 43z" />
    <glyph glyph-name="uni0424" unicode="&#x424;" horiz-adv-x="741" 
d="M265 -28l12 62q-94 16 -158.5 83.5t-64.5 179.5q0 88 32.5 158t84 110t108.5 60.5t114 20.5l11 55h110l-11 -57q95 -15 158.5 -83.5t63.5 -186.5q0 -110 -50.5 -189.5t-125.5 -116t-163 -38.5l-11 -58h-110zM293 119l84 443q-78 -3 -141.5 -75.5t-63.5 -187.5
q0 -73 33.5 -120.5t87.5 -59.5zM486 559l-83 -444q90 5 147 78t57 190q0 75 -33 121t-88 55z" />
    <glyph glyph-name="uni0425" unicode="&#x425;" horiz-adv-x="547" 
d="M494 0h-124l-53 150q-20 52 -40 116h-2q-42 -70 -73 -118l-98 -148h-140l257 344l-122 330h123l51 -149q18 -54 33 -108h3q29 52 65 109l102 148h139l-252 -331z" />
    <glyph glyph-name="uni0426" unicode="&#x426;" horiz-adv-x="646" 
d="M153 674h117l-110 -575h257l110 575h116l-110 -579l61 -3l-61 -259h-94l26 167h-440z" />
    <glyph glyph-name="uni0427" unicode="&#x427;" horiz-adv-x="581" 
d="M134 674h116l-37 -192q-8 -45 -8 -65q0 -84 100 -84q63 0 113 32l59 309h116l-129 -677h-116l52 272l-2 1q-58 -32 -141 -32q-80 0 -126 40t-46 110q0 33 11 88z" />
    <glyph glyph-name="uni0428" unicode="&#x428;" horiz-adv-x="846" 
d="M153 674h115l-110 -575h181l109 575h115l-110 -575h181l109 575h115l-129 -674h-704z" />
    <glyph glyph-name="uni0429" unicode="&#x429;" horiz-adv-x="861" 
d="M153 674h114l-109 -575h181l109 575h114l-109 -575h181l109 575h114l-110 -579l60 -3l-60 -259h-94l26 167h-654z" />
    <glyph glyph-name="uni042A" unicode="&#x42a;" horiz-adv-x="655" 
d="M85 674h292l-48 -243q40 6 74 6q98 0 157.5 -50t59.5 -144q0 -99 -67 -164q-89 -86 -271 -86q-83 0 -148 9l108 571h-176zM311 337l-47 -247q23 -4 59 -4q68 0 120.5 38t52.5 105q0 56 -34 85.5t-91 29.5q-34 0 -60 -7z" />
    <glyph glyph-name="uni042B" unicode="&#x42b;" horiz-adv-x="773" 
d="M152 674h116l-47 -243q30 6 76 6q91 0 149.5 -50t58.5 -143q0 -100 -67 -165q-89 -86 -264 -86q-84 0 -149 9zM203 338l-47 -248q17 -4 58 -4q65 0 116 37.5t51 104.5q0 56 -32 86t-87 30q-27 0 -59 -6zM663 674h122l-129 -674h-122z" />
    <glyph glyph-name="uni042C" unicode="&#x42c;" horiz-adv-x="547" 
d="M151 674h116l-47 -243q29 6 76 6q96 0 155.5 -49.5t59.5 -144.5q0 -99 -66 -163q-91 -87 -272 -87q-83 0 -148 9zM202 338l-47 -248q23 -4 59 -4q68 0 120.5 37.5t52.5 104.5q0 57 -34 86.5t-92 29.5q-31 0 -59 -6z" />
    <glyph glyph-name="uni042D" unicode="&#x42d;" horiz-adv-x="559" 
d="M116 291l18 94h288q1 7 1 25q-1 74 -48 125t-129 51q-69 0 -134 -27l-23 88q78 38 173 38q131 0 207 -81t76 -217q0 -186 -115 -300q-100 -98 -267 -98q-108 0 -174 39l31 92q64 -32 141 -32q99 0 164 57t83 146h-292z" />
    <glyph glyph-name="uni042E" unicode="&#x42e;" horiz-adv-x="904" 
d="M152 674h117l-52 -273h94q31 114 98 186q95 98 230 98q123 0 188 -78.5t65 -200.5q0 -90 -29.5 -175t-82.5 -143q-94 -99 -232 -99q-118 0 -185 77.5t-67 184.5q0 26 4 49h-103l-56 -300h-116zM563 86q58 0 107 49.5t75 121.5t26 145q0 186 -146 186q-60 0 -110.5 -50
t-76.5 -121.5t-26 -143.5q0 -83 37 -135t114 -52z" />
    <glyph glyph-name="uni042F" unicode="&#x42f;" horiz-adv-x="548" 
d="M559 663l-124 -663h-117l54 281h-39q-33 0 -60 -12.5t-48 -40t-32 -46.5t-30 -57q-40 -87 -64 -125h-128q17 25 80 152q34 68 68.5 110.5t83.5 57.5v3q-46 13 -78.5 50t-32.5 96q0 105 91 164q77 46 202 46q101 0 174 -16zM389 368l39 215q-33 5 -61 5q-67 0 -111 -31.5
t-44 -91.5q0 -47 35 -73t87 -26q31 0 55 2z" />
    <glyph glyph-name="uni0430" unicode="&#x430;" horiz-adv-x="540" 
d="M450 0h-107q0 27 8 109h-2q-66 -120 -176 -120q-65 0 -104.5 46t-39.5 120q0 64 22 124t63.5 109.5t108.5 79.5t149 30q79 0 147 -22l-49 -254q-23 -121 -20 -222zM364 275l24 128q-18 5 -47 5q-78 0 -134.5 -72.5t-56.5 -159.5q0 -93 70 -93q44 0 86 52t58 140z" />
    <glyph glyph-name="uni0431" unicode="&#x431;" horiz-adv-x="537" 
d="M557 720l-17 -99q-29 -9 -78 -15q-56 -7 -85 -12.5t-71 -24.5t-72 -52q-47 -50 -68 -127h4q66 97 171 97q79 0 123.5 -53.5t44.5 -135.5q-1 -123 -76.5 -216t-197.5 -93q-91 0 -140 61.5t-49 171.5q0 104 31 196t89 156q58 66 127 92t174 37q58 5 90 17zM249 76
q65 0 102 68.5t37 143.5q0 48 -20.5 80.5t-63.5 32.5q-57 0 -100 -60q-43 -57 -43 -144q0 -51 22 -86t66 -35z" />
    <glyph glyph-name="uni0432" unicode="&#x432;" horiz-adv-x="507" 
d="M311 498q73 0 115.5 -29.5t42.5 -86.5q0 -45 -34.5 -75t-79.5 -44v-2q41 -5 71 -32t30 -73q0 -58 -40 -97t-91.5 -54t-108.5 -15q-179 0 -179 146q0 79 33.5 176.5t93.5 141.5q59 44 147 44zM298 417q-84 0 -122 -139q99 15 135 34q46 22 46 57q0 23 -16.5 35.5
t-42.5 12.5zM251 216q-41 0 -90 -14q-7 -40 -7 -59q0 -71 76 -71q46 0 77 22t31 58q0 64 -87 64z" />
    <glyph glyph-name="uni0433" unicode="&#x433;" horiz-adv-x="397" 
d="M108 385l-15 78q66 34 144 34q72 -1 110.5 -35t38.5 -92q0 -57 -40.5 -92.5t-117.5 -68.5q-51 -23 -75 -41.5t-24 -44.5q0 -45 59 -46q58 0 126 35l15 -82q-74 -42 -160 -40q-75 1 -117.5 34.5t-42.5 95.5q0 34 12.5 60.5t40.5 47.5t49 32t61 29q27 12 38 17.5t29 16
t25.5 21.5t7.5 23q0 19 -15 30.5t-43 12.5q-48 0 -106 -25z" />
    <glyph glyph-name="uni0434" unicode="&#x434;" horiz-adv-x="530" 
d="M141 623l-3 97q18 -4 40.5 -6.5t48.5 -4t39 -2.5q116 -12 172 -68q75 -68 75 -222q0 -56 -9.5 -112.5t-32 -114t-55 -102t-84 -72t-113.5 -27.5q-89 0 -138.5 53t-49.5 145q0 114 70 207t180 93q100 0 133 -90h3q1 12 1 37q0 86 -47 130q-41 40 -140 48q-76 8 -90 11z
M238 76q40 0 72.5 37.5t48 84t16.5 86.5q0 47 -21.5 80.5t-64.5 33.5q-44 0 -77 -36t-47 -83t-13 -93q0 -48 21 -79t65 -31z" />
    <glyph glyph-name="uni0435" unicode="&#x435;" horiz-adv-x="479" 
d="M391 113l11 -85q-75 -39 -172 -39q-98 0 -149 54.5t-51 147.5q0 117 78 212t198 95q72 0 114.5 -37.5t42.5 -99.5q0 -168 -319 -161q-5 -39 13 -69q29 -50 100 -50q72 0 134 32zM353 361q0 23 -17 36.5t-45 13.5q-51 0 -87 -37.5t-48 -86.5q97 -1 147 15.5t50 58.5z" />
    <glyph glyph-name="uni0436" unicode="&#x436;" horiz-adv-x="686" 
d="M59 487h126l93 -208h15l40 208h109l-41 -208h17l173 208h130l-208 -218q65 -16 89 -138q3 -12 8.5 -42t10.5 -51.5t10 -37.5h-112q-5 14 -9.5 32.5t-8.5 43.5t-6 34q-10 51 -29.5 76t-61.5 25h-16l-39 -211h-110l41 211h-12q-46 0 -76.5 -23t-54.5 -71q-9 -17 -28 -57.5
t-30 -59.5h-116q2 3 63 128q64 132 160 140z" />
    <glyph glyph-name="uni0437" unicode="&#x437;" horiz-adv-x="434" 
d="M96 214l12 78h47q45 0 81.5 17t36.5 50q0 26 -21 40t-53 14q-59 0 -118 -32l-22 71q75 45 164 45q31 0 60 -6t55 -19t42 -38t16 -59q0 -48 -36.5 -78.5t-89.5 -40.5v-1q44 -7 77.5 -36.5t33.5 -76.5q0 -54 -36.5 -90t-84 -48.5t-101.5 -12.5q-107 0 -177 46l31 79
q64 -38 135 -38q43 0 76.5 17.5t33.5 52.5q0 66 -112 66h-50z" />
    <glyph glyph-name="uni0438" unicode="&#x438;" horiz-adv-x="545" 
d="M107 487h116l-50 -266q-8 -38 -8 -67q0 -69 62 -69q42 0 82 46t54 120l44 236h117l-64 -336q-10 -52 -24 -151h-104l11 85h-2q-72 -96 -169 -96q-57 0 -92 33.5t-35 104.5q0 40 10 87z" />
    <glyph glyph-name="uni0439" unicode="&#x439;" horiz-adv-x="545" 
d="M107 487h116l-50 -266q-8 -38 -8 -67q0 -69 62 -69q42 0 82 46t54 120l44 236h117l-64 -336q-10 -52 -24 -151h-104l11 85h-2q-72 -96 -169 -96q-57 0 -92 33.5t-35 104.5q0 40 10 87zM222 688h78q-4 -31 7.5 -50t35.5 -19q44 0 63 69h78q-13 -61 -52 -94t-97 -33
q-63 0 -90.5 35t-22.5 92z" />
    <glyph glyph-name="uni043A" unicode="&#x43a;" horiz-adv-x="484" 
d="M113 487h113l-39 -207h16l185 207h138l-224 -220q64 -21 93 -141q31 -114 37 -126h-115q-5 11 -10.5 29.5t-12 45t-11.5 42.5q-16 51 -37 72t-59 21h-13l-40 -210h-114z" />
    <glyph glyph-name="uni043B" unicode="&#x43b;" horiz-adv-x="529" 
d="M152 487h359l-92 -487h-116l74 396h-134l-21 -107q-19 -99 -46.5 -159t-70.5 -91q-50 -45 -128 -45l-8 93q42 3 65 25q53 40 81 179z" />
    <glyph glyph-name="uni043C" unicode="&#x43c;" horiz-adv-x="692" 
d="M138 487h145l28 -215q11 -90 13 -123h2q23 52 74 146l105 192h148l-64 -487h-108l31 211q8 51 26 166h-4q-14 -34 -76 -151l-119 -220h-89l-27 215q-12 100 -16 157h-4q-22 -108 -38 -169l-53 -209h-104z" />
    <glyph glyph-name="uni043D" unicode="&#x43d;" horiz-adv-x="544" 
d="M112 487h116l-35 -187h180l36 187h116l-92 -487h-117l40 209h-180l-40 -209h-116z" />
    <glyph glyph-name="uni043E" unicode="&#x43e;" horiz-adv-x="542" 
d="M230 -11q-91 0 -145 56.5t-54 144.5q0 127 79.5 217.5t202.5 90.5q94 0 146.5 -58t52.5 -143q0 -127 -79.5 -217.5t-202.5 -90.5zM246 79q62 0 104 69t42 148q0 44 -22.5 78t-71.5 34q-65 0 -106 -69.5t-41 -145.5q0 -51 25.5 -82.5t69.5 -31.5z" />
    <glyph glyph-name="uni043F" unicode="&#x43f;" horiz-adv-x="550" 
d="M136 0h-116l63 336q14 73 25 151h104l-11 -87h2q68 98 175 98q55 0 89.5 -34t34.5 -100q0 -37 -9 -80l-53 -284h-117l52 275q6 36 6 58q0 70 -61 70q-43 0 -85 -48.5t-57 -129.5z" />
    <glyph glyph-name="uni0440" unicode="&#x440;" horiz-adv-x="548" 
d="M95 -198h-116l96 504q11 63 28 183h105l-11 -82h2q64 89 164 91q75 0 114.5 -51.5t39.5 -128.5q0 -132 -81 -230.5t-202 -98.5q-61 0 -97 21h-2zM174 223l-21 -119q30 -25 78 -25q66 0 115 72t49 158q0 38 -18.5 66t-58.5 28q-46 0 -88 -49t-56 -131z" />
    <glyph glyph-name="uni0441" unicode="&#x441;" horiz-adv-x="428" 
d="M362 107l5 -89q-58 -28 -140 -28q-91 0 -144 53t-53 141q0 130 88 221.5t221 91.5q57 0 100 -18l-30 -91q-34 15 -74 15q-81 0 -132 -62t-51 -143q0 -54 29 -84t78 -30q53 0 103 23z" />
    <glyph glyph-name="uni0442" unicode="&#x442;" horiz-adv-x="821" 
d="M133 0h-113l62 336q10 52 24 151h101l-11 -85h2q66 96 170 96q53 0 82 -29t32 -71q66 98 173 100q52 0 85 -33.5t33 -96.5q0 -31 -8 -83l-53 -285h-113l50 272q7 33 7 61q0 70 -59 70q-42 0 -80 -47.5t-52 -122.5l-43 -233h-113l53 276q6 40 6 57q0 70 -59 70
q-41 0 -81 -50t-53 -123z" />
    <glyph glyph-name="uni0443" unicode="&#x443;" horiz-adv-x="471" 
d="M45 487h122l38 -235q18 -107 20 -122h2q6 16 22 54t26 63l101 240h123q-146 -306 -175 -364q-90 -176 -179 -263q-71 -68 -150 -84l-27 100q57 21 86 43q53 37 86 97q5 9 2 23z" />
    <glyph glyph-name="uni0444" unicode="&#x444;" horiz-adv-x="709" 
d="M216 -198l48 241h-2q-43 -54 -113 -54q-55 0 -88 46t-33 125q0 78 27 154.5t82 130t124 53.5q29 0 49.5 -15.5t28.5 -38.5h2l50 266h105l-54 -269h2q49 57 111 57q64 0 95.5 -50t31.5 -127q0 -79 -26.5 -154t-79.5 -126.5t-120 -51.5q-30 0 -53.5 15t-33.5 38h-1
l-43 -240h-109zM273 408q-38 0 -69 -42t-45.5 -94.5t-14.5 -98.5q0 -41 15.5 -65.5t42.5 -24.5q33 0 56 27.5t31 65.5l26 130q5 28 5 49q-1 21 -14.5 37t-32.5 16zM511 403q-41 0 -70 -45q-16 -32 -25 -79q-3 -16 -6.5 -34t-8 -40t-6.5 -34q-5 -26 2 -43q3 -17 17.5 -32
t36.5 -14q33 2 60.5 41t41 89.5t13.5 96.5q0 94 -55 94z" />
    <glyph glyph-name="uni0445" unicode="&#x445;" horiz-adv-x="472" 
d="M55 487h128l37 -88q7 -16 13 -31t11.5 -29t7.5 -20h3q5 7 22 33t30 43l70 92h134l-205 -237l114 -250h-128l-39 92q-20 48 -33 87h-2q-45 -71 -50 -78l-76 -101h-135l212 251z" />
    <glyph glyph-name="uni0446" unicode="&#x446;" horiz-adv-x="558" 
d="M107 487h116l-50 -266q-8 -38 -8 -67q0 -69 62 -69q42 0 82 46t54 119l45 237h116l-56 -297q-9 -41 -9 -66q0 -60 68 -61l-68 -212h-85l40 149q-28 7 -44 32q-12 19 -14 56h-2q-35 -47 -81 -73.5t-95 -25.5q-59 0 -96 33.5t-37 104.5q0 40 10 87z" />
    <glyph glyph-name="uni0447" unicode="&#x447;" horiz-adv-x="520" 
d="M94 487h117l-23 -111q-9 -45 -9 -67q0 -62 72 -62q55 0 96 35l38 205h116l-93 -487h-116l39 194h-2q-53 -34 -123 -34q-74 0 -110.5 33t-36.5 90q0 30 11 83z" />
    <glyph glyph-name="uni0448" unicode="&#x448;" horiz-adv-x="809" 
d="M106 487h114l-51 -272q-7 -35 -7 -61q0 -70 57 -70q42 0 79 47t51 123l43 233h113l-53 -276q-6 -40 -6 -57q0 -70 56 -70q39 0 78.5 50t52.5 122l43 231h113l-62 -333q-9 -46 -14 -154h-105q1 39 5 86h-2q-63 -97 -166 -97q-52 0 -81 29t-32 71q-66 -100 -174 -100
q-50 0 -81.5 33.5t-31.5 96.5q0 31 8 83z" />
    <glyph glyph-name="uni0449" unicode="&#x449;" horiz-adv-x="824" 
d="M106 487h114l-51 -272q-7 -35 -7 -61q0 -70 57 -70q40 0 77.5 47.5t51.5 122.5l44 233h112l-52 -276q-6 -40 -6 -57q0 -70 56 -70q39 0 78.5 50t52.5 122l43 231h113l-54 -290q-10 -50 -10 -74q0 -58 68 -59l-68 -213h-85l40 149q-26 6 -42.5 32t-17.5 56h-3
q-67 -99 -173 -99q-52 0 -80.5 29t-31.5 71q-66 -100 -172 -100q-50 0 -82.5 33.5t-32.5 96.5q0 31 8 83z" />
    <glyph glyph-name="uni044A" unicode="&#x44a;" horiz-adv-x="550" 
d="M55 487h298q-88 -137 -115 -205h1q54 54 136 54q60 0 96.5 -35t36.5 -95q0 -85 -69 -149.5t-179 -64.5q-163 0 -163 136q0 58 31.5 132t74.5 136h-165zM274 76q48 0 84 31.5t36 77.5q0 31 -17.5 49t-49.5 18q-35 0 -64.5 -22.5t-41.5 -51.5q-9 -21 -9 -42q0 -26 16 -43
t46 -17z" />
    <glyph glyph-name="uni044B" unicode="&#x44b;" horiz-adv-x="701" 
d="M115 487h115l-50 -204h1q24 24 60.5 38.5t71.5 14.5q59 0 95.5 -35t36.5 -96q0 -86 -69 -149.5t-184 -63.5q-153 0 -153 113q0 38 13 94zM215 76q45 0 80.5 31t35.5 78q0 31 -17 49t-49 18q-34 0 -64.5 -26t-39.5 -58q-7 -24 -7 -43q0 -49 61 -49zM560 487h121l-93 -487
h-121z" />
    <glyph glyph-name="uni044C" unicode="&#x44c;" horiz-adv-x="493" 
d="M117 487h114l-51 -204h1q24 24 61 38.5t73 14.5q59 0 97.5 -35t38.5 -96q0 -88 -69.5 -150.5t-186.5 -62.5q-156 0 -156 117q0 30 14 91zM216 76q47 0 84 30.5t37 77.5q0 31 -17 49.5t-49 18.5q-37 0 -67 -25t-41 -54q-8 -22 -8 -45q0 -24 16 -38t45 -14z" />
    <glyph glyph-name="uni044D" unicode="&#x44d;" horiz-adv-x="457" 
d="M92 206l14 77h201v13q0 48 -32.5 80t-90.5 32q-55 0 -105 -21l-20 82q70 29 140 29q107 0 165 -61.5t58 -166.5q0 -124 -77.5 -202.5t-212.5 -78.5q-92 3 -144 34l29 83q52 -26 116 -26q63 0 106.5 33t56.5 93h-204z" />
    <glyph glyph-name="uni044E" unicode="&#x44e;" horiz-adv-x="734" 
d="M112 487h117l-36 -190h71q27 89 94 145t155 56t139.5 -59t51.5 -147q0 -124 -76 -213.5t-192 -89.5q-87 0 -137 54t-50 137q0 8 2 32h-74l-40 -212h-117zM450 79q56 0 95.5 69.5t39.5 146.5q0 45 -20.5 79t-64.5 34q-60 0 -99 -70t-39 -145q0 -50 23 -82t65 -32z" />
    <glyph glyph-name="uni044F" unicode="&#x44f;" horiz-adv-x="506" 
d="M487 484l-92 -484h-115l38 193h-39q-43 0 -71 -22t-51 -67q-41 -82 -55 -104h-124q13 19 23.5 38.5t24.5 49t20 40.5q48 86 121 101v2q-39 9 -69.5 37.5t-30.5 70.5q0 156 259 156q93 0 161 -11zM332 270l27 140q-27 5 -58 5q-114 0 -114 -77q0 -33 31 -50.5t70 -17.5h44
z" />
    <glyph glyph-name="uni0451" unicode="&#x451;" horiz-adv-x="479" 
d="M391 113l11 -85q-75 -39 -172 -39q-98 0 -149 54.5t-51 147.5q0 117 78 212t198 95q72 0 114.5 -37.5t42.5 -99.5q0 -168 -319 -161q-5 -39 13 -69q29 -50 100 -50q72 0 134 32zM353 361q0 23 -17 36.5t-45 13.5q-51 0 -87 -37.5t-48 -86.5q97 -1 147 15.5t50 58.5z
M222 561q-24 0 -40.5 16.5t-16.5 42.5q0 28 19 46.5t46 18.5q26 0 41.5 -16.5t15.5 -41.5q0 -29 -18.5 -47.5t-46.5 -18.5zM417 561q-24 0 -40.5 16.5t-16.5 42.5q0 28 19 46.5t46 18.5q26 0 41.5 -16.5t15.5 -41.5q0 -29 -18.5 -47.5t-46.5 -18.5z" />
    <glyph glyph-name="uni0452" unicode="&#x452;" horiz-adv-x="549" 
d="M155 710h115l-13 -74h236l-16 -79h-235l-26 -133h2q61 68 143 68q76 0 113.5 -56.5t37.5 -146.5q0 -104 -34 -199.5t-101 -155.5q-30 -33 -76 -56t-90 -28l-19 96q52 9 97 53q46 39 74 113.5t28 157.5q0 126 -79 126q-44 0 -79.5 -40.5t-46.5 -100.5l-49 -255h-117
l106 557h-58l16 79h57z" />
    <glyph glyph-name="uni0453" unicode="&#x453;" horiz-adv-x="397" 
d="M108 385l-15 78q66 34 144 34q72 -1 110.5 -35t38.5 -92q0 -57 -40.5 -92.5t-117.5 -68.5q-51 -23 -75 -41.5t-24 -44.5q0 -45 59 -46q58 0 126 35l15 -82q-74 -42 -160 -40q-75 1 -117.5 34.5t-42.5 95.5q0 34 12.5 60.5t40.5 47.5t49 32t61 29q27 12 38 17.5t29 16
t25.5 21.5t7.5 23q0 19 -15 30.5t-43 12.5q-48 0 -106 -25zM303 694h123l-132 -148h-87z" />
    <glyph glyph-name="uni0454" unicode="&#x454;" horiz-adv-x="433" 
d="M446 471l-29 -83q-38 21 -91 21q-61 0 -104 -34.5t-59 -90.5h208l-14 -77h-206v-17q5 -50 38 -80t88 -30q51 0 98 20l9 -83q-54 -28 -141 -28q-95 0 -153 58.5t-58 156.5q0 125 79 209q83 85 215 85q76 0 120 -27z" />
    <glyph glyph-name="uni0455" unicode="&#x455;" horiz-adv-x="397" 
d="M2 25l30 83q57 -32 117 -32q34 0 54.5 17t20.5 43q0 23 -14 39.5t-50 35.5q-96 51 -96 127q0 70 55.5 115t141.5 45q74 0 114 -25l-29 -84q-42 22 -91 22q-33 0 -53.5 -15.5t-20.5 -40.5q0 -37 63 -68q101 -52 101 -131t-58 -123.5t-149 -43.5q-87 0 -136 36z" />
    <glyph glyph-name="uni0456" unicode="&#x456;" horiz-adv-x="250" 
d="M137 0h-117l93 487h116zM191 562q-28 0 -45.5 18.5t-17.5 47.5q0 32 21.5 53t52.5 21q29 0 47.5 -18t18.5 -48q-1 -34 -23 -54t-54 -20z" />
    <glyph glyph-name="uni0457" unicode="&#x457;" horiz-adv-x="249" 
d="M136 0h-116l92 487h117zM92 561q-24 0 -40.5 16.5t-16.5 42.5q0 28 19 46.5t46 18.5q26 0 41.5 -16.5t15.5 -41.5q0 -29 -18.5 -47.5t-46.5 -18.5zM288 561q-24 0 -40.5 16.5t-16.5 42.5q0 28 19 46.5t46 18.5q26 0 41.5 -16.5t15.5 -41.5q0 -29 -18.5 -47.5t-46.5 -18.5
z" />
    <glyph glyph-name="uni0458" unicode="&#x458;" horiz-adv-x="254" 
d="M123 487h116l-90 -477q-24 -123 -66 -169q-44 -50 -123 -50q-35 0 -63 7l14 89q14 -3 35 -3q31 0 51.5 24.5t32.5 89.5zM196 562q-28 0 -45.5 18t-17.5 47q0 32 22 53.5t52 21.5q29 0 47.5 -18t18.5 -47q0 -34 -22 -54.5t-55 -20.5z" />
    <glyph glyph-name="uni0459" unicode="&#x459;" horiz-adv-x="762" 
d="M142 487h349l-41 -202h2q54 51 135 51q59 0 96.5 -34.5t37.5 -95.5q0 -88 -69.5 -151t-188.5 -63q-154 0 -154 116q0 32 12 90l40 198h-128l-21 -108q-20 -102 -46.5 -160t-68.5 -90q-51 -44 -121 -44l-8 93q32 2 58 24q54 42 79 178zM486 76q47 0 84 30.5t37 77.5
q0 31 -17.5 49.5t-48.5 18.5q-36 0 -66 -24.5t-43 -55.5q-8 -21 -8 -42q0 -54 62 -54z" />
    <glyph glyph-name="uni045A" unicode="&#x45a;" horiz-adv-x="772" 
d="M112 487h116l-34 -179h160l35 179h113l-41 -202h1q23 23 60 37t72 14q60 0 98.5 -35t38.5 -96q0 -88 -69.5 -150.5t-189.5 -62.5q-153 0 -153 110q0 24 8 66l10 51h-160l-41 -219h-116zM496 76q49 0 85 30t36 78q0 31 -18 49.5t-50 18.5q-37 0 -67 -25.5t-40 -57.5
q-8 -24 -8 -42q0 -24 17 -37.5t45 -13.5z" />
    <glyph glyph-name="uni045B" unicode="&#x45b;" horiz-adv-x="551" 
d="M155 710h117l-15 -75h225l-16 -77h-223l-28 -144h2q69 84 163 84q53 0 87.5 -33.5t34.5 -97.5q0 -37 -9 -86l-53 -281h-116l52 273q6 36 6 62q0 68 -61 68q-44 0 -85 -48t-55 -123l-44 -232h-116l105 558h-67l15 77h67z" />
    <glyph glyph-name="uni045C" unicode="&#x45c;" horiz-adv-x="484" 
d="M113 487h113l-39 -207h16l185 207h138l-224 -220q64 -21 93 -141q31 -114 37 -126h-115q-5 11 -10.5 29.5t-12 45t-11.5 42.5q-16 51 -37 72t-59 21h-13l-40 -210h-114zM341 694h123l-131 -148h-88z" />
    <glyph glyph-name="uni045E" unicode="&#x45e;" horiz-adv-x="471" 
d="M45 487h122l38 -235q18 -107 20 -122h2q6 16 22 54t26 63l101 240h123q-146 -306 -175 -364q-90 -176 -179 -263q-71 -68 -150 -84l-27 100q57 21 86 43q53 37 86 97q5 9 2 23zM174 688h78q-4 -30 7.5 -49.5t34.5 -19.5q45 0 64 69h78q-13 -61 -52 -94t-97 -33
q-63 0 -90.5 35t-22.5 92z" />
    <glyph glyph-name="uni045F" unicode="&#x45f;" horiz-adv-x="545" 
d="M107 487h116l-50 -266q-8 -38 -8 -67q0 -69 62 -69q42 0 82 46t54 120l44 236h117l-64 -336q-10 -52 -24 -151h-104l11 85h-2q-34 -46 -80 -71t-89 -25q-57 0 -92 33.5t-35 104.5q0 40 10 87zM232 -193l-94 -12l33 160l105 7z" />
    <glyph glyph-name="uni0490" unicode="&#x490;" horiz-adv-x="426" 
d="M152 674h251l44 130h90l-57 -232h-231l-107 -572h-117z" />
    <glyph glyph-name="uni0491" unicode="&#x491;" 
d="M112 487h208l40 112h87l-50 -204h-186l-75 -395h-116z" />
    <glyph glyph-name="uni04D9" unicode="&#x4d9;" horiz-adv-x="473" 
d="M86 373l-15 84q73 41 173 41q98 0 149 -55t51 -148q0 -75 -33 -144.5t-97 -115t-144 -45.5q-72 0 -115.5 37.5t-43.5 98.5q0 168 319 161q4 37 -12 68q-28 51 -100 51q-70 0 -132 -33zM185 77q50 0 85.5 37t47.5 86q-97 1 -147 -15.5t-50 -57.5q0 -23 17.5 -36.5
t46.5 -13.5z" />
    <glyph glyph-name="Wgrave" unicode="&#x1e80;" horiz-adv-x="848" 
d="M252 0h-128l-29 674h117l7 -347q1 -92 -3 -199h2q55 148 76 196l150 350h127l5 -340q1 -89 -3 -203h2q32 99 71 196l145 347h123l-304 -674h-126l-10 325q-2 89 4 210h-2q-50 -144 -76 -205zM354 832h134l75 -121h-96z" />
    <glyph glyph-name="wgrave" unicode="&#x1e81;" horiz-adv-x="721" 
d="M56 487h116l9 -237q3 -72 -2 -144h2q16 45 57 137l118 244h97l20 -237q6 -88 5 -144h2q24 76 50 143l105 238h118l-239 -487h-109l-22 212q-6 76 -5 144h-2q-53 -129 -57 -139l-109 -217h-109zM282 694h119l71 -148h-84z" />
    <glyph glyph-name="Wacute" unicode="&#x1e82;" horiz-adv-x="848" 
d="M252 0h-128l-29 674h117l7 -347q1 -92 -3 -199h2q55 148 76 196l150 350h127l5 -340q1 -89 -3 -203h2q32 99 71 196l145 347h123l-304 -674h-126l-10 325q-2 89 4 210h-2q-50 -144 -76 -205zM545 832h137l-134 -122h-100z" />
    <glyph glyph-name="wacute" unicode="&#x1e83;" horiz-adv-x="721" 
d="M56 487h116l9 -237q3 -72 -2 -144h2q16 45 57 137l118 244h97l20 -237q6 -88 5 -144h2q24 76 50 143l105 238h118l-239 -487h-109l-22 212q-6 76 -5 144h-2q-53 -129 -57 -139l-109 -217h-109zM448 694h123l-131 -148h-88z" />
    <glyph glyph-name="Wdieresis" unicode="&#x1e84;" horiz-adv-x="848" 
d="M252 0h-128l-29 674h117l7 -347q1 -92 -3 -199h2q55 148 76 196l150 350h127l5 -340q1 -89 -3 -203h2q32 99 71 196l145 347h123l-304 -674h-126l-10 325q-2 89 4 210h-2q-50 -144 -76 -205zM424 715h-2q-23 0 -39.5 16.5t-16.5 40.5q0 27 19 45.5t45 18.5q25 0 40.5 -17
t15.5 -40q0 -27 -18.5 -45.5t-43.5 -18.5zM619 715q-23 0 -39.5 16.5t-16.5 40.5q0 27 19 45.5t45 18.5q25 0 40.5 -17t15.5 -40q0 -27 -18.5 -45.5t-45.5 -18.5z" />
    <glyph glyph-name="wdieresis" unicode="&#x1e85;" horiz-adv-x="721" 
d="M56 487h117l8 -237q2 -65 -1 -144h2q17 51 57 137l117 244h97l20 -237q6 -88 5 -144h2q24 76 50 143l105 238h118l-239 -487h-109l-22 212q-5 60 -5 144h-2q-41 -104 -58 -139l-108 -217h-109zM327 561q-24 0 -40.5 16.5t-16.5 42.5q0 28 19 46.5t46 18.5
q26 0 41.5 -16.5t15.5 -41.5q0 -29 -18.5 -47.5t-46.5 -18.5zM522 561q-24 0 -40.5 16.5t-16.5 42.5q0 28 19 46.5t46 18.5q26 0 41.5 -16.5t15.5 -41.5q0 -29 -18.5 -47.5t-46.5 -18.5z" />
    <glyph glyph-name="uni1EA0" unicode="&#x1ea0;" horiz-adv-x="596" 
d="M400 192h-212l-92 -192h-124l338 674h146l85 -674h-122zM225 282h168l-19 168q-4 48 -10 128h-2q-5 -12 -24.5 -58.5t-30.5 -69.5zM232 -201q-25 0 -42.5 18t-17.5 42q0 25 18 43t44 18q24 0 41 -18t17 -43t-17 -42.5t-43 -17.5z" />
    <glyph glyph-name="uni1EA1" unicode="&#x1ea1;" horiz-adv-x="540" 
d="M448 0h-107q0 27 8 109h-2q-65 -120 -175 -120q-65 0 -104.5 46t-39.5 120q0 64 22 124t63.5 109.5t108.5 79.5t149 30q78 0 148 -22l-51 -254q-23 -121 -20 -222zM363 275l25 128q-20 5 -48 5q-78 0 -134.5 -72.5t-56.5 -159.5q0 -93 70 -93q44 0 86 51.5t58 140.5z
M209 -204q-25 0 -43 18t-18 44t18 44t45 18q25 0 42 -18t17 -44t-17 -44t-44 -18z" />
    <glyph glyph-name="uni1EA2" unicode="&#x1ea2;" horiz-adv-x="596" 
d="M400 192h-212l-92 -192h-124l338 674h146l85 -674h-122zM225 282h168l-19 168q-4 48 -10 128h-2q-5 -12 -24.5 -58.5t-30.5 -69.5zM411 706l-55 19q9 16 34.5 41t25.5 44q0 12 -7.5 19.5t-20.5 7.5q-23 0 -50 -31l-36 27q47 68 113 68q38 0 61.5 -21t23.5 -53
q0 -25 -14 -44t-38.5 -39.5t-36.5 -37.5z" />
    <glyph glyph-name="uni1EA3" unicode="&#x1ea3;" horiz-adv-x="540" 
d="M448 0h-107q0 27 8 109h-2q-65 -120 -175 -120q-65 0 -104.5 46t-39.5 120q0 64 22 124t63.5 109.5t108.5 79.5t149 30q78 0 148 -22l-51 -254q-23 -121 -20 -222zM363 275l25 128q-20 5 -48 5q-78 0 -134.5 -72.5t-56.5 -159.5q0 -93 70 -93q44 0 86 51.5t58 140.5z
M356 530l-61 17q7 19 37 47.5t30 50.5q0 13 -7.5 21t-19.5 8q-27 0 -52 -36l-40 27q46 73 118 73q37 0 60 -21.5t23 -53.5q0 -30 -15.5 -52t-39.5 -43.5t-33 -37.5z" />
    <glyph glyph-name="uni1EA4" unicode="&#x1ea4;" horiz-adv-x="596" 
d="M400 192h-212l-92 -192h-124l338 674h146l85 -674h-122zM225 282h168l-19 168q-4 48 -10 128h-2q-5 -12 -24.5 -58.5t-30.5 -69.5zM371 829h84l66 -119h-84l-31 66h-2l-64 -66h-93zM585 906h103l-129 -108h-62z" />
    <glyph glyph-name="uni1EA5" unicode="&#x1ea5;" horiz-adv-x="540" 
d="M448 0h-107q0 27 8 109h-2q-65 -120 -175 -120q-65 0 -104.5 46t-39.5 120q0 64 22 124t63.5 109.5t108.5 79.5t149 30q78 0 148 -22l-51 -254q-23 -121 -20 -222zM363 275l25 128q-20 5 -48 5q-78 0 -134.5 -72.5t-56.5 -159.5q0 -93 70 -93q44 0 86 51.5t58 140.5z
M322 698h87l63 -148h-80l-33 90h-2l-61 -90h-85zM546 785h101l-127 -140h-64z" />
    <glyph glyph-name="uni1EA6" unicode="&#x1ea6;" horiz-adv-x="596" 
d="M400 192h-212l-92 -192h-124l338 674h146l85 -674h-122zM225 282h168l-19 168q-4 48 -10 128h-2q-5 -12 -24.5 -58.5t-30.5 -69.5zM448 892h103l57 -109h-62zM371 829h84l66 -119h-84l-31 66h-2l-64 -66h-94z" />
    <glyph glyph-name="uni1EA7" unicode="&#x1ea7;" horiz-adv-x="540" 
d="M448 0h-107q0 26 8 110l-3 -1q-65 -120 -175 -120q-64 0 -104 46t-39 120q0 64 22 124t63.5 109.5t108.5 79.5t149 30q78 0 148 -22l-51 -254q-23 -121 -20 -222zM363 275l25 128q-20 5 -48 5q-78 0 -134.5 -72.5t-56.5 -159.5q0 -41 17 -67t52 -26q44 0 86 51.5
t59 140.5zM394 787h92l69 -140h-58zM312 698h87l63 -148h-80l-33 90h-2l-61 -90h-85z" />
    <glyph glyph-name="uni1EA8" unicode="&#x1ea8;" horiz-adv-x="596" 
d="M400 192h-212l-92 -192h-124l338 674h146l85 -674h-122zM225 282h168l-19 168q-4 48 -10 128h-2q-5 -12 -24.5 -58.5t-30.5 -69.5zM570 755l-51 20q9 17 34.5 38.5t25.5 38.5q0 11 -8.5 19t-21.5 8q-25 0 -49 -28l-33 32q43 55 105 55q36 0 59 -20t23 -50q0 -25 -14 -43
t-37 -36.5t-33 -33.5zM373 829h84l66 -119h-84l-32 66h-2l-64 -66h-93z" />
    <glyph glyph-name="uni1EA9" unicode="&#x1ea9;" horiz-adv-x="540" 
d="M448 0h-107q0 26 8 110l-2 -1q-65 -120 -175 -120q-64 0 -104 46t-40 120q0 64 22 124t63.5 109.5t108.5 79.5t149 30q78 0 148 -22l-51 -254q-23 -121 -20 -222zM363 275l25 128q-20 5 -48 5q-78 0 -134.5 -72.5t-56.5 -159.5q0 -93 70 -93q44 0 86 51.5t58 140.5z
M312 698h87l63 -148h-80l-33 90h-2l-61 -90h-85zM509 633l-51 20q9 17 34.5 38.5t25.5 38.5q0 11 -8.5 19t-21.5 8q-23 0 -49 -28l-32 32q41 55 105 55q36 0 58.5 -20t22.5 -50q0 -25 -14 -43t-37 -36.5t-33 -33.5z" />
    <glyph glyph-name="uni1EAA" unicode="&#x1eaa;" horiz-adv-x="596" 
d="M400 192h-212l-92 -192h-124l338 674h146l85 -674h-122zM225 282h168l-19 168q-4 48 -10 128h-2q-5 -12 -24.5 -58.5t-30.5 -69.5zM345 844h-60q5 47 28.5 74.5t58.5 27.5q25 0 61 -20q28 -17 40 -17t19.5 9t11.5 32h59q-8 -103 -87 -103q-22 0 -62 21q-27 15 -39 15
q-22 0 -30 -39zM372 829h84l66 -119h-84l-31 66h-2l-64 -66h-94z" />
    <glyph glyph-name="uni1EAB" unicode="&#x1eab;" horiz-adv-x="540" 
d="M448 0h-107q0 26 8 110l-2 -1q-65 -120 -175 -120q-65 0 -104.5 46t-39.5 120q0 64 22 124t63.5 109.5t108.5 79.5t149 30q78 0 148 -22l-51 -254q-23 -121 -20 -222zM363 275l25 128q-20 5 -48 5q-78 0 -134.5 -72.5t-56.5 -159.5q0 -93 70 -93q44 0 86 51.5t58 140.5z
M288 698h-60q5 48 28.5 75.5t58.5 27.5q26 0 61 -21q30 -16 40 -16q12 0 19.5 8.5t11.5 31.5h59q-10 -103 -87 -103q-23 0 -61 21q-27 15 -40 15q-22 0 -30 -39zM315 676h81l67 -127h-78l-33 71h-2l-52 -71h-86z" />
    <glyph glyph-name="uni1EAC" unicode="&#x1eac;" horiz-adv-x="596" 
d="M400 192h-212l-92 -192h-124l338 674h146l85 -674h-122zM225 282h168l-19 168q-4 48 -10 128h-2q-5 -12 -24.5 -58.5t-30.5 -69.5zM363 832h89l80 -122h-86l-44 66h-2l-65 -66h-94zM233 -201q-25 0 -42.5 18t-17.5 42q0 25 18 43t44 18q24 0 41 -18t17 -43t-17 -42.5
t-43 -17.5z" />
    <glyph glyph-name="uni1EAD" unicode="&#x1ead;" horiz-adv-x="540" 
d="M448 0h-107q0 27 8 109h-2q-65 -120 -175 -120q-65 0 -104.5 46t-39.5 120q0 64 22 124t63.5 109.5t108.5 79.5t149 30q78 0 148 -22l-51 -254q-23 -121 -20 -222zM363 275l25 128q-20 5 -48 5q-78 0 -134.5 -72.5t-56.5 -159.5q0 -93 70 -93q44 0 86 51.5t58 140.5z
M322 694h81l72 -148h-79l-41 84h-2l-64 -84h-86zM218 -204q-25 0 -43 18t-18 44t18 44t45 18q25 0 42 -18t17 -44t-17 -44t-44 -18z" />
    <glyph glyph-name="uni1EAE" unicode="&#x1eae;" horiz-adv-x="596" 
d="M400 192h-212l-92 -192h-124l338 674h146l85 -674h-122zM225 282h168l-19 167q-4 53 -10 129h-2q-5 -11 -24.5 -58t-30.5 -70zM434 911h110l-128 -110h-59zM270 812h64q-1 -21 14 -35.5t45 -14.5q61 0 73 50h65q-9 -50 -45 -81.5t-99 -31.5q-66 0 -94.5 31.5t-22.5 81.5z
" />
    <glyph glyph-name="uni1EAF" unicode="&#x1eaf;" horiz-adv-x="540" 
d="M448 0h-107q0 26 8 110l-3 -1q-65 -120 -174 -120q-65 0 -104.5 46t-39.5 120q0 64 22 124t63.5 109.5t108.5 79.5t149 30q78 0 148 -22l-51 -254q-23 -121 -20 -222zM363 275l24 128q-18 5 -47 5q-78 0 -134.5 -72.5t-56.5 -159.5q0 -41 17 -67t52 -26q44 0 86 51.5
t59 140.5zM392 793h103l-119 -141h-67zM222 658h62q-1 -27 15 -44.5t44 -17.5q32 0 52 18t26 44h65q-10 -57 -49.5 -91.5t-97.5 -34.5q-65 0 -94 36t-23 90z" />
    <glyph glyph-name="uni1EB0" unicode="&#x1eb0;" horiz-adv-x="596" 
d="M400 192h-212l-92 -192h-124l338 674h146l85 -674h-122zM225 282h168l-19 167q-4 53 -10 129h-2q-5 -11 -24.5 -58t-30.5 -70zM273 912h110l58 -110h-58zM272 812h64q-1 -21 14 -35.5t45 -14.5q61 0 73 50h65q-9 -50 -44.5 -81.5t-99.5 -31.5q-66 0 -94.5 31.5
t-22.5 81.5z" />
    <glyph glyph-name="uni1EB1" unicode="&#x1eb1;" horiz-adv-x="540" 
d="M448 0h-107q0 26 8 110l-2 -1q-66 -120 -175 -120q-65 0 -104.5 46t-39.5 119q0 64 22 124.5t63.5 110t108.5 79.5t149 30q78 0 148 -22l-51 -254q-23 -121 -20 -222zM363 275l25 128q-20 5 -48 5q-78 0 -134.5 -72.5t-56.5 -159.5q0 -93 70 -93q44 0 85.5 51.5
t58.5 140.5zM221 794h100l70 -142h-65zM222 658h61q-1 -27 15 -44.5t44 -17.5q32 0 52 18t26 44h65q-9 -57 -49 -91.5t-98 -34.5q-64 0 -93 36t-23 90z" />
    <glyph glyph-name="uni1EB2" unicode="&#x1eb2;" horiz-adv-x="596" 
d="M400 192h-212l-92 -192h-124l338 674h146l85 -674h-122zM225 282h168l-19 168q-4 48 -10 128h-2q-5 -12 -24.5 -58.5t-30.5 -69.5zM412 789l-51 21q9 17 34.5 38t25.5 38q0 12 -8.5 20t-21.5 8q-25 0 -49 -28l-32 32q42 54 104 54q36 0 59 -20t23 -50q0 -19 -9.5 -35
t-21.5 -26t-28 -24.5t-25 -27.5zM272 812h64q-1 -21 14 -35.5t45 -14.5q61 0 73 50h65q-9 -50 -44.5 -81t-99.5 -31q-66 0 -94.5 31t-22.5 81z" />
    <glyph glyph-name="uni1EB3" unicode="&#x1eb3;" horiz-adv-x="540" 
d="M448 0h-107q0 26 8 110l-3 -1q-65 -120 -174 -120q-65 0 -104.5 46t-39.5 119q0 64 22 124.5t63.5 110t108.5 79.5t149 30q78 0 148 -22l-51 -254q-23 -121 -20 -222zM363 275l24 128q-18 5 -47 5q-78 0 -134.5 -72.5t-56.5 -159.5q0 -93 70 -93q43 0 85 52t59 140z
M222 660h61q-1 -27 14.5 -44t44.5 -17q32 0 51.5 17.5t26.5 43.5h64q-9 -57 -48.5 -91t-98.5 -34q-64 0 -93 36t-22 89zM361 642l-52 21q9 17 34.5 38t25.5 38q0 12 -8.5 20t-21.5 8q-24 0 -48 -28l-33 32q44 54 105 54q36 0 58.5 -20t22.5 -50q0 -24 -14 -42.5t-36.5 -37
t-32.5 -33.5z" />
    <glyph glyph-name="uni1EB4" unicode="&#x1eb4;" horiz-adv-x="596" 
d="M400 192h-212l-92 -192h-124l338 674h146l85 -674h-122zM225 282h168l-19 167q-4 53 -10 129h-2q-5 -11 -24.5 -58t-30.5 -70zM271 812h67q-1 -22 13 -36t43 -14q56 0 69 50h69q-9 -50 -45 -81.5t-99 -31.5q-66 0 -94.5 31.5t-22.5 81.5zM332 842h-61q8 48 32 76.5
t58 28.5q30 0 61 -20q29 -19 42 -19t20.5 9.5t14.5 32.5h59q-18 -111 -93 -111q-31 0 -62 19q-30 19 -41 18q-20 0 -30 -34z" />
    <glyph glyph-name="uni1EB5" unicode="&#x1eb5;" horiz-adv-x="540" 
d="M448 0h-107q0 27 8 109h-2q-65 -120 -175 -120q-65 0 -104.5 46t-39.5 120q0 64 22 124t63.5 109.5t108.5 79.5t149 30q78 0 148 -22l-51 -254q-23 -121 -20 -222zM363 275l25 128q-18 5 -48 5q-78 0 -134.5 -72.5t-56.5 -159.5q0 -93 70 -93q44 0 86 51.5t58 140.5z
M229 660h63q0 -62 50 -62q30 0 48 18t24 44h65q-10 -58 -47 -92t-94 -34q-64 0 -90 35t-19 91zM288 695h-60q8 49 32 77.5t57 28.5q31 0 61 -21q27 -18 43 -18q22 0 34 41h59q-18 -111 -93 -111q-28 0 -62 19q-30 19 -41 18q-20 0 -30 -34z" />
    <glyph glyph-name="uni1EB6" unicode="&#x1eb6;" horiz-adv-x="596" 
d="M400 192h-212l-92 -192h-124l338 674h146l85 -674h-122zM225 282h168l-19 168q-4 48 -10 128h-2q-5 -12 -24.5 -58.5t-30.5 -69.5zM277 840h68q-1 -22 12.5 -36.5t43.5 -14.5q59 0 70 51h70q-9 -51 -45.5 -83t-100.5 -32q-66 0 -95 32.5t-23 82.5zM229 -201
q-25 0 -42.5 18t-17.5 42q0 25 18 43t44 18q24 0 41 -18t17 -43t-17 -42.5t-43 -17.5z" />
    <glyph glyph-name="uni1EB7" unicode="&#x1eb7;" horiz-adv-x="540" 
d="M448 0h-107q0 27 8 109h-2q-65 -120 -175 -120q-65 0 -104.5 46t-39.5 120q0 64 22 124t63.5 109.5t108.5 79.5t149 30q78 0 148 -22l-51 -254q-23 -121 -20 -222zM363 275l25 128q-20 5 -48 5q-78 0 -134.5 -72.5t-56.5 -159.5q0 -93 70 -93q44 0 85.5 51.5t58.5 140.5z
M236 687h63q0 -62 51 -62q30 0 47.5 18t23.5 44h65q-10 -58 -47 -92t-94 -34q-64 0 -90 35t-19 91zM212 -204q-25 0 -43 18t-18 44t18 44t45 18q25 0 42 -18t17 -44t-17 -44t-44 -18z" />
    <glyph glyph-name="uni1EB8" unicode="&#x1eb8;" horiz-adv-x="496" 
d="M459 398l-19 -98h-242l-38 -201h272l-19 -99h-389l128 674h374l-19 -99h-257l-34 -177h243zM201 -201q-25 0 -42.5 18t-17.5 42q0 25 18 43t44 18q24 0 41 -18t17 -43t-17 -42.5t-43 -17.5z" />
    <glyph glyph-name="uni1EB9" unicode="&#x1eb9;" horiz-adv-x="479" 
d="M391 113l11 -85q-75 -39 -172 -39q-98 0 -149 54.5t-51 147.5q0 117 78 212t198 95q72 0 114.5 -37.5t42.5 -99.5q0 -168 -319 -161q-5 -39 13 -69q29 -50 100 -50q72 0 134 32zM353 361q0 23 -17 36.5t-45 13.5q-51 0 -87 -37.5t-48 -86.5q97 -1 147 15.5t50 58.5z
M197 -204q-25 0 -43 18t-18 44t18 44t45 18q25 0 42 -18t17 -44t-17 -44t-44 -18z" />
    <glyph glyph-name="uni1EBA" unicode="&#x1eba;" horiz-adv-x="496" 
d="M459 398l-19 -98h-242l-38 -201h272l-19 -99h-389l128 674h374l-19 -99h-257l-34 -177h243zM364 705l-56 20q9 15 34.5 40.5t25.5 43.5q0 12 -7.5 20t-20.5 8q-24 0 -49 -31l-37 27q47 68 113 68q38 0 61.5 -21.5t23.5 -52.5q0 -26 -14 -44.5t-38 -39.5t-36 -38z" />
    <glyph glyph-name="uni1EBB" unicode="&#x1ebb;" horiz-adv-x="479" 
d="M391 113l11 -85q-75 -39 -172 -39q-98 0 -149 54.5t-51 147.5q0 117 78 212t198 95q72 0 114.5 -37.5t42.5 -99.5q0 -168 -319 -161q-5 -39 13 -69q29 -50 100 -50q72 0 134 32zM353 361q0 23 -17 36.5t-45 13.5q-51 0 -87 -37.5t-48 -86.5q97 -1 147 15.5t50 58.5z
M325 530l-60 17q7 19 37 47.5t30 50.5q0 13 -7.5 21t-19.5 8q-27 0 -52 -36l-40 27q46 73 117 73q38 0 61 -21.5t23 -53.5q0 -23 -10.5 -43t-23.5 -31.5t-30 -28t-25 -30.5z" />
    <glyph glyph-name="uni1EBC" unicode="&#x1ebc;" horiz-adv-x="496" 
d="M459 398l-19 -98h-242l-38 -201h272l-19 -99h-389l128 674h374l-19 -99h-257l-34 -177h243zM275 715h-60q9 55 33.5 85t57.5 30q29 0 62 -20q29 -19 42 -19q21 0 34 42h59q-18 -111 -93 -111q-32 0 -61 19q-31 18 -42 18q-21 0 -32 -44z" />
    <glyph glyph-name="uni1EBD" unicode="&#x1ebd;" horiz-adv-x="479" 
d="M391 113l11 -85q-75 -39 -172 -39q-98 0 -149 54.5t-51 147.5q0 117 78 212t198 95q72 0 114.5 -37.5t42.5 -99.5q0 -168 -319 -161q-5 -39 13 -69q29 -50 100 -50q72 0 134 32zM353 361q0 23 -17 36.5t-45 13.5q-51 0 -87 -37.5t-48 -86.5q97 -1 147 15.5t50 58.5z
M239 563h-60q7 53 29.5 83.5t57.5 30.5q26 0 62 -21q30 -18 40 -18q12 0 18.5 9t12.5 34h59q-16 -111 -88 -111q-31 0 -63 20q-23 18 -39 18q-20 0 -29 -45z" />
    <glyph glyph-name="uni1EBE" unicode="&#x1ebe;" horiz-adv-x="496" 
d="M459 398l-19 -98h-242l-38 -201h272l-19 -99h-389l128 674h374l-19 -99h-256l-34 -177h242zM332 828h85l66 -118h-84l-32 65h-2l-64 -65h-93zM547 906h102l-129 -108h-62z" />
    <glyph glyph-name="uni1EBF" unicode="&#x1ebf;" horiz-adv-x="479" 
d="M391 113l11 -85q-75 -39 -172 -39q-98 0 -149 54.5t-51 147.5q0 117 78 212t198 95q72 0 114.5 -37.5t42.5 -99.5q0 -168 -319 -161q-5 -39 13 -69q29 -50 100 -50q72 0 134 32zM353 361q0 23 -17 36.5t-45 13.5q-51 0 -87 -37.5t-48 -86.5q97 -1 147 15.5t50 58.5z
M278 698h87l63 -148h-80l-33 90h-3l-60 -90h-85zM502 785h101l-127 -140h-64z" />
    <glyph glyph-name="uni1EC0" unicode="&#x1ec0;" horiz-adv-x="496" 
d="M459 398l-19 -98h-242l-38 -201h272l-19 -99h-389l128 674h374l-20 -99h-256l-34 -177h243zM406 892h103l57 -110h-62zM329 828h84l66 -118h-84l-31 65h-2l-64 -65h-94z" />
    <glyph glyph-name="uni1EC1" unicode="&#x1ec1;" horiz-adv-x="479" 
d="M390 113l12 -85q-75 -39 -172 -39q-98 0 -149 54.5t-51 147.5q0 117 78 212t198 95q72 0 114.5 -37.5t42.5 -99.5q0 -168 -319 -161q-5 -39 13 -69q29 -50 99 -50q74 0 134 32zM353 361q0 23 -17 36.5t-45 13.5q-51 0 -87 -37.5t-48 -86.5q97 -1 147 15.5t50 58.5z
M360 787h91l69 -140h-58zM278 698h87l62 -148h-79l-33 90h-3l-60 -90h-85z" />
    <glyph glyph-name="uni1EC2" unicode="&#x1ec2;" horiz-adv-x="496" 
d="M459 398l-19 -98h-242l-38 -201h272l-19 -99h-388l127 674h374l-19 -99h-257l-33 -177h242zM531 754l-52 21q9 17 34.5 38.5t25.5 38.5q0 11 -8.5 19t-21.5 8q-23 0 -49 -28l-32 32q45 55 105 55q36 0 58.5 -20.5t22.5 -50.5q0 -24 -14 -42.5t-36.5 -37t-32.5 -33.5z
M333 828h84l66 -118h-84l-31 65h-2l-64 -65h-93z" />
    <glyph glyph-name="uni1EC3" unicode="&#x1ec3;" horiz-adv-x="479" 
d="M390 113l12 -85q-75 -39 -172 -39q-98 0 -149 54.5t-51 147.5q0 117 78 212t198 95q72 0 114.5 -37.5t42.5 -99.5q0 -168 -319 -161q-5 -39 13 -69q29 -50 99 -50q74 0 134 32zM353 361q0 23 -17 36.5t-45 13.5q-51 0 -87 -37.5t-48 -86.5q97 -1 147 15.5t50 58.5z
M278 698h87l62 -148h-79l-33 90h-3l-60 -90h-85zM475 633l-51 20q8 17 33.5 38.5t25.5 38.5q0 11 -8.5 19t-21.5 8q-24 0 -48 -28l-33 32q43 55 105 55q36 0 58.5 -20t22.5 -50q0 -25 -14 -43t-36.5 -36.5t-32.5 -33.5z" />
    <glyph glyph-name="uni1EC4" unicode="&#x1ec4;" horiz-adv-x="496" 
d="M459 398l-19 -98h-242l-38 -201h272l-19 -99h-388l128 674h374l-20 -99h-256l-34 -177h242zM303 844h-60q5 47 28 74.5t59 27.5q24 0 60 -20q28 -17 41 -17q12 0 19 8.5t12 31.5h59q-10 -103 -87 -103q-25 0 -62 22q-30 15 -39 15q-23 0 -30 -39zM329 828h85l66 -118h-84
l-32 65h-2l-64 -65h-93z" />
    <glyph glyph-name="uni1EC5" unicode="&#x1ec5;" horiz-adv-x="479" 
d="M391 113l11 -85q-75 -39 -172 -39q-98 0 -149 54.5t-51 147.5q0 117 78 212t198 95q72 0 114.5 -37.5t42.5 -99.5q0 -168 -319 -161q-5 -39 13 -69q29 -50 100 -50q72 0 134 32zM353 361q0 23 -17 36.5t-45 13.5q-51 0 -87 -37.5t-48 -86.5q97 -1 147 15.5t50 58.5z
M254 698h-60q4 48 28 75.5t59 27.5q25 0 60 -21q32 -16 41 -16q12 0 19.5 8.5t11.5 31.5h59q-10 -103 -87 -103q-22 0 -62 21q-27 15 -39 15q-22 0 -30 -39zM281 676h80l67 -127h-77l-34 71h-2l-52 -71h-86z" />
    <glyph glyph-name="uni1EC6" unicode="&#x1ec6;" horiz-adv-x="496" 
d="M459 398l-19 -98h-242l-38 -201h272l-19 -99h-389l128 674h374l-19 -99h-257l-34 -177h243zM318 832h89l80 -122h-86l-44 66h-2l-65 -66h-94zM202 -201q-25 0 -42.5 18t-17.5 42q0 25 18 43t44 18q24 0 41 -18t17 -43t-17 -42.5t-43 -17.5z" />
    <glyph glyph-name="uni1EC7" unicode="&#x1ec7;" horiz-adv-x="479" 
d="M391 113l11 -85q-75 -39 -172 -39q-98 0 -149 54.5t-51 147.5q0 117 78 212t198 95q72 0 114.5 -37.5t42.5 -99.5q0 -168 -319 -161q-5 -39 13 -69q29 -50 100 -50q72 0 134 32zM353 361q0 23 -17 36.5t-45 13.5q-51 0 -87 -37.5t-48 -86.5q97 -1 147 15.5t50 58.5z
M285 694h81l72 -148h-79l-41 84h-2l-64 -84h-86zM197 -204q-25 0 -43 18t-18 44t18 44t45 18q25 0 42 -18t17 -44t-17 -44t-44 -18z" />
    <glyph glyph-name="uni1EC8" unicode="&#x1ec8;" horiz-adv-x="256" 
d="M150 674h116l-128 -674h-116zM238 706l-56 19q9 16 34.5 41t25.5 44q0 12 -7.5 19.5t-20.5 7.5q-22 0 -49 -31l-37 27q47 68 113 68q38 0 61.5 -21t23.5 -53q0 -25 -14 -44t-38 -39.5t-36 -37.5z" />
    <glyph glyph-name="uni1EC9" unicode="&#x1ec9;" horiz-adv-x="249" 
d="M136 0h-116l93 487h116zM208 530l-61 17q7 19 37 47.5t30 50.5q0 13 -7.5 21t-19.5 8q-27 0 -52 -36l-40 27q46 73 118 73q37 0 60 -21.5t23 -53.5q0 -30 -15.5 -52t-39.5 -43.5t-33 -37.5z" />
    <glyph glyph-name="uni1ECA" unicode="&#x1eca;" horiz-adv-x="256" 
d="M150 674h116l-128 -674h-116zM57 -201q-25 0 -42.5 18t-17.5 42q0 25 18 43t44 18q24 0 41 -18t17 -43t-17 -42.5t-43 -17.5z" />
    <glyph glyph-name="uni1ECB" unicode="&#x1ecb;" horiz-adv-x="249" 
d="M136 0h-116l93 487h116zM190 557q-26 0 -42.5 17t-16.5 45q0 30 20.5 50t49.5 20q28 0 45 -17t17 -45q-1 -32 -21.5 -51t-51.5 -19zM69 -204h-2q-25 0 -43 18t-18 44t18 44t45 18q25 0 42 -18t17 -44t-17 -44t-42 -18z" />
    <glyph glyph-name="uni1ECC" unicode="&#x1ecc;" horiz-adv-x="688" 
d="M411 685q129 0 197 -78.5t68 -200.5q0 -92 -32 -178t-90 -143q-98 -96 -240 -96q-126 0 -196 79.5t-70 198.5q0 92 33.5 179t93.5 145q96 94 236 94zM397 587q-75 0 -133 -58q-43 -43 -67.5 -115t-24.5 -141q0 -83 39 -134.5t120 -51.5q74 0 131 57q41 42 65.5 116.5
t24.5 141.5q0 36 -7 67t-23.5 58.5t-48.5 43.5t-76 16zM262 -201q-25 0 -42.5 18t-17.5 42q0 25 18 43t44 18q24 0 41 -18t17 -43t-17 -42.5t-43 -17.5z" />
    <glyph glyph-name="uni1ECD" unicode="&#x1ecd;" horiz-adv-x="543" 
d="M313 498q94 0 146.5 -58t52.5 -143q0 -127 -79.5 -217.5t-201.5 -90.5q-91 0 -145 56.5t-54 144.5q0 127 79.5 217.5t201.5 90.5zM299 408q-65 0 -106 -69.5t-41 -145.5q0 -51 25.5 -82.5t69.5 -31.5q62 0 103.5 69t41.5 148q0 44 -22.5 78t-70.5 34zM212 -204
q-25 0 -43 18t-18 44t18 44t45 18q25 0 42 -18t17 -44t-17 -44t-44 -18z" />
    <glyph glyph-name="uni1ECE" unicode="&#x1ece;" horiz-adv-x="688" 
d="M411 685q129 0 197 -78.5t68 -200.5q0 -92 -32 -178t-90 -143q-98 -96 -240 -96q-126 0 -196 79.5t-70 198.5q0 92 33.5 179t93.5 145q96 94 236 94zM397 587q-75 0 -133 -58q-43 -43 -67.5 -115t-24.5 -141q0 -83 39 -134.5t120 -51.5q74 0 131 57q41 42 65.5 116.5
t24.5 141.5q0 36 -7 67t-23.5 58.5t-48.5 43.5t-76 16zM451 706l-56 19q9 16 34.5 41t25.5 44q0 28 -28 28q-21 0 -49 -32l-37 27q47 68 114 68q37 0 60.5 -21t23.5 -53q0 -25 -14 -44t-38 -39.5t-36 -37.5z" />
    <glyph glyph-name="uni1ECF" unicode="&#x1ecf;" horiz-adv-x="543" 
d="M313 498q94 0 146.5 -58t52.5 -143q0 -127 -79.5 -217.5t-201.5 -90.5q-91 0 -145 56.5t-54 144.5q0 127 79.5 217.5t201.5 90.5zM299 408q-65 0 -106 -69.5t-41 -145.5q0 -51 25.5 -82.5t69.5 -31.5q62 0 103.5 69t41.5 148q0 44 -22.5 78t-70.5 34zM355 530l-60 17
q7 19 37 47.5t30 50.5q0 13 -7.5 21t-19.5 8q-29 0 -52 -36l-40 27q46 73 117 73q38 0 61 -21.5t23 -53.5q0 -23 -10.5 -43t-23.5 -31.5t-30 -28t-25 -30.5z" />
    <glyph glyph-name="uni1ED0" unicode="&#x1ed0;" horiz-adv-x="688" 
d="M411 685q129 0 197 -78.5t68 -200.5q0 -92 -32 -178t-90 -143q-98 -96 -240 -96q-126 0 -196 79.5t-70 198.5q0 92 33.5 179t93.5 145q96 94 236 94zM397 587q-75 0 -133 -58q-43 -43 -67.5 -115t-24.5 -141q0 -83 39 -134.5t120 -51.5q74 0 131 57q41 42 65.5 116.5
t24.5 141.5q0 36 -7 67t-23.5 58.5t-48.5 43.5t-76 16zM408 829h84l66 -119h-84l-31 66h-2l-64 -66h-93zM622 906h103l-129 -108h-62z" />
    <glyph glyph-name="uni1ED1" unicode="&#x1ed1;" horiz-adv-x="543" 
d="M313 498q94 0 146.5 -58t52.5 -143q0 -127 -79.5 -217.5t-201.5 -90.5q-91 0 -145 56.5t-54 144.5q0 127 79.5 217.5t201.5 90.5zM299 408q-65 0 -106 -69.5t-41 -145.5q0 -51 25.5 -82.5t69.5 -31.5q62 0 103.5 69t41.5 148q0 44 -22.5 78t-70.5 34zM302 698h87l63 -148
h-80l-33 90h-2l-61 -90h-85zM526 785h101l-127 -140h-64z" />
    <glyph glyph-name="uni1ED2" unicode="&#x1ed2;" horiz-adv-x="688" 
d="M411 685q128 0 196 -78.5t69 -200.5q0 -92 -32 -178t-90 -143q-98 -96 -240 -96q-126 0 -196 79.5t-70 198.5q0 91 33.5 178.5t92.5 145.5q96 94 237 94zM396 587q-76 0 -132 -58q-43 -43 -67.5 -115t-24.5 -141q0 -83 39 -134.5t120 -51.5q74 0 131 57q41 42 65.5 116.5
t24.5 141.5q0 36 -7 67t-23.5 58.5t-48.5 43.5t-77 16zM483 892h103l57 -109h-62zM406 829h84l66 -119h-84l-31 66h-2l-64 -66h-93z" />
    <glyph glyph-name="uni1ED3" unicode="&#x1ed3;" horiz-adv-x="543" 
d="M313 498q94 0 146.5 -58t52.5 -143q0 -127 -79.5 -217.5t-201.5 -90.5q-91 0 -145 56.5t-54 144.5q0 127 79.5 217.5t201.5 90.5zM299 408q-65 0 -106 -69.5t-41 -145.5q0 -51 25.5 -82.5t69.5 -31.5q62 0 103.5 69t41.5 148q0 44 -22.5 78t-70.5 34zM384 787h92l69 -140
h-58zM302 698h88l62 -148h-80l-33 90h-2l-61 -90h-85z" />
    <glyph glyph-name="uni1ED4" unicode="&#x1ed4;" horiz-adv-x="688" 
d="M411 685q129 0 197 -78.5t68 -200.5q0 -92 -32 -178t-90 -143q-98 -96 -240 -96q-126 0 -196 79.5t-70 198.5q0 91 33.5 178.5t92.5 145.5q97 94 237 94zM397 587q-75 0 -133 -58q-43 -43 -67.5 -115t-24.5 -141q0 -83 39 -134.5t120 -51.5q74 0 131 57q41 42 65.5 116.5
t24.5 141.5q0 36 -7 67t-23.5 58.5t-48.5 43.5t-76 16zM603 755l-51 20q9 17 34.5 38.5t25.5 38.5q0 12 -8.5 19.5t-21.5 7.5q-23 0 -49 -28l-32 33q42 54 105 54q36 0 58.5 -20t22.5 -50q0 -25 -14 -43t-37 -36.5t-33 -33.5zM406 829h84l66 -119h-84l-31 66h-2l-64 -66h-94
z" />
    <glyph glyph-name="uni1ED5" unicode="&#x1ed5;" horiz-adv-x="543" 
d="M313 498q94 0 146.5 -58t52.5 -143q0 -127 -79.5 -217.5t-201.5 -90.5q-91 0 -145 56.5t-54 144.5q0 127 79.5 217.5t201.5 90.5zM299 408q-65 0 -106 -69.5t-41 -145.5q0 -51 25.5 -82.5t69.5 -31.5q62 0 103.5 69t41.5 148q0 44 -22.5 78t-70.5 34zM299 698h87l63 -148
h-80l-33 90h-2l-61 -90h-85zM496 633l-51 20q9 17 34.5 38.5t25.5 38.5q0 11 -8.5 19t-21.5 8q-23 0 -49 -28l-32 32q41 55 104 55q36 0 59 -20t23 -50q0 -25 -14 -43t-37 -36.5t-33 -33.5z" />
    <glyph glyph-name="uni1ED6" unicode="&#x1ed6;" horiz-adv-x="688" 
d="M411 685q129 0 197 -78.5t68 -200.5q0 -92 -32 -178t-90 -143q-98 -96 -240 -96q-126 0 -196 79.5t-70 198.5q0 91 33.5 178.5t92.5 145.5q97 94 237 94zM397 587q-75 0 -133 -58q-43 -43 -67.5 -115t-24.5 -141q0 -83 39 -134.5t120 -51.5q74 0 131 57q41 42 65.5 116.5
t24.5 141.5q0 36 -7 67t-23.5 58.5t-48.5 43.5t-76 16zM380 844h-60q4 48 27.5 75.5t59.5 27.5q22 0 60 -21q27 -16 41 -16q12 0 19 8.5t11 31.5h60q-10 -103 -88 -103q-23 0 -61 21q-27 15 -40 15q-22 0 -29 -39zM406 829h84l66 -119h-84l-31 66h-2l-64 -66h-93z" />
    <glyph glyph-name="uni1ED7" unicode="&#x1ed7;" horiz-adv-x="543" 
d="M313 498q94 0 146.5 -58t52.5 -143q0 -127 -79.5 -217.5t-201.5 -90.5q-91 0 -145 56.5t-54 144.5q0 127 79.5 217.5t201.5 90.5zM299 408q-65 0 -106 -69.5t-41 -145.5q0 -51 25.5 -82.5t69.5 -31.5q62 0 103.5 69t41.5 148q0 44 -22.5 78t-70.5 34zM279 698h-61
q5 48 28.5 75.5t58.5 27.5q26 0 61 -21q30 -16 41 -16q22 0 30 40h59q-10 -103 -87 -103q-23 0 -61 21q-27 15 -40 15q-22 0 -29 -39zM305 676h81l67 -127h-77l-34 71h-2l-52 -71h-86z" />
    <glyph glyph-name="uni1ED8" unicode="&#x1ed8;" horiz-adv-x="688" 
d="M411 685q129 0 197 -78.5t68 -200.5q0 -92 -32 -178t-90 -143q-98 -96 -240 -96q-126 0 -196 79.5t-70 198.5q0 92 33.5 179t93.5 145q96 94 236 94zM397 587q-75 0 -133 -58q-43 -43 -67.5 -115t-24.5 -141q0 -83 39 -134.5t120 -51.5q74 0 131 57q41 42 65.5 116.5
t24.5 141.5q0 36 -7 67t-23.5 58.5t-48.5 43.5t-76 16zM398 832h89l80 -122h-86l-44 66h-2l-65 -66h-94zM261 -201q-25 0 -42.5 18t-17.5 42q0 25 18 43t44 18q24 0 41 -18t17 -43t-17 -42.5t-43 -17.5z" />
    <glyph glyph-name="uni1ED9" unicode="&#x1ed9;" horiz-adv-x="543" 
d="M313 498q94 0 146.5 -58t52.5 -143q0 -127 -79.5 -217.5t-201.5 -90.5q-91 0 -145 56.5t-54 144.5q0 127 79.5 217.5t201.5 90.5zM299 408q-65 0 -106 -69.5t-41 -145.5q0 -51 25.5 -82.5t69.5 -31.5q62 0 103.5 69t41.5 148q0 44 -22.5 78t-70.5 34zM313 694h81l72 -148
h-79l-41 84h-2l-64 -84h-86zM209 -204q-25 0 -43 18t-18 44t18 44t45 18q25 0 42 -18t17 -44t-17 -44t-44 -18z" />
    <glyph glyph-name="uni1EDA" unicode="&#x1eda;" horiz-adv-x="688" 
d="M651 742l91 15q13 -30 13 -74q0 -55 -32 -87.5t-86 -31.5q38 -61 38 -158q0 -92 -31.5 -178.5t-89.5 -142.5q-98 -96 -241 -96q-125 0 -195 79.5t-70 198.5q0 91 33.5 178.5t92.5 145.5q99 94 237 94q65 0 121 -24q7 -3 26.5 -12.5t32 -13.5t25.5 -4q47 0 47 54
q0 28 -12 57zM397 587q-75 0 -133 -58q-42 -43 -67 -115.5t-25 -140.5q0 -83 39 -134.5t120 -51.5q74 0 131 57q41 42 65.5 116.5t24.5 141.5q0 36 -7 67t-23.5 58.5t-48.5 43.5t-76 16zM440 836h137l-134 -122h-100z" />
    <glyph glyph-name="uni1EDB" unicode="&#x1edb;" horiz-adv-x="543" 
d="M299 408q-65 0 -106 -69t-40 -146q0 -51 25 -82.5t69 -31.5q62 0 103.5 69.5t41.5 147.5q0 44 -22.5 78t-70.5 34zM501 560l88 16q10 -27 10 -65q0 -53 -29 -83.5t-80 -32.5q23 -43 23 -98q0 -127 -80 -217.5t-202 -90.5q-91 0 -145 56t-54 145q0 127 79.5 217.5
t201.5 90.5q48 0 86 -16q5 -2 20.5 -9.5t26.5 -11t22 -3.5q44 0 44 48q0 27 -11 54zM340 694h123l-131 -148h-88z" />
    <glyph glyph-name="uni1EDC" unicode="&#x1edc;" horiz-adv-x="688" 
d="M651 742l91 16q13 -30 13 -74q0 -56 -32 -88.5t-86 -31.5q38 -61 38 -158q0 -92 -31.5 -178t-89.5 -143q-98 -96 -241 -96q-125 0 -195 79.5t-70 198.5q0 92 33.5 179t92.5 145q99 94 237 94q64 0 121 -23q7 -3 26.5 -12.5t32 -13.5t25.5 -4q47 0 47 53q0 30 -12 57z
M397 588q-73 0 -133 -58q-42 -43 -67 -116t-25 -141q0 -83 39 -134.5t120 -51.5q74 0 131 57q41 42 65.5 116.5t24.5 142.5q0 36 -7 67t-23.5 58.5t-48.5 43.5t-76 16zM282 837h133l76 -121h-96z" />
    <glyph glyph-name="uni1EDD" unicode="&#x1edd;" horiz-adv-x="543" 
d="M299 408q-65 0 -106 -69t-40 -146q0 -51 25 -82.5t69 -31.5q62 0 103.5 69.5t41.5 147.5q0 44 -22.5 78t-70.5 34zM501 560l88 16q10 -27 10 -65q0 -53 -29 -83.5t-80 -32.5q23 -43 23 -98q0 -127 -80 -217.5t-202 -90.5q-91 0 -145 56t-54 145q0 127 79.5 217.5
t201.5 90.5q48 0 86 -16q5 -2 20.5 -9.5t26.5 -11t22 -3.5q44 0 44 48q0 27 -11 54zM198 694h119l71 -148h-84z" />
    <glyph glyph-name="uni1EDE" unicode="&#x1ede;" horiz-adv-x="688" 
d="M651 742l91 15q13 -28 13 -73q0 -56 -32 -88.5t-86 -31.5q38 -61 38 -158q0 -92 -31.5 -178t-89.5 -143q-98 -96 -241 -96q-125 0 -195 79.5t-70 198.5q0 91 33.5 178.5t92.5 145.5q99 94 237 94q64 0 121 -23q6 -3 20.5 -10t22.5 -10.5t19.5 -6.5t21.5 -3q47 0 47 53
q0 30 -12 57zM397 588q-74 0 -133 -59q-42 -42 -67 -115t-25 -141q0 -83 39 -134.5t120 -51.5q74 0 131 57q41 42 65.5 116.5t24.5 141.5q0 37 -7 67.5t-23.5 58.5t-48.5 44t-76 16zM451 710l-56 20q9 15 34.5 40.5t25.5 43.5q0 12 -7.5 20t-20.5 8q-24 0 -49 -31l-37 27
q48 68 113 68q38 0 61.5 -21.5t23.5 -52.5q0 -26 -14 -44.5t-38 -39.5t-36 -38z" />
    <glyph glyph-name="uni1EDF" unicode="&#x1edf;" horiz-adv-x="543" 
d="M299 408q-65 0 -106 -69t-40 -146q0 -51 25 -82.5t69 -31.5q62 0 103.5 69.5t41.5 147.5q0 44 -22.5 78t-70.5 34zM501 560l88 15q10 -26 10 -64q0 -53 -29 -83.5t-80 -32.5q23 -43 23 -98q0 -127 -80 -217.5t-202 -90.5q-91 0 -145 56t-54 145q0 127 79.5 217.5
t201.5 90.5q48 0 86 -16q5 -2 20.5 -9.5t26.5 -11t22 -3.5q44 0 44 48q0 27 -11 54zM338 530l-61 17q7 19 37.5 47.5t30.5 50.5q0 13 -8 21t-20 8q-27 0 -52 -36l-39 27q45 73 117 73q37 0 60.5 -21.5t23.5 -53.5q0 -23 -10.5 -43t-23.5 -31.5t-30 -28t-25 -30.5z" />
    <glyph glyph-name="uni1EE0" unicode="&#x1ee0;" horiz-adv-x="688" 
d="M651 742l91 15q13 -28 13 -73q0 -56 -32 -88.5t-86 -31.5q38 -61 38 -158q0 -92 -31.5 -178t-89.5 -143q-98 -96 -241 -96q-125 0 -195 79.5t-70 198.5q0 91 33.5 178.5t92.5 145.5q99 94 237 94q64 0 121 -23q7 -3 21 -10t22 -10.5t19.5 -7t21.5 -3.5q47 0 47 54
q0 30 -12 57zM397 588q-74 0 -133 -59q-42 -42 -67 -115t-25 -141q0 -83 39 -134.5t120 -51.5q75 0 130 57q42 42 66.5 116t24.5 142q0 37 -7 67.5t-23.5 58.5t-48.5 44t-76 16zM356 720h-60q9 54 33.5 84t57.5 30q29 0 62 -20q29 -19 42 -19q21 0 34 42h59
q-18 -111 -93 -111q-32 0 -61 19q-31 18 -42 18q-21 0 -32 -43z" />
    <glyph glyph-name="uni1EE1" unicode="&#x1ee1;" horiz-adv-x="543" 
d="M299 408q-65 0 -106 -69t-40 -146q0 -51 25 -82.5t69 -31.5q62 0 103.5 69.5t41.5 147.5q0 45 -22 78.5t-71 33.5zM502 561l87 15q11 -30 11 -65q0 -54 -29.5 -84.5t-80.5 -31.5q23 -43 23 -98q0 -127 -79.5 -217.5t-202.5 -90.5q-91 0 -145 56t-54 145q0 127 79.5 217.5
t201.5 90.5q50 0 86 -16q6 -2 21 -9.5t26 -11t22 -3.5q45 0 45 49q0 21 -11 54zM248 563h-60q7 53 29.5 83.5t57.5 30.5q26 0 62 -21q28 -18 39 -18q12 0 18.5 9t12.5 34h59q-16 -111 -87 -111q-31 0 -63 20q-23 18 -39 18q-20 0 -29 -45z" />
    <glyph glyph-name="uni1EE2" unicode="&#x1ee2;" horiz-adv-x="688" 
d="M651 742l91 15q13 -28 13 -73q0 -56 -32 -88.5t-86 -31.5q38 -61 38 -158q0 -92 -31.5 -178t-89.5 -143q-98 -96 -241 -96q-125 0 -195 79.5t-70 198.5q0 91 33.5 178.5t92.5 145.5q99 94 237 94q64 0 121 -23q6 -3 20.5 -10t22.5 -10.5t19.5 -6.5t21.5 -3q47 0 47 53
q0 30 -12 57zM397 588q-74 0 -133 -59q-42 -42 -67 -115t-25 -141q0 -83 39 -134.5t120 -51.5q74 0 131 57q41 42 65.5 116.5t24.5 141.5q0 37 -7 67.5t-23.5 58.5t-48.5 44t-76 16zM261 -201q-25 0 -42.5 18t-17.5 42q0 25 18 43t44 18q24 0 41 -18t17 -43t-17 -42.5
t-43 -17.5z" />
    <glyph glyph-name="uni1EE3" unicode="&#x1ee3;" horiz-adv-x="543" 
d="M299 408q-65 0 -106 -69t-40 -146q0 -51 25 -82.5t69 -31.5q62 0 103.5 69.5t41.5 147.5q0 44 -22.5 78t-70.5 34zM501 560l88 15q10 -26 10 -64q0 -53 -29 -83.5t-80 -32.5q23 -43 23 -98q0 -127 -80 -217.5t-202 -90.5q-91 0 -145 56t-54 145q0 127 79.5 217.5
t201.5 90.5q48 0 86 -16q5 -2 20.5 -9.5t26.5 -11t22 -3.5q44 0 44 48q0 27 -11 54zM209 -204q-25 0 -43 18t-18 44t18 44t45 18q25 0 42 -18t17 -44t-17 -44t-44 -18z" />
    <glyph glyph-name="uni1EE4" unicode="&#x1ee4;" horiz-adv-x="639" 
d="M150 674h117l-75 -393q-8 -42 -8 -82q0 -52 29 -82t81 -30q131 0 167 193l75 394h117l-75 -392q-29 -152 -101.5 -222.5t-197.5 -70.5q-98 -1 -154.5 51.5t-56.5 155.5q0 38 9 94zM243 -201q-25 0 -42.5 18t-17.5 42q0 25 18 43t44 18q24 0 41 -18t17 -43t-17 -42.5
t-43 -17.5z" />
    <glyph glyph-name="uni1EE5" unicode="&#x1ee5;" horiz-adv-x="545" 
d="M407 487h117l-64 -336q-10 -52 -24 -151h-103l10 85h-2q-72 -96 -169 -96q-57 0 -92 33.5t-35 104.5q0 40 10 87l52 273h116l-50 -266q-8 -38 -8 -67q0 -69 62 -69q42 0 81.5 46t54.5 119zM210 -204q-25 0 -43 18t-18 44t18 44t45 18q25 0 42 -18t17 -44t-17 -44t-44 -18
z" />
    <glyph glyph-name="uni1EE6" unicode="&#x1ee6;" horiz-adv-x="639" 
d="M150 674h117l-75 -393q-8 -42 -8 -82q0 -52 29 -82t81 -30q131 0 167 193l75 394h117l-75 -392q-29 -152 -101.5 -222.5t-197.5 -70.5q-98 -1 -154.5 51.5t-56.5 155.5q0 38 9 94zM420 706l-56 19q9 16 34.5 41t25.5 44q0 12 -7.5 19.5t-20.5 7.5q-22 0 -49 -31l-37 27
q47 68 114 68q37 0 60.5 -21t23.5 -53q0 -25 -14 -44t-38 -39.5t-36 -37.5z" />
    <glyph glyph-name="uni1EE7" unicode="&#x1ee7;" horiz-adv-x="545" 
d="M407 487h117l-64 -336q-10 -52 -24 -151h-104l11 85h-2q-72 -96 -169 -96q-57 0 -92 33.5t-35 104.5q0 40 10 87l52 273h116l-50 -266q-8 -38 -8 -67q0 -69 62 -69q42 0 81.5 46t54.5 119zM355 530l-61 17q7 19 37.5 47.5t30.5 50.5q0 13 -8 21t-20 8q-27 0 -52 -36
l-39 27q45 73 117 73q37 0 60.5 -21.5t23.5 -53.5q0 -23 -10.5 -43t-23.5 -31.5t-30 -28t-25 -30.5z" />
    <glyph glyph-name="uni1EE8" unicode="&#x1ee8;" horiz-adv-x="652" 
d="M640 609l-62 -327q-29 -152 -101.5 -222.5t-196.5 -70.5q-98 -1 -155 51.5t-57 156.5q0 47 9 93l73 384h117l-75 -393q-8 -42 -8 -82q0 -52 29.5 -82t81.5 -30q129 0 166 193l75 394h89q62 0 62 56q0 21 -8 47l86 15q8 -23 8 -53q0 -59 -34 -93.5t-99 -36.5zM433 832h137
l-134 -122h-100z" />
    <glyph glyph-name="uni1EE9" unicode="&#x1ee9;" horiz-adv-x="561" 
d="M548 591l86 14q9 -24 9 -54q0 -56 -33.5 -91.5t-97.5 -36.5l-52 -272q-10 -52 -24 -151h-104l11 85l-2 1q-71 -97 -169 -97q-57 0 -92 33.5t-35 105.5q0 39 10 86l52 273h116l-50 -266q-8 -38 -8 -67q0 -69 62 -69q42 0 82 46t54 119l45 237h88q62 0 62 55q0 21 -10 49z
M361 694h124l-131 -148h-88z" />
    <glyph glyph-name="uni1EEA" unicode="&#x1eea;" horiz-adv-x="652" 
d="M640 609l-62 -327q-29 -152 -101.5 -222.5t-196.5 -70.5q-98 -1 -155 51.5t-57 156.5q0 47 9 93l73 384h117l-75 -393q-8 -42 -8 -82q0 -52 29.5 -82t81.5 -30q129 0 166 193l75 394h89q62 0 62 55q0 22 -8 48l86 15q8 -23 8 -54q0 -59 -34 -93t-99 -36zM276 832h133
l76 -121h-96z" />
    <glyph glyph-name="uni1EEB" unicode="&#x1eeb;" horiz-adv-x="561" 
d="M548 591l86 14q9 -24 9 -54q0 -56 -33.5 -91.5t-97.5 -36.5l-52 -272q-10 -52 -24 -151h-104l11 85l-2 1q-71 -97 -169 -97q-57 0 -92 33.5t-35 105.5q0 39 10 86l52 273h116l-50 -266q-8 -38 -8 -67q0 -69 62 -69q42 0 82 46t54 119l45 237h88q62 0 62 55q0 21 -10 49z
M213 694h119l71 -148h-84z" />
    <glyph glyph-name="uni1EEC" unicode="&#x1eec;" horiz-adv-x="652" 
d="M640 609l-62 -327q-29 -152 -101.5 -222.5t-196.5 -70.5q-98 -1 -155 51.5t-57 156.5q0 47 9 93l73 384h117l-75 -393q-8 -42 -8 -82q0 -52 29.5 -82t81.5 -30q129 0 166 193l75 394h89q62 0 62 56q0 20 -8 48l86 15q8 -23 8 -54q0 -59 -34 -93.5t-99 -36.5zM427 706
l-55 19q9 16 34.5 41t25.5 44q0 12 -8 19.5t-20 7.5q-24 0 -49 -31l-37 27q47 68 113 68q38 0 61.5 -21t23.5 -53q0 -25 -14 -44t-38.5 -39.5t-36.5 -37.5z" />
    <glyph glyph-name="uni1EED" unicode="&#x1eed;" horiz-adv-x="561" 
d="M548 591l86 14q9 -24 9 -54q0 -56 -33.5 -91.5t-97.5 -36.5l-52 -272q-10 -52 -24 -151h-104l11 85l-2 1q-71 -97 -169 -97q-57 0 -92 33.5t-35 105.5q0 39 10 86l52 273h116l-50 -266q-8 -38 -8 -67q0 -69 62 -69q42 0 82 46t54 119l45 237h88q62 0 62 55q0 21 -10 49z
M352 530l-60 17q7 19 37 47.5t30 50.5q0 13 -8 21t-20 8q-28 0 -51 -36l-40 27q45 73 117 73q38 0 61 -21.5t23 -53.5q0 -23 -10.5 -43t-23.5 -31.5t-30 -28t-25 -30.5z" />
    <glyph glyph-name="uni1EEE" unicode="&#x1eee;" horiz-adv-x="652" 
d="M640 609l-62 -327q-29 -152 -101.5 -222.5t-196.5 -70.5q-98 -1 -155 51.5t-57 156.5q0 47 9 93l73 384h117l-75 -393q-8 -42 -8 -82q0 -52 29.5 -82t81.5 -30q129 0 166 193l75 394h89q62 0 62 56q0 22 -8 48l86 15q8 -23 8 -54q0 -59 -34 -93.5t-99 -36.5zM339 715h-60
q9 55 33.5 85t57.5 30q29 0 62 -20q28 -19 42 -19q21 0 34 42h59q-18 -111 -93 -111q-31 0 -62 19q-29 18 -41 18q-21 0 -32 -44z" />
    <glyph glyph-name="uni1EEF" unicode="&#x1eef;" horiz-adv-x="561" 
d="M548 591l86 15q9 -26 9 -55q0 -56 -33.5 -91.5t-97.5 -36.5l-52 -272q-10 -52 -24 -151h-104l11 85l-2 1q-71 -97 -169 -97q-57 0 -92 33.5t-35 105.5q0 39 10 86l52 273h116l-50 -266q-8 -38 -8 -67q0 -69 62 -69q42 0 82 46t54 119l45 237h88q62 0 62 55q0 21 -10 49z
M256 563h-60q7 53 29.5 83.5t57.5 30.5q26 0 62 -21q30 -18 40 -18q12 0 18.5 9t12.5 34h59q-16 -111 -88 -111q-32 0 -62 20q-25 18 -40 18q-20 0 -29 -45z" />
    <glyph glyph-name="uni1EF0" unicode="&#x1ef0;" horiz-adv-x="652" 
d="M640 609l-62 -327q-29 -152 -101.5 -222.5t-196.5 -70.5q-98 -1 -155 51.5t-57 156.5q0 47 9 93l73 384h117l-75 -393q-8 -42 -8 -82q0 -52 29.5 -82t81.5 -30q129 0 166 193l75 394h89q62 0 62 56q0 20 -8 48l86 15q8 -23 8 -54q0 -59 -34 -93.5t-99 -36.5zM246 -201
q-25 0 -42.5 18t-17.5 42q0 25 18 43t44 18q24 0 41 -18t17 -43t-17 -42.5t-43 -17.5z" />
    <glyph glyph-name="uni1EF1" unicode="&#x1ef1;" horiz-adv-x="561" 
d="M548 591l86 14q9 -24 9 -54q0 -56 -33.5 -91.5t-97.5 -36.5l-52 -272q-10 -52 -24 -151h-104l11 85l-2 1q-71 -97 -169 -97q-57 0 -92 33.5t-35 105.5q0 39 10 86l52 273h116l-50 -266q-8 -38 -8 -67q0 -69 62 -69q42 0 82 46t54 119l45 237h88q62 0 62 55q0 21 -10 49z
M212 -204q-25 0 -43 18t-18 44t18 44t45 18q25 0 42 -18t17 -44t-17 -44t-44 -18z" />
    <glyph glyph-name="Ygrave" unicode="&#x1ef2;" horiz-adv-x="546" 
d="M271 0h-117l53 277l-131 397h125l53 -192q20 -82 27 -118h2q30 53 70 120l122 190h138l-289 -395zM201 832h133l76 -121h-96z" />
    <glyph glyph-name="ygrave" unicode="&#x1ef3;" horiz-adv-x="472" 
d="M45 487h122l38 -234q15 -87 19 -122h2q39 98 47 116l104 240h124l-178 -359q-93 -185 -178 -268q-71 -68 -150 -84l-27 100q57 21 86 43q53 37 86 97q5 9 2 22zM145 694h118l71 -148h-83z" />
    <glyph glyph-name="uni1EF4" unicode="&#x1ef4;" horiz-adv-x="546" 
d="M271 0h-117l53 277l-131 397h125l53 -192q20 -82 27 -118h2q30 53 70 120l122 190h138l-289 -395zM195 -201q-25 0 -42.5 18t-17.5 42q0 25 18 43t44 18q24 0 41 -18t17 -43t-17 -42.5t-43 -17.5z" />
    <glyph glyph-name="uni1EF5" unicode="&#x1ef5;" horiz-adv-x="472" 
d="M45 487h122l38 -234q15 -87 19 -122h2q39 98 47 116l104 240h124l-178 -359q-93 -185 -178 -268q-71 -68 -150 -84l-27 100q57 21 86 43q53 37 86 97q5 9 2 22zM316 -204q-25 0 -43 18t-18 44t18 44t45 18q25 0 42 -18t17 -44t-17 -44t-44 -18z" />
    <glyph glyph-name="uni1EF6" unicode="&#x1ef6;" horiz-adv-x="546" 
d="M271 0h-117l53 277l-131 397h125l53 -192q20 -82 27 -118h2q30 53 70 120l122 190h138l-289 -395zM373 706l-55 19q9 16 34.5 41t25.5 44q0 12 -8 19.5t-20 7.5q-23 0 -50 -31l-37 27q47 68 114 68q38 0 61 -21t23 -53q0 -25 -14 -44t-38 -39.5t-36 -37.5z" />
    <glyph glyph-name="uni1EF7" unicode="&#x1ef7;" horiz-adv-x="472" 
d="M45 487h122l38 -234q15 -87 19 -122h2q39 98 47 116l104 240h124l-178 -359q-93 -185 -178 -268q-71 -68 -150 -84l-27 100q57 21 86 43q53 37 86 97q5 9 2 22zM318 530l-61 17q7 19 37 47.5t30 50.5q0 13 -7.5 21t-19.5 8q-27 0 -52 -36l-40 27q46 73 118 73
q37 0 60 -21.5t23 -53.5q0 -30 -15.5 -52t-39.5 -43.5t-33 -37.5z" />
    <glyph glyph-name="uni1EF8" unicode="&#x1ef8;" horiz-adv-x="546" 
d="M271 0h-117l53 277l-131 397h125l53 -192q20 -82 27 -118h2q30 53 70 120l122 190h138l-289 -395zM281 715h-60q9 55 33.5 85t57.5 30q29 0 62 -20q29 -19 42 -19q21 0 34 42h59q-18 -111 -93 -111q-32 0 -61 19q-31 18 -42 18q-21 0 -32 -44z" />
    <glyph glyph-name="uni1EF9" unicode="&#x1ef9;" horiz-adv-x="472" 
d="M45 487h122l38 -234q15 -87 19 -122h2q39 98 47 116l105 240h123l-178 -359q-93 -185 -178 -268q-71 -68 -150 -84l-27 100q57 21 86 43q53 37 86 97q5 9 2 22zM222 563h-60q7 53 29.5 83.5t57.5 30.5q26 0 62 -21q30 -18 40 -18q12 0 18.5 9t12.5 34h59
q-16 -111 -88 -111q-31 0 -63 20q-23 18 -39 18q-20 0 -29 -45z" />
    <glyph glyph-name="uni2010" unicode="&#x2010;" horiz-adv-x="315" 
d="M46 309h250l-16 -85h-250z" />
    <glyph glyph-name="endash" unicode="&#x2013;" horiz-adv-x="500" 
d="M40 293h440l-15 -78h-440z" />
    <glyph glyph-name="emdash" unicode="&#x2014;" horiz-adv-x="1000" 
d="M40 293h940l-15 -78h-940z" />
    <glyph glyph-name="quoteleft" unicode="&#x2018;" horiz-adv-x="227" 
d="M187 438l-120 -9q70 156 146 256l78 7q-69 -137 -104 -254z" />
    <glyph glyph-name="quoteright" unicode="&#x2019;" horiz-adv-x="227" 
d="M165 682l120 10q-75 -162 -146 -256l-78 -7q65 128 104 253z" />
    <glyph glyph-name="quotesinglbase" unicode="&#x201a;" horiz-adv-x="227" 
d="M28 -110l-82 -8q72 141 107 261l125 10q-70 -156 -150 -263z" />
    <glyph glyph-name="quotedblleft" unicode="&#x201c;" horiz-adv-x="401" 
d="M186 438l-119 -9q69 154 145 256l78 7q-65 -129 -104 -254zM361 438l-119 -9q72 160 145 256l78 7q-69 -137 -104 -254z" />
    <glyph glyph-name="quotedblright" unicode="&#x201d;" horiz-adv-x="401" 
d="M164 682l119 10q-72 -160 -145 -256l-78 -7q65 128 104 253zM339 682l119 10q-69 -154 -145 -256l-78 -7q65 128 104 253z" />
    <glyph glyph-name="quotedblbase" unicode="&#x201e;" horiz-adv-x="401" 
d="M23 -110l-82 -8q72 141 107 261l125 10q-70 -156 -150 -263zM209 -110l-82 -8q72 141 107 261l125 10q-70 -156 -150 -263z" />
    <glyph glyph-name="dagger" unicode="&#x2020;" horiz-adv-x="503" 
d="M279 674h111l-51 -206l170 10l-19 -96l-165 10l-74 -443h-111l96 443l-170 -10l18 96l166 -10z" />
    <glyph glyph-name="daggerdbl" unicode="&#x2021;" horiz-adv-x="503" 
d="M280 674h108l-46 -192l168 10l-18 -96l-165 10l-34 -181l168 10l-18 -96l-165 10l-29 -199h-108l47 199l-168 -10l18 96l165 -10l34 181l-168 -10l18 96l164 -10z" />
    <glyph glyph-name="bullet" unicode="&#x2022;" horiz-adv-x="309" 
d="M158 146q-49 0 -83.5 34t-34.5 85q-1 49 34 84t85 35t84.5 -34.5t34.5 -84.5t-35 -84.5t-85 -34.5z" />
    <glyph glyph-name="ellipsis" unicode="&#x2026;" horiz-adv-x="1000" 
d="M125 -10q-30 0 -49.5 20.5t-19.5 51.5q0 36 23.5 61t58.5 25q31 0 51 -21t20 -53q0 -36 -23.5 -60t-60.5 -24zM459 -10q-30 0 -49.5 20.5t-19.5 51.5q0 36 23.5 61t58.5 25q31 0 51 -21t20 -53q0 -36 -23.5 -60t-60.5 -24zM793 -10q-30 0 -49.5 20.5t-19.5 51.5
q0 36 23.5 61t58.5 25q31 0 51 -21t20 -53q0 -36 -23.5 -60t-60.5 -24z" />
    <glyph glyph-name="perthousand" unicode="&#x2030;" horiz-adv-x="1199" 
d="M268 661q62 0 97 -40.5t35 -102.5q0 -108 -56.5 -182.5t-141.5 -74.5q-62 0 -99 40.5t-37 109.5q0 100 56.5 175t145.5 75zM254 592q-42 0 -69.5 -60.5t-27.5 -123.5q0 -78 55 -78q43 0 70 62t27 125q0 75 -55 75zM220 -12h-74l486 673h74zM658 392q62 0 97 -40.5
t35 -102.5q0 -108 -56.5 -182.5t-141.5 -74.5q-62 0 -99 40.5t-37 109.5q0 100 56.5 175t145.5 75zM644 323q-42 0 -69.5 -60.5t-27.5 -123.5q0 -78 55 -78q43 0 70 62t27 125q0 75 -55 75zM1033 392q62 0 97 -40.5t35 -102.5q0 -108 -56.5 -182.5t-141.5 -74.5
q-62 0 -99 40.5t-37 109.5q0 100 56.5 175t145.5 75zM1019 323q-42 0 -69.5 -60.5t-27.5 -123.5q0 -78 55 -78q43 0 70 62t27 125q0 75 -55 75z" />
    <glyph glyph-name="guilsinglleft" unicode="&#x2039;" horiz-adv-x="258" 
d="M261 440l-147 -189l98 -186h-85l-100 187l141 188h93z" />
    <glyph glyph-name="guilsinglright" unicode="&#x203a;" horiz-adv-x="257" 
d="M153 255l-98 185h85l100 -188l-141 -187h-93z" />
    <glyph glyph-name="fraction" unicode="&#x2044;" horiz-adv-x="142" 
d="M-119 -11h-75l489 672h75z" />
    <glyph glyph-name="zero.superior" unicode="&#x2070;" horiz-adv-x="346" 
d="M210 400q-60 0 -92.5 39.5t-32.5 104.5q0 105 55 181.5t141 76.5q60 0 92 -38t32 -95q0 -110 -54 -189.5t-141 -79.5zM221 469q41 0 66.5 66t25.5 126q0 72 -42 72q-40 0 -67 -65.5t-27 -124.5q0 -74 44 -74z" />
    <glyph glyph-name="four.superior" unicode="&#x2074;" horiz-adv-x="344" 
d="M316 406h-88l18 97h-184l11 53l209 243h109l-45 -233h53l-13 -63h-52zM258 566l18 91q5 28 17 71h-2q-45 -64 -47 -66l-80 -94v-2h94z" />
    <glyph glyph-name="five.superior" unicode="&#x2075;" horiz-adv-x="318" 
d="M381 796l-14 -73h-148l-19 -63q10 1 25 1q38 0 69 -16q61 -25 61 -90q0 -72 -55.5 -113.5t-138.5 -41.5q-66 0 -104 21l22 67q34 -18 84 -18q40 0 66.5 20t26.5 52q0 57 -97 57q-28 0 -52 -3l57 200h217z" />
    <glyph glyph-name="six.superior" unicode="&#x2076;" horiz-adv-x="341" 
d="M388 800l-13 -69q-26 2 -43 0q-51 -7 -86 -33.5t-50 -64.5l1 -1q36 36 85 36q51 0 79.5 -31t28.5 -80q0 -64 -48 -110.5t-118 -46.5q-64 0 -102 39t-38 99q0 65 31 121t78 89q62 42 142 49q18 3 53 3zM230 465q28 0 48 25.5t20 61.5q0 26 -14 40.5t-39 14.5
q-36 0 -59 -35q-7 -8 -8 -16q-4 -12 -4 -30q0 -27 15 -44t41 -17z" />
    <glyph glyph-name="seven.superior" unicode="&#x2077;" horiz-adv-x="301" 
d="M120 796h275l-11 -56q-28 -43 -223 -334h-99q50 71 221 317v1h-177z" />
    <glyph glyph-name="eight.superior" unicode="&#x2078;" horiz-adv-x="345" 
d="M279 802q51 0 86 -24.5t35 -69.5q0 -60 -78 -93l-1 -2q64 -30 64 -87q0 -61 -50.5 -93.5t-116.5 -32.5q-63 0 -100.5 28t-37.5 72q0 38 26.5 67t66.5 43v2q-48 29 -48 73q0 52 45 84.5t109 32.5zM229 462q25 0 43 16t18 41q0 44 -55 61q-62 -16 -62 -68q0 -21 15 -35.5
t41 -14.5zM265 741q-21 0 -36 -14.5t-15 -34.5q0 -35 50 -53q51 15 51 57q0 19 -12.5 32t-37.5 13z" />
    <glyph glyph-name="nine.superior" unicode="&#x2079;" horiz-adv-x="338" 
d="M88 401l11 70q25 -2 49 -1q42 5 75 26q46 25 67 74l-2 1q-31 -31 -82 -31q-49 0 -80 29.5t-31 78.5q0 64 49.5 109.5t118.5 45.5q63 0 98.5 -38.5t35.5 -99.5q0 -65 -30 -121t-74 -90q-59 -48 -153 -53q-17 -2 -52 0zM254 737q-28 0 -48 -25t-20 -59q0 -23 14 -38t38 -15
q36 0 58 29q6 6 9 19q3 10 3 29q0 26 -14 43t-40 17z" />
    <glyph glyph-name="parenleft.superior" unicode="&#x207d;" horiz-adv-x="194" 
d="M226 832h63q-116 -148 -116 -320q0 -87 27 -163h-61q-35 75 -35 160q0 190 122 323z" />
    <glyph glyph-name="parenright.superior" unicode="&#x207e;" horiz-adv-x="194" 
d="M106 349h-64q117 149 117 320q0 87 -27 163h60q36 -74 36 -159q0 -191 -122 -324z" />
    <glyph glyph-name="zero.inferior" unicode="&#x2080;" horiz-adv-x="346" 
d="M104 -150q-60 0 -92.5 39.5t-32.5 104.5q0 105 55 181.5t141 76.5q60 0 92 -38t32 -95q0 -110 -54 -189.5t-141 -79.5zM115 -81q41 0 66.5 66t25.5 126q0 72 -42 72q-40 0 -67 -65.5t-27 -124.5q0 -74 44 -74z" />
    <glyph glyph-name="one.inferior" unicode="&#x2081;" horiz-adv-x="253" 
d="M124 -144h-95l59 310h-1l-75 -32l-8 66l112 46h82z" />
    <glyph glyph-name="two.inferior" unicode="&#x2082;" horiz-adv-x="322" 
d="M226 -144h-286l9 49l75 58q76 58 111.5 95.5t35.5 72.5q0 46 -55 46q-44 0 -86 -30l-17 60q60 44 134 44q56 0 90.5 -28t34.5 -76q0 -28 -12 -54.5t-37.5 -52t-46.5 -42.5t-58 -44l-31 -24v-2h152z" />
    <glyph glyph-name="three.inferior" unicode="&#x2083;" horiz-adv-x="315" 
d="M27 156l-10 60q53 35 126 35q53 0 87.5 -25.5t34.5 -63.5q0 -69 -94 -96v-2q32 -7 54 -30t22 -56q0 -58 -50 -92.5t-126 -34.5q-80 0 -125 31l30 63q37 -27 91 -27q37 0 59.5 17.5t22.5 43.5q0 27 -24.5 41t-63.5 14h-19l12 57h18q36 0 65 15t29 40q0 38 -51 38
q-48 0 -88 -28z" />
    <glyph glyph-name="four.inferior" unicode="&#x2084;" horiz-adv-x="344" 
d="M210 -144h-88l18 97h-184l11 53l209 243h109l-45 -233h53l-13 -63h-52zM152 16l18 91q5 28 17 71h-2q-35 -52 -47 -66l-80 -94v-2h94z" />
    <glyph glyph-name="five.inferior" unicode="&#x2085;" horiz-adv-x="318" 
d="M275 246l-14 -73h-148l-19 -63q10 1 25 1q38 0 69 -16q61 -25 61 -90q0 -72 -55.5 -113.5t-138.5 -41.5q-66 0 -104 21l22 67q34 -18 84 -18q40 0 66.5 20t26.5 52q0 57 -97 57q-28 0 -52 -3l57 200h217z" />
    <glyph glyph-name="six.inferior" unicode="&#x2086;" horiz-adv-x="341" 
d="M282 250l-13 -69q-26 2 -43 0q-51 -7 -86 -33.5t-50 -64.5l1 -1q36 36 85 36q51 0 79.5 -31t28.5 -80q0 -64 -48 -110.5t-118 -46.5q-64 0 -102 39t-38 99q0 65 31 121t78 89q62 42 142 49q18 3 53 3zM124 -85q28 0 48 25.5t20 61.5q0 26 -14 40.5t-39 14.5
q-36 0 -59 -35q-7 -8 -8 -16q-4 -12 -4 -30q0 -27 15 -44t41 -17z" />
    <glyph glyph-name="seven.inferior" unicode="&#x2087;" horiz-adv-x="301" 
d="M14 246h275l-11 -56q-28 -43 -223 -334h-99q36 51 118.5 169t102.5 147v2h-177z" />
    <glyph glyph-name="eight.inferior" unicode="&#x2088;" horiz-adv-x="345" 
d="M173 252q51 0 86 -24.5t35 -69.5q0 -60 -78 -93l-1 -2q64 -30 64 -87q0 -61 -50.5 -93.5t-116.5 -32.5q-63 0 -100.5 28t-37.5 72q0 38 26.5 67t66.5 43v2q-48 29 -48 73q0 52 45 84.5t109 32.5zM123 -88q25 0 43 16t18 41q0 44 -55 61q-62 -16 -62 -68q0 -21 15 -35.5
t41 -14.5zM159 191q-21 0 -36 -14.5t-15 -34.5q0 -35 50 -53q51 15 51 57q0 19 -12.5 32t-37.5 13z" />
    </font>
</defs>
</svg>
