<?xml version="1.0" standalone="no"?>
<!DOCTYPE svg PUBLIC "-//W3C//DTD SVG 1.1//EN" "http://www.w3.org/Graphics/SVG/1.1/DTD/svg11.dtd" >
<svg xmlns="http://www.w3.org/2000/svg">
<metadata></metadata>
<defs>
<font id="cantarellregular" horiz-adv-x="1300" >
<font-face units-per-em="2048" ascent="1514" descent="-534" />
<missing-glyph horiz-adv-x="560" />
<glyph horiz-adv-x="0" />
<glyph unicode="&#xd;" horiz-adv-x="682" />
<glyph unicode=" "  horiz-adv-x="560" />
<glyph unicode="&#x09;" horiz-adv-x="560" />
<glyph unicode="&#xa0;" horiz-adv-x="560" />
<glyph unicode="!" horiz-adv-x="650" d="M225 0v200h200v-200h-200zM240 458v963h170v-963h-170z" />
<glyph unicode="&#x22;" horiz-adv-x="795" d="M110 1083v428h185v-428h-185zM500 1083v428h185v-428h-185z" />
<glyph unicode="#" horiz-adv-x="1402" d="M45 880v150h318v391h160v-391h358v391h160v-391h316v-150h-316v-352h316v-150h-316v-408h-160v408h-358v-408h-160v408h-316v150h316v352h-318zM523 528h358v352h-358v-352z" />
<glyph unicode="$" horiz-adv-x="1200" d="M227 300l46 124q95 -40 155 -55t124 -15q79 0 133.5 12.5t91.5 49.5t37 99q0 34 -24 60t-64 42.5t-90.5 34t-103 32.5t-103 39.5t-90.5 54t-64 76.5t-24 106q0 39 14.5 79t47 81t94 73.5t145.5 46.5v271h121v-260q87 0 137 -8.5t128 -31.5l-42 -125q-134 37 -236 37 q-59 0 -104.5 -11t-70 -27.5t-40 -37.5t-20 -37.5t-4.5 -32.5q0 -41 42.5 -73t106 -52t137.5 -47.5t137.5 -58t106 -85.5t42.5 -127q0 -46 -14.5 -89.5t-48 -88.5t-99.5 -78.5t-158 -45.5v-297h-121v290q-142 0 -325 75z" />
<glyph unicode="%" horiz-adv-x="1329" d="M85 0l969 1421h170l-969 -1421h-170zM98 1093q0 130 68 200t161 70q29 0 56 -5.5t59.5 -23t56 -45.5t39.5 -79t16 -118q0 -133 -64.5 -209.5t-163.5 -76.5q-98 0 -163 67.5t-65 219.5zM196 1094q0 -58 12.5 -99t34 -60.5t41.5 -27t43 -7.5q53 0 91.5 42t38.5 147 q0 54 -12.5 91.5t-33.5 55.5t-41.5 25t-43.5 7q-54 0 -92 -39.5t-38 -134.5zM757 352q0 130 67.5 200.5t160.5 70.5q37 0 72 -10.5t72.5 -37t60.5 -84t23 -140.5q0 -132 -65 -208.5t-164 -76.5q-98 0 -162.5 67t-64.5 219zM854 353q0 -58 12.5 -99t34 -60.5t41.5 -27 t43 -7.5q53 0 91.5 42t38.5 147q0 54 -12.5 91.5t-33.5 55.5t-41.5 25t-43.5 7q-54 0 -92 -39.5t-38 -134.5z" />
<glyph unicode="&#x26;" horiz-adv-x="1589" d="M180 282q0 38 7 75t17 67.5t28.5 63.5t33.5 56t41 51.5t41 44.5t44 41t41 34t39.5 30.5t31.5 24.5q-93 96 -124 138q-78 106 -78 215q0 140 117 228.5t288 88.5q151 0 242 -75.5t91 -189.5q0 -32 -9 -64t-20.5 -57.5t-36 -56.5t-41 -50t-51 -49t-50 -43t-54.5 -43.5 t-50 -39.5l348 -371l323 353l93 -94l-322 -359l283 -301h-203l-194 201q-40 -40 -68.5 -65.5t-82 -64t-103 -61.5t-120.5 -40t-146 -17q-166 0 -261 92.5t-95 236.5zM347 327q0 -94 70 -160.5t176 -66.5q47 0 94.5 15t82.5 33t76.5 50.5t61.5 50.5t52 50l-359 372 q-8 -6 -24 -19q-56 -44 -85 -69.5t-69 -69.5t-58 -89.5t-18 -96.5zM469 1114q0 -27 7.5 -51t27 -49.5t34.5 -42.5t47.5 -49.5t49.5 -50.5q17 13 52 39.5t48.5 37.5t39 32t36 32.5t26 29.5t21.5 32.5t11 32t5 36.5q0 62 -51.5 108t-132.5 46q-90 0 -155.5 -54.5t-65.5 -128.5 z" />
<glyph unicode="'" horiz-adv-x="405" d="M110 1083v428h185v-428h-185z" />
<glyph unicode="(" horiz-adv-x="742" d="M220 576q0 138 29 282.5t78 271.5t98 226.5t105 191.5l132 -69q-115 -192 -191 -424t-76 -481q0 -247 76 -478t191 -420l-129 -84q-56 93 -105.5 193t-99.5 229t-79 275.5t-29 286.5z" />
<glyph unicode=")" horiz-adv-x="742" d="M80 -324q115 189 191 420t76 478q0 248 -76.5 480.5t-190.5 424.5l132 69q56 -92 105 -191.5t98 -226.5t78 -271.5t29 -282.5q0 -139 -29.5 -285.5t-79 -276t-99 -230t-105.5 -192.5z" />
<glyph unicode="*" horiz-adv-x="1196" d="M180 843l285 145l-285 141l85 148l266 -175l-18 319h170l-18 -319l266 175l85 -148l-284 -141l284 -145l-85 -148l-266 175l18 -318h-170l18 318l-266 -175z" />
<glyph unicode="+" horiz-adv-x="1400" d="M125 589v138h501v506h148v-506h501v-138h-501v-506h-148v506h-501z" />
<glyph unicode="," horiz-adv-x="570" d="M42 -220l158 390h180l-158 -390h-180z" />
<glyph unicode="-" horiz-adv-x="1210" d="M175 589v139h860v-139h-860z" />
<glyph unicode="." horiz-adv-x="570" d="M180 0v210h210v-210h-210z" />
<glyph unicode="/" horiz-adv-x="726" d="M40 -90l496 1511h170l-496 -1511h-170z" />
<glyph unicode="0" d="M111 728q0 115 18.5 214t50.5 170.5t75.5 128.5t91.5 93.5t101.5 61t103 34.5t97.5 10q70 0 139.5 -20t143.5 -71.5t129.5 -129.5t91.5 -205.5t36 -287.5q0 -168 -35.5 -301t-91 -214.5t-129 -135.5t-142.5 -74.5t-139 -20.5q-49 0 -98.5 10.5t-103.5 36t-102 64 t-92 98.5t-75.5 135.5t-50.5 179t-19 224.5zM279 730q0 -133 24.5 -239.5t63 -172t89 -109.5t99 -61.5t97.5 -17.5q39 0 79 12.5t82.5 38.5t79 73t65.5 110t46 155t17 203q0 125 -24.5 225.5t-63 162.5t-89.5 103t-99 57.5t-96 16.5t-96 -16t-98 -57t-88.5 -102t-63 -160 t-24.5 -222z" />
<glyph unicode="1" d="M250 1281l344 140h196v-1272h330v-149h-828v149h334v1108l-312 -123z" />
<glyph unicode="2" d="M188 1334q229 97 454 97q209 0 336.5 -106t127.5 -260q0 -73 -28.5 -137.5t-77 -117t-108.5 -103.5t-127 -108t-128 -118.5t-116.5 -147.5t-88.5 -183h700v-150h-907v93q39 122 99.5 228.5t125 180t133.5 138t130 113.5t110 94t77.5 92t28.5 96q0 102 -94 175.5 t-225 73.5q-143 0 -373 -82z" />
<glyph unicode="3" d="M176 32l48 138q208 -57 325 -57q156 0 266 80t110 206q0 35 -9 68.5t-38 74.5t-76.5 71t-132.5 50.5t-197 20.5v146q90 0 160.5 16.5t113 41.5t70 58.5t38 64.5t10.5 63q0 87 -76 148.5t-202 61.5q-146 0 -326 -83l-55 135q206 102 402 102q186 0 307.5 -96t121.5 -241 q0 -111 -59.5 -198t-158.5 -125q145 -39 212.5 -128.5t67.5 -213.5q0 -142 -71.5 -252t-196.5 -169.5t-283 -59.5q-186 0 -371 77z" />
<glyph unicode="4" d="M120 344v112l574 965h238v-927h248v-150h-248v-344h-164v344h-648zM316 494h452v765z" />
<glyph unicode="5" d="M173 15l32 151q150 -32 321 -32q85 0 154.5 14t115.5 38t79 54t51 65t26 67t8 65q0 39 -11.5 78t-41 81.5t-74.5 74.5t-119.5 52.5t-168.5 20.5q-105 0 -310 -24v701h856v-150h-693v-388q104 13 203 13q93 0 171.5 -16.5t132.5 -43t96.5 -64t67.5 -77t41 -84t22 -82.5 t6 -75t-6 -75.5t-23 -86t-44 -90t-74 -84.5t-107.5 -71.5t-149 -48t-195.5 -18.5q-185 0 -366 35z" />
<glyph unicode="6" d="M169 577q0 196 41 347t108.5 245.5t164.5 155t199.5 84t223.5 23.5q52 0 124 -7l-12 -148q-54 6 -107 6q-96 0 -175.5 -18t-133.5 -46t-97 -70.5t-68 -83.5t-43 -93.5t-25.5 -91.5t-13.5 -86q56 63 141 100.5t187 37.5q195 0 319.5 -126.5t124.5 -323.5 q0 -137 -60.5 -252.5t-174 -185t-257.5 -69.5q-41 0 -81 6t-87.5 23t-88.5 44t-80.5 74t-67 108t-44.5 150t-17 197zM336 476q0 -141 92.5 -251t225.5 -110q127 0 218 103.5t91 245.5q0 146 -94.5 237t-224.5 91q-129 0 -218.5 -89t-89.5 -227z" />
<glyph unicode="7" d="M131 1261v160h1038v-107l-663 -1314h-198l652 1261h-829z" />
<glyph unicode="8" d="M150 390q0 121 78 230.5t206 170.5q-61 31 -104 72.5t-63 85.5t-28.5 79.5t-8.5 69.5q0 144 112.5 243t300.5 99q209 0 318 -91.5t109 -255.5q0 -87 -49 -157t-152 -144q143 -64 212 -163.5t69 -219.5q0 -81 -33 -157t-93.5 -137t-156.5 -98t-212 -37q-138 0 -253.5 52 t-183.5 146.5t-68 211.5zM324 405q0 -112 94 -193.5t245 -81.5q140 0 226 77.5t86 189.5q0 57 -21 105.5t-53 82t-81 61.5t-95.5 46t-104.5 34q-138 -41 -217 -131t-79 -190zM397 1097q0 -31 11.5 -59.5t27 -49t44 -40.5t50.5 -32t58.5 -26.5t55.5 -20.5t54 -17 q54 33 85 55.5t63 52t46 61t14 67.5q0 98 -76 153.5t-187 55.5q-103 0 -174.5 -60t-71.5 -140z" />
<glyph unicode="9" d="M171 959q0 198 142.5 340t352.5 142q43 0 84 -6.5t88 -24t87.5 -46t79 -75.5t65.5 -108.5t43 -150t16 -195.5q0 -194 -41 -344t-108.5 -244t-164.5 -154.5t-200 -84t-223 -23.5q-62 0 -124 6l12 148q45 -5 108 -5q78 0 144 11t115.5 29t90 47t68.5 58t50 70t35 74t23 79 t14.5 77t9.5 76q-62 -66 -147 -98.5t-174 -32.5q-190 0 -318 123.5t-128 311.5zM335 975q0 -129 95.5 -220t223.5 -91q127 0 217.5 88t90.5 211q0 81 -42.5 159t-117 128.5t-158.5 50.5q-121 0 -215 -100t-94 -226z" />
<glyph unicode=":" horiz-adv-x="570" d="M180 0v210h210v-210h-210zM180 783v210h210v-210h-210z" />
<glyph unicode=";" horiz-adv-x="570" d="M42 -220l158 390h180l-158 -390h-180zM180 783v210h210v-210h-210z" />
<glyph unicode="&#x3c;" horiz-adv-x="1073" d="M100 533v165l873 430v-155l-699 -352l699 -336v-165z" />
<glyph unicode="=" horiz-adv-x="1400" d="M220 351v150h960v-150h-960zM220 804v150h960v-150h-960z" />
<glyph unicode="&#x3e;" horiz-adv-x="1073" d="M100 120v165l699 336l-699 352v155l873 -430v-165z" />
<glyph unicode="?" horiz-adv-x="1046" d="M100 1369q139 68 323 68q214 0 333.5 -85.5t119.5 -254.5q0 -82 -21 -146.5t-54.5 -107t-74 -79t-81 -71t-74 -73.5t-54.5 -97t-21 -131h-170q0 86 21 156t55 116t75 84.5t82.5 71.5t75.5 66.5t55 80t21 102.5q0 29 -7 56.5t-28 59.5t-54.5 55t-91.5 38.5t-134 15.5 q-57 0 -127.5 -13.5t-116.5 -33.5zM311 0v200h200v-200h-200z" />
<glyph unicode="@" horiz-adv-x="2100" d="M181 404q0 102 12.5 198t44 197t79.5 187.5t124.5 163.5t174 131.5t232 86t294.5 31.5q148 0 268.5 -28t204.5 -74.5t147.5 -115.5t101 -142t60.5 -164t31 -171.5t8 -173.5q0 -156 -31 -276.5t-76 -188t-105 -110.5t-109 -56.5t-97 -13.5q-88 0 -153.5 47t-92.5 124 q-130 -76 -270 -76q-188 0 -308 128t-120 344q0 226 125 368t328 142q126 0 246 -59l23 65h113v-716q0 -32 1 -50.5t4 -50t11.5 -51t22 -40t36.5 -30.5t54 -10q37 0 75 26t74 80t58.5 154t22.5 230q0 86 -9 161.5t-31.5 150.5t-57.5 136t-90 114t-126 89t-167.5 56.5 t-213.5 20.5q-125 0 -230.5 -28t-181.5 -75t-136 -112.5t-97 -136.5t-61.5 -151.5t-34.5 -152.5t-10 -144q0 -139 37 -257.5t100.5 -203t148.5 -144.5t182 -89t200 -29q154 0 292 67l63 -119q-175 -90 -380 -90q-61 0 -126 8t-146.5 32t-154.5 61.5t-145 102.5t-123.5 149 t-83.5 207t-32 271zM753 475q0 -173 93.5 -269.5t235.5 -96.5q103 0 199 52v633q-103 46 -204 46q-143 0 -233.5 -96.5t-90.5 -268.5z" />
<glyph unicode="A" horiz-adv-x="1383" d="M130 0l505 1421h193l505 -1421h-172l-144 413h-586l-144 -413h-157zM482 562h483l-241 693z" />
<glyph unicode="B" horiz-adv-x="1424" d="M290 0v1421h501q73 0 133.5 -15.5t100 -39.5t70 -57t46.5 -64t26 -66t12.5 -57.5t2.5 -42.5q0 -87 -59 -173.5t-125 -111.5q132 -24 216.5 -127.5t84.5 -235.5q0 -31 -5.5 -65t-21.5 -77t-41 -82t-68 -77.5t-98.5 -66.5t-136 -45.5t-176.5 -17.5h-462zM460 150h265 q36 0 60.5 0.5t70.5 6t78.5 15t72.5 29t64.5 46.5t41.5 69.5t17 96.5q0 133 -103 208t-277 75q-19 0 -290 -14v-532zM460 814q19 1 66 1.5t73 1t73 4t75.5 8t69 14t66 22t54 32t44.5 43.5t26.5 57.5t10.5 73.5q0 30 -6 57t-25 58t-49 53t-82.5 37t-121.5 15h-274v-477z" />
<glyph unicode="C" horiz-adv-x="1451" d="M275 709q0 205 85.5 368t248.5 258.5t377 95.5q194 0 386 -76l-52 -141q-194 67 -339 67q-120 0 -222.5 -47.5t-170 -127t-105.5 -182t-38 -214.5q0 -116 40.5 -220.5t113.5 -183t181.5 -124.5t237.5 -46q154 0 321 60l52 -126q-209 -90 -416 -90q-128 0 -240 37 t-195.5 103.5t-143.5 157.5t-90.5 200.5t-30.5 230.5z" />
<glyph unicode="D" horiz-adv-x="1606" d="M290 0v1421h440q138 0 251 -27.5t189.5 -77.5t131.5 -113t85.5 -140.5t44.5 -152.5t14 -156q0 -93 -14 -179t-48.5 -175t-88 -159.5t-138.5 -127t-193 -83.5q-56 -14 -125 -21t-114 -8t-127 -1h-308zM460 150h207q45 0 74.5 1t80 6t87 15t83 29t82.5 46t72 69t63 95 q66 127 66 309q0 126 -36.5 227.5t-97 165t-129 100.5t-143.5 50q-44 8 -133 8h-276v-1121z" />
<glyph unicode="E" horiz-adv-x="1283" d="M290 0v1421h833v-150h-663v-464h608v-150h-608v-507h663v-150h-833z" />
<glyph unicode="F" horiz-adv-x="1248" d="M290 0v1421h823v-150h-653v-464h593v-150h-593v-657h-170z" />
<glyph unicode="G" horiz-adv-x="1591" d="M215 709q0 112 28.5 217.5t87.5 197.5t141.5 160.5t197.5 108t249 39.5q240 0 457 -121l-67 -127q-76 40 -177 69t-204 29q-105 0 -202.5 -39t-173.5 -109.5t-121.5 -178t-45.5 -235.5q0 -169 75 -304t207 -210t295 -75q193 0 314 116v363h-404v140h569v-558 q-27 -31 -62.5 -60t-99 -67t-156.5 -61.5t-201 -23.5q-142 0 -261.5 42.5t-200.5 113.5t-137 165.5t-82 197.5t-26 210z" />
<glyph unicode="H" horiz-adv-x="1600" d="M290 0v1421h170v-613h760v613h170v-1421h-170v658h-760v-658h-170z" />
<glyph unicode="I" horiz-adv-x="730" d="M320 0v1421h170v-1421h-170z" />
<glyph unicode="J" horiz-adv-x="953" d="M110 7l27 142q67 -16 141 -16q61 0 109 12.5t78.5 30t52.5 46t32 51t16 55t6.5 48.5t0.5 41v1004h170v-995q0 -111 -20 -185t-78 -135q-117 -123 -339 -123q-100 0 -196 24z" />
<glyph unicode="K" horiz-adv-x="1417" d="M290 0v1421h170v-1421h-170zM484 729l602 692h213l-601 -678l639 -743h-219z" />
<glyph unicode="L" horiz-adv-x="1133" d="M290 0v1421h170v-1272h638v-149h-808z" />
<glyph unicode="M" horiz-adv-x="1884" d="M290 0v1421h240l456 -862l463 862h225v-1421h-170v1177l-437 -770h-170l-437 770v-1177h-170z" />
<glyph unicode="N" horiz-adv-x="1659" d="M290 0v1421h215l774 -1189v1189h170v-1421h-215l-774 1191v-1191h-170z" />
<glyph unicode="O" horiz-adv-x="1686" d="M215 707q0 165 51 302t140 230.5t212 145t266 51.5q141 0 263.5 -49.5t212 -139.5t140.5 -224.5t51 -295.5q0 -218 -86.5 -387.5t-240 -262t-347.5 -92.5q-128 0 -245 45.5t-211 132.5t-150 227.5t-56 316.5zM390 728q0 -133 39 -245.5t106 -188.5t158.5 -118t196.5 -42 q71 0 139.5 21t131.5 66.5t110.5 111.5t76 163t28.5 213q0 118 -30 216t-79.5 164t-115 111.5t-135 66t-141.5 20.5q-91 0 -175 -34t-154.5 -99.5t-113 -176t-42.5 -249.5z" />
<glyph unicode="P" horiz-adv-x="1339" d="M290 0v1421h469q33 0 54.5 -0.5t62.5 -4t70 -10t68.5 -20t67.5 -31.5t58.5 -47.5t49 -65.5t30.5 -87t12 -112q0 -88 -20 -158t-51.5 -117t-81.5 -81t-99 -52.5t-115.5 -29t-119 -13.5t-121.5 -3q-68 0 -164 7v-596h-170zM460 746q96 -8 182 -8q49 0 82 1t81 7t80 16.5 t68 31.5t57.5 49.5t35.5 72t14 99.5q0 58 -15 102.5t-43.5 71.5t-60 44.5t-76 25t-78 10t-79.5 2.5h-248v-525z" />
<glyph unicode="Q" horiz-adv-x="1706" d="M215 705q0 166 51 303.5t140 231t212.5 145t267.5 51.5q299 0 482 -198t183 -527q0 -299 -150 -491l181 -179l-92 -97l-187 177q-172 -136 -415 -136q-141 0 -263 49t-213.5 139t-144 227t-52.5 305zM390 724q0 -140 42 -254t114 -186.5t165 -111t197 -38.5q163 0 283 93 l-315 298l105 108l306 -301q89 137 89 353q0 135 -33 242.5t-84.5 173.5t-120 109.5t-134 60t-132.5 16.5q-88 0 -171 -33t-154 -98.5t-114 -177t-43 -254.5z" />
<glyph unicode="R" horiz-adv-x="1438" d="M290 0v1421h522q36 0 65 -2t74.5 -10.5t80.5 -23t73.5 -44t64 -69.5t42 -102t16.5 -139q0 -71 -17 -135t-53 -122t-99.5 -100.5t-148.5 -62.5l401 -611h-190l-385 592h-275v-592h-171zM461 742h245q51 0 90 3.5t91.5 19t87 43t59 80t24.5 124.5q0 51 -13 92t-33 67.5 t-49 46t-56 29.5t-60 16t-54.5 7.5t-45.5 1.5h-286v-530z" />
<glyph unicode="S" horiz-adv-x="1361" d="M240 76l58 165q250 -93 395 -93q152 0 247.5 61t95.5 163q0 68 -42.5 117.5t-110 80t-149.5 57t-163.5 57t-149 70.5t-110 108t-42.5 160q0 82 39.5 157t109.5 131.5t175 90t228 33.5q164 0 353 -57l-55 -155q-180 52 -312 52q-148 0 -250.5 -62.5t-102.5 -161.5 q0 -55 33 -98t87 -70t123 -53.5t140.5 -48.5t140.5 -56t123 -74.5t87 -105.5t33 -147q0 -57 -18 -113.5t-60 -112t-104 -97.5t-156.5 -68t-210.5 -26t-213.5 24t-218.5 72z" />
<glyph unicode="T" horiz-adv-x="1210" d="M85 1271v150h1120v-150h-475v-1271h-170v1271h-475z" />
<glyph unicode="U" horiz-adv-x="1582" d="M290 487v934h170v-921q0 -85 14.5 -146t61.5 -114q100 -113 295 -113q141 0 235.5 61.5t122.5 173.5q13 53 13 138v921h168v-525t0.5 -261.5t1 -92t0.5 -57.5q0 -46 -2 -80.5t-13.5 -90.5t-31.5 -97.5t-60.5 -88.5t-96 -77.5t-142 -50.5t-195.5 -20q-117 0 -210 24.5 t-146 58.5t-91.5 82t-53 82.5t-23.5 72.5q-17 66 -17 187z" />
<glyph unicode="V" horiz-adv-x="1401" d="M140 1421h202l406 -1241l406 1241h187l-495 -1421h-211z" />
<glyph unicode="W" horiz-adv-x="2165" d="M140 1421h180l357 -1194l360 1194h171l370 -1194l347 1194h180l-438 -1421h-181l-373 1187l-349 -1187h-181z" />
<glyph unicode="X" horiz-adv-x="1368" d="M110 0l513 742l-453 679h206l362 -535l349 535h196l-450 -675l505 -746h-220l-399 599l-399 -599h-210z" />
<glyph unicode="Y" horiz-adv-x="1263" d="M100 1421h201l362 -587l370 587h190l-484 -748v-673h-170v673z" />
<glyph unicode="Z" horiz-adv-x="1358" d="M155 0v111l873 1160h-843v150h1086v-109l-890 -1162h917v-150h-1143z" />
<glyph unicode="[" horiz-adv-x="758" d="M250 -410v1921h458v-149h-294v-1623h294v-149h-458z" />
<glyph unicode="\" horiz-adv-x="726" d="M20 1421h170l496 -1511h-170z" />
<glyph unicode="]" horiz-adv-x="758" d="M50 -261h294v1623h-294v149h458v-1921h-458v149z" />
<glyph unicode="^" horiz-adv-x="1479" d="M443 1246l282 295l256 -286l-93 -88l-176 196l-181 -196z" />
<glyph unicode="_" horiz-adv-x="1160" d="M150 0v150h860v-150h-860z" />
<glyph unicode="`" horiz-adv-x="1122" d="M274 1463l71 123l504 -310l-63 -108z" />
<glyph unicode="a" horiz-adv-x="1069" d="M123 262q0 60 22 108t63.5 80t94.5 54.5t123.5 34.5t141.5 17t156 5v78q0 34 -2.5 59t-16.5 60t-38 57.5t-72 39t-114 16.5q-102 0 -264 -45l-31 120q164 61 321 61q110 0 186.5 -25.5t118 -74.5t59.5 -109t18 -138v-660h-116l-38 90q-121 -110 -278 -110 q-140 0 -237 84.5t-97 197.5zM286 270q0 -63 63.5 -112t151.5 -49q129 0 223 101v227h-61q-57 0 -99 -2t-98.5 -11.5t-92.5 -26.5t-61.5 -49.5t-25.5 -77.5z" />
<glyph unicode="b" horiz-adv-x="1183" d="M190 0v1511h164v-570q129 67 264 67q60 0 118 -14.5t116.5 -51t102.5 -91.5t71.5 -144t27.5 -201q0 -244 -129.5 -385t-335.5 -141q-135 0 -265 66l-20 -46h-114zM354 155q107 -46 211 -46q46 0 89 10t87.5 36.5t77.5 66.5t54 106t21 149q0 94 -22 166.5t-56 114.5 t-80 69t-88 36t-86 9q-107 0 -208 -53v-664z" />
<glyph unicode="c" horiz-adv-x="1001" d="M130 471q0 117 28 210.5t74.5 153t109.5 99t129 56t138 16.5q142 0 277 -59l-40 -120q-111 38 -217 38q-52 0 -98 -9.5t-91.5 -34.5t-78 -64.5t-52.5 -103.5t-20 -147q0 -91 21 -160.5t55 -112.5t81.5 -70t96 -37.5t104.5 -10.5q94 0 188 33l40 -113q-142 -55 -285 -55 q-66 0 -126.5 13t-123 47.5t-108 87.5t-74 141.5t-28.5 201.5z" />
<glyph unicode="d" horiz-adv-x="1188" d="M130 477q0 128 36 230t99 167t147.5 99.5t182.5 34.5q118 0 239 -53v556h164v-1511h-114l-27 62q-139 -82 -290 -82q-62 0 -121 15t-117 52t-101.5 92.5t-70.5 142.5t-27 195zM290 503q0 -90 22 -160.5t56 -112.5t80 -69t88 -36.5t85 -9.5q109 0 213 56v660 q-107 48 -215 48q-46 0 -89 -10t-88 -36t-77.5 -67t-53.5 -108.5t-21 -154.5z" />
<glyph unicode="e" horiz-adv-x="1102" d="M130 462q0 111 27 203t73 154.5t107.5 105.5t129 62.5t138.5 19.5q72 0 129.5 -17.5t95.5 -44.5t65.5 -70.5t42 -84t22.5 -97.5t10 -99t2 -99v-78h-679q0 -54 24.5 -107.5t69 -98t117 -72.5t160.5 -28q104 0 225 36l29 -112q-161 -55 -316 -55q-109 0 -193.5 29 t-136 75.5t-84.5 111.5t-45.5 129.5t-12.5 136.5zM297 541h516q0 324 -243 324q-88 0 -151.5 -48.5t-92.5 -120.5t-29 -155z" />
<glyph unicode="f" horiz-adv-x="820" d="M135 859v129h143v100q0 130 39 198q39 69 115 106t176 37q107 0 237 -39l-25 -122q-93 24 -158 24q-59 0 -102 -16.5t-64.5 -38t-34 -52t-15 -50t-2.5 -40.5v-107h331v-129h-331v-859h-166v859h-143z" />
<glyph unicode="g" horiz-adv-x="1176" d="M128 491q0 115 32 207.5t81 148.5t112.5 94t121.5 52.5t112 14.5q118 0 273 -79l21 59h115v-1050q0 -30 -2 -58t-12 -79t-28 -93t-54.5 -90.5t-86 -81.5t-128 -55t-175.5 -22q-153 0 -306 64l46 119q123 -46 239 -46q343 0 343 379v73q-129 -68 -261 -68q-64 0 -125 16.5 t-119.5 55t-102 96t-70 146t-26.5 197.5zM288 510q0 -110 35 -198t111 -142.5t183 -54.5q109 0 215 57v647q-137 56 -235 56q-139 0 -224 -100t-85 -265z" />
<glyph unicode="h" horiz-adv-x="1191" d="M190 0v1511h164v-598q175 93 328 93q66 0 118.5 -17t86.5 -42.5t58.5 -66t37 -76t19 -84.5t8 -80t1.5 -73v-567h-168v597q0 263 -225 263q-117 0 -264 -77v-783h-164z" />
<glyph unicode="i" horiz-adv-x="524" d="M165 1232v189h194v-189h-194zM180 0v988h164v-988h-164z" />
<glyph unicode="j" horiz-adv-x="524" d="M18 -410q162 77 162 256v1142h164v-1125q0 -32 -1 -52.5t-6 -57t-14.5 -63.5t-29 -62t-47 -61.5t-70 -53.5t-96.5 -47zM165 1232v189h194v-189h-194z" />
<glyph unicode="k" horiz-adv-x="1073" d="M180 0v1511h164v-1511h-164zM360 546l436 462h181l-430 -445l456 -563h-197z" />
<glyph unicode="l" horiz-adv-x="564" d="M200 0v1511h164v-1511h-164z" />
<glyph unicode="m" horiz-adv-x="1734" d="M180 0v988h115l35 -82q179 101 310 101q151 0 237 -110q196 109 351 109q75 0 132 -20.5t92.5 -56t58 -89t31 -113t8.5 -134.5v-593h-164v604q0 18 -1 33.5t-5 43t-12 49t-23.5 46.5t-37.5 41.5t-56 27.5t-76 11q-92 0 -243 -78q14 -59 14 -192v-586h-164v608 q0 26 -2 49.5t-14 62.5t-32 66.5t-61.5 48.5t-97.5 21q-86 0 -231 -76v-780h-164z" />
<glyph unicode="n" horiz-adv-x="1176" d="M180 0v988h115l36 -84q191 104 348 104q81 0 141 -25.5t93 -64t52.5 -97t25 -111.5t5.5 -121v-589h-164v600q0 260 -224 260q-116 0 -264 -77v-783h-164z" />
<glyph unicode="o" horiz-adv-x="1211" d="M130 483q0 239 132.5 381.5t348.5 142.5q205 0 337.5 -131t132.5 -362q0 -245 -135.5 -389.5t-350.5 -144.5q-205 0 -335 135.5t-130 367.5zM290 511q0 -165 90 -278t233 -113q132 0 220 100t88 261q0 92 -28.5 167t-75 122t-103.5 72t-117 25q-123 0 -215 -95t-92 -261z " />
<glyph unicode="p" horiz-adv-x="1177" d="M180 -531v1519h114l27 -63q140 82 291 82q61 0 119 -14.5t116.5 -51t102 -92t71 -144.5t27.5 -200q0 -243 -129.5 -384t-335.5 -141q-118 0 -239 53v-564h-164zM344 157q107 -48 215 -48q46 0 89 10t87.5 36.5t77.5 66.5t54 106t21 149q0 94 -22 166t-56 114t-80 69 t-88 36t-86 9q-109 0 -212 -55v-659z" />
<glyph unicode="q" horiz-adv-x="1176" d="M128 488q0 128 40 230t106.5 163.5t146.5 94t166 32.5q118 0 273 -79l21 59h115v-1519h-164v580q-131 -69 -268 -69q-62 0 -120.5 15t-117 52.5t-101.5 93.5t-70 145.5t-27 201.5zM288 504q0 -88 21 -157.5t54.5 -112t78.5 -70t88.5 -38t89.5 -10.5q109 0 212 55v648 q-137 56 -235 56q-140 0 -224.5 -100t-84.5 -271z" />
<glyph unicode="r" horiz-adv-x="801" d="M180 0v988h115l31 -74q125 93 276 93q104 0 189 -39l-50 -131q-78 30 -162 30q-125 0 -235 -69v-798h-164z" />
<glyph unicode="s" horiz-adv-x="1016" d="M130 55l46 124q103 -38 168.5 -54t128.5 -16q244 0 244 155q0 34 -24 60t-64 42.5t-90.5 34t-103 32.5t-103 39.5t-90.5 54t-64 76.5t-24 106q0 36 11.5 73.5t43 79t78.5 73t125.5 52t177.5 20.5q21 0 39.5 -0.5t36 -2.5t30 -3t29 -4t24 -4.5t25 -6t21.5 -5.5t23.5 -7 t22.5 -7l-42 -125q-134 37 -236 37q-59 0 -104.5 -12t-70 -29t-40 -39.5t-20 -39.5t-4.5 -33q0 -41 42.5 -73t106 -52t137.5 -47.5t137.5 -58t106 -85.5t42.5 -127q0 -41 -10.5 -79.5t-40 -80.5t-76 -72.5t-124.5 -50.5t-179 -20q-153 0 -336 75z" />
<glyph unicode="t" horiz-adv-x="775" d="M70 859v129h133v283h164v-283h301v-129h-301v-546q0 -205 162 -205q29 0 153 21l23 -112q-145 -37 -226 -37t-137 26t-85 74t-41.5 103.5t-12.5 127.5v548h-133z" />
<glyph unicode="u" horiz-adv-x="1177" d="M180 398v590h164v-602q0 -259 225 -259q116 0 264 77v784h164v-988h-115l-35 83q-189 -103 -349 -103q-81 0 -141 25.5t-93 63.5t-53 96.5t-25.5 111.5t-5.5 121z" />
<glyph unicode="v" horiz-adv-x="993" d="M65 988h180l256 -825l257 825h170l-347 -988h-170z" />
<glyph unicode="w" horiz-adv-x="1685" d="M60 988h175l268 -829l254 829h161l264 -828l268 828h175l-361 -988h-165l-263 801l-260 -801h-165z" />
<glyph unicode="x" horiz-adv-x="1048" d="M65 988h190l279 -392l269 392h175l-364 -504l345 -484h-190l-265 371l-252 -371h-175l346 485z" />
<glyph unicode="y" horiz-adv-x="1060" d="M50 988h180l316 -838l294 838h170l-570 -1519h-175l198 482z" />
<glyph unicode="z" horiz-adv-x="1078" d="M150 0v87l538 772h-538v129h753v-87l-540 -772h565v-129h-778z" />
<glyph unicode="{" horiz-adv-x="798" d="M90 480v138q93 16 159 89t84 209q4 32 8.5 91.5t5.5 72.5q10 105 43.5 185.5t73.5 124t91.5 72.5t87 37.5t69.5 11.5l30 -129q-56 -7 -105 -39.5t-81 -80.5q-30 -45 -45.5 -109t-18 -125t-11 -131t-22.5 -130t-53.5 -118.5t-103.5 -99.5q75 -49 116.5 -121t53.5 -150 t16.5 -154.5t19 -155.5t48.5 -131q32 -48 81 -80.5t105 -39.5l-30 -129q-31 2 -65 10.5t-86 36t-93 70t-76 121t-45 180.5q-2 22 -5.5 69.5t-6 78t-11.5 75.5t-22 77t-38 66.5t-60 59.5q-51 37 -114 48z" />
<glyph unicode="|" horiz-adv-x="884" d="M360 -308v1909h164v-1909h-164z" />
<glyph unicode="}" horiz-adv-x="798" d="M56 -283q56 7 105 39.5t81 80.5q34 52 48.5 131t19 155.5t16.5 154.5t53.5 150t116.5 121q-64 41 -103.5 99.5t-53.5 118.5t-22.5 130t-11 131t-18 125t-45.5 109q-32 48 -81 80.5t-105 39.5l30 129q34 -3 69.5 -11.5t87 -37.5t91.5 -72.5t73.5 -124t43.5 -185.5 q1 -13 5.5 -72.5t8.5 -91.5q18 -136 84 -209t159 -89v-138q-63 -11 -114 -48q-35 -25 -60 -59.5t-38 -66.5t-22 -77t-11.5 -75.5t-6 -78t-5.5 -69.5q-10 -102 -45 -180.5t-76 -121t-93 -70t-86 -36t-65 -10.5z" />
<glyph unicode="~" horiz-adv-x="1400" d="M356 1256q2 8 8 40.5t9 44.5t10 42t14 43t18 36t24 34t30.5 24t40 18t48.5 5q44 0 85.5 -18.5t72 -45.5t57.5 -54t53.5 -45.5t49.5 -18.5q12 0 22.5 3.5t18.5 11t14.5 15t12 21t9 23.5t7.5 27.5t6 27t5.5 28.5t4.5 27l108 -17q-2 -9 -8 -41t-9 -44.5t-10 -42t-14 -43 t-18 -36.5t-24 -34.5t-30.5 -24.5t-40 -18t-48.5 -5q-44 0 -85.5 18.5t-72 45.5t-57.5 54t-53.5 45.5t-49.5 18.5q-12 0 -22.5 -3t-19 -11.5t-14.5 -15t-12 -21t-9 -22.5t-7.5 -27t-6 -26t-5 -28t-4.5 -26z" />
<glyph unicode="&#xa1;" horiz-adv-x="650" d="M225 1121v200h200v-200h-200zM240 -410v1273h170v-1273h-170z" />
<glyph unicode="&#xa2;" horiz-adv-x="1021" d="M150 713q0 217 102 356t291 167v275h121v-270q108 0 242 -58l-40 -120q-111 38 -217 38q-165 0 -252.5 -91.5t-87.5 -262.5q0 -89 22 -158.5t56.5 -111.5t83 -69.5t96.5 -37.5t102 -10q92 0 186 33l40 -113q-130 -51 -231 -51v-294h-121v294q-176 20 -284.5 140.5 t-108.5 343.5z" />
<glyph unicode="&#xa3;" d="M152 0v135h244v527h-176v135h176v141q0 114 29.5 202t77 142t113 88.5t130 47.5t136.5 13q116 0 235 -38l-48 -122q-89 24 -165 24q-66 0 -118.5 -13.5t-88 -35.5t-61.5 -54.5t-40.5 -64.5t-22.5 -73t-10.5 -73t-2.5 -70v-114h530v-135h-530v-527h588v-135h-996z" />
<glyph unicode="&#xa4;" d="M185 1082l125 125l167 -167q81 47 173 47q94 0 173 -47l166 165l125 -125l-166 -165q47 -81 47 -173q0 -94 -47 -173l165 -165l-125 -125l-165 165q-81 -48 -174 -48t-172 47l-166 -166l-125 125l166 166q-48 79 -48 173q0 93 48 174zM450 741q0 -84 58 -144t141 -60 q82 0 141 60t59 144q0 86 -58.5 145.5t-140.5 59.5t-141 -59.5t-59 -145.5z" />
<glyph unicode="&#xa5;" d="M143 1421h185l322 -603l332 603h175l-427 -722h282v-125h-289v-200h289v-125h-289v-249h-160v249h-275v125h275v200h-275v125h268z" />
<glyph unicode="&#xa6;" horiz-adv-x="884" d="M360 -308v768h164v-768h-164zM360 837v764h164v-764h-164z" />
<glyph unicode="&#xa7;" horiz-adv-x="1136" d="M160 45l46 124q171 -60 304 -60q276 0 276 177q0 43 -32.5 75t-84.5 52t-115 38.5t-126.5 41.5t-115.5 54t-84.5 83.5t-32.5 121.5q0 108 88 192q-88 71 -88 183q0 40 13 79.5t46.5 81.5t83.5 73.5t131 52t182 20.5q28 0 53 -1t48 -4t38 -5t37.5 -7.5t30.5 -7.5t33 -9 t31 -9l-45 -131q-125 39 -251 39q-108 0 -180 -40t-72 -111q0 -42 33 -74t86 -54.5t117 -43.5t128.5 -46t117.5 -56t86 -80t33 -112q0 -123 -84 -208q83 -68 83 -168q0 -43 -11 -84.5t-42.5 -86.5t-79.5 -78t-130 -55t-187 -22h-13q-186 0 -351 65zM374 771q0 -35 20.5 -62 t63 -48.5t81 -36t103 -35.5t101.5 -35q43 42 43 108q0 30 -16 55t-40 41.5t-63.5 32.5t-74 26t-84.5 25.5t-84 27.5q-50 -40 -50 -99z" />
<glyph unicode="&#xa8;" horiz-adv-x="1200" d="M283 1235v186h185v-186h-185zM732 1235v186h185v-186h-185z" />
<glyph unicode="&#xa9;" horiz-adv-x="1760" d="M170 683q0 137 54.5 264.5t147.5 222.5t226 152.5t282 57.5q146 0 278.5 -56.5t226.5 -151t149.5 -222.5t55.5 -267t-55.5 -267t-149.5 -222.5t-226.5 -151t-278.5 -56.5t-278.5 56.5t-226.5 151t-149.5 222.5t-55.5 267zM303 683q0 -113 45 -217t122 -180.5t184 -122 t226 -45.5t226 45.5t184 122t122 180.5t45 217t-45 217t-122 180.5t-184 122t-226 45.5t-226 -45.5t-184 -122t-122 -180.5t-45 -217zM560 673q0 103 30 180t81.5 119.5t110 62.5t124.5 20q104 0 201 -43l-30 -87q-79 28 -158 28q-48 0 -88 -12t-77 -39t-58 -80t-21 -128 q0 -80 22 -136.5t60.5 -86t81 -42.5t93.5 -13q67 0 137 24l30 -82q-101 -39 -204 -39q-47 0 -91 9.5t-89.5 34t-79 63t-54.5 102.5t-21 145z" />
<glyph unicode="&#xaa;" horiz-adv-x="766" d="M175 915q0 112 81.5 149.5t266.5 37.5v23q0 134 -142 134q-81 0 -170 -27l-18 71q99 36 199 36q64 0 110 -16.5t68.5 -37.5t34.5 -54t14 -52.5t2 -47.5v-371h-70l-22 54q-67 -72 -150 -72q-91 0 -147.5 45.5t-56.5 127.5zM272 917q0 -36 34 -65.5t88 -29.5q76 0 129 80 v117h-28q-44 0 -75 -2.5t-69 -11.5t-58.5 -31.5t-20.5 -56.5z" />
<glyph unicode="&#xab;" horiz-adv-x="936" d="M75 623l255 365h185l-274 -365l274 -365h-185zM446 623l255 365h185l-274 -365l274 -365h-185z" />
<glyph unicode="&#xac;" horiz-adv-x="1400" d="M125 583v149h1150v-450h-148v301h-1002z" />
<glyph unicode="&#xad;" horiz-adv-x="1074" d="M220 589v139h634v-139h-634z" />
<glyph unicode="&#xae;" horiz-adv-x="1232" d="M90 1043q0 106 42 202t113 165t168 110t203 41q142 0 263 -69t192 -188.5t71 -260.5q0 -106 -42 -202t-113 -165t-168 -110t-203 -41q-144 0 -265.5 71t-191 190t-69.5 257zM201 1043q0 -166 121 -286.5t294 -120.5t294 120.5t121 286.5t-121 286.5t-294 120.5t-294 -120 t-121 -287zM427 776v544h222q23 0 39 -2t41.5 -8.5t46 -25t34.5 -47.5q16 -34 16 -79q0 -125 -105 -160l112 -222h-100l-101 208h-112v-208h-93zM520 1061q47 0 63 -0.5t28 -0.5q59 0 93 18.5t34 68.5q0 25 -8.5 43.5t-20.5 27.5t-30.5 14.5t-31.5 6.5t-31 1h-96v-179z" />
<glyph unicode="&#xaf;" horiz-adv-x="1400" d="M285 1491v149h830v-149h-830z" />
<glyph unicode="&#xb0;" horiz-adv-x="589" d="M75 1235q0 93 64.5 158.5t154.5 65.5t155 -65.5t65 -158.5t-64.5 -159t-154.5 -66t-155 65.5t-65 159.5zM165 1235q0 -54 36.5 -94t93.5 -40q54 0 90.5 40.5t36.5 93.5t-36.5 93t-90.5 40q-55 0 -92.5 -39.5t-37.5 -93.5z" />
<glyph unicode="&#xb1;" horiz-adv-x="1400" d="M220 150v137h960v-137h-960zM220 872v137h407v412h146v-412h407v-137h-407v-411h-146v411h-407z" />
<glyph unicode="&#xb2;" horiz-adv-x="800" d="M130 1461q126 63 240 63q105 0 175.5 -55.5t70.5 -143.5q0 -43 -18.5 -83t-47.5 -69.5t-66.5 -65t-73 -67.5t-70 -79t-54.5 -98h343v-105h-482v65q22 69 58 131t74 104t78 80.5t70.5 65.5t50.5 55t20 52q0 43 -42 76.5t-102 33.5q-58 0 -187 -51z" />
<glyph unicode="&#xb3;" horiz-adv-x="800" d="M125 794l33 96q112 -31 172 -31q72 0 122.5 36.5t50.5 92.5q0 41 -21 68t-59 38.5t-70.5 15.5t-75.5 4v103q111 0 153.5 32t42.5 75q0 37 -33.5 63.5t-91.5 26.5q-70 0 -170 -46l-39 94q123 59 220 59q98 0 163.5 -52t65.5 -131q0 -50 -23 -92t-62 -67q116 -47 116 -174 q0 -114 -83 -184.5t-209 -70.5q-95 0 -202 44z" />
<glyph unicode="&#xb4;" horiz-adv-x="1122" d="M274 1275l504 310l70 -123l-512 -295z" />
<glyph unicode="&#xb5;" horiz-adv-x="1187" d="M190 -410v1398h164v-558q0 -29 2 -54.5t9 -65.5t23.5 -72t42 -62t68.5 -47t98 -17q89 0 246 77v799h164v-988h-115l-29 67q-147 -94 -293 -94q-126 0 -216 80v-463h-164z" />
<glyph unicode="&#xb6;" horiz-adv-x="1338" d="M130 1133q0 61 12 111.5t30.5 87t48.5 65.5t58 47.5t67.5 32t68.5 20t69.5 10t62.5 4t54 0.5h547v-1511h-170v1361h-240v-1361h-171v686q-33 0 -67.5 4t-78.5 16.5t-83.5 32.5t-78 55t-66.5 80t-45.5 112t-17.5 147z" />
<glyph unicode="&#xb7;" horiz-adv-x="590" d="M190 628v210h210v-210h-210z" />
<glyph unicode="&#xb8;" horiz-adv-x="1101" d="M386 -446l26 91q157 -47 206 -47q46 0 73 22.5t27 54.5q0 15 -4 27.5t-16.5 22.5t-23 17t-35 16t-40.5 14t-52.5 15.5t-57.5 17.5l58 217h127l-40 -157q2 -1 16 -5l21 -6t23 -8t25 -11t24 -13.5t24 -17.5t19.5 -22t17 -26.5t10.5 -31.5t4 -38q0 -71 -55 -127t-149 -56 q-21 0 -45.5 3.5t-52.5 10.5t-46 12t-48 14t-36 11z" />
<glyph unicode="&#xb9;" horiz-adv-x="543" d="M60 1459l191 52h92v-751h-113v643l-145 -41z" />
<glyph unicode="&#xba;" horiz-adv-x="762" d="M67 1146q0 91 27 164t72 117.5t100.5 68t115.5 23.5q40 0 77.5 -7.5t82 -32t77 -63.5t54.5 -109t22 -162q0 -182 -89.5 -287.5t-225.5 -105.5q-63 0 -116.5 19.5t-99 63t-71.5 123t-26 188.5zM181 1149q0 -72 13.5 -127t34 -86.5t48.5 -51t53 -26t52 -6.5q36 0 67.5 12.5 t63 42t50 90t18.5 145.5q0 67 -13 117.5t-33.5 79.5t-48.5 47t-53 24t-53 6q-37 0 -70 -12.5t-63 -41t-48 -83t-18 -130.5z" />
<glyph unicode="&#xbb;" horiz-adv-x="936" d="M50 258l274 365l-274 365h186l254 -365l-255 -365h-185zM421 258l274 365l-274 365h186l254 -365l-255 -365h-185z" />
<glyph unicode="&#xbc;" horiz-adv-x="1800" d="M150 1369l191 52h112v-803h-133v673l-140 -39zM359 0l821 1421h175l-820 -1421h-176zM1025 195v89l366 552h157v-531h107v-110h-107v-195h-133v195h-390zM1174 305h241v383z" />
<glyph unicode="&#xbd;" horiz-adv-x="1847" d="M150 1369l191 52h112v-813h-133v683l-140 -39zM359 0l821 1421h175l-820 -1421h-176zM1138 773q142 69 264 69q115 0 193 -60.5t78 -157.5q0 -56 -28 -106t-73 -92t-92.5 -84t-96 -101t-74.5 -125h378v-116h-531v72q28 90 78.5 168.5t102 129t99 92.5t77.5 78.5t30 67.5 q0 47 -46 83.5t-113 36.5q-65 0 -204 -55z" />
<glyph unicode="&#xbe;" horiz-adv-x="1950" d="M194 650l37 106q128 -35 189 -35q78 0 134 39.5t56 101.5q0 140 -249 140v113q65 0 110.5 11.5t67 30.5t30 37.5t8.5 38.5q0 40 -37 69.5t-100 29.5q-79 0 -187 -51l-44 104q132 65 243 65q108 0 179.5 -57.5t71.5 -144.5q0 -55 -25 -101t-68 -74q128 -53 128 -191 q0 -125 -91.5 -203t-230.5 -78q-100 0 -222 49zM519 0l821 1421h175l-820 -1421h-176zM1175 195v89l366 552h157v-531h107v-110h-107v-195h-133v195h-390zM1324 305h241v383z" />
<glyph unicode="&#xbf;" horiz-adv-x="1047" d="M128 -53l52 122q169 -69 285 -69q128 0 201 66.5t73 158.5q0 43 -13 78t-35.5 60.5t-51.5 49.5t-61 50t-63.5 55.5t-60.5 72.5t-51.5 96t-35.5 130.5t-13 170.5h170q0 -101 21 -178t54.5 -124.5t74 -86t81 -71t74 -68.5t54.5 -91.5t21 -127.5q0 -105 -67.5 -195.5 t-161.5 -138.5t-184 -48q-104 0 -187 22t-176 66zM339 1220v201h200v-201h-200z" />
<glyph unicode="&#xc0;" horiz-adv-x="1383" d="M130 0l505 1421h193l505 -1421h-172l-144 413h-586l-144 -413h-157zM456 1806l70 123l504 -310l-62 -108zM482 562h483l-241 693z" />
<glyph unicode="&#xc1;" horiz-adv-x="1383" d="M130 0l505 1421h193l505 -1421h-172l-144 413h-586l-144 -413h-157zM430 1619l504 310l70 -123l-512 -295zM482 562h483l-241 693z" />
<glyph unicode="&#xc2;" horiz-adv-x="1383" d="M130 0l505 1421h193l505 -1421h-172l-144 413h-586l-144 -413h-157zM469 1629l282 295l256 -286l-93 -88l-176 196l-181 -195zM482 562h483l-241 693z" />
<glyph unicode="&#xc3;" horiz-adv-x="1383" d="M130 0l505 1421h193l505 -1421h-172l-144 413h-586l-144 -413h-157zM388 1589q2 8 8 40.5t9 44.5t10 42t14 43t18 36t24 34t30.5 24t40 18t48.5 5q44 0 85.5 -18.5t72 -45t57.5 -53t53.5 -45t49.5 -18.5q14 0 25.5 5t19.5 11.5t15.5 20t11.5 23.5t9 29t7 29.5t6 33 t6 30.5l108 -17q-2 -11 -7 -37t-7.5 -39.5t-8.5 -38t-11.5 -38.5t-14.5 -35t-18.5 -33t-23.5 -26.5t-29.5 -22t-36 -12.5t-44.5 -5q-44 0 -85.5 18.5t-72 45t-57.5 53t-53.5 45t-49.5 18.5q-12 0 -22.5 -3t-18.5 -10.5t-14.5 -14.5t-12 -20.5t-9 -22.5t-7.5 -26.5t-6 -26.5 t-6 -28.5t-5 -27.5zM482 562h483l-241 693z" />
<glyph unicode="&#xc4;" horiz-adv-x="1383" d="M130 0l505 1421h193l505 -1421h-172l-144 413h-586l-144 -413h-157zM416 1712v185h185v-185h-185zM482 562h483l-241 693zM864 1712v185h185v-185h-185z" />
<glyph unicode="&#xc5;" horiz-adv-x="1383" d="M130 0l492 1385q-68 31 -110 94t-42 139q0 106 77.5 180.5t185.5 74.5t186.5 -74.5t78.5 -180.5q0 -77 -43.5 -140.5t-113.5 -94.5l492 -1383h-172l-144 413h-586l-144 -413h-157zM482 562h483l-241 693zM578 1618q0 -61 44.5 -107t112.5 -46q65 0 108.5 46t43.5 107 t-43.5 106t-108.5 45q-67 0 -112 -44.5t-45 -106.5z" />
<glyph unicode="&#xc6;" horiz-adv-x="1915" d="M130 0l555 1421h1070v-150h-618v-464h563v-150h-563v-507h618v-150h-788v414h-515l-160 -414h-162zM510 562h457v709h-183z" />
<glyph unicode="&#xc7;" horiz-adv-x="1451" d="M275 709q0 205 85.5 368t248.5 258.5t377 95.5q194 0 386 -76l-52 -141q-194 67 -339 67q-120 0 -222.5 -47.5t-170 -127t-105.5 -182t-38 -214.5q0 -116 40.5 -220.5t113.5 -183t181.5 -124.5t237.5 -46q154 0 321 60l52 -126q-209 -90 -416 -90h-28l-29 -115l11 -3 q11 -3 20 -6t24.5 -8.5t28 -13t28 -17.5t26.5 -23t21 -29t15.5 -37t5.5 -44q0 -76 -59 -133t-153 -57q-37 0 -75 8t-163 45l30 104q164 -50 215 -50q43 0 67.5 21t24.5 50q0 41 -36 60.5t-139 49.5q-39 11 -60 17l55 199q-246 54 -388 249.5t-142 461.5z" />
<glyph unicode="&#xc8;" horiz-adv-x="1283" d="M290 0v1421h833v-150h-663v-464h608v-150h-608v-507h663v-150h-833zM408 1806l71 123l504 -310l-63 -108z" />
<glyph unicode="&#xc9;" horiz-adv-x="1283" d="M290 0v1421h833v-150h-663v-464h608v-150h-608v-507h663v-150h-833zM448 1619l504 310l70 -123l-512 -295z" />
<glyph unicode="&#xca;" horiz-adv-x="1283" d="M290 0v1421h833v-150h-663v-464h608v-150h-608v-507h663v-150h-833zM438 1637l282 295l256 -286l-94 -88l-175 196l-181 -195z" />
<glyph unicode="&#xcb;" horiz-adv-x="1283" d="M290 0v1421h833v-150h-663v-464h608v-150h-608v-507h663v-150h-833zM390 1713v185h185v-185h-185zM838 1713v185h185v-185h-185z" />
<glyph unicode="&#xcc;" horiz-adv-x="730" d="M136 1804l71 123l504 -310l-63 -106zM320 0v1421h170v-1421h-170z" />
<glyph unicode="&#xcd;" horiz-adv-x="730" d="M51 1620l504 310l70 -123l-512 -296zM320 0v1421h170v-1421h-170z" />
<glyph unicode="&#xce;" horiz-adv-x="730" d="M110 1629l282 295l256 -286l-94 -88l-175 196l-181 -195zM320 0v1421h170v-1421h-170z" />
<glyph unicode="&#xcf;" horiz-adv-x="670" d="M88 1639v185h185v-185h-185zM290 0v1421h170v-1421h-170zM477 1639v185h185v-185h-185z" />
<glyph unicode="&#xd0;" horiz-adv-x="1605" d="M117 658v150h218v613h435q37 0 71 -1.5t90 -9t104 -20t107 -37t106.5 -57.5t94 -84.5t78 -115t51 -151.5t19.5 -191q0 -117 -19.5 -215.5t-51.5 -170.5t-80 -130t-97 -95.5t-111.5 -65.5t-114.5 -42t-115.5 -22.5t-105 -10.5t-90.5 -2h-371v658h-218zM505 150h207 q45 0 82.5 2t87.5 9t91 18.5t87.5 33t82.5 50.5t70.5 72.5t57 97.5t36 127.5t13.5 159.5q0 77 -14 148.5t-52 146.5t-96.5 130.5t-155.5 90.5t-221 35h-276v-463h256v-150h-256v-508z" />
<glyph unicode="&#xd1;" horiz-adv-x="1659" d="M290 0v1421h215l774 -1189v1189h170v-1421h-215l-774 1191v-1191h-170zM532 1589q2 11 7 37t7.5 39.5t8.5 38t11.5 38.5t14.5 35t18.5 33t23.5 26.5t29.5 22t36 12.5t44.5 5q44 0 85.5 -18.5t72 -45t57.5 -53t53.5 -45t49.5 -18.5q12 0 22.5 3t18.5 10.5t14.5 15t12 21 t9.5 22.5t7.5 26.5t5.5 27t5.5 29t5.5 27.5l108 -17q-2 -8 -8 -40.5t-9 -44.5t-10 -42t-14 -43t-18 -36t-24 -34t-30.5 -24t-40 -18t-48.5 -5q-44 0 -85.5 18.5t-72 45t-57.5 53t-53.5 45t-49.5 18.5q-14 0 -25.5 -5t-19.5 -11.5t-15.5 -20t-11.5 -23.5t-9 -29t-7 -29.5 t-6 -33t-6 -30.5z" />
<glyph unicode="&#xd2;" horiz-adv-x="1686" d="M215 707q0 165 51 302t140 230.5t212 145t266 51.5q141 0 263.5 -49.5t212 -139.5t140.5 -224.5t51 -295.5q0 -218 -86.5 -387.5t-240 -262t-347.5 -92.5q-128 0 -245 45.5t-211 132.5t-150 227.5t-56 316.5zM390 728q0 -133 39 -245.5t106 -188.5t158.5 -118t196.5 -42 q71 0 139.5 21t131.5 66.5t110.5 111.5t76 163t28.5 213q0 118 -30 215.5t-79.5 163.5t-115 112t-136 66.5t-143.5 20.5q-70 0 -137.5 -20.5t-130.5 -65t-110 -108.5t-75.5 -158t-28.5 -207zM666 1809l71 123l504 -310l-63 -108z" />
<glyph unicode="&#xd3;" horiz-adv-x="1686" d="M215 707q0 165 51 302t140 230.5t212 145t266 51.5q141 0 263.5 -49.5t212 -139.5t140.5 -224.5t51 -295.5q0 -218 -86.5 -387.5t-240 -262t-347.5 -92.5q-128 0 -245 45.5t-211 132.5t-150 227.5t-56 316.5zM390 728q0 -133 39 -245.5t106 -188.5t158.5 -118t196.5 -42 q71 0 139.5 21t131.5 66.5t110.5 111.5t76 163t28.5 213q0 118 -30 215.5t-79.5 163.5t-115 112t-136 66.5t-143.5 20.5q-70 0 -137.5 -20.5t-130.5 -65t-110 -108.5t-75.5 -158t-28.5 -207zM603 1620l504 310l70 -123l-512 -296z" />
<glyph unicode="&#xd4;" horiz-adv-x="1686" d="M215 707q0 165 51 302t140 230.5t212 145t266 51.5q141 0 263.5 -49.5t212 -139.5t140.5 -224.5t51 -295.5q0 -218 -86.5 -387.5t-240 -262t-347.5 -92.5q-128 0 -245 45.5t-211 132.5t-150 227.5t-56 316.5zM390 728q0 -133 39 -245.5t106 -188.5t158.5 -118t196.5 -42 q71 0 139.5 21t131.5 66.5t110.5 111.5t76 163t28.5 213q0 118 -30 215.5t-79.5 163.5t-115 112t-136 66.5t-143.5 20.5q-70 0 -137.5 -20.5t-130.5 -65t-110 -108.5t-75.5 -158t-28.5 -207zM630 1629l282 295l256 -286l-93 -88l-176 196l-181 -195z" />
<glyph unicode="&#xd5;" horiz-adv-x="1686" d="M215 707q0 165 51 302t140 230.5t212 145t266 51.5q141 0 263.5 -49.5t212 -139.5t140.5 -224.5t51 -295.5q0 -218 -86.5 -387.5t-240 -262t-347.5 -92.5q-128 0 -245 45.5t-211 132.5t-150 227.5t-56 316.5zM390 728q0 -133 39 -245.5t106 -188.5t158.5 -118t196.5 -42 q71 0 139.5 21t131.5 66.5t110.5 111.5t76 163t28.5 213q0 117 -29.5 214.5t-78.5 164t-115 112t-136.5 66.5t-144.5 21q-70 0 -137.5 -20.5t-130.5 -65t-110 -108.5t-75.5 -158t-28.5 -207zM549 1589q2 8 8 40.5t9 44.5t10 42t14 43t18 36t24 34t30.5 24t40 18t48.5 5 q44 0 85.5 -18.5t72 -45t57.5 -53t53.5 -45t49.5 -18.5q14 0 25.5 5t19.5 11.5t15.5 20t11.5 23.5t9 29t7 29.5t6 33t6 30.5l108 -17q-2 -8 -8 -40.5t-9 -44.5t-10 -42t-14 -43t-18 -36t-24 -34t-30.5 -24t-40 -18t-48.5 -5q-44 0 -85.5 18.5t-72 45t-57.5 53t-53.5 45 t-49.5 18.5q-14 0 -25.5 -5t-19.5 -11.5t-15.5 -20t-11.5 -23.5t-9 -29t-7 -29.5t-6 -33t-6 -30.5z" />
<glyph unicode="&#xd6;" horiz-adv-x="1686" d="M215 707q0 165 51 302t140 230.5t212 145t266 51.5q141 0 263.5 -49.5t212 -139.5t140.5 -224.5t51 -295.5q0 -218 -86.5 -387.5t-240 -262t-347.5 -92.5q-128 0 -245 45.5t-211 132.5t-150 227.5t-56 316.5zM390 728q0 -133 39 -245.5t106 -188.5t158.5 -118t196.5 -42 q71 0 139.5 21t131.5 66.5t110.5 111.5t76 163t28.5 213q0 118 -30 215.5t-79.5 163.5t-115 112t-136 66.5t-143.5 20.5q-70 0 -137.5 -20.5t-130.5 -65t-110 -108.5t-75.5 -158t-28.5 -207zM576 1713v185h185v-185h-185zM1025 1713v185h185v-185h-185z" />
<glyph unicode="&#xd7;" horiz-adv-x="1299" d="M182 299l355 355l-347 346l105 105l361 -361l354 355l105 -106l-353 -354l346 -347l-105 -105l-361 361l-354 -354z" />
<glyph unicode="&#xd8;" horiz-adv-x="1756" d="M154 70l191 182q-130 187 -130 455q0 165 51 302t140 230.5t212 145t266 51.5q137 0 265.5 -50.5t222.5 -152.5l184 176l63 -65l-191 -182q123 -182 123 -435q0 -218 -86.5 -387.5t-240 -262t-347.5 -92.5q-82 0 -160 19t-126.5 41.5t-96 57.5t-61.5 48t-31 31l-187 -177 zM390 728q0 -201 86 -351l771 737q-70 84 -167.5 128.5t-204.5 44.5q-91 0 -175 -34t-154.5 -99.5t-113 -176t-42.5 -249.5zM528 302q69 -82 163.5 -125t198.5 -43q71 0 139.5 21t131.5 66.5t110.5 111.5t76 163t28.5 213q0 190 -77 329z" />
<glyph unicode="&#xd9;" horiz-adv-x="1580" d="M290 483v938h170v-921q0 -32 1.5 -58.5t10 -67t22.5 -72t42 -66t66 -57t96.5 -37.5t131.5 -15q86 0 152 20t106.5 53.5t66 82.5t35.5 101.5t10 115.5v921h170v-938q0 -35 -1 -59.5t-6 -67.5t-14.5 -74.5t-29 -73t-46.5 -71.5t-69 -61.5t-94.5 -51t-126 -32t-160.5 -12.5 q-109 0 -195.5 21t-141.5 51.5t-94.5 79t-58.5 89t-29.5 98t-12 88t-1.5 76.5zM553 1804l71 123l504 -310l-63 -106z" />
<glyph unicode="&#xda;" horiz-adv-x="1580" d="M290 483v938h170v-921q0 -32 1.5 -58.5t10 -67t22.5 -72t42 -66t66 -57t96.5 -37.5t131.5 -15q86 0 152 20t106.5 53.5t66 82.5t35.5 101.5t10 115.5v921h170v-938q0 -35 -1 -59.5t-6 -67.5t-14.5 -74.5t-29 -73t-46.5 -71.5t-69 -61.5t-94.5 -51t-126 -32t-160.5 -12.5 q-109 0 -195.5 21t-141.5 51.5t-94.5 79t-58.5 89t-29.5 98t-12 88t-1.5 76.5zM560 1620l504 310l70 -123l-512 -296z" />
<glyph unicode="&#xdb;" horiz-adv-x="1580" d="M290 483v938h170v-921q0 -32 1.5 -58.5t10 -67t22.5 -72t42 -66t66 -57t96.5 -37.5t131.5 -15q86 0 152 20t106.5 53.5t66 82.5t35.5 101.5t10 115.5v921h170v-938q0 -35 -1 -59.5t-6 -67.5t-14.5 -74.5t-29 -73t-46.5 -71.5t-69 -61.5t-94.5 -51t-126 -32t-160.5 -12.5 q-109 0 -195.5 21t-141.5 51.5t-94.5 79t-58.5 89t-29.5 98t-12 88t-1.5 76.5zM562 1629l282 295l256 -286l-94 -88l-175 196l-181 -195z" />
<glyph unicode="&#xdc;" horiz-adv-x="1580" d="M290 483v938h170v-921q0 -32 1.5 -58.5t10 -67t22.5 -72t42 -66t66 -57t96.5 -37.5t131.5 -15q86 0 152 20t106.5 53.5t66 82.5t35.5 101.5t10 115.5v921h170v-938q0 -35 -1 -59.5t-6 -67.5t-14.5 -74.5t-29 -73t-46.5 -71.5t-69 -61.5t-94.5 -51t-126 -32t-160.5 -12.5 q-109 0 -195.5 21t-141.5 51.5t-94.5 79t-58.5 89t-29.5 98t-12 88t-1.5 76.5zM513 1713v185h185v-185h-185zM962 1713v185h185v-185h-185z" />
<glyph unicode="&#xdd;" horiz-adv-x="1263" d="M100 1421h201l362 -587l370 587h190l-484 -748v-673h-170v673zM367 1620l504 310l70 -123l-512 -296z" />
<glyph unicode="&#xde;" horiz-adv-x="1326" d="M290 0v1421h170v-274q130 13 269 13q89 0 161 -10t138 -35.5t110.5 -66t71 -106t26.5 -151.5q0 -49 -7.5 -97t-27.5 -101.5t-51 -97.5t-82 -81t-116 -56q-110 -32 -328 -32q-82 0 -164 6v-332h-170zM460 483q110 -9 195 -9h28q39 0 66 1t70 7t73 16t65 31t56 49.5 t35.5 73t14.5 100.5q0 49 -13 88.5t-33.5 65.5t-52.5 45.5t-63.5 30t-72.5 17t-73.5 8t-72.5 1.5q-116 0 -222 -10v-515z" />
<glyph unicode="&#xdf;" horiz-adv-x="1258" d="M200 0v1023q0 86 24 156t62.5 116t90.5 77t106.5 44.5t110.5 13.5q67 0 125 -20.5t97.5 -54.5t68 -77t42 -88t13.5 -89q0 -65 -27 -117t-65 -85t-76 -61t-65 -59.5t-27 -66.5q0 -38 25.5 -65t65.5 -44t89 -33.5t98 -39t89 -54t65.5 -86.5t25.5 -129q0 -34 -7.5 -68.5 t-30.5 -75t-58 -71.5t-96 -51.5t-139 -20.5q-146 0 -305 47l31 116q157 -31 240 -31q92 0 142 35t50 117q0 44 -19.5 76.5t-50.5 51.5t-71.5 36.5t-82.5 30.5t-82.5 34.5t-71.5 47t-50.5 69.5t-19.5 101q0 52 19.5 94.5t48.5 69.5t63.5 54.5t63.5 49t48.5 52.5t19.5 66 q0 81 -63.5 136.5t-140.5 55.5q-19 0 -41 -4t-54 -20.5t-56.5 -43t-42.5 -76.5t-18 -117v-1022h-164z" />
<glyph unicode="&#xe0;" horiz-adv-x="1069" d="M123 262q0 72 32.5 126t86 86.5t133.5 52t162.5 26.5t186.5 7v79q0 34 -2.5 59t-16.5 60t-38 57.5t-72 39t-114 16.5q-102 0 -264 -45l-31 120q161 60 321 60q111 0 187.5 -26t118 -75.5t59 -109.5t17.5 -139v-656h-116l-38 90q-121 -110 -278 -110q-140 0 -237 84.5 t-97 197.5zM287 270q0 -63 63 -112t151 -49q129 0 223 101v227h-61q-46 0 -81.5 -1.5t-83 -6.5t-81.5 -16.5t-65.5 -29t-48 -46.5t-16.5 -67zM353 1430l92 109l364 -324l-80 -100z" />
<glyph unicode="&#xe1;" horiz-adv-x="1069" d="M123 262q0 72 32.5 126t86 86.5t133.5 52t162.5 26.5t186.5 7v79q0 34 -2.5 59t-16.5 60t-38 57.5t-72 39t-114 16.5q-102 0 -264 -45l-31 120q161 60 321 60q111 0 187.5 -26t118 -75.5t59 -109.5t17.5 -139v-656h-116l-38 90q-121 -110 -278 -110q-140 0 -237 84.5 t-97 197.5zM287 270q0 -63 63 -112t151 -49q129 0 223 101v227h-61q-46 0 -81.5 -1.5t-83 -6.5t-81.5 -16.5t-65.5 -29t-48 -46.5t-16.5 -67zM312 1225l364 324l92 -109l-376 -315z" />
<glyph unicode="&#xe2;" horiz-adv-x="1069" d="M123 262q0 72 32.5 126t86 86.5t133.5 52t162.5 26.5t186.5 7v79q0 34 -2.5 59t-16.5 60t-38 57.5t-72 39t-114 16.5q-102 0 -264 -45l-31 120q161 60 321 60q111 0 187.5 -26t118 -75.5t59 -109.5t17.5 -139v-656h-116l-38 90q-121 -110 -278 -110q-140 0 -237 84.5 t-97 197.5zM262 1195l282 295l256 -286l-93 -88l-175 196l-182 -195zM287 270q0 -63 63 -112t151 -49q129 0 223 101v227h-61q-46 0 -81.5 -1.5t-83 -6.5t-81.5 -16.5t-65.5 -29t-48 -46.5t-16.5 -67z" />
<glyph unicode="&#xe3;" horiz-adv-x="1069" d="M123 262q0 72 32.5 126t86 86.5t133.5 52t162.5 26.5t186.5 7v79q0 34 -2.5 59t-16.5 60t-38 57.5t-72 39t-114 16.5q-102 0 -264 -45l-31 120q161 60 321 60q111 0 187.5 -26t118 -75.5t59 -109.5t17.5 -139v-656h-116l-38 90q-121 -110 -278 -110q-140 0 -237 84.5 t-97 197.5zM182 1155l17 85q4 21 5 26t9 32.5t15 40.5t22.5 36.5t32.5 35t43.5 21.5t57.5 10q44 0 85.5 -18.5t72 -45t57.5 -53t53.5 -45t49.5 -18.5q13 0 24.5 5t19.5 11.5t15 18t11.5 20.5t8.5 23t5.5 20.5t3.5 19.5l2 12l10 52l108 -17l-17 -85q-20 -96 -55 -141 q-48 -61 -130 -61q-44 0 -85.5 18.5t-72 45t-57.5 53t-53.5 45t-49.5 18.5q-13 0 -24.5 -5t-19.5 -11.5t-15 -18t-11.5 -20.5t-8.5 -23t-5.5 -20.5t-3.5 -19.5l-2 -12l-10 -50zM287 270q0 -63 63 -112t151 -49q129 0 223 101v227h-61q-46 0 -81.5 -1.5t-83 -6.5t-81.5 -16.5 t-65.5 -29t-48 -46.5t-16.5 -67z" />
<glyph unicode="&#xe4;" horiz-adv-x="1069" d="M123 262q0 72 32.5 126t86 86.5t133.5 52t162.5 26.5t186.5 7v79q0 34 -2.5 59t-16.5 60t-38 57.5t-72 39t-114 16.5q-102 0 -264 -45l-31 120q161 60 321 60q111 0 187.5 -26t118 -75.5t59 -109.5t17.5 -139v-656h-116l-38 90q-121 -110 -278 -110q-140 0 -237 84.5 t-97 197.5zM259 1235v186h185v-186h-185zM287 270q0 -63 63 -112t151 -49q129 0 223 101v227h-61q-46 0 -81.5 -1.5t-83 -6.5t-81.5 -16.5t-65.5 -29t-48 -46.5t-16.5 -67zM708 1235v186h185v-186h-185z" />
<glyph unicode="&#xe5;" horiz-adv-x="1069" d="M123 262q0 72 32.5 126t86 86.5t133.5 52t162.5 26.5t186.5 7v79q0 34 -2.5 59t-16.5 60t-38 57.5t-72 39t-114 16.5q-102 0 -264 -45l-31 120q161 60 321 60q111 0 187.5 -26t118 -75.5t59 -109.5t17.5 -139v-656h-116l-38 90q-121 -110 -278 -110q-140 0 -237 84.5 t-97 197.5zM287 270q0 -63 63 -112t151 -49q129 0 223 101v227h-61q-46 0 -81.5 -1.5t-83 -6.5t-81.5 -16.5t-65.5 -29t-48 -46.5t-16.5 -67zM331 1349q0 93 64.5 158.5t154.5 65.5t155 -65.5t65 -158.5t-64.5 -159t-154.5 -66t-155 65.5t-65 159.5zM421 1349 q0 -54 36.5 -94t93.5 -40q54 0 90.5 40.5t36.5 93.5t-36.5 93t-90.5 40q-55 0 -92.5 -39.5t-37.5 -93.5z" />
<glyph unicode="&#xe6;" horiz-adv-x="1674" d="M123 266q0 112 92 190.5t268 96.5q88 9 241 9v51q0 48 -11 90t-37 81.5t-76.5 62.5t-120.5 23q-91 0 -252 -44l-41 118q166 62 335 62q118 0 197.5 -46t117.5 -128q65 79 158.5 126.5t196.5 47.5q88 0 153 -34.5t102.5 -88t60 -132t29.5 -152t7 -163.5h-654 q0 -137 104.5 -230.5t259.5 -93.5q84 0 206 36l27 -112q-152 -56 -296 -56q-109 0 -207 37t-162 114q-115 -151 -348 -151q-140 0 -245 82.5t-105 203.5zM286 274q0 -67 67 -115t153 -48q127 0 218 96v229q-133 0 -221.5 -11t-135 -33.5t-64 -50t-17.5 -67.5zM897 560h489 q0 40 -5 77.5t-20 80.5t-38.5 74t-64.5 51.5t-95 20.5q-121 0 -193.5 -89.5t-72.5 -214.5z" />
<glyph unicode="&#xe7;" horiz-adv-x="1001" d="M130 464q0 117 28 210.5t74.5 153t109.5 99t129 56t138 16.5q142 0 277 -59l-40 -120q-111 38 -217 38q-52 0 -98 -9.5t-91.5 -34.5t-78 -64.5t-52.5 -103.5t-20 -147q0 -91 21 -160.5t55 -112.5t81.5 -70t96 -37.5t104.5 -10.5q94 0 188 33l40 -113q-129 -49 -252 -54 l-28 -110q2 -1 16 -5l21 -6t23 -8t25 -11t24 -13.5t24 -17.5t19.5 -22t17 -26.5t10.5 -31.5t4 -38q0 -71 -55 -127t-149 -56q-21 0 -45.5 3.5t-52.5 10.5t-46 12t-48 14t-36 11l26 91q157 -47 206 -47q46 0 73 22.5t27 54.5q0 15 -4 27.5t-16.5 22.5t-23 17t-35 16t-40.5 14 t-52.5 15.5t-57.5 17.5l47 176q-58 9 -108 28.5t-99 57.5t-83.5 90.5t-55.5 131.5t-21 176z" />
<glyph unicode="&#xe8;" horiz-adv-x="1102" d="M130 462q0 111 27 203t73 154.5t107.5 105.5t129 62.5t138.5 19.5q72 0 129.5 -17.5t95.5 -44.5t65.5 -70.5t42 -84t22.5 -97.5t10 -99t2 -99v-78h-679q0 -54 24.5 -107.5t69 -98t117 -72.5t160.5 -28q104 0 225 36l29 -112q-161 -55 -316 -55q-109 0 -193.5 29 t-136 75.5t-84.5 111.5t-45.5 129.5t-12.5 136.5zM297 541h516q0 324 -243 324q-88 0 -151.5 -48.5t-92.5 -120.5t-29 -155zM368 1440l92 109l364 -324l-80 -100z" />
<glyph unicode="&#xe9;" horiz-adv-x="1102" d="M130 462q0 111 27 203t73 154.5t107.5 105.5t129 62.5t138.5 19.5q72 0 129.5 -17.5t95.5 -44.5t65.5 -70.5t42 -84t22.5 -97.5t10 -99t2 -99v-78h-679q0 -54 24.5 -107.5t69 -98t117 -72.5t160.5 -28q104 0 225 36l29 -112q-161 -55 -316 -55q-109 0 -193.5 29 t-136 75.5t-84.5 111.5t-45.5 129.5t-12.5 136.5zM297 541h516q0 324 -243 324q-88 0 -151.5 -48.5t-92.5 -120.5t-29 -155zM412 1225l364 324l92 -109l-376 -315z" />
<glyph unicode="&#xea;" horiz-adv-x="1102" d="M130 462q0 111 27 203t73 154.5t107.5 105.5t129 62.5t138.5 19.5q72 0 129.5 -17.5t95.5 -44.5t65.5 -70.5t42 -84t22.5 -97.5t10 -99t2 -99v-78h-679q0 -54 24.5 -107.5t69 -98t117 -72.5t160.5 -28q104 0 225 36l29 -112q-161 -55 -316 -55q-109 0 -193.5 29 t-136 75.5t-84.5 111.5t-45.5 129.5t-12.5 136.5zM297 541h516q0 324 -243 324q-88 0 -151.5 -48.5t-92.5 -120.5t-29 -155zM349 1195l282 295l256 -286l-93 -88l-176 196l-181 -195z" />
<glyph unicode="&#xeb;" horiz-adv-x="1102" d="M130 462q0 111 27 203t73 154.5t107.5 105.5t129 62.5t138.5 19.5q72 0 129.5 -17.5t95.5 -44.5t65.5 -70.5t42 -84t22.5 -97.5t10 -99t2 -99v-78h-677q0 -54 24 -107.5t68.5 -98t116.5 -72.5t160 -28q104 0 225 36l29 -112q-161 -55 -316 -55q-109 0 -193.5 29 t-136 75.5t-84.5 111.5t-45.5 129.5t-12.5 136.5zM295 541h518q0 324 -243 324q-88 0 -152 -48.5t-93.5 -120.5t-29.5 -155zM295 1235v186h185v-186h-185zM744 1235v186h185v-186h-185z" />
<glyph unicode="&#xec;" horiz-adv-x="524" d="M0 1440l92 109l364 -324l-80 -100zM180 0v988h164v-988h-164z" />
<glyph unicode="&#xed;" horiz-adv-x="524" d="M112 1225l364 324l92 -109l-376 -315zM180 0v988h164v-988h-164z" />
<glyph unicode="&#xee;" horiz-adv-x="530" d="M17 1195l251 295l226 -286l-93 -88l-146 186l-151 -185zM180 0v988h164v-988h-164z" />
<glyph unicode="&#xef;" horiz-adv-x="524" d="M-15 1236v185h185v-185h-185zM180 0v988h164v-988h-164zM354 1236v185h185v-185h-185z" />
<glyph unicode="&#xf0;" horiz-adv-x="1252" d="M130 428q0 140 54 257t155 187.5t229 70.5q145 0 337 -109q-26 192 -157 319l-179 -103l-54 95l142 82q-91 64 -206 103l62 128q166 -45 295 -145l182 105l55 -95l-152 -87q101 -108 140 -240t39 -309q0 -83 -5 -153t-18.5 -144.5t-36 -133t-59.5 -111.5t-86.5 -88.5 t-120 -56t-156.5 -20.5q-204 0 -332 120t-128 328zM289 481q0 -156 92.5 -261.5t223.5 -105.5q32 0 64.5 7.5t71.5 29t70.5 55.5t57 93.5t35.5 136.5t10 193v62q-187 116 -325 116q-129 0 -214.5 -91t-85.5 -235z" />
<glyph unicode="&#xf1;" horiz-adv-x="1177" d="M180 0v988h115l36 -84q191 104 348 104q81 0 141 -25.5t93 -64t53 -97t25.5 -111.5t5.5 -121v-589h-165v600q0 260 -224 260q-116 0 -264 -77v-783h-164zM267 1160l17 85q0 2 1 5q38 196 184 196q44 0 85 -18.5t71.5 -45t57.5 -53t53.5 -45t49.5 -18.5q12 0 22 3.5 t18 10.5t14.5 14.5t11.5 18.5t8.5 19t6.5 20l4.5 18t3.5 16t2 11l10 52l108 -17l-17 -85q-19 -95 -54 -139q-48 -64 -131 -64q-44 0 -85.5 18.5t-72 45t-57.5 53t-53.5 45t-49.5 18.5q-13 0 -24.5 -5t-19.5 -11.5t-15 -18t-11.5 -20t-8.5 -23t-5 -20.5l-3 -18l-3 -13 l-10 -51z" />
<glyph unicode="&#xf2;" horiz-adv-x="1211" d="M130 483q0 239 132.5 381.5t348.5 142.5q205 0 337.5 -131t132.5 -362q0 -245 -135.5 -389.5t-350.5 -144.5q-205 0 -335 135.5t-130 367.5zM290 511q0 -165 90 -278t233 -113q132 0 220 100t88 261q0 92 -28.5 167t-75 122t-103.5 72t-117 25q-123 0 -215 -95t-92 -261z M437 1440l92 109l364 -324l-80 -100z" />
<glyph unicode="&#xf3;" horiz-adv-x="1211" d="M130 483q0 239 132.5 381.5t348.5 142.5q205 0 337.5 -131t132.5 -362q0 -245 -135.5 -389.5t-350.5 -144.5q-205 0 -335 135.5t-130 367.5zM290 511q0 -165 90 -278t233 -113q132 0 220 100t88 261q0 92 -28.5 167t-75 122t-103.5 72t-117 25q-123 0 -215 -95t-92 -261z M342 1225l364 324l92 -109l-376 -315z" />
<glyph unicode="&#xf4;" horiz-adv-x="1211" d="M130 483q0 239 132.5 381.5t348.5 142.5q205 0 337.5 -131t132.5 -362q0 -245 -135.5 -389.5t-350.5 -144.5q-205 0 -335 135.5t-130 367.5zM290 511q0 -165 90 -278t233 -113q132 0 220 100t88 261q0 92 -28.5 167t-75 122t-103.5 72t-117 25q-123 0 -215 -95t-92 -261z M342 1195l282 295l256 -286l-92 -88l-176 196l-182 -195z" />
<glyph unicode="&#xf5;" horiz-adv-x="1211" d="M130 483q0 239 132.5 381.5t348.5 142.5q205 0 337.5 -131t132.5 -362q0 -245 -135.5 -389.5t-350.5 -144.5q-205 0 -335 135.5t-130 367.5zM247 1159q2 8 8 40.5t9 44.5t10 42t14 43t18 36t24 34t30.5 24t40 18t48.5 5q44 0 85.5 -18.5t72 -45t57.5 -53t53.5 -45 t49.5 -18.5q14 0 25.5 5t19.5 11.5t15.5 20t11.5 23.5t9 29t7 29.5t6 33t6 30.5l108 -17q-2 -8 -8 -40.5t-9 -44.5t-10 -42t-14 -43t-18 -36t-24 -34t-30.5 -24t-40 -18t-48.5 -5q-44 0 -85.5 18.5t-72 45t-57.5 53t-53.5 45t-49.5 18.5q-12 0 -22.5 -3t-18.5 -10.5 t-14.5 -14.5t-12 -20t-9 -22.5t-7 -26.5t-5.5 -27t-5.5 -28.5t-5.5 -27.5zM290 511q0 -165 90 -278t233 -113q132 0 220 100t88 261q0 92 -28.5 167t-75 122t-103.5 72t-117 25q-123 0 -215 -95t-92 -261z" />
<glyph unicode="&#xf6;" horiz-adv-x="1211" d="M130 483q0 239 132.5 381.5t348.5 142.5q205 0 337.5 -131t132.5 -362q0 -245 -135.5 -389.5t-350.5 -144.5q-205 0 -335 135.5t-130 367.5zM290 511q0 -165 90 -278t233 -113q132 0 220 100t88 261q0 92 -28.5 167t-75 122t-103.5 72t-117 25q-123 0 -215 -95t-92 -261z M319 1235v186h185v-186h-185zM768 1235v186h185v-186h-185z" />
<glyph unicode="&#xf7;" horiz-adv-x="1400" d="M125 588v139h1150v-139h-1150zM602 83v195h195v-195h-195zM602 1038v195h195v-195h-195z" />
<glyph unicode="&#xf8;" horiz-adv-x="1211" d="M110 41l114 117q-94 130 -94 325q0 239 132.5 381.5t348.5 142.5q197 0 325 -119l105 107l58 -56l-109 -112q91 -126 91 -313q0 -245 -135.5 -389.5t-350.5 -144.5q-192 0 -317 117l-110 -112zM290 511q0 -128 56 -228l473 485q-93 99 -222 99q-123 0 -215 -95t-92 -261z M394 217q89 -97 219 -97q132 0 220 100t88 261q0 128 -53 221z" />
<glyph unicode="&#xf9;" horiz-adv-x="1177" d="M180 398v590h164v-602q0 -259 225 -259q116 0 264 77v784h164v-988h-115l-35 83q-189 -103 -349 -103q-81 0 -141 25.5t-93 63.5t-53 96.5t-25.5 111.5t-5.5 121zM385 1440l92 109l364 -324l-80 -100z" />
<glyph unicode="&#xfa;" horiz-adv-x="1177" d="M180 398v590h164v-602q0 -259 225 -259q116 0 264 77v784h164v-988h-115l-35 83q-189 -103 -349 -103q-81 0 -141 25.5t-93 63.5t-53 96.5t-25.5 111.5t-5.5 121zM402 1225l364 324l92 -109l-376 -315z" />
<glyph unicode="&#xfb;" horiz-adv-x="1177" d="M180 398v590h164v-602q0 -259 225 -259q116 0 264 77v784h164v-988h-115l-35 83q-189 -103 -349 -103q-81 0 -141 25.5t-93 63.5t-53 96.5t-25.5 111.5t-5.5 121zM329 1195l282 295l256 -286l-93 -88l-176 196l-181 -195z" />
<glyph unicode="&#xfc;" horiz-adv-x="1177" d="M180 398v590h164v-602q0 -259 225 -259q116 0 264 77v784h164v-988h-115l-35 83q-189 -103 -349 -103q-81 0 -141 25.5t-93 63.5t-53 96.5t-25.5 111.5t-5.5 121zM276 1235v186h185v-186h-185zM724 1235v186h185v-186h-185z" />
<glyph unicode="&#xfd;" horiz-adv-x="1050" d="M50 988h170l316 -838l294 838h170l-570 -1519h-175l203 493zM402 1225l364 324l92 -109l-376 -315z" />
<glyph unicode="&#xfe;" horiz-adv-x="1221" d="M190 -531v1952h164v-536q105 118 285 118q92 0 174 -34t144 -95.5t98 -155.5t36 -208q0 -231 -131.5 -382t-329.5 -151q-161 0 -276 107v-615h-164zM345 467q0 -350 270 -350q40 0 81.5 11t84 38.5t75.5 67.5t54 104t21 143q0 91 -28 165t-74.5 120t-102.5 71t-115 25 q-67 0 -116.5 -25t-77.5 -62.5t-45 -92.5t-22 -105t-5 -110z" />
<glyph unicode="&#xff;" horiz-adv-x="1050" d="M50 988h170l316 -838l294 838h170l-570 -1519h-175l203 493zM221 1235v186h185v-186h-185zM670 1235v186h185v-186h-185z" />
<glyph unicode="&#x152;" horiz-adv-x="1998" d="M215 703q0 337 176 521q52 54 118.5 92.5t127.5 58.5t143 30.5t139.5 13t142.5 2.5h776v-150h-618v-464h563v-150h-563v-507h618v-150h-865q-122 0 -216 11.5t-178 46.5q-170 72 -267 234t-97 411zM385 701q0 -107 25.5 -195.5t69.5 -147.5t89 -96.5t96 -62.5 q62 -31 120 -40t139 -9h126v1121h-57q-126 0 -188 -10q-199 -31 -309.5 -179.5t-110.5 -380.5z" />
<glyph unicode="&#x153;" horiz-adv-x="1803" d="M130 486q0 237 127 376.5t337 139.5q125 0 218.5 -51.5t147.5 -145.5q39 60 91 101.5t104.5 59.5t90.5 24.5t75 6.5q69 0 124.5 -18t91.5 -45t62.5 -71t40.5 -85t21.5 -98.5t9.5 -99t2 -97.5v-76h-651q0 -51 22 -102.5t64.5 -96t113 -72.5t158.5 -28q89 0 209 36l27 -112 q-147 -55 -300 -55q-265 0 -379 183q-60 -87 -152.5 -133.5t-208.5 -46.5q-202 0 -324 137t-122 369zM290 502q0 -162 85 -273t219 -111q118 0 197.5 94t79.5 262q0 99 -26 176t-69 121.5t-93.5 67.5t-105.5 23q-128 0 -207.5 -102t-79.5 -258zM1026 531h490q0 324 -229 324 q-83 0 -143.5 -48t-89 -120t-28.5 -156z" />
<glyph unicode="&#x178;" horiz-adv-x="1263" d="M100 1421h201l362 -587l370 587h190l-484 -748v-673h-170v673zM343 1713v185h185v-185h-185zM793 1713v185h185v-185h-185z" />
<glyph unicode="&#x2c6;" horiz-adv-x="1479" d="M443 1246l282 295l256 -286l-93 -88l-176 196l-181 -195z" />
<glyph unicode="&#x2dc;" horiz-adv-x="1400" d="M306 1284q2 4 19.5 40.5t22.5 46t23 41t28 43t30.5 33.5t38 30.5t42 16.5t50.5 8q44 0 84.5 -18.5t70.5 -45.5t57.5 -54t55 -45.5t52.5 -18.5q15 0 28 4.5t24.5 15.5t20 20.5t20 29.5t18 32.5t19 39t19.5 40.5l105 -47q-4 -8 -15.5 -32.5t-17 -35.5t-18 -34t-20.5 -35 t-21.5 -31t-25 -29.5t-28 -23.5t-32 -20t-35.5 -11.5t-41 -4.5q-44 0 -84.5 18.5t-70.5 45.5t-57.5 54t-55 45.5t-52.5 18.5q-15 0 -28 -4.5t-24.5 -15.5t-20 -21t-19.5 -30t-18 -33t-19.5 -39.5t-19.5 -40.5z" />
<glyph unicode="&#x2000;" horiz-adv-x="966" />
<glyph unicode="&#x2001;" horiz-adv-x="1932" />
<glyph unicode="&#x2002;" horiz-adv-x="966" />
<glyph unicode="&#x2003;" horiz-adv-x="1932" />
<glyph unicode="&#x2004;" horiz-adv-x="644" />
<glyph unicode="&#x2005;" horiz-adv-x="483" />
<glyph unicode="&#x2006;" horiz-adv-x="322" />
<glyph unicode="&#x2007;" horiz-adv-x="322" />
<glyph unicode="&#x2008;" horiz-adv-x="241" />
<glyph unicode="&#x2009;" horiz-adv-x="386" />
<glyph unicode="&#x200a;" horiz-adv-x="107" />
<glyph unicode="&#x2010;" horiz-adv-x="1210" d="M175 589v139h860v-139h-860z" />
<glyph unicode="&#x2011;" horiz-adv-x="1210" d="M175 589v139h860v-139h-860z" />
<glyph unicode="&#x2012;" horiz-adv-x="1210" d="M175 589v139h860v-139h-860z" />
<glyph unicode="&#x2013;" horiz-adv-x="1159" d="M0 589v139h1159v-139h-1159z" />
<glyph unicode="&#x2014;" horiz-adv-x="1384" d="M0 589v139h1384v-139h-1384z" />
<glyph unicode="&#x2018;" horiz-adv-x="450" d="M90 1511h195l125 -433h-195z" />
<glyph unicode="&#x2019;" horiz-adv-x="450" d="M40 1078l125 433h195l-125 -433h-195z" />
<glyph unicode="&#x201a;" horiz-adv-x="450" d="M40 -216l125 433h195l-125 -433h-195z" />
<glyph unicode="&#x201c;" horiz-adv-x="830" d="M40 1078l125 433h195l-125 -433h-195zM420 1078l125 433h195l-125 -433h-195z" />
<glyph unicode="&#x201d;" horiz-adv-x="830" d="M40 1078l125 433h195l-125 -433h-195zM420 1078l125 433h195l-125 -433h-195z" />
<glyph unicode="&#x201e;" horiz-adv-x="830" d="M40 -219l125 433h195l-125 -433h-195zM420 -219l125 433h195l-125 -433h-195z" />
<glyph unicode="&#x2022;" horiz-adv-x="640" d="M190 603v260h260v-260h-260z" />
<glyph unicode="&#x2026;" horiz-adv-x="1720" d="M180 0v210h210v-210h-210zM745 0v210h210v-210h-210zM1310 0v210h210v-210h-210z" />
<glyph unicode="&#x202f;" horiz-adv-x="386" />
<glyph unicode="&#x2039;" horiz-adv-x="565" d="M75 623l254 365h186l-274 -365l274 -365h-185z" />
<glyph unicode="&#x203a;" horiz-adv-x="565" d="M50 258l274 365l-274 365h185l255 -365l-254 -365h-186z" />
<glyph unicode="&#x205f;" horiz-adv-x="483" />
<glyph unicode="&#x20ac;" horiz-adv-x="1335" d="M50 504v130h204q0 12 -1.5 36.5t-1.5 37.5q0 76 10 140h-147v130h176q65 209 223.5 331t376.5 122q172 0 348 -76l-47 -141q-176 67 -304 67q-146 0 -258.5 -82.5t-171.5 -220.5h451v-130h-491q-13 -65 -13 -140q0 -42 4 -74h436v-130h-408q52 -163 178 -265.5 t304 -102.5q138 0 290 60l47 -126q-186 -90 -375 -90q-231 0 -393.5 143.5t-214.5 380.5h-222z" />
<glyph unicode="&#x2122;" horiz-adv-x="1424" d="M110 1431v80h448v-80h-175v-488h-98v488h-175zM690 943v568h116l172 -317l166 317h120v-568h-98v446l-160 -294h-68l-150 298v-450h-98z" />
<glyph unicode="&#x25fc;" horiz-adv-x="990" d="M0 0v990h990v-990h-990z" />
<glyph unicode="&#xfb01;" horiz-adv-x="1344" d="M135 859v129h143v100q0 130 39 198q39 69 115 106t176 37q107 0 237 -39l-25 -122q-93 24 -158 24q-59 0 -102 -16.5t-64.5 -38t-34 -52t-15 -50t-2.5 -40.5v-107h331v-129h-331v-859h-166v859h-143zM985 1232v189h194v-189h-194zM1000 0v988h164v-988h-164z" />
<glyph unicode="&#xfb02;" horiz-adv-x="1384" d="M135 859v129h143v100q0 130 39 198q39 69 115 106t176 37q107 0 237 -39l-25 -122q-93 24 -158 24q-59 0 -102 -16.5t-64.5 -38t-34 -52t-15 -50t-2.5 -40.5v-107h331v-129h-331v-859h-166v859h-143zM1020 0v1511h164v-1511h-164z" />
<glyph unicode="&#xfb03;" horiz-adv-x="2164" d="M135 859v129h143v100q0 130 39 198q39 69 115 106t176 37q107 0 237 -39l-25 -122q-93 24 -158 24q-59 0 -102 -16.5t-64.5 -38t-34 -52t-15 -50t-2.5 -40.5v-107h331v-129h-331v-859h-166v859h-143zM955 859v129h143v100q0 130 39 198q39 69 115 106t176 37 q107 0 237 -39l-25 -122q-93 24 -158 24q-59 0 -102 -16.5t-64.5 -38t-34 -52t-15 -50t-2.5 -40.5v-107h331v-129h-331v-859h-166v859h-143zM1805 1232v189h194v-189h-194zM1820 0v988h164v-988h-164z" />
<glyph unicode="&#xfb04;" horiz-adv-x="2204" d="M135 859v129h143v100q0 130 39 198q39 69 115 106t176 37q107 0 237 -39l-25 -122q-93 24 -158 24q-59 0 -102 -16.5t-64.5 -38t-34 -52t-15 -50t-2.5 -40.5v-107h331v-129h-331v-859h-166v859h-143zM955 859v129h143v100q0 130 39 198q39 69 115 106t176 37 q107 0 237 -39l-25 -122q-93 24 -158 24q-59 0 -102 -16.5t-64.5 -38t-34 -52t-15 -50t-2.5 -40.5v-107h331v-129h-331v-859h-166v859h-143zM1840 0v1511h164v-1511h-164z" />
</font>
</defs>
</svg>
