<?xml version="1.0" standalone="no"?>
<!DOCTYPE svg PUBLIC "-//W3C//DTD SVG 1.1//EN" "http://www.w3.org/Graphics/SVG/1.1/DTD/svg11.dtd" >
<svg>
<metadata>
Created by FontForge 20110222 at Thu Oct  8 13:28:55 2015
 By www-data
Copyright (c) 2004 Linotype Library GmbH, www.linotype.com. All rights reserved. This software may not be reproduced, used, displayed, modified, disclosed or transferred without the express written approval of Linotype Library GmbH. Avenir is a trademark of Heidelberger Druckmaschinen AG, exclusively licensed through Linotype Library GmbH, and may be registered in certain jurisdictions. This typeface is original artwork of Adrian Frutiger. The design may be protected in certain jurisdictions.
</metadata>
<defs>
<font id="AvenirNextLTPro-Regular" horiz-adv-x="240" >
  <font-face 
    font-family="Avenir Next LT Pro"
    font-weight="400"
    font-stretch="normal"
    units-per-em="1000"
    panose-1="2 11 5 4 2 2 2 2 2 4"
    ascent="756"
    descent="-244"
    x-height="468"
    cap-height="708"
    bbox="-205 -250 975 945"
    underline-thickness="50"
    underline-position="-50"
    stemh="54"
    stemv="72"
    unicode-range="U+000D-FB02"
  />
<missing-glyph horiz-adv-x="512" 
d="M222 117h56v67h-56v-67zM225 234h46c0 35 2 59 6 72s18 30 43 52c51 47 63 77 63 120c0 79 -53 131 -124 131c-72 0 -126 -42 -135 -137l50 -8c8 68 41 95 82 95s76 -37 76 -85c0 -25 -7 -42 -50 -83c-22 -22 -37 -42 -46 -59s-13 -44 -13 -81zM462 50h-412v617h412v-617
zM512 718h-512v-718h512v718z" />
    <glyph glyph-name="fi" unicode="fi" horiz-adv-x="544" 
d="M452 468v-468h-68v468h68zM467 648c0 -28 -24 -48 -48 -48s-48 20 -48 48s24 48 48 48s48 -20 48 -48zM288 468v-57h-110v-411h-68v411h-98v57h98v128c0 106 52 172 159 172c17 0 39 -2 56 -7l-12 -60c-14 4 -29 7 -47 7c-73 0 -88 -52 -88 -120v-120h110z" />
    <glyph glyph-name="fl" unicode="fl" horiz-adv-x="544" 
d="M452 756v-756h-68v756h68zM288 468v-57h-110v-411h-68v411h-98v57h98v128c0 106 52 172 159 172c17 0 39 -2 56 -7l-12 -60c-14 4 -29 7 -47 7c-73 0 -88 -52 -88 -120v-120h110z" />
    <glyph glyph-name="napostrophe" unicode="&#x22;n" horiz-adv-x="581" 
d="M86 468h65c2 -25 4 -60 4 -80h2c26 54 94 92 160 92c119 0 178 -77 178 -193v-287h-68v259c0 98 -29 164 -127 164c-72 0 -142 -58 -142 -183v-240h-68v365c0 25 -1 71 -4 103zM106 756l-76 -185h-57l62 185h71z" />
    <glyph glyph-name="ij" unicode="ij" horiz-adv-x="498" 
d="M159 468v-468h-68v468h68zM173 648c0 -28 -24 -48 -48 -48s-48 20 -48 48s24 48 48 48s48 -20 48 -48zM220 -233l10 57c13 -4 30 -6 43 -6c57 0 66 41 66 100v550h68v-561c0 -75 -27 -147 -133 -147c-14 0 -37 2 -54 7zM421 648c0 -28 -24 -48 -48 -48s-48 20 -48 48
s24 48 48 48s48 -20 48 -48z" />
    <glyph glyph-name="IJ" unicode="IJ" horiz-adv-x="734" 
d="M166 708v-708h-72v708h72zM267 126l67 18c11 -55 52 -99 115 -99c99 0 125 79 125 164v499h72v-504c0 -92 -34 -222 -189 -222c-102 0 -173 60 -190 144z" />
    <glyph glyph-name=".notdef" horiz-adv-x="512" 
d="M222 117h56v67h-56v-67zM225 234h46c0 35 2 59 6 72s18 30 43 52c51 47 63 77 63 120c0 79 -53 131 -124 131c-72 0 -126 -42 -135 -137l50 -8c8 68 41 95 82 95s76 -37 76 -85c0 -25 -7 -42 -50 -83c-22 -22 -37 -42 -46 -59s-13 -44 -13 -81zM462 50h-412v617h412v-617
zM512 718h-512v-718h512v718z" />
    <glyph glyph-name="exclam" unicode="!" horiz-adv-x="328" 
d="M200 708v-516h-72v516h72zM218 48c0 -28 -22 -54 -54 -54s-54 26 -54 54s22 54 54 54s54 -26 54 -54z" />
    <glyph glyph-name="quotedbl" unicode="&#x22;" horiz-adv-x="405" 
d="M100 473v235h60v-235h-60zM245 473v235h60v-235h-60z" />
    <glyph glyph-name="numbersign" unicode="#" horiz-adv-x="556" 
d="M107 0l30 214h-102v60h110l22 162h-108v60h117l29 212h61l-29 -212h133l29 212h61l-29 -212h90v-60h-99l-22 -162h95v-60h-103l-30 -214h-61l30 214h-133l-30 -214h-61zM228 436l-22 -162h133l22 162h-133z" />
    <glyph glyph-name="dollar" unicode="$" horiz-adv-x="580" 
d="M263 406v258c-69 -2 -124 -53 -124 -128c0 -72 50 -110 124 -130zM311 321v-275c59 2 131 37 131 136c0 68 -55 115 -131 139zM263 46v287c-91 28 -193 75 -193 197c0 116 89 185 193 190v72h48v-72c64 -2 140 -28 185 -81l-55 -42c-31 44 -82 66 -130 67v-275
c101 -35 203 -82 203 -212c0 -111 -88 -187 -203 -189v-72h-48v72c-90 2 -163 45 -211 106l57 40c36 -60 112 -87 154 -88z" />
    <glyph glyph-name="percent" unicode="%" horiz-adv-x="833" 
d="M390 545c0 -98 -77 -175 -176 -175s-176 77 -176 175s77 175 176 175s176 -77 176 -175zM330 545c0 66 -53 115 -116 115s-116 -49 -116 -115s53 -115 116 -115s116 49 116 115zM795 163c0 -98 -77 -175 -176 -175s-176 77 -176 175s77 175 176 175s176 -77 176 -175z
M735 163c0 66 -53 115 -116 115s-116 -49 -116 -115s53 -115 116 -115s116 49 116 115zM667 712l-450 -743l-52 27l451 743z" />
    <glyph glyph-name="ampersand" unicode="&#x26;" horiz-adv-x="704" 
d="M659 383l-130 -219l159 -164h-100l-100 105c-58 -80 -122 -117 -218 -117c-121 0 -221 69 -221 196c0 107 71 169 164 210c-43 44 -86 100 -86 165c0 106 79 167 176 167c94 0 171 -58 171 -159c0 -93 -80 -147 -159 -186l165 -170l98 172h81zM404 567
c0 58 -43 100 -100 100c-62 0 -107 -43 -107 -109c0 -51 50 -112 77 -134c63 29 130 70 130 143zM440 152l-187 196c-85 -38 -130 -89 -130 -165c0 -80 67 -135 148 -135c77 0 124 35 169 104z" />
    <glyph glyph-name="quoteright" unicode="&#x2019;" horiz-adv-x="222" 
d="M180 708l-81 -235h-57l67 235h71z" />
    <glyph glyph-name="parenleft" unicode="(" horiz-adv-x="300" 
d="M98 288c0 155 56 307 132 414l-52 33c-84 -111 -146 -275 -146 -447s62 -336 146 -447l52 33c-76 107 -132 259 -132 414z" />
    <glyph glyph-name="parenright" unicode=")" horiz-adv-x="300" 
d="M202 288c0 155 -56 307 -132 414l52 33c84 -111 146 -275 146 -447s-62 -336 -146 -447l-52 33c76 107 132 259 132 414z" />
    <glyph glyph-name="asterisk" unicode="*" horiz-adv-x="444" 
d="M252 708v-143l140 45l21 -56l-141 -45l90 -121l-48 -36l-92 124l-92 -124l-48 36l90 121l-141 45l21 56l140 -45v143h60z" />
    <glyph glyph-name="plus" unicode="+" horiz-adv-x="666" 
d="M363 558v-225h225v-60h-225v-225h-60v225h-225v60h225v225h60z" />
    <glyph glyph-name="comma" unicode="," horiz-adv-x="260" 
d="M183 95l-81 -235h-57l67 235h71z" />
    <glyph glyph-name="hyphen" unicode="-" horiz-adv-x="320" 
d="M272 271v-57h-224v57h224z" />
    <glyph glyph-name="period" unicode="." horiz-adv-x="260" 
d="M184 48c0 -28 -22 -54 -54 -54s-54 26 -54 54s22 54 54 54s54 -26 54 -54z" />
    <glyph glyph-name="slash" unicode="/" horiz-adv-x="370" 
d="M365 706l-302 -724l-58 19l303 725z" />
    <glyph glyph-name="zero" unicode="0" horiz-adv-x="580" 
d="M290 726c176 0 232 -189 232 -373s-56 -371 -232 -371c-178 0 -232 187 -232 371s54 373 232 373zM290 665c-126 0 -159 -171 -159 -312s33 -309 159 -309c124 0 159 168 159 309s-35 312 -159 312z" />
    <glyph glyph-name="one" unicode="1" horiz-adv-x="580" 
d="M358 708v-708h-72v619l-128 -109l-44 50l180 148h64z" />
    <glyph glyph-name="two" unicode="2" horiz-adv-x="580" 
d="M504 64v-64h-453v75l290 293c43 44 85 97 85 162c0 82 -64 135 -140 135s-131 -53 -146 -126l-71 14c20 100 106 173 217 173c114 0 213 -66 213 -195c0 -91 -53 -152 -115 -214l-255 -253h375z" />
    <glyph glyph-name="three" unicode="3" horiz-adv-x="580" 
d="M214 340v62h31c91 0 165 36 165 130c0 79 -64 133 -140 133c-59 0 -107 -29 -135 -83l-61 32c44 76 114 112 200 112c111 0 207 -67 207 -190c0 -83 -53 -143 -123 -162v-2c81 -17 143 -81 143 -176c0 -135 -105 -214 -228 -214c-103 0 -184 52 -224 145l68 25
c24 -67 84 -108 156 -108c81 0 156 57 156 152c0 107 -91 144 -184 144h-31z" />
    <glyph glyph-name="four" unicode="4" horiz-adv-x="580" 
d="M436 708v-474h104v-63h-104v-171h-70v171h-324v70l300 467h94zM366 234v393h-2l-247 -393h249z" />
    <glyph glyph-name="five" unicode="5" horiz-adv-x="580" 
d="M475 708v-64h-295l-5 -219c30 11 66 16 98 16c133 0 230 -90 230 -222c0 -137 -95 -237 -235 -237c-102 0 -173 51 -212 129l65 29c25 -58 81 -96 143 -96c96 0 166 72 166 168c0 105 -75 170 -176 170c-51 0 -102 -15 -147 -39l7 365h361z" />
    <glyph glyph-name="six" unicode="6" horiz-adv-x="580" 
d="M400 708l-199 -309l2 -2c21 16 65 26 101 26c123 0 216 -89 216 -218c0 -132 -97 -223 -230 -223s-230 91 -230 223c0 73 29 135 64 192l193 311h83zM132 205c0 -92 65 -162 158 -162s158 70 158 162c0 91 -61 160 -158 160s-158 -69 -158 -160z" />
    <glyph glyph-name="seven" unicode="7" horiz-adv-x="580" 
d="M498 708v-66l-285 -642h-81l293 644h-347v64h420z" />
    <glyph glyph-name="eight" unicode="8" horiz-adv-x="580" 
d="M383 375c77 -22 134 -94 134 -189c0 -124 -106 -204 -227 -204s-227 80 -227 204c0 95 57 166 134 189v2c-63 21 -107 87 -107 160c0 115 92 189 200 189s200 -74 200 -189c0 -73 -44 -139 -107 -160v-2zM160 533c0 -74 58 -127 130 -127s130 53 130 127
c0 76 -56 132 -130 132s-130 -56 -130 -132zM135 194c0 -86 62 -151 155 -151s155 65 155 151c0 85 -62 148 -155 148s-155 -63 -155 -148z" />
    <glyph glyph-name="nine" unicode="9" horiz-adv-x="580" 
d="M182 0l199 309l-2 2c-21 -16 -65 -26 -101 -26c-123 0 -216 89 -216 218c0 132 97 223 230 223s230 -91 230 -223c0 -73 -29 -135 -64 -192l-193 -311h-83zM450 503c0 92 -65 162 -158 162s-158 -70 -158 -162c0 -91 61 -160 158 -160s158 69 158 160z" />
    <glyph glyph-name="colon" unicode=":" horiz-adv-x="300" 
d="M204 420c0 -28 -22 -54 -54 -54s-54 26 -54 54s22 54 54 54s54 -26 54 -54zM204 48c0 -28 -22 -54 -54 -54s-54 26 -54 54s22 54 54 54s54 -26 54 -54z" />
    <glyph glyph-name="semicolon" unicode=";" horiz-adv-x="300" 
d="M204 420c0 -28 -22 -54 -54 -54s-54 26 -54 54s22 54 54 54s54 -26 54 -54zM199 95l-81 -235h-60l67 235h74z" />
    <glyph glyph-name="less" unicode="&#x3c;" horiz-adv-x="666" 
d="M588 564v-60l-429 -201l429 -201v-60l-510 238v46z" />
    <glyph glyph-name="equal" unicode="=" horiz-adv-x="666" 
d="M78 408h510v-60h-510v60zM78 258h510v-60h-510v60z" />
    <glyph glyph-name="greater" unicode="&#x3e;" horiz-adv-x="666" 
d="M78 504v60l510 -238v-46l-510 -238v60l429 201z" />
    <glyph glyph-name="question" unicode="?" horiz-adv-x="482" 
d="M274 238v-46h-70v60c0 76 39 116 80 152l28 25c33 27 58 59 58 111c0 75 -56 118 -125 118c-71 0 -119 -49 -129 -117l-68 12c20 103 97 167 200 167c107 0 194 -63 194 -176c0 -86 -41 -123 -92 -165c-56 -46 -76 -68 -76 -141zM300 48c0 -28 -22 -54 -54 -54
s-54 26 -54 54s22 54 54 54s54 -26 54 -54z" />
    <glyph glyph-name="at" unicode="@" horiz-adv-x="800" 
d="M412 489c-79 0 -123 -90 -123 -168c0 -38 15 -103 80 -103c92 0 126 102 126 168c0 51 -18 103 -83 103zM694 147l37 -46c-78 -80 -187 -119 -314 -119c-229 0 -382 154 -382 371c0 213 171 373 382 373c182 0 354 -106 354 -321c0 -161 -91 -245 -194 -245
c-59 0 -87 35 -87 73h-4c-13 -28 -59 -73 -125 -73c-90 0 -145 69 -145 165c0 113 76 224 199 224c51 0 90 -27 104 -60h4l10 45h62l-40 -186c-4 -18 -11 -60 -11 -80c0 -23 6 -50 49 -50c66 0 111 79 111 180c0 173 -121 266 -288 266c-183 0 -306 -136 -306 -314
c0 -189 128 -308 314 -308c118 0 202 39 270 105z" />
    <glyph glyph-name="A" unicode="A" horiz-adv-x="700" 
d="M166 186l-77 -186h-79l306 708h70l304 -708h-80l-78 186h-366zM349 628l-156 -376h312z" />
    <glyph glyph-name="B" unicode="B" horiz-adv-x="636" 
d="M94 0v708h211c108 0 228 -39 228 -181c0 -74 -50 -135 -125 -152v-2c92 -10 160 -74 160 -177c0 -118 -101 -196 -264 -196h-210zM166 646v-248h145c69 0 150 30 150 124c0 90 -77 124 -170 124h-125zM166 339v-277h134c104 0 195 39 195 138c0 93 -67 139 -182 139h-147
z" />
    <glyph glyph-name="C" unicode="C" horiz-adv-x="720" 
d="M634 150l56 -36c-47 -71 -138 -132 -265 -132c-214 0 -369 157 -369 372s158 372 369 372c104 0 203 -43 252 -112l-60 -44c-30 46 -101 93 -191 93c-183 0 -294 -144 -294 -309s112 -309 294 -309c81 0 159 32 208 105z" />
    <glyph glyph-name="D" unicode="D" horiz-adv-x="757" 
d="M94 0v708h235c177 0 372 -118 372 -354s-195 -354 -372 -354h-235zM166 644v-580h143c213 0 316 144 316 290s-103 290 -316 290h-143z" />
    <glyph glyph-name="E" unicode="E" horiz-adv-x="592" 
d="M166 337v-273h379v-64h-451v708h439v-64h-367v-244h343v-63h-343z" />
    <glyph glyph-name="F" unicode="F" horiz-adv-x="562" 
d="M166 335v-335h-72v708h427v-64h-355v-246h330v-63h-330z" />
    <glyph glyph-name="G" unicode="G" horiz-adv-x="779" 
d="M681 631l-50 -50c-49 52 -117 82 -205 82c-182 0 -294 -144 -294 -309s112 -308 294 -308c80 0 150 19 191 46v215h-165v63h237v-319c-77 -46 -168 -69 -264 -69c-214 0 -369 157 -369 372s158 372 369 372c112 0 196 -36 256 -95z" />
    <glyph glyph-name="H" unicode="H" horiz-adv-x="718" 
d="M94 0v708h72v-307h386v307h72v-708h-72v335h-386v-335h-72z" />
    <glyph glyph-name="I" unicode="I" horiz-adv-x="260" 
d="M166 708v-708h-72v708h72z" />
    <glyph glyph-name="J" unicode="J" horiz-adv-x="492" 
d="M25 126l67 18c11 -55 52 -99 115 -99c99 0 125 79 125 164v499h72v-504c0 -92 -34 -222 -189 -222c-102 0 -173 60 -190 144z" />
    <glyph glyph-name="K" unicode="K" horiz-adv-x="628" 
d="M166 708v-318h1l337 318h103l-357 -321l377 -387h-106l-354 377h-1v-377h-72v708h72z" />
    <glyph glyph-name="L" unicode="L" horiz-adv-x="510" 
d="M166 708v-644h330v-64h-402v708h72z" />
    <glyph glyph-name="M" unicode="M" horiz-adv-x="886" 
d="M204 708l240 -586h1l237 586h110v-708h-72v615h-2l-256 -615h-38l-256 615h-2v-615h-72v708h110z" />
    <glyph glyph-name="N" unicode="N" horiz-adv-x="764" 
d="M184 708l412 -603h2v603h72v-708h-90l-412 609h-2v-609h-72v708h90z" />
    <glyph glyph-name="O" unicode="O" horiz-adv-x="850" 
d="M794 354c0 -215 -158 -372 -369 -372s-369 157 -369 372s158 372 369 372s369 -157 369 -372zM718 354c0 165 -111 309 -293 309s-293 -144 -293 -309s111 -308 293 -308s293 143 293 308z" />
    <glyph glyph-name="P" unicode="P" horiz-adv-x="580" 
d="M94 0v708h200c144 0 239 -62 239 -189s-97 -190 -241 -190h-126v-329h-72zM166 646v-256h122c112 0 173 45 173 129c0 87 -64 127 -173 127h-122z" />
    <glyph glyph-name="Q" unicode="Q" horiz-adv-x="843" 
d="M132 363c0 -159 106 -300 282 -300c174 0 283 141 283 300s-109 300 -283 300c-176 0 -282 -141 -282 -300zM819 64v-64h-405c-205 0 -358 153 -358 363s153 363 358 363c204 0 357 -153 357 -363c0 -124 -56 -234 -166 -297v-2h214z" />
    <glyph glyph-name="R" unicode="R" horiz-adv-x="599" 
d="M166 331v-331h-72v708h208c140 0 242 -51 242 -189c0 -105 -78 -171 -181 -182l207 -337h-88l-196 331h-120zM166 646v-253h125c115 0 181 42 181 126c0 93 -71 127 -178 127h-128z" />
    <glyph glyph-name="S" unicode="S" horiz-adv-x="564" 
d="M494 640l-57 -46c-30 43 -79 71 -146 71c-70 0 -151 -42 -151 -133c0 -90 75 -113 154 -139c100 -33 210 -65 210 -207s-119 -204 -231 -204c-86 0 -172 35 -223 105l62 46c31 -50 88 -89 162 -89c73 0 157 46 157 137c0 99 -83 124 -173 152c-94 29 -190 70 -190 198
c0 137 122 195 226 195c95 0 166 -40 200 -86z" />
    <glyph glyph-name="T" unicode="T" horiz-adv-x="570" 
d="M321 644v-644h-72v644h-237v64h546v-64h-237z" />
    <glyph glyph-name="U" unicode="U" horiz-adv-x="710" 
d="M355 -18c-212 0 -265 164 -265 282v444h72v-436c0 -114 49 -226 193 -226s193 112 193 226v436h72v-444c0 -118 -53 -282 -265 -282z" />
    <glyph glyph-name="V" unicode="V" horiz-adv-x="623" 
d="M81 708l230 -615h2l230 615h77l-271 -708h-76l-270 708h78z" />
    <glyph glyph-name="W" unicode="W" horiz-adv-x="972" 
d="M90 708l175 -609h2l177 609h86l177 -609h2l173 609h76l-209 -708h-84l-178 608h-2l-178 -608h-84l-209 708h76z" />
    <glyph glyph-name="X" unicode="X" horiz-adv-x="649" 
d="M132 708l194 -286l193 286h86l-235 -337l260 -371h-90l-216 319l-215 -319h-90l260 372l-237 336h90z" />
    <glyph glyph-name="Y" unicode="Y" horiz-adv-x="602" 
d="M337 305v-305h-72v305l-265 403h90l213 -343l215 343h84z" />
    <glyph glyph-name="Z" unicode="Z" horiz-adv-x="572" 
d="M535 708v-60l-413 -584h419v-64h-510v60l414 584h-403v64h493z" />
    <glyph glyph-name="bracketleft" unicode="[" horiz-adv-x="300" 
d="M220 732v-54h-96v-780h96v-54h-162v888h162z" />
    <glyph glyph-name="backslash" unicode="\" horiz-adv-x="370" 
d="M307 -18l-302 724l57 20l303 -725z" />
    <glyph glyph-name="bracketright" unicode="]" horiz-adv-x="300" 
d="M80 -156v54h96v780h-96v54h162v-888h-162z" />
    <glyph glyph-name="asciicircum" unicode="^" horiz-adv-x="666" 
d="M80 275l229 433h48l229 -433h-62l-191 361l-191 -361h-62z" />
    <glyph glyph-name="underscore" unicode="_" horiz-adv-x="500" 
d="M0 -125v50h500v-50h-500z" />
    <glyph glyph-name="quoteleft" unicode="&#x2018;" horiz-adv-x="222" 
d="M42 473l81 235h57l-67 -235h-71z" />
    <glyph glyph-name="a" unicode="a" horiz-adv-x="534" 
d="M385 287v15c0 81 -44 121 -125 121c-55 0 -106 -22 -139 -55l-38 45c38 38 104 67 184 67c101 0 182 -56 182 -170v-205c0 -36 3 -79 8 -105h-61c-4 23 -7 51 -7 76h-2c-43 -62 -95 -88 -170 -88c-71 0 -162 38 -162 142c0 144 159 157 330 157zM385 234h-20
c-111 0 -240 -12 -240 -101c0 -67 57 -89 110 -89c96 0 150 72 150 155v35z" />
    <glyph glyph-name="b" unicode="b" horiz-adv-x="637" 
d="M162 79h-2v-79h-68v756h68v-369h2c40 61 110 93 177 93c146 0 242 -108 242 -246s-96 -246 -242 -246c-67 0 -137 32 -177 91zM509 234c0 104 -64 189 -177 189c-105 0 -180 -82 -180 -189s75 -188 180 -188c113 0 177 84 177 188z" />
    <glyph glyph-name="c" unicode="c" horiz-adv-x="500" 
d="M480 399l-53 -38c-22 36 -69 62 -120 62c-109 0 -179 -82 -179 -189c0 -106 69 -188 178 -188c59 0 100 25 127 61l51 -38c-40 -49 -97 -81 -178 -81c-151 0 -250 105 -250 246s99 246 250 246c63 0 134 -27 174 -81z" />
    <glyph glyph-name="d" unicode="d" horiz-adv-x="637" 
d="M475 79c-40 -59 -110 -91 -177 -91c-146 0 -242 108 -242 246s96 246 242 246c67 0 137 -32 177 -93h2v369h68v-756h-68v79h-2zM128 234c0 -104 64 -188 177 -188c105 0 180 81 180 188s-75 189 -180 189c-113 0 -177 -85 -177 -189z" />
    <glyph glyph-name="e" unicode="e" horiz-adv-x="572" 
d="M128 270h319c-4 88 -58 153 -155 153c-91 0 -158 -73 -164 -153zM516 248c0 -9 0 -20 -1 -32h-388c2 -94 75 -170 171 -170c70 0 124 39 150 81l51 -40c-55 -70 -124 -99 -201 -99c-139 0 -242 105 -242 246s103 246 236 246c147 0 224 -104 224 -232z" />
    <glyph glyph-name="f" unicode="f" horiz-adv-x="295" 
d="M288 468v-57h-110v-411h-68v411h-98v57h98v128c0 106 52 172 159 172c17 0 39 -2 56 -7l-12 -60c-14 4 -29 7 -47 7c-73 0 -88 -52 -88 -120v-120h110z" />
    <glyph glyph-name="g" unicode="g" horiz-adv-x="632" 
d="M66 -146l49 52c37 -48 108 -86 179 -86c134 0 183 83 183 184v88h-2c-36 -58 -109 -92 -177 -92c-146 0 -242 101 -242 238c0 133 96 242 242 242c68 0 140 -33 177 -93h2v81h68v-464c0 -102 -47 -244 -254 -244c-86 0 -170 36 -225 94zM128 240c0 -98 64 -182 177 -182
c105 0 180 74 180 182c0 98 -75 183 -180 183c-113 0 -177 -85 -177 -183z" />
    <glyph glyph-name="h" unicode="h" horiz-adv-x="583" 
d="M160 391h2c25 54 91 89 157 89c119 0 178 -77 178 -193v-287h-68v259c0 98 -29 164 -127 164c-72 0 -142 -58 -142 -183v-240h-68v756h68v-365z" />
    <glyph glyph-name="i" unicode="i" horiz-adv-x="250" 
d="M159 468v-468h-68v468h68zM173 648c0 -28 -24 -48 -48 -48s-48 20 -48 48s24 48 48 48s48 -20 48 -48z" />
    <glyph glyph-name="j" unicode="j" horiz-adv-x="251" 
d="M-27 -233l10 57c13 -4 30 -6 43 -6c57 0 66 41 66 100v550h68v-561c0 -75 -27 -147 -133 -147c-14 0 -37 2 -54 7zM174 648c0 -28 -24 -48 -48 -48s-48 20 -48 48s24 48 48 48s48 -20 48 -48z" />
    <glyph glyph-name="k" unicode="k" horiz-adv-x="510" 
d="M160 756v-499h3l216 211h98l-236 -214l260 -254h-100l-238 246h-3v-246h-68v756h68z" />
    <glyph glyph-name="l" unicode="l" horiz-adv-x="252" 
d="M160 756v-756h-68v756h68z" />
    <glyph glyph-name="m" unicode="m" horiz-adv-x="883" 
d="M157 388c27 54 87 92 154 92c51 0 113 -19 144 -99c32 64 89 99 164 99c119 0 178 -77 178 -193v-287h-68v259c0 98 -33 164 -121 164c-98 0 -133 -87 -133 -174v-249h-68v273c0 91 -22 150 -113 150c-65 0 -136 -58 -136 -183v-240h-68v365c0 25 -1 71 -4 103h65
c2 -25 4 -60 4 -80h2z" />
    <glyph glyph-name="n" unicode="n" horiz-adv-x="581" 
d="M86 468h65c2 -25 4 -60 4 -80h2c26 54 94 92 160 92c119 0 178 -77 178 -193v-287h-68v259c0 98 -29 164 -127 164c-72 0 -142 -58 -142 -183v-240h-68v365c0 25 -1 71 -4 103z" />
    <glyph glyph-name="o" unicode="o" horiz-adv-x="611" 
d="M555 234c0 -141 -104 -246 -250 -246c-145 0 -249 105 -249 246s104 246 249 246c146 0 250 -105 250 -246zM483 234c0 105 -69 189 -178 189c-108 0 -177 -84 -177 -189s69 -188 177 -188c109 0 178 83 178 188z" />
    <glyph glyph-name="p" unicode="p" horiz-adv-x="635" 
d="M158 79v-319h-68v708h68v-81h3c39 61 109 93 176 93c146 0 242 -108 242 -246s-96 -246 -242 -246c-67 0 -137 33 -176 91h-3zM507 234c0 104 -64 189 -177 189c-105 0 -180 -82 -180 -189s75 -188 180 -188c113 0 177 84 177 188z" />
    <glyph glyph-name="q" unicode="q" horiz-adv-x="635" 
d="M477 79h-3c-39 -58 -109 -91 -176 -91c-146 0 -242 108 -242 246s96 246 242 246c67 0 137 -32 176 -93h3v81h68v-708h-68v319zM128 234c0 -104 64 -188 177 -188c105 0 180 81 180 188s-75 189 -180 189c-113 0 -177 -85 -177 -189z" />
    <glyph glyph-name="r" unicode="r" horiz-adv-x="360" 
d="M90 365c0 25 -1 71 -4 103h65c2 -25 4 -60 4 -80h2c26 54 84 92 150 92c17 0 31 -1 45 -5l-9 -64c-8 3 -30 6 -48 6c-72 0 -137 -52 -137 -177v-240h-68v365z" />
    <glyph glyph-name="s" unicode="s" horiz-adv-x="444" 
d="M391 396l-52 -39c-20 39 -63 66 -115 66c-49 0 -99 -21 -99 -73c0 -44 35 -64 112 -80c110 -23 162 -64 162 -137c0 -107 -90 -145 -176 -145c-71 0 -142 28 -185 91l54 40c24 -41 75 -73 130 -73c58 0 110 21 110 82c0 49 -49 69 -138 90c-55 13 -134 37 -134 126
c0 95 82 136 167 136c65 0 134 -31 164 -84z" />
    <glyph glyph-name="t" unicode="t" horiz-adv-x="317" 
d="M301 468v-57h-132v-273c0 -70 29 -86 70 -86c19 0 41 6 59 15l3 -59c-24 -9 -49 -14 -80 -14c-50 0 -120 22 -120 125v292h-97v57h97v132h68v-132h132z" />
    <glyph glyph-name="u" unicode="u" horiz-adv-x="581" 
d="M495 0h-65c-2 25 -4 60 -4 80h-2c-26 -54 -94 -92 -160 -92c-119 0 -178 77 -178 193v287h68v-259c0 -98 29 -164 127 -164c72 0 142 58 142 183v240h68v-365c0 -25 1 -71 4 -103z" />
    <glyph glyph-name="v" unicode="v" horiz-adv-x="488" 
d="M472 468l-190 -468h-75l-191 468h76l152 -396h2l153 396h73z" />
    <glyph glyph-name="w" unicode="w" horiz-adv-x="746" 
d="M26 468h73l113 -380h2l126 380h66l128 -380h2l112 380h72l-148 -468h-74l-125 379h-2l-123 -379h-74z" />
    <glyph glyph-name="x" unicode="x" horiz-adv-x="484" 
d="M16 0l184 242l-173 226h87l128 -178l128 178h82l-170 -223l186 -245h-88l-139 195l-143 -195h-82z" />
    <glyph glyph-name="y" unicode="y" horiz-adv-x="488" 
d="M92 468l159 -395h2l145 395h74l-233 -589c-28 -72 -66 -119 -147 -119c-20 0 -41 2 -61 6l7 62c15 -5 32 -8 50 -8c46 0 70 30 90 83l38 98l-200 467h76z" />
    <glyph glyph-name="z" unicode="z" horiz-adv-x="442" 
d="M401 468v-48l-280 -361h290v-59h-380v48l279 363h-265v57h356z" />
    <glyph glyph-name="braceleft" unicode="{" horiz-adv-x="300" 
d="M0 258v60c52 0 79 41 79 111v178c0 94 51 125 108 125h63v-54h-48c-49 0 -57 -45 -57 -83v-178c0 -97 -66 -125 -89 -128v-2c23 -3 89 -31 89 -128v-178c0 -38 8 -83 57 -83h48v-54h-63c-57 0 -108 31 -108 125v178c0 70 -27 111 -79 111z" />
    <glyph glyph-name="bar" unicode="|" horiz-adv-x="222" 
d="M81 750h60v-1000h-60v1000z" />
    <glyph glyph-name="braceright" unicode="}" horiz-adv-x="300" 
d="M300 258v60c-52 0 -79 41 -79 111v178c0 94 -51 125 -108 125h-63v-54h48c49 0 57 -45 57 -83v-178c0 -97 66 -125 89 -128v-2c-23 -3 -89 -31 -89 -128v-178c0 -38 -8 -83 -57 -83h-48v-54h63c57 0 108 31 108 125v178c0 70 27 111 79 111z" />
    <glyph glyph-name="asciitilde" unicode="~" horiz-adv-x="666" 
d="M535 368l42 -40c-27 -42 -71 -93 -136 -93c-38 0 -64 6 -111 36c-41 26 -68 40 -103 40c-46 0 -78 -40 -96 -73l-42 40c30 42 71 93 136 93c37 0 69 -8 110 -35c39 -25 71 -41 103 -41c46 0 79 43 97 73z" />
    <glyph glyph-name="exclamdown" unicode="&#xa1;" horiz-adv-x="328" 
d="M200 -229v516h-72v-516h72zM218 431c0 28 -22 54 -54 54s-54 -26 -54 -54s22 -54 54 -54s54 26 54 54z" />
    <glyph glyph-name="cent" unicode="&#xa2;" horiz-adv-x="580" 
d="M298 51v366c-86 -15 -138 -89 -138 -183s52 -168 138 -183zM346 419v-370c48 3 87 29 107 61l54 -41c-43 -51 -101 -77 -161 -80v-61h-48v63c-131 14 -210 114 -210 243s79 229 210 243v63h48v-61c60 -3 118 -29 161 -80l-54 -41c-20 32 -59 58 -107 61z" />
    <glyph glyph-name="sterling" unicode="&#xa3;" horiz-adv-x="580" 
d="M417 395v-60h-168v-275h262v-60h-436v60h102v275h-96v60h96v93c0 115 51 238 212 238c58 0 115 -18 155 -60l-47 -51c-26 30 -65 50 -111 50c-119 0 -137 -115 -137 -183v-87h168z" />
    <glyph glyph-name="fraction" unicode="&#x2044;" horiz-adv-x="100" 
d="M297 712l-450 -743l-52 27l451 743z" />
    <glyph glyph-name="yen" unicode="&#xa5;" horiz-adv-x="580" 
d="M91 223h165v105h-165v54h145l-226 326h89l193 -300l192 300h86l-224 -326h143v-54h-165v-105h165v-54h-165v-169h-68v169h-165v54z" />
    <glyph glyph-name="florin" unicode="&#x192;" horiz-adv-x="580" 
d="M442 419v-54h-119l-67 -352c-14 -72 -47 -152 -155 -152c-29 0 -54 4 -78 18l27 55c15 -8 33 -13 53 -13c62 0 77 55 86 106l63 338h-108v54h119l27 144c15 82 52 157 152 157c34 0 69 -10 95 -29l-34 -48c-17 12 -37 17 -57 17c-66 0 -83 -74 -90 -116l-22 -125h108z
" />
    <glyph glyph-name="section" unicode="&#xa7;" horiz-adv-x="580" 
d="M474 632l-59 -30c-12 30 -46 64 -108 64c-64 0 -108 -33 -108 -89c0 -62 48 -87 98 -108l87 -41c56 -27 103 -68 103 -142c0 -66 -40 -113 -89 -131c46 -28 71 -68 71 -125c0 -112 -91 -163 -188 -163c-89 0 -166 37 -198 115l66 32c22 -62 77 -87 132 -87
c47 0 116 20 116 98c0 48 -33 76 -75 96l-127 61c-52 25 -95 60 -95 134c0 66 44 113 104 132c-30 18 -77 51 -77 120c0 108 88 158 181 158c89 0 146 -42 166 -94zM320 384l-61 26c-37 -4 -89 -29 -89 -90c0 -53 39 -74 108 -103l66 -30c33 8 73 37 73 89
c0 60 -44 86 -97 108z" />
    <glyph glyph-name="currency" unicode="&#xa4;" horiz-adv-x="860" 
d="M636 468c32 -42 51 -95 51 -159c0 -65 -20 -121 -55 -164c31 -31 63 -62 94 -93c-14 -14 -28 -29 -43 -44c-32 32 -63 64 -95 95c-42 -32 -96 -51 -157 -51c-60 0 -113 18 -158 53c-32 -32 -65 -64 -97 -97c-14 15 -28 30 -43 44l96 96c-34 41 -53 96 -53 161
c0 62 18 115 50 157c-31 30 -62 61 -93 92c15 14 30 29 44 43c30 -31 62 -62 92 -92c43 34 98 55 162 55c63 0 118 -20 160 -54c31 30 61 61 91 91c15 -14 30 -29 44 -43zM431 496c-111 0 -182 -84 -182 -187c0 -104 71 -189 182 -189s182 85 182 189
c0 103 -71 187 -182 187z" />
    <glyph glyph-name="quotesingle" unicode="'" horiz-adv-x="260" 
d="M100 473v235h60v-235h-60z" />
    <glyph glyph-name="quotedblleft" unicode="&#x201c;" horiz-adv-x="387" 
d="M42 473l81 235h57l-67 -235h-71zM207 473l81 235h57l-67 -235h-71z" />
    <glyph glyph-name="guillemotleft" unicode="&#xab;" horiz-adv-x="482" 
d="M239 416l-115 -176l115 -176l-47 -33l-140 209l140 209zM421 416l-115 -176l115 -176l-47 -33l-140 209l140 209z" />
    <glyph glyph-name="guilsinglleft" unicode="&#x2039;" horiz-adv-x="315" 
d="M131 240l115 -176l-47 -33l-140 209l140 209l47 -33z" />
    <glyph glyph-name="guilsinglright" unicode="&#x203a;" horiz-adv-x="315" 
d="M184 240l-115 176l47 33l140 -209l-140 -209l-47 33z" />
    <glyph glyph-name="endash" unicode="&#x2013;" horiz-adv-x="400" 
d="M370 271v-57h-340v57h340z" />
    <glyph glyph-name="dagger" unicode="&#x2020;" horiz-adv-x="556" 
d="M311 708v-204h204v-60h-204v-570h-66v570h-204v60h204v204h66z" />
    <glyph glyph-name="daggerdbl" unicode="&#x2021;" horiz-adv-x="556" 
d="M311 708v-192h195v-60h-195v-330h195v-60h-195v-192h-66v192h-195v60h195v330h-195v60h195v192h66z" />
    <glyph glyph-name="periodcentered" unicode="&#xb7;" horiz-adv-x="260" 
d="M184 314c0 -28 -22 -54 -54 -54s-54 26 -54 54s22 54 54 54s54 -26 54 -54z" />
    <glyph glyph-name="paragraph" unicode="&#xb6;" horiz-adv-x="600" 
d="M513 708v-834h-66v780h-124v-780h-66v442c-122 0 -209 82 -209 186c0 130 88 206 228 206h237z" />
    <glyph glyph-name="bullet" unicode="&#x2022;" horiz-adv-x="500" 
d="M73 354c0 98 79 177 177 177s177 -79 177 -177s-79 -177 -177 -177s-177 79 -177 177z" />
    <glyph glyph-name="quotesinglbase" unicode="&#x201a;" horiz-adv-x="222" 
d="M180 95l-81 -235h-57l67 235h71z" />
    <glyph glyph-name="quotedblbase" unicode="&#x201e;" horiz-adv-x="387" 
d="M345 95l-81 -235h-57l67 235h71zM180 95l-81 -235h-57l67 235h71z" />
    <glyph glyph-name="quotedblright" unicode="&#x201d;" horiz-adv-x="387" 
d="M345 708l-81 -235h-57l67 235h71zM180 708l-81 -235h-57l67 235h71z" />
    <glyph glyph-name="guillemotright" unicode="&#xbb;" horiz-adv-x="482" 
d="M243 64l115 176l-115 176l47 33l140 -209l-140 -209zM61 64l115 176l-115 176l47 33l140 -209l-140 -209z" />
    <glyph glyph-name="ellipsis" unicode="&#x2026;" horiz-adv-x="1000" 
d="M221 48c0 -28 -22 -54 -54 -54s-54 26 -54 54s22 54 54 54s54 -26 54 -54zM554 48c0 -28 -22 -54 -54 -54s-54 26 -54 54s22 54 54 54s54 -26 54 -54zM887 48c0 -28 -22 -54 -54 -54s-54 26 -54 54s22 54 54 54s54 -26 54 -54z" />
    <glyph glyph-name="perthousand" unicode="&#x2030;" horiz-adv-x="1000" 
d="M331 566c0 -84 -68 -154 -153 -154s-153 70 -153 154s68 154 153 154s153 -70 153 -154zM277 566c0 55 -44 100 -99 100s-99 -45 -99 -100s44 -100 99 -100s99 45 99 100zM625 142c0 -84 -68 -154 -153 -154s-153 70 -153 154s68 154 153 154s153 -70 153 -154zM571 142
c0 55 -44 100 -99 100s-99 -45 -99 -100s44 -100 99 -100s99 45 99 100zM975 142c0 -84 -68 -154 -153 -154s-153 70 -153 154s68 154 153 154s153 -70 153 -154zM921 142c0 55 -44 100 -99 100s-99 -45 -99 -100s44 -100 99 -100s99 45 99 100zM575 712l-450 -743l-52 27
l451 743z" />
    <glyph glyph-name="questiondown" unicode="&#xbf;" horiz-adv-x="482" 
d="M214 241v46h70v-60c0 -76 -39 -116 -80 -152l-28 -25c-33 -27 -58 -59 -58 -111c0 -75 56 -118 125 -118c71 0 119 49 129 117l68 -12c-20 -103 -97 -167 -200 -167c-107 0 -194 63 -194 176c0 86 41 123 92 165c56 46 76 68 76 141zM188 431c0 28 22 54 54 54
s54 -26 54 -54s-22 -54 -54 -54s-54 26 -54 54z" />
    <glyph glyph-name="grave" unicode="`" 
d="M122 564l-132 144h91l100 -144h-59z" />
    <glyph glyph-name="acute" unicode="&#xb4;" 
d="M250 708l-132 -144h-59l100 144h91z" />
    <glyph glyph-name="circumflex" unicode="&#x2c6;" 
d="M160 708l109 -144h-66l-83 108l-83 -108h-66l109 144h80z" />
    <glyph glyph-name="tilde" unicode="&#x2dc;" 
d="M1 576h-43c9 52 32 104 92 104c24 0 49 -11 73 -23c24 -11 47 -23 67 -23c30 0 43 25 49 50h43c-9 -52 -32 -104 -92 -104c-24 0 -50 11 -73 23s-46 23 -67 23c-30 0 -43 -25 -49 -50z" />
    <glyph glyph-name="macron" unicode="&#xaf;" 
d="M255 654v-54h-270v54h270z" />
    <glyph glyph-name="breve" unicode="&#x2d8;" 
d="M223 708h44c-5 -83 -65 -132 -147 -132s-142 49 -147 132h44c9 -52 53 -78 103 -78s94 26 103 78z" />
    <glyph glyph-name="dotaccent" unicode="&#x2d9;" 
d="M168 648c0 -28 -24 -48 -48 -48s-48 20 -48 48s24 48 48 48s48 -20 48 -48z" />
    <glyph glyph-name="dieresis" unicode="&#xa8;" 
d="M-27 647c0 26 21 51 51 51s51 -25 51 -51s-21 -51 -51 -51s-51 25 -51 51zM165 647c0 26 21 51 51 51s51 -25 51 -51s-21 -51 -51 -51s-51 25 -51 51z" />
    <glyph glyph-name="ring" unicode="&#x2da;" 
d="M216 650c0 -54 -44 -95 -96 -95s-96 41 -96 95s44 95 96 95s96 -41 96 -95zM180 650c0 33 -27 59 -60 59s-60 -26 -60 -59s27 -59 60 -59s60 26 60 59z" />
    <glyph glyph-name="cedilla" unicode="&#xb8;" 
d="M156 0l-47 -75c10 3 20 4 35 4c40 0 82 -24 82 -72c0 -67 -64 -87 -118 -87c-27 0 -66 7 -94 20l16 36c22 -10 47 -14 72 -14c21 0 64 11 64 44c0 26 -21 39 -54 39c-14 0 -30 -3 -43 -8l-18 15l62 98h43z" />
    <glyph glyph-name="hungarumlaut" unicode="&#x2dd;" 
d="M131 708l-133 -144h-59l101 144h91zM301 708l-132 -144h-59l100 144h91z" />
    <glyph glyph-name="ogonek" unicode="&#x2db;" 
d="M191 -147l19 -40c-23 -22 -57 -36 -90 -36c-47 0 -90 34 -90 85c0 56 48 105 89 138h48c-49 -49 -77 -82 -77 -121c0 -28 23 -48 50 -48c18 0 38 8 51 22z" />
    <glyph glyph-name="caron" unicode="&#x2c7;" 
d="M269 708l-109 -144h-80l-109 144h66l83 -108l83 108h66z" />
    <glyph glyph-name="emdash" unicode="&#x2014;" horiz-adv-x="600" 
d="M570 271v-57h-540v57h540z" />
    <glyph glyph-name="AE" unicode="&#xc6;" horiz-adv-x="990" 
d="M591 337v-273h345v-64h-417v198h-298l-128 -198h-82l461 708h452v-64h-333v-244h309v-63h-309zM258 261h261v383h-14z" />
    <glyph glyph-name="ordfeminine" unicode="&#xaa;" horiz-adv-x="360" 
d="M244 606v8c0 41 -30 61 -73 61c-32 0 -64 -13 -83 -32l-32 35c29 26 73 42 120 42c84 0 123 -48 123 -110v-123c0 -19 1 -42 4 -56h-52c-3 13 -5 28 -5 41h-2c-21 -31 -55 -48 -98 -48c-47 0 -106 22 -106 87c0 85 105 95 204 95zM244 566h-15c-57 0 -130 -6 -130 -54
c0 -33 30 -44 59 -44c54 0 86 35 86 83v15z" />
    <glyph glyph-name="Lslash" unicode="&#x141;" horiz-adv-x="510" 
d="M166 708v-346l216 186v-70l-216 -186v-228h330v-64h-402v242l-82 -70v70l82 70v396h72z" />
    <glyph glyph-name="Oslash" unicode="&#xd8;" horiz-adv-x="850" 
d="M774 692l-76 -82c61 -65 96 -154 96 -256c0 -215 -158 -372 -369 -372c-92 0 -174 30 -236 81l-76 -81l-37 34l76 82c-61 65 -96 154 -96 256c0 215 158 372 369 372c91 0 172 -29 236 -81l76 81zM651 558l-415 -445c49 -43 111 -67 189 -67c184 0 293 143 293 308
c0 76 -23 150 -67 204zM201 150l415 445c-47 43 -113 68 -191 68c-184 0 -293 -144 -293 -309c0 -77 24 -151 69 -204z" />
    <glyph glyph-name="OE" unicode="&#x152;" horiz-adv-x="992" 
d="M443 708h490v-64h-333v-244h309v-63h-309v-273h345v-64h-502c-177 0 -372 118 -372 354s195 354 372 354zM463 644c-213 0 -316 -144 -316 -290s103 -290 316 -290h65v580h-65z" />
    <glyph glyph-name="ordmasculine" unicode="&#xba;" horiz-adv-x="360" 
d="M332 572c0 -86 -64 -148 -152 -148s-152 62 -152 148c0 87 64 148 152 148s152 -61 152 -148zM274 572c0 54 -32 102 -94 102s-94 -48 -94 -102c0 -53 32 -102 94 -102s94 49 94 102z" />
    <glyph glyph-name="ae" unicode="&#xe6;" horiz-adv-x="870" 
d="M446 270h299c0 89 -54 153 -144 153c-82 0 -152 -73 -155 -153zM380 216h-20c-121 0 -234 -8 -234 -90c0 -64 52 -83 111 -83c96 0 143 56 143 139v34zM814 248c0 -12 0 -23 -1 -32h-370c2 -94 72 -171 163 -171c67 0 118 39 143 81l49 -39c-53 -70 -118 -99 -192 -99
c-88 0 -155 42 -186 109c-36 -85 -113 -109 -195 -109c-81 0 -169 37 -169 137c0 133 163 145 324 145v15c0 81 -39 138 -120 138c-55 0 -108 -22 -144 -55l-39 44c40 38 113 68 193 68c74 0 131 -36 154 -98c37 59 103 98 177 98c140 0 213 -104 213 -232z" />
    <glyph glyph-name="dotlessi" unicode="&#x131;" horiz-adv-x="250" 
d="M159 468v-468h-68v468h68z" />
    <glyph glyph-name="lslash" unicode="&#x142;" horiz-adv-x="252" 
d="M158 756v-298l81 84v-73l-81 -83v-386h-66v331l-81 -83v73l81 82v353h66z" />
    <glyph glyph-name="oslash" unicode="&#xf8;" horiz-adv-x="611" 
d="M450 351l-262 -269c30 -24 69 -39 115 -39c111 0 183 84 183 191c0 43 -12 88 -36 117zM159 116l262 269c-26 26 -70 40 -116 40c-111 0 -180 -85 -180 -191c0 -45 12 -89 34 -118zM561 465l-66 -68c36 -41 60 -98 60 -163c0 -141 -105 -246 -251 -246
c-63 0 -117 20 -157 52l-67 -68l-32 31l66 68c-37 43 -58 99 -58 163c0 141 103 246 248 246c62 0 116 -19 159 -52l66 68z" />
    <glyph glyph-name="oe" unicode="&#x153;" horiz-adv-x="994" 
d="M713 480c148 0 225 -104 225 -232c0 -9 0 -20 -1 -32h-390c2 -94 77 -170 173 -170c70 0 124 39 150 81l51 -40c-55 -70 -124 -99 -202 -99c-91 0 -163 44 -204 114c-42 -70 -116 -114 -211 -114c-145 0 -248 105 -248 246s103 246 248 246c95 0 168 -44 210 -114
c41 70 112 114 199 114zM483 234c0 105 -70 189 -179 189c-108 0 -178 -84 -178 -189s70 -188 178 -188c109 0 179 83 179 188zM550 270h319c-4 88 -58 153 -155 153c-91 0 -158 -73 -164 -153z" />
    <glyph glyph-name="germandbls" unicode="&#xdf;" horiz-adv-x="597" 
d="M156 542v-542h-68v544c0 104 45 224 210 224c101 0 192 -65 192 -177c0 -79 -38 -131 -116 -159v-2c101 -12 171 -93 171 -207c0 -142 -94 -235 -240 -235c-16 0 -39 2 -55 5v57c13 -2 34 -4 48 -4c106 0 176 67 176 178c0 116 -77 175 -193 175h-9v60h8
c81 0 141 39 141 126c0 80 -58 123 -126 123c-117 0 -139 -96 -139 -166z" />
    <glyph glyph-name="ydieresis.sc" horiz-adv-x="468" 
d="M268 230v-230h-70v230l-198 301h84l150 -243l150 243h84zM88 677c0 26 21 51 51 51s51 -25 51 -51s-21 -51 -51 -51s-51 25 -51 51zM280 677c0 26 21 51 51 51s51 -25 51 -51s-21 -51 -51 -51s-51 25 -51 51z" />
    <glyph glyph-name="n.sc" horiz-adv-x="613" 
d="M181 531l270 -429h2v429h70v-531h-88l-274 438h-1v-438h-70v531h91z" />
    <glyph glyph-name="multiply" unicode="&#xd7;" horiz-adv-x="666" 
d="M174 505l159 -159l158 159l43 -42l-159 -160l159 -159l-43 -43l-158 159l-159 -159l-42 43l159 159l-159 160z" />
    <glyph glyph-name="greaterequal" unicode="&#x2265;" horiz-adv-x="666" 
d="M584 296l-502 -188v65l420 155l-420 157v65l502 -189v-65zM584 6h-502v59h502v-59z" />
    <glyph glyph-name="uhungarumlaut" unicode="&#x171;" horiz-adv-x="581" 
d="M495 0h-65c-2 25 -4 60 -4 80h-2c-26 -54 -94 -92 -160 -92c-119 0 -178 77 -178 193v287h68v-259c0 -98 29 -164 127 -164c72 0 142 58 142 183v240h68v-365c0 -25 1 -71 4 -103zM362 708l-133 -144h-59l101 144h91zM532 708l-132 -144h-59l100 144h91z" />
    <glyph glyph-name="ograve" unicode="&#xf2;" horiz-adv-x="611" 
d="M555 234c0 -141 -104 -246 -250 -246c-145 0 -249 105 -249 246s104 246 249 246c146 0 250 -105 250 -246zM483 234c0 105 -69 189 -178 189c-108 0 -177 -84 -177 -189s69 -188 177 -188c109 0 178 83 178 188zM285 564l-132 144h91l100 -144h-59z" />
    <glyph glyph-name="umacron.sc" horiz-adv-x="572" 
d="M286 -12c-144 0 -204 105 -204 211v332h70v-327c0 -76 33 -152 134 -152c100 0 134 76 134 152v327h70v-332c0 -106 -61 -211 -204 -211zM423 684v-54h-270v54h270z" />
    <glyph glyph-name="radical" unicode="&#x221a;" horiz-adv-x="493" 
d="M502 786l-210 -1000h-66l-164 340l-46 -22l-24 50l100 48l158 -332l189 916h63z" />
    <glyph glyph-name="notequal" unicode="&#x2260;" horiz-adv-x="666" 
d="M584 120h-287l-76 -144l-52 27l62 117h-149v60h181l68 130h-249v60h282l77 147l52 -28l-63 -119h154v-60h-186l-69 -130h255v-60z" />
    <glyph glyph-name="omacron" unicode="&#x14d;" horiz-adv-x="611" 
d="M555 234c0 -141 -104 -246 -250 -246c-145 0 -249 105 -249 246s104 246 249 246c146 0 250 -105 250 -246zM483 234c0 105 -69 189 -178 189c-108 0 -177 -84 -177 -189s69 -188 177 -188c109 0 178 83 178 188zM442 654v-54h-270v54h270z" />
    <glyph glyph-name="ohungarumlaut.sc" horiz-adv-x="672" 
d="M616 267c0 -162 -120 -279 -281 -279c-160 0 -279 117 -279 279c0 163 119 276 279 276c161 0 281 -113 281 -276zM540 267c0 117 -79 215 -205 215c-125 0 -203 -98 -203 -215c0 -118 79 -216 203 -216c126 0 205 98 205 216zM402 738l-133 -144h-59l101 144h91z
M572 738l-132 -144h-59l100 144h91z" />
    <glyph glyph-name="iogonek.sc" horiz-adv-x="250" 
d="M184 -147l19 -40c-23 -22 -57 -36 -90 -36c-47 0 -90 34 -90 85c0 56 48 105 89 138h-22v531h70v-531c-24 -24 -44 -45 -57 -64s-20 -37 -20 -57c0 -28 23 -48 50 -48c18 0 38 8 51 22z" />
    <glyph glyph-name="ohungarumlaut" unicode="&#x151;" horiz-adv-x="611" 
d="M555 234c0 -141 -104 -246 -250 -246c-145 0 -249 105 -249 246s104 246 249 246c146 0 250 -105 250 -246zM483 234c0 105 -69 189 -178 189c-108 0 -177 -84 -177 -189s69 -188 177 -188c109 0 178 83 178 188zM388 708l-133 -144h-59l101 144h91zM558 708l-132 -144
h-59l100 144h91z" />
    <glyph glyph-name="uniF8FF" unicode="&#xf8ff;" horiz-adv-x="512" 
d="M222 117h56v67h-56v-67zM225 234h46c0 35 2 59 6 72s18 30 43 52c51 47 63 77 63 120c0 79 -53 131 -124 131c-72 0 -126 -42 -135 -137l50 -8c8 68 41 95 82 95s76 -37 76 -85c0 -25 -7 -42 -50 -83c-22 -22 -37 -42 -46 -59s-13 -44 -13 -81zM462 50h-412v617h412v-617
zM512 718h-512v-718h512v718z" />
    <glyph glyph-name="p.sc" horiz-adv-x="487" 
d="M90 0v531h165c113 0 187 -54 187 -157c0 -104 -81 -158 -191 -158h-91v-216h-70zM160 469v-194h87c74 0 124 33 124 99c0 68 -51 95 -124 95h-87z" />
    <glyph glyph-name="macron.sc" 
d="M255 684v-54h-270v54h270z" />
    <glyph glyph-name="otilde" unicode="&#xf5;" horiz-adv-x="611" 
d="M555 234c0 -141 -104 -246 -250 -246c-145 0 -249 105 -249 246s104 246 249 246c146 0 250 -105 250 -246zM483 234c0 105 -69 189 -178 189c-108 0 -177 -84 -177 -189s69 -188 177 -188c109 0 178 83 178 188zM186 576h-43c9 52 32 104 92 104c24 0 49 -11 73 -23
c24 -11 47 -23 67 -23c30 0 43 25 49 50h43c-9 -52 -32 -104 -92 -104c-24 0 -50 11 -73 23s-46 23 -67 23c-30 0 -43 -25 -49 -50z" />
    <glyph glyph-name="ugrave.sc" horiz-adv-x="572" 
d="M286 -12c-144 0 -204 105 -204 211v332h70v-327c0 -76 33 -152 134 -152c100 0 134 76 134 152v327h70v-332c0 -106 -61 -211 -204 -211zM271 594l-132 144h91l100 -144h-59z" />
    <glyph glyph-name="ntilde" unicode="&#xf1;" horiz-adv-x="581" 
d="M86 468h65c2 -25 4 -60 4 -80h2c26 54 94 92 160 92c119 0 178 -77 178 -193v-287h-68v259c0 98 -29 164 -127 164c-72 0 -142 -58 -142 -183v-240h-68v365c0 25 -1 71 -4 103zM174 576h-43c9 52 32 104 92 104c24 0 49 -11 73 -23c24 -11 47 -23 67 -23
c30 0 43 25 49 50h43c-9 -52 -32 -104 -92 -104c-24 0 -50 11 -73 23s-46 23 -67 23c-30 0 -43 -25 -49 -50z" />
    <glyph glyph-name="odieresis" unicode="&#xf6;" horiz-adv-x="611" 
d="M555 234c0 -141 -104 -246 -250 -246c-145 0 -249 105 -249 246s104 246 249 246c146 0 250 -105 250 -246zM483 234c0 105 -69 189 -178 189c-108 0 -177 -84 -177 -189s69 -188 177 -188c109 0 178 83 178 188zM158 647c0 26 21 51 51 51s51 -25 51 -51
s-21 -51 -51 -51s-51 25 -51 51zM350 647c0 26 21 51 51 51s51 -25 51 -51s-21 -51 -51 -51s-51 25 -51 51z" />
    <glyph glyph-name="jcircumflex" unicode="&#x135;" horiz-adv-x="251" 
d="M-27 -233l10 57c13 -4 30 -6 43 -6c57 0 66 41 66 100v550h68v-561c0 -75 -27 -147 -133 -147c-14 0 -37 2 -54 7zM166 708l109 -144h-66l-83 108l-83 -108h-66l109 144h80z" />
    <glyph glyph-name="oe.sc" horiz-adv-x="777" 
d="M438 245v-182h279v-63h-381c-149 0 -272 107 -272 266c0 160 123 265 272 265h370v-62h-268v-163h252v-61h-252zM336 63h32v406h-32c-116 0 -198 -88 -198 -203c0 -116 83 -203 198 -203z" />
    <glyph glyph-name="ncaron" unicode="&#x148;" horiz-adv-x="581" 
d="M86 468h65c2 -25 4 -60 4 -80h2c26 54 94 92 160 92c119 0 178 -77 178 -193v-287h-68v259c0 98 -29 164 -127 164c-72 0 -142 -58 -142 -183v-240h-68v365c0 25 -1 71 -4 103zM442 708l-109 -144h-80l-109 144h66l83 -108l83 108h66z" />
    <glyph glyph-name="idieresis" unicode="&#xef;" horiz-adv-x="250" 
d="M159 468v-468h-68v468h68zM-21 647c0 26 21 51 51 51s51 -25 51 -51s-21 -51 -51 -51s-51 25 -51 51zM171 647c0 26 21 51 51 51s51 -25 51 -51s-21 -51 -51 -51s-51 25 -51 51z" />
    <glyph glyph-name="udieresis.sc" horiz-adv-x="572" 
d="M286 -12c-144 0 -204 105 -204 211v332h70v-327c0 -76 33 -152 134 -152c100 0 134 76 134 152v327h70v-332c0 -106 -61 -211 -204 -211zM141 677c0 26 21 51 51 51s51 -25 51 -51s-21 -51 -51 -51s-51 25 -51 51zM333 677c0 26 21 51 51 51s51 -25 51 -51
s-21 -51 -51 -51s-51 25 -51 51z" />
    <glyph glyph-name="ocircumflex" unicode="&#xf4;" horiz-adv-x="611" 
d="M555 234c0 -141 -104 -246 -250 -246c-145 0 -249 105 -249 246s104 246 249 246c146 0 250 -105 250 -246zM483 234c0 105 -69 189 -178 189c-108 0 -177 -84 -177 -189s69 -188 177 -188c109 0 178 83 178 188zM345 708l109 -144h-66l-83 108l-83 -108h-66l109 144h80z
" />
    <glyph glyph-name="onehalf" unicode="&#xbd;" horiz-adv-x="840" 
d="M786 54v-54h-276v57l167 169c21 22 43 49 43 86c0 38 -29 62 -67 62c-37 0 -66 -27 -75 -70l-60 9c13 68 68 116 135 116c70 0 131 -39 131 -117c0 -59 -37 -96 -71 -130l-128 -128h201zM667 712l-450 -743l-52 27l451 743zM232 708v-422h-61v346l-64 -57l-38 41l112 92
h51z" />
    <glyph glyph-name="grave.sc" 
d="M122 594l-132 144h91l100 -144h-59z" />
    <glyph glyph-name="hungarumlaut.cap" 
d="M131 908l-133 -144h-59l101 144h91zM301 908l-132 -144h-59l100 144h91z" />
    <glyph glyph-name="utilde" unicode="&#x169;" horiz-adv-x="581" 
d="M495 0h-65c-2 25 -4 60 -4 80h-2c-26 -54 -94 -92 -160 -92c-119 0 -178 77 -178 193v287h68v-259c0 -98 29 -164 127 -164c72 0 142 58 142 183v240h68v-365c0 -25 1 -71 4 -103zM172 576h-43c9 52 32 104 92 104c24 0 49 -11 73 -23c24 -11 47 -23 67 -23
c30 0 43 25 49 50h43c-9 -52 -32 -104 -92 -104c-24 0 -50 11 -73 23s-46 23 -67 23c-30 0 -43 -25 -49 -50z" />
    <glyph glyph-name="otilde.sc" horiz-adv-x="672" 
d="M616 267c0 -162 -120 -279 -281 -279c-160 0 -279 117 -279 279c0 163 119 276 279 276c161 0 281 -113 281 -276zM540 267c0 117 -79 215 -205 215c-125 0 -203 -98 -203 -215c0 -118 79 -216 203 -216c126 0 205 98 205 216zM216 611h-43c9 52 32 104 92 104
c24 0 49 -11 73 -23c24 -11 47 -23 67 -23c30 0 43 25 49 50h43c-9 -52 -32 -104 -92 -104c-24 0 -50 11 -73 23s-46 23 -67 23c-30 0 -43 -25 -49 -50z" />
    <glyph glyph-name="product" unicode="&#x220f;" horiz-adv-x="711" 
d="M641 -214h-66v938h-438v-938h-66v1000h570v-1000z" />
    <glyph glyph-name="twosuperior" unicode="&#xb2;" horiz-adv-x="370" 
d="M319 344v-54h-276v57l167 169c21 22 43 49 43 86c0 38 -29 62 -67 62c-37 0 -66 -27 -75 -70l-60 9c13 68 68 116 135 116c70 0 131 -39 131 -117c0 -59 -37 -96 -71 -130l-128 -128h201z" />
    <glyph glyph-name="imacron.sc" horiz-adv-x="250" 
d="M160 531v-531h-70v531h70zM261 684v-54h-270v54h270z" />
    <glyph glyph-name="lacute" unicode="&#x13a;" horiz-adv-x="252" 
d="M160 756v-756h-68v756h68zM285 936l-132 -144h-59l100 144h91z" />
    <glyph glyph-name="ocircumflex.sc" horiz-adv-x="672" 
d="M616 267c0 -162 -120 -279 -281 -279c-160 0 -279 117 -279 279c0 163 119 276 279 276c161 0 281 -113 281 -276zM540 267c0 117 -79 215 -205 215c-125 0 -203 -98 -203 -215c0 -118 79 -216 203 -216c126 0 205 98 205 216zM376 738l109 -144h-66l-83 108l-83 -108
h-66l109 144h80z" />
    <glyph glyph-name="perthousand.sc" horiz-adv-x="972" 
d="M310 409c0 -75 -59 -134 -135 -134s-135 59 -135 134s59 134 135 134s135 -59 135 -134zM254 409c0 44 -37 78 -79 78s-79 -34 -79 -78c0 -45 37 -78 79 -78s79 33 79 78zM621 122c0 -75 -59 -134 -135 -134s-135 59 -135 134s59 134 135 134s135 -59 135 -134zM565 122
c0 44 -37 78 -79 78s-79 -34 -79 -78c0 -45 37 -78 79 -78s79 33 79 78zM934 122c0 -75 -59 -134 -135 -134s-135 59 -135 134s59 134 135 134s135 -59 135 -134zM878 122c0 44 -37 78 -79 78s-79 -34 -79 -78c0 -45 37 -78 79 -78s79 33 79 78zM524 533l-341 -564l-47 27
l342 564z" />
    <glyph glyph-name="napostrophe.sc" horiz-adv-x="652" 
d="M220 531l270 -429h2v429h70v-531h-88l-274 438h-1v-438h-70v531h91zM94 531l-76 -185h-57l62 185h71z" />
    <glyph glyph-name="ij.sc" horiz-adv-x="642" 
d="M160 531v-531h-70v531h70zM263 100l66 19c9 -39 37 -67 79 -67c66 0 82 52 82 114v365h70v-368c0 -73 -25 -175 -148 -175c-80 0 -133 47 -149 112z" />
    <glyph glyph-name="uni03BC" unicode="&#x3bc;" horiz-adv-x="556" 
d="M72 -228v696h66v-259c0 -115 31 -161 127 -161c80 0 142 65 142 180v240h66v-365c0 -34 3 -69 5 -103h-71v76h-2c-29 -47 -95 -88 -157 -88c-46 0 -83 10 -110 29v-245h-66z" />
    <glyph glyph-name="percent.sc" horiz-adv-x="660" 
d="M310 409c0 -75 -59 -134 -135 -134s-135 59 -135 134s59 134 135 134s135 -59 135 -134zM254 409c0 44 -37 78 -79 78s-79 -34 -79 -78c0 -45 37 -78 79 -78s79 33 79 78zM621 122c0 -75 -59 -134 -135 -134s-135 59 -135 134s59 134 135 134s135 -59 135 -134zM565 122
c0 44 -37 78 -79 78s-79 -34 -79 -78c0 -45 37 -78 79 -78s79 33 79 78zM524 533l-341 -564l-47 27l342 564z" />
    <glyph glyph-name="obreve.sc" horiz-adv-x="672" 
d="M616 267c0 -162 -120 -279 -281 -279c-160 0 -279 117 -279 279c0 163 119 276 279 276c161 0 281 -113 281 -276zM540 267c0 117 -79 215 -205 215c-125 0 -203 -98 -203 -215c0 -118 79 -216 203 -216c126 0 205 98 205 216zM438 738h44c-5 -83 -65 -132 -147 -132
s-142 49 -147 132h44c9 -52 53 -78 103 -78s94 26 103 78z" />
    <glyph glyph-name="summation" unicode="&#x2211;" horiz-adv-x="604" 
d="M578 -214h-553v55l329 448l-315 441v56h527v-62h-442l309 -435l-328 -442h473v-61z" />
    <glyph glyph-name="racute" unicode="&#x155;" horiz-adv-x="360" 
d="M90 365c0 25 -1 71 -4 103h65c2 -25 4 -60 4 -80h2c26 54 84 92 150 92c17 0 31 -1 45 -5l-9 -64c-8 3 -30 6 -48 6c-72 0 -137 -52 -137 -177v-240h-68v365zM307 708l-132 -144h-59l100 144h91z" />
    <glyph glyph-name="two.onum" horiz-adv-x="512" 
d="M452 0h-400v65l83 58c156 109 236 164 236 251c0 66 -47 109 -125 109c-61 0 -113 -32 -142 -91l-54 36c39 74 112 117 197 117c120 0 196 -62 196 -169c0 -109 -96 -177 -224 -265l-66 -45v-3h299v-63z" />
    <glyph glyph-name="trademark" unicode="&#x2122;" horiz-adv-x="1000" 
d="M401 708v-54h-133v-358h-60v358h-136v54h329zM928 708v-412h-60v346h-2l-139 -346h-39l-139 346h-2v-346h-60v412h93l129 -316l129 316h90z" />
    <glyph glyph-name="Uacute" unicode="&#xda;" horiz-adv-x="710" 
d="M355 -18c-212 0 -265 164 -265 282v444h72v-436c0 -114 49 -226 193 -226s193 112 193 226v436h72v-444c0 -118 -53 -282 -265 -282zM497 908l-132 -144h-59l100 144h91z" />
    <glyph glyph-name="lcommaaccent" unicode="&#x13c;" horiz-adv-x="252" 
d="M160 756v-756h-68v756h68zM179 -45l-76 -185h-57l62 185h71z" />
    <glyph glyph-name="imacron" unicode="&#x12b;" horiz-adv-x="250" 
d="M159 468v-468h-68v468h68zM261 654v-54h-270v54h270z" />
    <glyph glyph-name="nine.sc" horiz-adv-x="484" 
d="M145 0l142 219c-19 -9 -40 -12 -56 -12c-93 0 -165 63 -165 163c0 102 72 173 174 173c103 0 176 -69 176 -172c0 -48 -18 -96 -48 -142l-143 -229h-80zM346 371c0 63 -45 108 -106 108c-62 0 -104 -46 -104 -108c0 -60 41 -107 104 -107c66 0 106 47 106 107z" />
    <glyph glyph-name="uni021B" unicode="&#x21b;" horiz-adv-x="317" 
d="M301 468v-57h-132v-273c0 -70 29 -86 70 -86c19 0 41 6 59 15l3 -59c-24 -9 -49 -14 -80 -14c-50 0 -120 22 -120 125v292h-97v57h97v132h68v-132h132zM250 -45l-76 -185h-57l62 185h71z" />
    <glyph glyph-name="oacute.sc" horiz-adv-x="672" 
d="M616 267c0 -162 -120 -279 -281 -279c-160 0 -279 117 -279 279c0 163 119 276 279 276c161 0 281 -113 281 -276zM540 267c0 117 -79 215 -205 215c-125 0 -203 -98 -203 -215c0 -118 79 -216 203 -216c126 0 205 98 205 216zM479 738l-132 -144h-59l100 144h91z" />
    <glyph glyph-name="idotaccent.sc" horiz-adv-x="250" 
d="M160 531v-531h-70v531h70zM174 648c0 -28 -24 -48 -48 -48s-48 20 -48 48s24 48 48 48s48 -20 48 -48z" />
    <glyph glyph-name="Aring" unicode="&#xc5;" horiz-adv-x="700" 
d="M166 186l-77 -186h-79l306 708h70l304 -708h-80l-78 186h-366zM349 628l-156 -376h312zM446 850c0 -54 -44 -95 -96 -95s-96 41 -96 95s44 95 96 95s96 -41 96 -95zM410 850c0 33 -27 59 -60 59s-60 -26 -60 -59s27 -59 60 -59s60 26 60 59z" />
    <glyph glyph-name="oacute" unicode="&#xf3;" horiz-adv-x="611" 
d="M555 234c0 -141 -104 -246 -250 -246c-145 0 -249 105 -249 246s104 246 249 246c146 0 250 -105 250 -246zM483 234c0 105 -69 189 -178 189c-108 0 -177 -84 -177 -189s69 -188 177 -188c109 0 178 83 178 188zM455 708l-132 -144h-59l100 144h91z" />
    <glyph glyph-name="ncommaaccent" unicode="&#x146;" horiz-adv-x="581" 
d="M86 468h65c2 -25 4 -60 4 -80h2c26 54 94 92 160 92c119 0 178 -77 178 -193v-287h-68v259c0 98 -29 164 -127 164c-72 0 -142 -58 -142 -183v-240h-68v365c0 25 -1 71 -4 103zM342 -45l-76 -185h-57l62 185h71z" />
    <glyph glyph-name="nacute" unicode="&#x144;" horiz-adv-x="581" 
d="M86 468h65c2 -25 4 -60 4 -80h2c26 54 94 92 160 92c119 0 178 -77 178 -193v-287h-68v259c0 98 -29 164 -127 164c-72 0 -142 -58 -142 -183v-240h-68v365c0 25 -1 71 -4 103zM439 708l-132 -144h-59l100 144h91z" />
    <glyph glyph-name="ucircumflex.sc" horiz-adv-x="572" 
d="M286 -12c-144 0 -204 105 -204 211v332h70v-327c0 -76 33 -152 134 -152c100 0 134 76 134 152v327h70v-332c0 -106 -61 -211 -204 -211zM328 738l109 -144h-66l-83 108l-83 -108h-66l109 144h80z" />
    <glyph glyph-name="macron.cap" 
d="M255 854v-54h-270v54h270z" />
    <glyph glyph-name="oslash.sc" horiz-adv-x="672" 
d="M616 266c0 -163 -120 -278 -281 -278c-73 0 -137 22 -186 63l-77 -79l-32 31l78 80c-39 48 -62 111 -62 183c0 165 119 277 279 277c69 0 130 -19 178 -56l68 70l32 -31l-67 -69c44 -49 70 -114 70 -191zM540 266c0 53 -16 101 -45 139l-297 -304c35 -32 81 -51 137 -51
c126 0 205 97 205 216zM132 266c0 -49 13 -94 37 -131l295 302c-33 28 -77 46 -129 46c-125 0 -203 -99 -203 -217z" />
    <glyph glyph-name="iogonek" unicode="&#x12f;" horiz-adv-x="250" 
d="M179 -147l19 -40c-23 -22 -57 -36 -90 -36c-47 0 -90 34 -90 85c0 56 48 105 89 138h-16v468h68v-468h-4c-49 -49 -77 -82 -77 -121c0 -28 23 -48 50 -48c18 0 38 8 51 22zM173 648c0 -28 -24 -48 -48 -48s-48 20 -48 48s24 48 48 48s48 -20 48 -48z" />
    <glyph glyph-name="yacute.sc" horiz-adv-x="468" 
d="M268 230v-230h-70v230l-198 301h84l150 -243l150 243h84zM371 738l-132 -144h-59l100 144h91z" />
    <glyph glyph-name="hbar" unicode="&#x127;" horiz-adv-x="583" 
d="M38 620h54v136h68v-136h158v-50h-158v-179h2c25 54 91 89 157 89c119 0 178 -77 178 -193v-287h-68v259c0 98 -29 164 -127 164c-72 0 -142 -58 -142 -183v-240h-68v570h-54v50z" />
    <glyph glyph-name="uhungarumlaut.sc" horiz-adv-x="572" 
d="M286 -12c-144 0 -204 105 -204 211v332h70v-327c0 -76 33 -152 134 -152c100 0 134 76 134 152v327h70v-332c0 -106 -61 -211 -204 -211zM355 738l-133 -144h-59l101 144h91zM525 738l-132 -144h-59l100 144h91z" />
    <glyph glyph-name="omacron.sc" horiz-adv-x="672" 
d="M616 267c0 -162 -120 -279 -281 -279c-160 0 -279 117 -279 279c0 163 119 276 279 276c161 0 281 -113 281 -276zM540 267c0 117 -79 215 -205 215c-125 0 -203 -98 -203 -215c0 -118 79 -216 203 -216c126 0 205 98 205 216zM471 684v-54h-270v54h270z" />
    <glyph glyph-name="z.sc" horiz-adv-x="498" 
d="M440 531v-60l-301 -408h306v-63h-392v61l300 408h-294v62h381z" />
    <glyph glyph-name="questiondown.sc" horiz-adv-x="380" 
d="M163 352v21h68v-35c0 -40 -13 -71 -59 -112l-28 -25c-28 -25 -37 -43 -37 -76c0 -37 31 -77 84 -77c40 0 75 20 88 78l66 -12c-16 -79 -70 -126 -157 -126c-98 0 -151 63 -151 133c0 56 19 91 70 130c48 37 56 61 56 101zM139 484c0 28 21 53 53 53s53 -25 53 -53
s-21 -53 -53 -53s-53 25 -53 53z" />
    <glyph glyph-name="idieresis.sc" horiz-adv-x="250" 
d="M160 531v-531h-70v531h70zM-23 677c0 26 21 51 51 51s51 -25 51 -51s-21 -51 -51 -51s-51 25 -51 51zM169 677c0 26 21 51 51 51s51 -25 51 -51s-21 -51 -51 -51s-51 25 -51 51z" />
    <glyph glyph-name="one.sc" horiz-adv-x="484" 
d="M315 531v-531h-70v442l-86 -75l-42 49l136 115h62z" />
    <glyph glyph-name="question.sc" horiz-adv-x="380" 
d="M219 179v-21h-68v35c0 40 13 71 59 112l28 25c28 25 37 43 37 76c0 37 -31 77 -84 77c-40 0 -75 -20 -88 -78l-66 12c16 79 70 126 157 126c98 0 151 -63 151 -133c0 -56 -19 -91 -70 -130c-48 -37 -56 -61 -56 -101zM243 47c0 -28 -21 -53 -53 -53s-53 25 -53 53
s21 53 53 53s53 -25 53 -53z" />
    <glyph glyph-name="wcircumflex" unicode="&#x175;" horiz-adv-x="746" 
d="M26 468h73l113 -380h2l126 380h66l128 -380h2l112 380h72l-148 -468h-74l-125 379h-2l-123 -379h-74zM412 708l109 -144h-66l-83 108l-83 -108h-66l109 144h80z" />
    <glyph glyph-name="iacute.sc" horiz-adv-x="250" 
d="M160 531v-531h-70v531h70zM283 738l-132 -144h-59l100 144h91z" />
    <glyph glyph-name="three.sc" horiz-adv-x="484" 
d="M177 247v62h35c62 0 107 27 107 86c0 52 -45 86 -93 86c-38 0 -72 -19 -94 -63l-58 32c36 64 87 93 155 93c87 0 160 -51 160 -145c0 -56 -38 -100 -88 -118c58 -17 101 -66 101 -129c0 -104 -78 -163 -174 -163c-78 0 -139 38 -172 118l66 25c22 -55 59 -80 106 -80
c53 0 104 36 104 100c0 70 -53 96 -120 96h-35z" />
    <glyph glyph-name="Ubreve" unicode="&#x16c;" horiz-adv-x="710" 
d="M355 -18c-212 0 -265 164 -265 282v444h72v-436c0 -114 49 -226 193 -226s193 112 193 226v436h72v-444c0 -118 -53 -282 -265 -282zM458 908h44c-5 -83 -65 -132 -147 -132s-142 49 -147 132h44c9 -52 53 -78 103 -78s94 26 103 78z" />
    <glyph glyph-name="ordfeminine.sc" horiz-adv-x="360" 
d="M113 497l-27 -66h-59l125 289h57l124 -289h-59l-27 66h-134zM180 665l-53 -130h105z" />
    <glyph glyph-name="Ccircumflex" unicode="&#x108;" horiz-adv-x="720" 
d="M634 150l56 -36c-47 -71 -138 -132 -265 -132c-214 0 -369 157 -369 372s158 372 369 372c104 0 203 -43 252 -112l-60 -44c-30 46 -101 93 -191 93c-183 0 -294 -144 -294 -309s112 -309 294 -309c81 0 159 32 208 105zM464 908l109 -144h-66l-83 108l-83 -108h-66
l109 144h80z" />
    <glyph glyph-name="l.sc" horiz-adv-x="421" 
d="M160 531v-468h239v-63h-309v531h70z" />
    <glyph glyph-name="igrave" unicode="&#xec;" horiz-adv-x="250" 
d="M159 468v-468h-68v468h68zM99 564l-132 144h91l100 -144h-59z" />
    <glyph glyph-name="Cdotaccent" unicode="&#x10a;" horiz-adv-x="720" 
d="M634 150l56 -36c-47 -71 -138 -132 -265 -132c-214 0 -369 157 -369 372s158 372 369 372c104 0 203 -43 252 -112l-60 -44c-30 46 -101 93 -191 93c-183 0 -294 -144 -294 -309s112 -309 294 -309c81 0 159 32 208 105zM463 848c0 -28 -24 -48 -48 -48s-48 20 -48 48
s24 48 48 48s48 -20 48 -48z" />
    <glyph glyph-name="pi" unicode="&#x3c0;" horiz-adv-x="563" 
d="M530 11c-22 -10 -40 -17 -64 -17c-78 0 -80 56 -80 117v298h-220v-409h-64v409h-70v59h494v-59h-76v-305c0 -29 2 -54 38 -54c15 0 29 4 42 10v-49z" />
    <glyph glyph-name="umacron" unicode="&#x16b;" horiz-adv-x="581" 
d="M495 0h-65c-2 25 -4 60 -4 80h-2c-26 -54 -94 -92 -160 -92c-119 0 -178 77 -178 193v287h68v-259c0 -98 29 -164 127 -164c72 0 142 58 142 183v240h68v-365c0 -25 1 -71 4 -103zM425 654v-54h-270v54h270z" />
    <glyph glyph-name="Utilde" unicode="&#x168;" horiz-adv-x="710" 
d="M355 -18c-212 0 -265 164 -265 282v444h72v-436c0 -114 49 -226 193 -226s193 112 193 226v436h72v-444c0 -118 -53 -282 -265 -282zM236 776h-43c9 52 32 104 92 104c24 0 49 -11 73 -23c24 -11 47 -23 67 -23c30 0 43 25 49 50h43c-9 -52 -32 -104 -92 -104
c-24 0 -50 11 -73 23s-46 23 -67 23c-30 0 -43 -25 -49 -50z" />
    <glyph glyph-name="scommaaccent.sc" horiz-adv-x="450" 
d="M389 481l-50 -48c-22 30 -60 50 -105 50c-49 0 -105 -25 -105 -86c0 -60 49 -75 109 -94c73 -23 157 -48 157 -154c0 -110 -89 -161 -182 -161c-66 0 -134 27 -173 78l56 47c23 -38 68 -64 118 -64c51 0 110 29 110 93c0 67 -60 82 -127 103c-69 21 -139 52 -139 149
c0 105 93 149 180 149c62 0 119 -25 151 -62zM265 -45l-76 -185h-57l62 185h71z" />
    <glyph glyph-name="lessequal" unicode="&#x2264;" horiz-adv-x="666" 
d="M584 108l-502 188v65l502 189v-65l-419 -157l419 -155v-65zM584 6h-502v59h502v-59z" />
    <glyph glyph-name="uni00A0" unicode="&#xa0;" horiz-adv-x="250" 
 />
    <glyph glyph-name="uring.sc" horiz-adv-x="572" 
d="M286 -12c-144 0 -204 105 -204 211v332h70v-327c0 -76 33 -152 134 -152c100 0 134 76 134 152v327h70v-332c0 -106 -61 -211 -204 -211zM382 680c0 -54 -44 -95 -96 -95s-96 41 -96 95s44 95 96 95s96 -41 96 -95zM346 680c0 33 -27 59 -60 59s-60 -26 -60 -59
s27 -59 60 -59s60 26 60 59z" />
    <glyph glyph-name="Wcircumflex" unicode="&#x174;" horiz-adv-x="972" 
d="M90 708l175 -609h2l177 609h86l177 -609h2l173 609h76l-209 -708h-84l-178 608h-2l-178 -608h-84l-209 708h76zM526 908l109 -144h-66l-83 108l-83 -108h-66l109 144h80z" />
    <glyph glyph-name="i.sc" horiz-adv-x="250" 
d="M160 531v-531h-70v531h70z" />
    <glyph glyph-name="onesuperior" unicode="&#xb9;" horiz-adv-x="370" 
d="M232 708v-422h-61v346l-64 -57l-38 41l112 92h51z" />
    <glyph glyph-name="threequarters" unicode="&#xbe;" horiz-adv-x="840" 
d="M723 422v-270h60v-54h-60v-98h-55v98h-188v52l175 272h68zM668 340h-3l-122 -188h125v188zM137 484v51h27c47 0 84 19 84 70c0 37 -31 62 -69 62c-30 0 -58 -18 -75 -50l-50 26c30 53 76 77 127 77c69 0 127 -38 127 -114c0 -42 -23 -75 -57 -93c42 -16 69 -52 69 -102
c0 -83 -65 -127 -140 -127c-63 0 -114 30 -141 96l57 19c13 -39 45 -61 84 -61c41 0 80 24 80 73c0 54 -48 73 -96 73h-27zM667 712l-450 -743l-52 27l451 743z" />
    <glyph glyph-name="uni03A9" unicode="&#x3a9;" horiz-adv-x="744" 
d="M685 0h-251v181c121 21 184 115 184 234c0 143 -110 245 -252 245c-141 0 -252 -103 -252 -245c0 -118 63 -215 184 -234v-181h-251v58h197v82c-125 35 -197 149 -197 276c0 178 147 305 320 305s318 -127 318 -304c0 -128 -70 -242 -197 -277v-82h197v-58z" />
    <glyph glyph-name="Ucircumflex" unicode="&#xdb;" horiz-adv-x="710" 
d="M355 -18c-212 0 -265 164 -265 282v444h72v-436c0 -114 49 -226 193 -226s193 112 193 226v436h72v-444c0 -118 -53 -282 -265 -282zM395 908l109 -144h-66l-83 108l-83 -108h-66l109 144h80z" />
    <glyph glyph-name="hcircumflex.sc" horiz-adv-x="615" 
d="M90 0v531h70v-225h295v225h70v-531h-70v245h-295v-245h-70zM347 738l109 -144h-66l-83 108l-83 -108h-66l109 144h80z" />
    <glyph glyph-name="zcaron" unicode="&#x17e;" horiz-adv-x="442" 
d="M401 468v-48l-280 -361h290v-59h-380v48l279 363h-265v57h356zM374 708l-109 -144h-80l-109 144h66l83 -108l83 108h66z" />
    <glyph glyph-name="ograve.sc" horiz-adv-x="672" 
d="M616 267c0 -162 -120 -279 -281 -279c-160 0 -279 117 -279 279c0 163 119 276 279 276c161 0 281 -113 281 -276zM540 267c0 117 -79 215 -205 215c-125 0 -203 -98 -203 -215c0 -118 79 -216 203 -216c126 0 205 98 205 216zM321 594l-132 144h91l100 -144h-59z" />
    <glyph glyph-name="Yacute" unicode="&#xdd;" horiz-adv-x="602" 
d="M337 305v-305h-72v305l-265 403h90l213 -343l215 343h84zM466 908l-132 -144h-59l100 144h91z" />
    <glyph glyph-name="ycircumflex.sc" horiz-adv-x="468" 
d="M268 230v-230h-70v230l-198 301h84l150 -243l150 243h84zM274 738l109 -144h-66l-83 108l-83 -108h-66l109 144h80z" />
    <glyph glyph-name="o.sc" horiz-adv-x="672" 
d="M616 267c0 -162 -120 -279 -281 -279c-160 0 -279 117 -279 279c0 163 119 276 279 276c161 0 281 -113 281 -276zM540 267c0 117 -79 215 -205 215c-125 0 -203 -98 -203 -215c0 -118 79 -216 203 -216c126 0 205 98 205 216z" />
    <glyph glyph-name="tbar" unicode="&#x167;" horiz-adv-x="317" 
d="M12 314h89v97h-97v57h97v132h68v-132h132v-57h-132v-97h123v-50h-123v-126c0 -70 29 -86 70 -86c19 0 41 6 59 15l3 -59c-24 -9 -49 -14 -80 -14c-50 0 -120 22 -120 125v145h-89v50z" />
    <glyph glyph-name="icircumflex" unicode="&#xee;" horiz-adv-x="250" 
d="M159 468v-468h-68v468h68zM167 708l109 -144h-66l-83 108l-83 -108h-66l109 144h80z" />
    <glyph glyph-name="itilde" unicode="&#x129;" horiz-adv-x="250" 
d="M159 468v-468h-68v468h68zM8 576h-43c9 52 32 104 92 104c24 0 49 -11 73 -23c24 -11 47 -23 67 -23c30 0 43 25 49 50h43c-9 -52 -32 -104 -92 -104c-24 0 -50 11 -73 23s-46 23 -67 23c-30 0 -43 -25 -49 -50z" />
    <glyph glyph-name="scircumflex.sc" horiz-adv-x="450" 
d="M389 481l-50 -48c-22 30 -60 50 -105 50c-49 0 -105 -25 -105 -86c0 -60 49 -75 109 -94c73 -23 157 -48 157 -154c0 -110 -89 -161 -182 -161c-66 0 -134 27 -173 78l56 47c23 -38 68 -64 118 -64c51 0 110 29 110 93c0 67 -60 82 -127 103c-69 21 -139 52 -139 149
c0 105 93 149 180 149c62 0 119 -25 151 -62zM277 738l109 -144h-66l-83 108l-83 -108h-66l109 144h80z" />
    <glyph glyph-name="j.sc" horiz-adv-x="400" 
d="M21 100l66 19c9 -39 37 -67 79 -67c66 0 82 52 82 114v365h70v-368c0 -73 -25 -175 -148 -175c-80 0 -133 47 -149 112z" />
    <glyph glyph-name="scommaaccent" unicode="&#x219;" horiz-adv-x="444" 
d="M391 396l-52 -39c-20 39 -63 66 -115 66c-49 0 -99 -21 -99 -73c0 -44 35 -64 112 -80c110 -23 162 -64 162 -137c0 -107 -90 -145 -176 -145c-71 0 -142 28 -185 91l54 40c24 -41 75 -73 130 -73c58 0 110 21 110 82c0 49 -49 69 -138 90c-55 13 -134 37 -134 126
c0 95 82 136 167 136c65 0 134 -31 164 -84zM273 -45l-76 -185h-57l62 185h71z" />
    <glyph glyph-name="Atilde" unicode="&#xc3;" horiz-adv-x="700" 
d="M166 186l-77 -186h-79l306 708h70l304 -708h-80l-78 186h-366zM349 628l-156 -376h312zM231 776h-43c9 52 32 104 92 104c24 0 49 -11 73 -23c24 -11 47 -23 67 -23c30 0 43 25 49 50h43c-9 -52 -32 -104 -92 -104c-24 0 -50 11 -73 23s-46 23 -67 23
c-30 0 -43 -25 -49 -50z" />
    <glyph glyph-name="igrave.sc" horiz-adv-x="250" 
d="M160 531v-531h-70v531h70zM102 594l-132 144h91l100 -144h-59z" />
    <glyph glyph-name="aring.sc" horiz-adv-x="534" 
d="M136 133l-56 -133h-74l229 531h65l228 -531h-79l-55 133h-258zM266 450l-105 -256h208zM363 680c0 -54 -44 -95 -96 -95s-96 41 -96 95s44 95 96 95s96 -41 96 -95zM327 680c0 33 -27 59 -60 59s-60 -26 -60 -59s27 -59 60 -59s60 26 60 59z" />
    <glyph glyph-name="gdotaccent" unicode="&#x121;" horiz-adv-x="632" 
d="M66 -146l49 52c37 -48 108 -86 179 -86c134 0 183 83 183 184v88h-2c-36 -58 -109 -92 -177 -92c-146 0 -242 101 -242 238c0 133 96 242 242 242c68 0 140 -33 177 -93h2v81h68v-464c0 -102 -47 -244 -254 -244c-86 0 -170 36 -225 94zM128 240c0 -98 64 -182 177 -182
c105 0 180 74 180 182c0 98 -75 183 -180 183c-113 0 -177 -85 -177 -183zM355 648c0 -28 -24 -48 -48 -48s-48 20 -48 48s24 48 48 48s48 -20 48 -48z" />
    <glyph glyph-name="ucircumflex" unicode="&#xfb;" horiz-adv-x="581" 
d="M495 0h-65c-2 25 -4 60 -4 80h-2c-26 -54 -94 -92 -160 -92c-119 0 -178 77 -178 193v287h68v-259c0 -98 29 -164 127 -164c72 0 142 58 142 183v240h68v-365c0 -25 1 -71 4 -103zM329 708l109 -144h-66l-83 108l-83 -108h-66l109 144h80z" />
    <glyph glyph-name="ring.sc" 
d="M216 680c0 -54 -44 -95 -96 -95s-96 41 -96 95s44 95 96 95s96 -41 96 -95zM180 680c0 33 -27 59 -60 59s-60 -26 -60 -59s27 -59 60 -59s60 26 60 59z" />
    <glyph glyph-name="ugrave" unicode="&#xf9;" horiz-adv-x="581" 
d="M495 0h-65c-2 25 -4 60 -4 80h-2c-26 -54 -94 -92 -160 -92c-119 0 -178 77 -178 193v287h68v-259c0 -98 29 -164 127 -164c72 0 142 58 142 183v240h68v-365c0 -25 1 -71 4 -103zM277 564l-132 144h91l100 -144h-59z" />
    <glyph glyph-name="Tcommaaccent" unicode="&#x162;" horiz-adv-x="570" 
d="M321 644v-644h-72v644h-237v64h546v-64h-237zM338 -45l-76 -185h-57l62 185h71z" />
    <glyph glyph-name="Zcaron" unicode="&#x17d;" horiz-adv-x="572" 
d="M535 708v-60l-413 -584h419v-64h-510v60l414 584h-403v64h493zM436 908l-109 -144h-80l-109 144h66l83 -108l83 108h66z" />
    <glyph glyph-name="aacute" unicode="&#xe1;" horiz-adv-x="534" 
d="M385 287v15c0 81 -44 121 -125 121c-55 0 -106 -22 -139 -55l-38 45c38 38 104 67 184 67c101 0 182 -56 182 -170v-205c0 -36 3 -79 8 -105h-61c-4 23 -7 51 -7 76h-2c-43 -62 -95 -88 -170 -88c-71 0 -162 38 -162 142c0 144 159 157 330 157zM385 234h-20
c-111 0 -240 -12 -240 -101c0 -67 57 -89 110 -89c96 0 150 72 150 155v35zM406 708l-132 -144h-59l100 144h91z" />
    <glyph glyph-name="hungarumlaut.sc" 
d="M131 738l-133 -144h-59l101 144h91zM301 738l-132 -144h-59l100 144h91z" />
    <glyph glyph-name="Ocircumflex" unicode="&#xd4;" horiz-adv-x="850" 
d="M794 354c0 -215 -158 -372 -369 -372s-369 157 -369 372s158 372 369 372s369 -157 369 -372zM718 354c0 165 -111 309 -293 309s-293 -144 -293 -309s111 -308 293 -308s293 143 293 308zM465 908l109 -144h-66l-83 108l-83 -108h-66l109 144h80z" />
    <glyph glyph-name="Oacute" unicode="&#xd3;" horiz-adv-x="850" 
d="M794 354c0 -215 -158 -372 -369 -372s-369 157 -369 372s158 372 369 372s369 -157 369 -372zM718 354c0 165 -111 309 -293 309s-293 -144 -293 -309s111 -308 293 -308s293 143 293 308zM558 908l-132 -144h-59l100 144h91z" />
    <glyph glyph-name="sterling.sc" horiz-adv-x="484" 
d="M334 302v-58h-118v-181h187v-63h-326v63h69v181h-63v58h63v62c0 111 64 179 167 179c46 0 85 -15 116 -43l-45 -48c-26 26 -50 32 -74 32c-58 0 -94 -41 -94 -126v-56h118z" />
    <glyph glyph-name="nacute.sc" horiz-adv-x="613" 
d="M181 531l270 -429h2v429h70v-531h-88l-274 438h-1v-438h-70v531h91zM442 738l-132 -144h-59l100 144h91z" />
    <glyph glyph-name="uring" unicode="&#x16f;" horiz-adv-x="581" 
d="M495 0h-65c-2 25 -4 60 -4 80h-2c-26 -54 -94 -92 -160 -92c-119 0 -178 77 -178 193v287h68v-259c0 -98 29 -164 127 -164c72 0 142 58 142 183v240h68v-365c0 -25 1 -71 4 -103zM386 650c0 -54 -44 -95 -96 -95s-96 41 -96 95s44 95 96 95s96 -41 96 -95zM350 650
c0 33 -27 59 -60 59s-60 -26 -60 -59s27 -59 60 -59s60 26 60 59z" />
    <glyph glyph-name="uacute" unicode="&#xfa;" horiz-adv-x="581" 
d="M495 0h-65c-2 25 -4 60 -4 80h-2c-26 -54 -94 -92 -160 -92c-119 0 -178 77 -178 193v287h68v-259c0 -98 29 -164 127 -164c72 0 142 58 142 183v240h68v-365c0 -25 1 -71 4 -103zM432 708l-132 -144h-59l100 144h91z" />
    <glyph glyph-name="ubreve.sc" horiz-adv-x="572" 
d="M286 -12c-144 0 -204 105 -204 211v332h70v-327c0 -76 33 -152 134 -152c100 0 134 76 134 152v327h70v-332c0 -106 -61 -211 -204 -211zM391 738h44c-5 -83 -65 -132 -147 -132s-142 49 -147 132h44c9 -52 53 -78 103 -78s94 26 103 78z" />
    <glyph glyph-name="seven.sc" horiz-adv-x="484" 
d="M408 531v-56l-212 -475h-79l214 467h-251v64h328z" />
    <glyph glyph-name="odieresis.sc" horiz-adv-x="672" 
d="M616 267c0 -162 -120 -279 -281 -279c-160 0 -279 117 -279 279c0 163 119 276 279 276c161 0 281 -113 281 -276zM540 267c0 117 -79 215 -205 215c-125 0 -203 -98 -203 -215c0 -118 79 -216 203 -216c126 0 205 98 205 216zM187 677c0 26 21 51 51 51s51 -25 51 -51
s-21 -51 -51 -51s-51 25 -51 51zM379 677c0 26 21 51 51 51s51 -25 51 -51s-21 -51 -51 -51s-51 25 -51 51z" />
    <glyph glyph-name="zcaron.sc" horiz-adv-x="498" 
d="M440 531v-60l-301 -408h306v-63h-392v61l300 408h-294v62h381zM403 738l-109 -144h-80l-109 144h66l83 -108l83 108h66z" />
    <glyph glyph-name="obreve" unicode="&#x14f;" horiz-adv-x="611" 
d="M555 234c0 -141 -104 -246 -250 -246c-145 0 -249 105 -249 246s104 246 249 246c146 0 250 -105 250 -246zM483 234c0 105 -69 189 -178 189c-108 0 -177 -84 -177 -189s69 -188 177 -188c109 0 178 83 178 188zM410 708h44c-5 -83 -65 -132 -147 -132s-142 49 -147 132
h44c9 -52 53 -78 103 -78s94 26 103 78z" />
    <glyph glyph-name="nine.onum" horiz-adv-x="585" 
d="M527 310c0 -171 -168 -377 -312 -494l-57 40c99 76 202 185 252 283l-3 2c-34 -30 -78 -45 -132 -45c-123 0 -215 93 -215 220c0 135 100 229 234 229c135 0 233 -92 233 -235zM293 483c-94 0 -159 -69 -159 -165c0 -93 61 -164 157 -164c94 0 163 69 163 165
c0 92 -66 164 -161 164z" />
    <glyph glyph-name="uni02C9" unicode="&#x2c9;" 
d="M255 854v-54h-270v54h270z" />
    <glyph glyph-name="germandbls.sc" horiz-adv-x="901" 
d="M392 481l-50 -48c-22 30 -60 50 -105 50c-49 0 -105 -25 -105 -86c0 -60 49 -75 109 -94c73 -23 157 -48 157 -154c0 -110 -89 -161 -182 -161c-66 0 -134 27 -173 78l56 47c23 -38 68 -64 118 -64c51 0 110 29 110 93c0 67 -60 82 -127 103c-69 21 -139 52 -139 149
c0 105 93 149 180 149c62 0 119 -25 151 -62zM840 481l-50 -48c-22 30 -60 50 -105 50c-49 0 -105 -25 -105 -86c0 -60 49 -75 109 -94c73 -23 157 -48 157 -154c0 -110 -89 -161 -182 -161c-66 0 -134 27 -173 78l56 47c23 -38 68 -64 118 -64c51 0 110 29 110 93
c0 67 -60 82 -127 103c-69 21 -139 52 -139 149c0 105 93 149 180 149c62 0 119 -25 151 -62z" />
    <glyph glyph-name="mu" unicode="&#xb5;" horiz-adv-x="556" 
d="M72 -228v696h66v-259c0 -115 31 -161 127 -161c80 0 142 65 142 180v240h66v-365c0 -34 3 -69 5 -103h-71v76h-2c-29 -47 -95 -88 -157 -88c-46 0 -83 10 -110 29v-245h-66z" />
    <glyph glyph-name="Racute" unicode="&#x154;" horiz-adv-x="599" 
d="M166 331v-331h-72v708h208c140 0 242 -51 242 -189c0 -105 -78 -171 -181 -182l207 -337h-88l-196 331h-120zM166 646v-253h125c115 0 181 42 181 126c0 93 -71 127 -178 127h-128zM422 908l-132 -144h-59l100 144h91z" />
    <glyph glyph-name="aacute.sc" horiz-adv-x="534" 
d="M136 133l-56 -133h-74l229 531h65l228 -531h-79l-55 133h-258zM266 450l-105 -256h208zM432 738l-132 -144h-59l100 144h91z" />
    <glyph glyph-name="Dcaron" unicode="&#x10e;" horiz-adv-x="757" 
d="M94 0v708h235c177 0 372 -118 372 -354s-195 -354 -372 -354h-235zM166 644v-580h143c213 0 316 144 316 290s-103 290 -316 290h-143zM496 908l-109 -144h-80l-109 144h66l83 -108l83 108h66z" />
    <glyph glyph-name="plusminus" unicode="&#xb1;" horiz-adv-x="666" 
d="M78 347v60h225v156h60v-156h225v-60h-225v-151h-60v151h-225zM78 48v60h510v-60h-510z" />
    <glyph glyph-name="abreve" unicode="&#x103;" horiz-adv-x="534" 
d="M385 287v15c0 81 -44 121 -125 121c-55 0 -106 -22 -139 -55l-38 45c38 38 104 67 184 67c101 0 182 -56 182 -170v-205c0 -36 3 -79 8 -105h-61c-4 23 -7 51 -7 76h-2c-43 -62 -95 -88 -170 -88c-71 0 -162 38 -162 142c0 144 159 157 330 157zM385 234h-20
c-111 0 -240 -12 -240 -101c0 -67 57 -89 110 -89c96 0 150 72 150 155v35zM376 708h44c-5 -83 -65 -132 -147 -132s-142 49 -147 132h44c9 -52 53 -78 103 -78s94 26 103 78z" />
    <glyph glyph-name="q.sc" horiz-adv-x="672" 
d="M641 63v-63h-310c-160 0 -275 107 -275 270c0 159 118 273 275 273s273 -114 273 -273c0 -92 -40 -163 -109 -205v-2h146zM132 270c0 -117 77 -207 199 -207c120 0 199 90 199 207c0 115 -78 212 -199 212c-120 0 -199 -97 -199 -212z" />
    <glyph glyph-name="Aogonek" unicode="&#x104;" horiz-adv-x="700" 
d="M682 -147l19 -40c-23 -22 -57 -36 -90 -36c-47 0 -90 34 -90 85c0 56 48 105 89 138l-78 186h-366l-77 -186h-79l306 708h70l304 -708h-32c-49 -49 -77 -82 -77 -121c0 -28 23 -48 50 -48c18 0 38 8 51 22zM349 628l-156 -376h312z" />
    <glyph glyph-name="lozenge" unicode="&#x25ca;" horiz-adv-x="593" 
d="M498 356l-171 -391h-63l-169 391l169 391h63zM433 356l-137 325l-136 -325l136 -325z" />
    <glyph glyph-name="exclamdown.sc" horiz-adv-x="286" 
d="M178 0h-70v373h70v-373zM196 484c0 -28 -21 -53 -53 -53s-53 25 -53 53s21 53 53 53s53 -25 53 -53z" />
    <glyph glyph-name="zdotaccent" unicode="&#x17c;" horiz-adv-x="442" 
d="M401 468v-48l-280 -361h290v-59h-380v48l279 363h-265v57h356zM270 648c0 -28 -24 -48 -48 -48s-48 20 -48 48s24 48 48 48s48 -20 48 -48z" />
    <glyph glyph-name="jcircumflex.sc" horiz-adv-x="400" 
d="M21 100l66 19c9 -39 37 -67 79 -67c66 0 82 52 82 114v365h70v-368c0 -73 -25 -175 -148 -175c-80 0 -133 47 -149 112zM322 738l109 -144h-66l-83 108l-83 -108h-66l109 144h80z" />
    <glyph glyph-name="Eacute" unicode="&#xc9;" horiz-adv-x="592" 
d="M166 337v-273h379v-64h-451v708h439v-64h-367v-244h343v-63h-343zM456 908l-132 -144h-59l100 144h91z" />
    <glyph glyph-name="Ydieresis" unicode="&#x178;" horiz-adv-x="602" 
d="M337 305v-305h-72v305l-265 403h90l213 -343l215 343h84zM156 847c0 26 21 51 51 51s51 -25 51 -51s-21 -51 -51 -51s-51 25 -51 51zM348 847c0 26 21 51 51 51s51 -25 51 -51s-21 -51 -51 -51s-51 25 -51 51z" />
    <glyph glyph-name="zacute" unicode="&#x17a;" horiz-adv-x="442" 
d="M401 468v-48l-280 -361h290v-59h-380v48l279 363h-265v57h356zM373 708l-132 -144h-59l100 144h91z" />
    <glyph glyph-name="Zacute" unicode="&#x179;" horiz-adv-x="572" 
d="M535 708v-60l-413 -584h419v-64h-510v60l414 584h-403v64h493zM431 908l-132 -144h-59l100 144h91z" />
    <glyph glyph-name="minus" unicode="&#x2212;" horiz-adv-x="666" 
d="M588 333v-60h-510v60h510z" />
    <glyph glyph-name="uogonek" unicode="&#x173;" horiz-adv-x="581" 
d="M503 -147l19 -40c-23 -22 -57 -36 -90 -36c-47 0 -90 34 -90 85c0 56 48 105 89 138h-1c-2 25 -4 60 -4 80h-2c-26 -54 -94 -92 -160 -92c-119 0 -178 77 -178 193v287h68v-259c0 -98 29 -164 127 -164c72 0 142 58 142 183v240h68v-365c0 -25 1 -71 4 -103h-16
c-49 -49 -77 -82 -77 -121c0 -28 23 -48 50 -48c18 0 38 8 51 22z" />
    <glyph glyph-name="Dcroat" unicode="&#x110;" horiz-adv-x="757" 
d="M86 0v347h-73v54h73v307h235c177 0 372 -118 372 -354s-195 -354 -372 -354h-235zM158 347v-281h140c216 0 317 142 317 288s-101 288 -317 288h-140v-241h258v-54h-258z" />
    <glyph glyph-name="lacute.sc" horiz-adv-x="421" 
d="M160 531v-468h239v-63h-309v531h70zM288 738l-132 -144h-59l100 144h91z" />
    <glyph glyph-name="uni2215" unicode="&#x2215;" horiz-adv-x="100" 
d="M297 712l-450 -743l-52 27l451 743z" />
    <glyph glyph-name="Uogonek" unicode="&#x172;" horiz-adv-x="710" 
d="M355 -18c-212 0 -265 164 -265 282v444h72v-436c0 -114 49 -226 193 -226s193 112 193 226v436h72v-444c0 -106 -43 -249 -204 -277c-41 -42 -64 -72 -64 -108c0 -28 23 -48 50 -48c18 0 38 8 51 22l19 -40c-23 -22 -57 -36 -90 -36c-47 0 -90 34 -90 85
c0 47 33 89 68 120h-5z" />
    <glyph glyph-name="ecaron" unicode="&#x11b;" horiz-adv-x="572" 
d="M128 270h319c-4 88 -58 153 -155 153c-91 0 -158 -73 -164 -153zM516 248c0 -9 0 -20 -1 -32h-388c2 -94 75 -170 171 -170c70 0 124 39 150 81l51 -40c-55 -70 -124 -99 -201 -99c-139 0 -242 105 -242 246s103 246 236 246c147 0 224 -104 224 -232zM443 708l-109 -144
h-80l-109 144h66l83 -108l83 108h66z" />
    <glyph glyph-name="Amacron" unicode="&#x100;" horiz-adv-x="700" 
d="M166 186l-77 -186h-79l306 708h70l304 -708h-80l-78 186h-366zM349 628l-156 -376h312zM486 854v-54h-270v54h270z" />
    <glyph glyph-name="zacute.sc" horiz-adv-x="498" 
d="M440 531v-60l-301 -408h306v-63h-392v61l300 408h-294v62h381zM369 738l-132 -144h-59l100 144h91z" />
    <glyph glyph-name="Odieresis" unicode="&#xd6;" horiz-adv-x="850" 
d="M794 354c0 -215 -158 -372 -369 -372s-369 157 -369 372s158 372 369 372s369 -157 369 -372zM718 354c0 165 -111 309 -293 309s-293 -144 -293 -309s111 -308 293 -308s293 143 293 308zM278 847c0 26 21 51 51 51s51 -25 51 -51s-21 -51 -51 -51s-51 25 -51 51z
M470 847c0 26 21 51 51 51s51 -25 51 -51s-21 -51 -51 -51s-51 25 -51 51z" />
    <glyph glyph-name="six.onum" horiz-adv-x="585" 
d="M525 212c0 -135 -100 -229 -233 -229c-136 0 -234 92 -234 236c0 170 168 376 312 494l57 -40c-99 -77 -202 -190 -252 -288l3 -2c31 32 78 49 132 49c123 0 215 -93 215 -220zM294 374c-94 0 -162 -68 -162 -165c0 -92 65 -164 160 -164c94 0 160 69 160 165
c0 94 -62 164 -158 164z" />
    <glyph glyph-name="approxequal" unicode="&#x2248;" horiz-adv-x="666" 
d="M596 402c-7 -70 -44 -137 -123 -137c-43 0 -95 18 -145 37c-49 18 -97 36 -133 36c-45 0 -73 -39 -79 -80h-45c9 70 43 139 124 139c44 0 94 -18 143 -36c50 -19 98 -37 136 -37c48 0 70 36 79 78h43zM596 232c-8 -70 -44 -138 -124 -138c-43 0 -95 18 -144 37
c-49 18 -97 36 -133 36c-45 0 -73 -39 -79 -80h-45c10 69 42 140 123 140c44 0 94 -18 144 -36c49 -19 98 -37 136 -37c47 0 69 36 78 78h44z" />
    <glyph glyph-name="Uring" unicode="&#x16e;" horiz-adv-x="710" 
d="M355 -18c-212 0 -265 164 -265 282v444h72v-436c0 -114 49 -226 193 -226s193 112 193 226v436h72v-444c0 -118 -53 -282 -265 -282zM453 850c0 -54 -44 -95 -96 -95s-96 41 -96 95s44 95 96 95s96 -41 96 -95zM417 850c0 33 -27 59 -60 59s-60 -26 -60 -59
s27 -59 60 -59s60 26 60 59z" />
    <glyph glyph-name="k.sc" horiz-adv-x="523" 
d="M160 531v-235h2l239 235h99l-260 -243l275 -288h-102l-251 276h-2v-276h-70v531h70z" />
    <glyph glyph-name="tcommaaccent.sc" horiz-adv-x="438" 
d="M253 469v-469h-70v469h-171v62h414v-62h-173zM270 -45l-76 -185h-57l62 185h71z" />
    <glyph glyph-name="udieresis" unicode="&#xfc;" horiz-adv-x="581" 
d="M495 0h-65c-2 25 -4 60 -4 80h-2c-26 -54 -94 -92 -160 -92c-119 0 -178 77 -178 193v287h68v-259c0 -98 29 -164 127 -164c72 0 142 58 142 183v240h68v-365c0 -25 1 -71 4 -103zM142 647c0 26 21 51 51 51s51 -25 51 -51s-21 -51 -51 -51s-51 25 -51 51zM334 647
c0 26 21 51 51 51s51 -25 51 -51s-21 -51 -51 -51s-51 25 -51 51z" />
    <glyph glyph-name="scircumflex" unicode="&#x15d;" horiz-adv-x="444" 
d="M391 396l-52 -39c-20 39 -63 66 -115 66c-49 0 -99 -21 -99 -73c0 -44 35 -64 112 -80c110 -23 162 -64 162 -137c0 -107 -90 -145 -176 -145c-71 0 -142 28 -185 91l54 40c24 -41 75 -73 130 -73c58 0 110 21 110 82c0 49 -49 69 -138 90c-55 13 -134 37 -134 126
c0 95 82 136 167 136c65 0 134 -31 164 -84zM270 708l109 -144h-66l-83 108l-83 -108h-66l109 144h80z" />
    <glyph glyph-name="r.sc" horiz-adv-x="497" 
d="M160 237v-237h-70v531h168c103 0 187 -39 187 -146c0 -78 -54 -127 -130 -139l149 -246h-85l-138 237h-81zM160 469v-171h87c73 0 127 23 127 87c0 65 -55 84 -122 84h-92z" />
    <glyph glyph-name="integral" unicode="&#x222b;" horiz-adv-x="543" 
d="M406 736c0 -22 -16 -34 -37 -34c-36 0 -34 40 -52 40c-47 0 -34 -171 -34 -191v-504c0 -85 6 -260 -122 -260c-28 0 -60 14 -60 47c0 18 15 32 33 32c34 0 33 -38 50 -38c36 0 32 144 32 159l1 21v495c0 92 -22 283 119 283c30 0 70 -13 70 -50z" />
    <glyph glyph-name="yacute" unicode="&#xfd;" horiz-adv-x="488" 
d="M92 468l159 -395h2l145 395h74l-233 -589c-28 -72 -66 -119 -147 -119c-20 0 -41 2 -61 6l7 62c15 -5 32 -8 50 -8c46 0 70 30 90 83l38 98l-200 467h76zM399 708l-132 -144h-59l100 144h91z" />
    <glyph glyph-name="lslash.sc" horiz-adv-x="421" 
d="M160 531v-164l123 102v-70l-123 -102v-234h239v-63h-309v239l-82 -67v70l82 67v222h70z" />
    <glyph glyph-name="Umacron" unicode="&#x16a;" horiz-adv-x="710" 
d="M355 -18c-212 0 -265 164 -265 282v444h72v-436c0 -114 49 -226 193 -226s193 112 193 226v436h72v-444c0 -118 -53 -282 -265 -282zM491 854v-54h-270v54h270z" />
    <glyph glyph-name="scaron.sc" horiz-adv-x="450" 
d="M389 481l-50 -48c-22 30 -60 50 -105 50c-49 0 -105 -25 -105 -86c0 -60 49 -75 109 -94c73 -23 157 -48 157 -154c0 -110 -89 -161 -182 -161c-66 0 -134 27 -173 78l56 47c23 -38 68 -64 118 -64c51 0 110 29 110 93c0 67 -60 82 -127 103c-69 21 -139 52 -139 149
c0 105 93 149 180 149c62 0 119 -25 151 -62zM385 738l-109 -144h-80l-109 144h66l83 -108l83 108h66z" />
    <glyph glyph-name="iacute" unicode="&#xed;" horiz-adv-x="250" 
d="M159 468v-468h-68v468h68zM282 708l-132 -144h-59l100 144h91z" />
    <glyph glyph-name="icircumflex.sc" horiz-adv-x="250" 
d="M160 531v-531h-70v531h70zM164 738l109 -144h-66l-83 108l-83 -108h-66l109 144h80z" />
    <glyph glyph-name="itilde.sc" horiz-adv-x="250" 
d="M160 531v-531h-70v531h70zM5 611h-43c9 52 32 104 92 104c24 0 49 -11 73 -23c24 -11 47 -23 67 -23c30 0 43 25 49 50h43c-9 -52 -32 -104 -92 -104c-24 0 -50 11 -73 23s-46 23 -67 23c-30 0 -43 -25 -49 -50z" />
    <glyph glyph-name="Edieresis" unicode="&#xcb;" horiz-adv-x="592" 
d="M166 337v-273h379v-64h-451v708h439v-64h-367v-244h343v-63h-343zM169 847c0 26 21 51 51 51s51 -25 51 -51s-21 -51 -51 -51s-51 25 -51 51zM361 847c0 26 21 51 51 51s51 -25 51 -51s-21 -51 -51 -51s-51 25 -51 51z" />
    <glyph glyph-name="Ograve" unicode="&#xd2;" horiz-adv-x="850" 
d="M794 354c0 -215 -158 -372 -369 -372s-369 157 -369 372s158 372 369 372s369 -157 369 -372zM718 354c0 165 -111 309 -293 309s-293 -144 -293 -309s111 -308 293 -308s293 143 293 308zM439 764l-132 144h91l100 -144h-59z" />
    <glyph glyph-name="Scaron" unicode="&#x160;" horiz-adv-x="564" 
d="M494 640l-57 -46c-30 43 -79 71 -146 71c-70 0 -151 -42 -151 -133c0 -90 75 -113 154 -139c100 -33 210 -65 210 -207s-119 -204 -231 -204c-86 0 -172 35 -223 105l62 46c31 -50 88 -89 162 -89c73 0 157 46 157 137c0 99 -83 124 -173 152c-94 29 -190 70 -190 198
c0 137 122 195 226 195c95 0 166 -40 200 -86zM435 908l-109 -144h-80l-109 144h66l83 -108l83 108h66z" />
    <glyph glyph-name="s.sc" horiz-adv-x="450" 
d="M389 481l-50 -48c-22 30 -60 50 -105 50c-49 0 -105 -25 -105 -86c0 -60 49 -75 109 -94c73 -23 157 -48 157 -154c0 -110 -89 -161 -182 -161c-66 0 -134 27 -173 78l56 47c23 -38 68 -64 118 -64c51 0 110 29 110 93c0 67 -60 82 -127 103c-69 21 -139 52 -139 149
c0 105 93 149 180 149c62 0 119 -25 151 -62z" />
    <glyph glyph-name="ldot" unicode="&#x140;" horiz-adv-x="312" 
d="M160 756v-756h-68v756h68zM312 458c0 -28 -24 -48 -48 -48s-48 20 -48 48s24 48 48 48s48 -20 48 -48z" />
    <glyph glyph-name="hbar.sc" horiz-adv-x="615" 
d="M90 0v531h70v-106h295v106h70v-531h-70v245h-295v-245h-70zM160 306h295v79h-295v-79z" />
    <glyph glyph-name="y.sc" horiz-adv-x="468" 
d="M268 230v-230h-70v230l-198 301h84l150 -243l150 243h84z" />
    <glyph glyph-name="kcommaaccent.sc" horiz-adv-x="523" 
d="M160 531v-235h2l239 235h99l-260 -243l275 -288h-102l-251 276h-2v-276h-70v531h70zM322 -45l-76 -185h-57l62 185h71z" />
    <glyph glyph-name="Ugrave" unicode="&#xd9;" horiz-adv-x="710" 
d="M355 -18c-212 0 -265 164 -265 282v444h72v-436c0 -114 49 -226 193 -226s193 112 193 226v436h72v-444c0 -118 -53 -282 -265 -282zM356 764l-132 144h91l100 -144h-59z" />
    <glyph glyph-name="afii61289" unicode="&#x2113;" horiz-adv-x="500" 
d="M415 41c-40 -37 -83 -55 -130 -55c-73 0 -127 42 -127 128v114l-58 -62h-2l-26 37l86 84v259c0 111 57 175 129 175c64 0 110 -48 110 -128c0 -98 -60 -204 -171 -318v-150c0 -69 41 -87 75 -87c27 0 58 11 88 38h2zM340 588c0 51 -23 85 -53 85c-31 0 -61 -36 -61 -116
v-222c74 86 114 178 114 253z" />
    <glyph glyph-name="Egrave" unicode="&#xc8;" horiz-adv-x="592" 
d="M166 337v-273h379v-64h-451v708h439v-64h-367v-244h343v-63h-343zM316 764l-132 144h91l100 -144h-59z" />
    <glyph glyph-name="lcaron" unicode="&#x13e;" horiz-adv-x="291" 
d="M160 756v-756h-68v756h68zM350 708l-76 -185h-57l62 185h71z" />
    <glyph glyph-name="zdotaccent.sc" horiz-adv-x="498" 
d="M440 531v-60l-301 -408h306v-63h-392v61l300 408h-294v62h381zM296 678c0 -28 -24 -48 -48 -48s-48 20 -48 48s24 48 48 48s48 -20 48 -48z" />
    <glyph glyph-name="Acircumflex" unicode="&#xc2;" horiz-adv-x="700" 
d="M166 186l-77 -186h-79l306 708h70l304 -708h-80l-78 186h-366zM349 628l-156 -376h312zM389 908l109 -144h-66l-83 108l-83 -108h-66l109 144h80z" />
    <glyph glyph-name="uni00AD" unicode="&#xad;" horiz-adv-x="320" 
d="M272 271v-57h-224v57h224z" />
    <glyph glyph-name="tcaron" unicode="&#x165;" horiz-adv-x="327" 
d="M301 468v-57h-132v-273c0 -70 29 -86 70 -86c19 0 41 6 59 15l3 -59c-24 -9 -49 -14 -80 -14c-50 0 -120 22 -120 125v292h-97v57h97v132h68v-132h132zM358 731l-76 -185h-57l62 185h71z" />
    <glyph glyph-name="Tbar" unicode="&#x166;" horiz-adv-x="570" 
d="M73 543h176v101h-237v64h546v-64h-237v-101h166v-50h-166v-493h-72v493h-176v50z" />
    <glyph glyph-name="exclam.sc" horiz-adv-x="286" 
d="M178 531v-373h-70v373h70zM196 47c0 -28 -21 -53 -53 -53s-53 25 -53 53s21 53 53 53s53 -25 53 -53z" />
    <glyph glyph-name="a.sc" horiz-adv-x="534" 
d="M136 133l-56 -133h-74l229 531h65l228 -531h-79l-55 133h-258zM266 450l-105 -256h208z" />
    <glyph glyph-name="Omacron" unicode="&#x14c;" horiz-adv-x="850" 
d="M794 354c0 -215 -158 -372 -369 -372s-369 157 -369 372s158 372 369 372s369 -157 369 -372zM718 354c0 165 -111 309 -293 309s-293 -144 -293 -309s111 -308 293 -308s293 143 293 308zM564 854v-54h-270v54h270z" />
    <glyph glyph-name="Obreve" unicode="&#x14e;" horiz-adv-x="850" 
d="M794 354c0 -215 -158 -372 -369 -372s-369 157 -369 372s158 372 369 372s369 -157 369 -372zM718 354c0 165 -111 309 -293 309s-293 -144 -293 -309s111 -308 293 -308s293 143 293 308zM531 908h44c-5 -83 -65 -132 -147 -132s-142 49 -147 132h44
c9 -52 53 -78 103 -78s94 26 103 78z" />
    <glyph glyph-name="h.sc" horiz-adv-x="615" 
d="M90 0v531h70v-225h295v225h70v-531h-70v245h-295v-245h-70z" />
    <glyph glyph-name="m.sc" horiz-adv-x="724" 
d="M200 531l163 -414h2l160 414h109v-531h-70v447h-2l-179 -447h-43l-179 447h-1v-447h-70v531h110z" />
    <glyph glyph-name="kcommaaccent" unicode="&#x137;" horiz-adv-x="510" 
d="M160 756v-499h3l216 211h98l-236 -214l260 -254h-100l-238 246h-3v-246h-68v756h68zM329 -45l-76 -185h-57l62 185h71z" />
    <glyph glyph-name="tilde.sc" 
d="M1 611h-43c9 52 32 104 92 104c24 0 49 -11 73 -23c24 -11 47 -23 67 -23c30 0 43 25 49 50h43c-9 -52 -32 -104 -92 -104c-24 0 -50 11 -73 23s-46 23 -67 23c-30 0 -43 -25 -49 -50z" />
    <glyph glyph-name="hcircumflex" unicode="&#x125;" horiz-adv-x="583" 
d="M160 391h2c25 54 91 89 157 89c119 0 178 -77 178 -193v-287h-68v259c0 98 -29 164 -127 164c-72 0 -142 -58 -142 -183v-240h-68v756h68v-365zM328 940l109 -144h-66l-83 108l-83 -108h-66l109 144h80z" />
    <glyph glyph-name="ubreve" unicode="&#x16d;" horiz-adv-x="581" 
d="M495 0h-65c-2 25 -4 60 -4 80h-2c-26 -54 -94 -92 -160 -92c-119 0 -178 77 -178 193v287h68v-259c0 -98 29 -164 127 -164c72 0 142 58 142 183v240h68v-365c0 -25 1 -71 4 -103zM395 708h44c-5 -83 -65 -132 -147 -132s-142 49 -147 132h44c9 -52 53 -78 103 -78
s94 26 103 78z" />
    <glyph glyph-name="Rcaron" unicode="&#x158;" horiz-adv-x="599" 
d="M166 331v-331h-72v708h208c140 0 242 -51 242 -189c0 -105 -78 -171 -181 -182l207 -337h-88l-196 331h-120zM166 646v-253h125c115 0 181 42 181 126c0 93 -71 127 -178 127h-128zM437 908l-109 -144h-80l-109 144h66l83 -108l83 108h66z" />
    <glyph glyph-name="Thorn" unicode="&#xde;" horiz-adv-x="580" 
d="M94 0v708h72v-155h128c144 0 239 -62 239 -189s-97 -190 -241 -190h-126v-174h-72zM166 489v-252h116c112 0 173 43 173 127c0 87 -64 125 -173 125h-116z" />
    <glyph glyph-name="grave.cap" 
d="M122 764l-132 144h91l100 -144h-59z" />
    <glyph glyph-name="Scedilla" unicode="&#x15e;" horiz-adv-x="564" 
d="M494 640l-57 -46c-30 43 -79 71 -146 71c-70 0 -151 -42 -151 -133c0 -90 75 -113 154 -139c100 -33 210 -65 210 -207c0 -131 -101 -194 -205 -203l-36 -58c10 3 20 4 35 4c40 0 82 -24 82 -72c0 -67 -64 -87 -118 -87c-27 0 -66 7 -94 20l16 36c22 -10 47 -14 72 -14
c21 0 64 11 64 44c0 26 -21 39 -54 39c-14 0 -30 -3 -43 -8l-18 15l51 81c-80 4 -159 38 -206 104l62 46c31 -50 88 -89 162 -89c73 0 157 46 157 137c0 99 -83 124 -173 152c-94 29 -190 70 -190 198c0 137 122 195 226 195c95 0 166 -40 200 -86z" />
    <glyph glyph-name="Gbreve" unicode="&#x11e;" horiz-adv-x="779" 
d="M681 631l-50 -50c-49 52 -117 82 -205 82c-182 0 -294 -144 -294 -309s112 -308 294 -308c80 0 150 19 191 46v215h-165v63h237v-319c-77 -46 -168 -69 -264 -69c-214 0 -369 157 -369 372s158 372 369 372c112 0 196 -36 256 -95zM529 908h44c-5 -83 -65 -132 -147 -132
s-142 49 -147 132h44c9 -52 53 -78 103 -78s94 26 103 78z" />
    <glyph glyph-name="acircumflex" unicode="&#xe2;" horiz-adv-x="534" 
d="M385 287v15c0 81 -44 121 -125 121c-55 0 -106 -22 -139 -55l-38 45c38 38 104 67 184 67c101 0 182 -56 182 -170v-205c0 -36 3 -79 8 -105h-61c-4 23 -7 51 -7 76h-2c-43 -62 -95 -88 -170 -88c-71 0 -162 38 -162 142c0 144 159 157 330 157zM385 234h-20
c-111 0 -240 -12 -240 -101c0 -67 57 -89 110 -89c96 0 150 72 150 155v35zM309 708l109 -144h-66l-83 108l-83 -108h-66l109 144h80z" />
    <glyph glyph-name="Agrave" unicode="&#xc0;" horiz-adv-x="700" 
d="M166 186l-77 -186h-79l306 708h70l304 -708h-80l-78 186h-366zM349 628l-156 -376h312zM324 764l-132 144h91l100 -144h-59z" />
    <glyph glyph-name="Aacute" unicode="&#xc1;" horiz-adv-x="700" 
d="M166 186l-77 -186h-79l306 708h70l304 -708h-80l-78 186h-366zM349 628l-156 -376h312zM511 908l-132 -144h-59l100 144h91z" />
    <glyph glyph-name="seven.onum" horiz-adv-x="516" 
d="M470 465c-106 -215 -226 -479 -294 -648l-73 19c74 171 216 475 294 630h-348v65h421v-66z" />
    <glyph glyph-name="tbar.sc" horiz-adv-x="438" 
d="M66 315v45h117v109h-171v62h414v-62h-173v-109h119v-45h-119v-315h-70v315h-117z" />
    <glyph glyph-name="acute.cap" 
d="M250 908l-132 -144h-59l100 144h91z" />
    <glyph glyph-name="Emacron" unicode="&#x112;" horiz-adv-x="592" 
d="M166 337v-273h379v-64h-451v708h439v-64h-367v-244h343v-63h-343zM452 854v-54h-270v54h270z" />
    <glyph glyph-name="wcircumflex.sc" horiz-adv-x="766" 
d="M97 531l120 -429h2l125 429h79l125 -429h2l119 429h75l-156 -531h-75l-129 432h-1l-131 -432h-74l-156 531h75zM424 738l109 -144h-66l-83 108l-83 -108h-66l109 144h80z" />
    <glyph glyph-name="ebreve.sc" horiz-adv-x="499" 
d="M160 245v-182h279v-63h-349v531h338v-62h-268v-163h252v-61h-252zM361 738h44c-5 -83 -65 -132 -147 -132s-142 49 -147 132h44c9 -52 53 -78 103 -78s94 26 103 78z" />
    <glyph glyph-name="ncommaaccent.sc" horiz-adv-x="613" 
d="M181 531l270 -429h2v429h70v-531h-88l-274 438h-1v-438h-70v531h91zM354 -45l-76 -185h-57l62 185h71z" />
    <glyph glyph-name="logicalnot" unicode="&#xac;" horiz-adv-x="666" 
d="M588 408v-278h-60v218h-450v60h510z" />
    <glyph glyph-name="Ccedilla" unicode="&#xc7;" horiz-adv-x="720" 
d="M634 150l56 -36c-47 -71 -138 -132 -265 -132l-35 -57c10 3 20 4 35 4c40 0 82 -24 82 -72c0 -67 -64 -87 -118 -87c-27 0 -66 7 -94 20l16 36c22 -10 47 -14 72 -14c21 0 64 11 64 44c0 26 -21 39 -54 39c-14 0 -30 -3 -43 -8l-18 15l52 82c-193 19 -328 169 -328 370
c0 215 158 372 369 372c104 0 203 -43 252 -112l-60 -44c-30 46 -101 93 -191 93c-183 0 -294 -144 -294 -309s112 -309 294 -309c81 0 159 32 208 105z" />
    <glyph glyph-name="three.onum" horiz-adv-x="527" 
d="M464 71c0 -158 -122 -241 -280 -241c-35 0 -75 2 -105 9l11 64c27 -7 63 -10 92 -10c123 0 209 56 209 173c0 94 -70 150 -178 150c-33 0 -69 -6 -102 -16l-15 54c79 60 207 163 260 212v4h-284v61h369v-69c-54 -51 -163 -138 -235 -193v-4c13 3 26 5 42 5
c119 0 216 -79 216 -199z" />
    <glyph glyph-name="Rcommaaccent" unicode="&#x156;" horiz-adv-x="599" 
d="M166 331v-331h-72v708h208c140 0 242 -51 242 -189c0 -105 -78 -171 -181 -182l207 -337h-88l-196 331h-120zM166 646v-253h125c115 0 181 42 181 126c0 93 -71 127 -178 127h-128zM366 -45l-76 -185h-57l62 185h71z" />
    <glyph glyph-name="Gcircumflex" unicode="&#x11c;" horiz-adv-x="779" 
d="M681 631l-50 -50c-49 52 -117 82 -205 82c-182 0 -294 -144 -294 -309s112 -308 294 -308c80 0 150 19 191 46v215h-165v63h237v-319c-77 -46 -168 -69 -264 -69c-214 0 -369 157 -369 372s158 372 369 372c112 0 196 -36 256 -95zM470 908l109 -144h-66l-83 108
l-83 -108h-66l109 144h80z" />
    <glyph glyph-name="Uhungarumlaut" unicode="&#x170;" horiz-adv-x="710" 
d="M355 -18c-212 0 -265 164 -265 282v444h72v-436c0 -114 49 -226 193 -226s193 112 193 226v436h72v-444c0 -118 -53 -282 -265 -282zM425 908l-133 -144h-59l101 144h91zM595 908l-132 -144h-59l100 144h91z" />
    <glyph glyph-name="partialdiff" unicode="&#x2202;" horiz-adv-x="496" 
d="M455 363c0 -147 -32 -375 -225 -375c-125 0 -199 107 -199 224c0 116 72 213 194 213c65 0 125 -34 166 -84c0 17 1 35 1 52c0 111 -41 273 -179 273c-46 0 -77 -19 -112 -46l-36 43c43 37 88 58 145 58c192 0 245 -202 245 -358zM386 278c-36 48 -92 91 -155 91
c-90 0 -137 -76 -137 -159c0 -80 46 -169 137 -169c116 0 150 146 155 237z" />
    <glyph glyph-name="Delta" unicode="&#x2206;" horiz-adv-x="670" 
d="M657 0h-642l281 712h74zM561 62l-229 583l-226 -583h455z" />
    <glyph glyph-name="agrave" unicode="&#xe0;" horiz-adv-x="534" 
d="M385 287v15c0 81 -44 121 -125 121c-55 0 -106 -22 -139 -55l-38 45c38 38 104 67 184 67c101 0 182 -56 182 -170v-205c0 -36 3 -79 8 -105h-61c-4 23 -7 51 -7 76h-2c-43 -62 -95 -88 -170 -88c-71 0 -162 38 -162 142c0 144 159 157 330 157zM385 234h-20
c-111 0 -240 -12 -240 -101c0 -67 57 -89 110 -89c96 0 150 72 150 155v35zM276 564l-132 144h91l100 -144h-59z" />
    <glyph glyph-name="one.onum" horiz-adv-x="385" 
d="M253 0h-71v441l-98 -83l-42 49l149 124h62v-531z" />
    <glyph glyph-name="ntilde.sc" horiz-adv-x="613" 
d="M181 531l270 -429h2v429h70v-531h-88l-274 438h-1v-438h-70v531h91zM187 611h-43c9 52 32 104 92 104c24 0 49 -11 73 -23c24 -11 47 -23 67 -23c30 0 43 25 49 50h43c-9 -52 -32 -104 -92 -104c-24 0 -50 11 -73 23s-46 23 -67 23c-30 0 -43 -25 -49 -50z" />
    <glyph glyph-name="w.sc" horiz-adv-x="766" 
d="M97 531l120 -429h2l125 429h79l125 -429h2l119 429h75l-156 -531h-75l-129 432h-1l-131 -432h-74l-156 531h75z" />
    <glyph glyph-name="acute.sc" 
d="M250 738l-132 -144h-59l100 144h91z" />
    <glyph glyph-name="Tcaron" unicode="&#x164;" horiz-adv-x="570" 
d="M321 644v-644h-72v644h-237v64h546v-64h-237zM434 908l-109 -144h-80l-109 144h66l83 -108l83 108h66z" />
    <glyph glyph-name="scaron" unicode="&#x161;" horiz-adv-x="444" 
d="M391 396l-52 -39c-20 39 -63 66 -115 66c-49 0 -99 -21 -99 -73c0 -44 35 -64 112 -80c110 -23 162 -64 162 -137c0 -107 -90 -145 -176 -145c-71 0 -142 28 -185 91l54 40c24 -41 75 -73 130 -73c58 0 110 21 110 82c0 49 -49 69 -138 90c-55 13 -134 37 -134 126
c0 95 82 136 167 136c65 0 134 -31 164 -84zM379 708l-109 -144h-80l-109 144h66l83 -108l83 108h66z" />
    <glyph glyph-name="CR" unicode="&#xd;" horiz-adv-x="0" 
 />
    <glyph glyph-name="Lcaron" unicode="&#x13d;" horiz-adv-x="510" 
d="M166 708v-644h330v-64h-402v708h72zM376 708l-76 -185h-57l62 185h71z" />
    <glyph glyph-name="scedilla" unicode="&#x15f;" horiz-adv-x="444" 
d="M391 396l-52 -39c-20 39 -63 66 -115 66c-49 0 -99 -21 -99 -73c0 -44 35 -64 112 -80c110 -23 162 -64 162 -137c0 -95 -71 -135 -148 -143l-40 -65c10 3 20 4 35 4c40 0 82 -24 82 -72c0 -67 -64 -87 -118 -87c-27 0 -66 7 -94 20l16 36c22 -10 47 -14 72 -14
c21 0 64 11 64 44c0 26 -21 39 -54 39c-14 0 -30 -3 -43 -8l-18 15l54 87c-65 4 -129 31 -169 90l54 40c24 -41 75 -73 130 -73c58 0 110 21 110 82c0 49 -49 69 -138 90c-55 13 -134 37 -134 126c0 95 82 136 167 136c65 0 134 -31 164 -84z" />
    <glyph glyph-name="onequarter" unicode="&#xbc;" horiz-adv-x="840" 
d="M723 422v-270h60v-54h-60v-98h-55v98h-188v52l175 272h68zM668 340h-3l-122 -188h125v188zM232 708v-422h-61v346l-64 -57l-38 41l112 92h51zM667 712l-450 -743l-52 27l451 743z" />
    <glyph glyph-name="Imacron" unicode="&#x12a;" horiz-adv-x="260" 
d="M166 708v-708h-72v708h72zM266 854v-54h-270v54h270z" />
    <glyph glyph-name="Sacute" unicode="&#x15a;" horiz-adv-x="564" 
d="M494 640l-57 -46c-30 43 -79 71 -146 71c-70 0 -151 -42 -151 -133c0 -90 75 -113 154 -139c100 -33 210 -65 210 -207s-119 -204 -231 -204c-86 0 -172 35 -223 105l62 46c31 -50 88 -89 162 -89c73 0 157 46 157 137c0 99 -83 124 -173 152c-94 29 -190 70 -190 198
c0 137 122 195 226 195c95 0 166 -40 200 -86zM434 908l-132 -144h-59l100 144h91z" />
    <glyph glyph-name="Zdotaccent" unicode="&#x17b;" horiz-adv-x="572" 
d="M535 708v-60l-413 -584h419v-64h-510v60l414 584h-403v64h493zM333 848c0 -28 -24 -48 -48 -48s-48 20 -48 48s24 48 48 48s48 -20 48 -48z" />
    <glyph glyph-name="four.sc" horiz-adv-x="484" 
d="M349 531v-346h75v-61h-75v-124h-66v124h-232v61l218 346h80zM283 185v257h-2l-155 -257h157z" />
    <glyph glyph-name="Abreve" unicode="&#x102;" horiz-adv-x="700" 
d="M166 186l-77 -186h-79l306 708h70l304 -708h-80l-78 186h-366zM349 628l-156 -376h312zM454 908h44c-5 -83 -65 -132 -147 -132s-142 49 -147 132h44c9 -52 53 -78 103 -78s94 26 103 78z" />
    <glyph glyph-name="Euro.sc" horiz-adv-x="484" 
d="M405 455c-34 18 -64 25 -97 25c-71 0 -128 -45 -148 -133h214l-17 -52h-204c-2 -17 -3 -30 -3 -41c0 -9 1 -20 2 -30h186l-17 -52h-160c12 -64 65 -123 135 -123c36 0 72 9 108 35l27 -53c-42 -31 -83 -43 -136 -43c-122 0 -192 95 -206 184h-62l19 52h36
c0 1 -1 19 -1 25c0 14 1 36 2 46h-55l19 52h43c25 121 112 196 219 196c43 0 82 -9 120 -31z" />
    <glyph glyph-name="dotaccent.cap" 
d="M168 848c0 -28 -24 -48 -48 -48s-48 20 -48 48s24 48 48 48s48 -20 48 -48z" />
    <glyph glyph-name="infinity" unicode="&#x221e;" horiz-adv-x="741" 
d="M700 252c0 -83 -54 -148 -140 -148c-77 0 -137 57 -189 107c-58 -48 -109 -107 -190 -107c-84 0 -140 63 -140 145c0 81 53 148 138 148c78 0 139 -62 192 -112c53 50 108 113 187 113c85 0 142 -63 142 -146zM643 249c0 51 -29 92 -83 92c-56 0 -112 -57 -151 -93
c42 -37 94 -86 154 -86c51 0 80 38 80 87zM333 249c-40 34 -99 91 -155 91c-51 0 -80 -43 -80 -90c0 -51 31 -88 84 -88s115 52 151 87z" />
    <glyph glyph-name="aogonek.sc" horiz-adv-x="534" 
d="M521 -147l19 -40c-23 -22 -57 -36 -90 -36c-47 0 -90 34 -90 85c0 56 48 105 89 138l-55 133h-258l-56 -133h-74l229 531h65l228 -531h-31c-49 -49 -77 -82 -77 -121c0 -28 23 -48 50 -48c18 0 38 8 51 22zM266 450l-105 -256h208z" />
    <glyph glyph-name="uni0394" unicode="&#x394;" horiz-adv-x="670" 
d="M657 0h-642l281 712h74zM561 62l-229 583l-226 -583h455z" />
    <glyph glyph-name="Ohungarumlaut" unicode="&#x150;" horiz-adv-x="850" 
d="M794 354c0 -215 -158 -372 -369 -372s-369 157 -369 372s158 372 369 372s369 -157 369 -372zM718 354c0 165 -111 309 -293 309s-293 -144 -293 -309s111 -308 293 -308s293 143 293 308zM501 908l-133 -144h-59l101 144h91zM671 908l-132 -144h-59l100 144h91z" />
    <glyph glyph-name="adieresis" unicode="&#xe4;" horiz-adv-x="534" 
d="M385 287v15c0 81 -44 121 -125 121c-55 0 -106 -22 -139 -55l-38 45c38 38 104 67 184 67c101 0 182 -56 182 -170v-205c0 -36 3 -79 8 -105h-61c-4 23 -7 51 -7 76h-2c-43 -62 -95 -88 -170 -88c-71 0 -162 38 -162 142c0 144 159 157 330 157zM385 234h-20
c-111 0 -240 -12 -240 -101c0 -67 57 -89 110 -89c96 0 150 72 150 155v35zM119 647c0 26 21 51 51 51s51 -25 51 -51s-21 -51 -51 -51s-51 25 -51 51zM311 647c0 26 21 51 51 51s51 -25 51 -51s-21 -51 -51 -51s-51 25 -51 51z" />
    <glyph glyph-name="Omega" unicode="&#x2126;" horiz-adv-x="744" 
d="M685 0h-251v181c121 21 184 115 184 234c0 143 -110 245 -252 245c-141 0 -252 -103 -252 -245c0 -118 63 -215 184 -234v-181h-251v58h197v82c-125 35 -197 149 -197 276c0 178 147 305 320 305s318 -127 318 -304c0 -128 -70 -242 -197 -277v-82h197v-58z" />
    <glyph glyph-name="Ebreve" unicode="&#x114;" horiz-adv-x="592" 
d="M166 337v-273h379v-64h-451v708h439v-64h-367v-244h343v-63h-343zM419 908h44c-5 -83 -65 -132 -147 -132s-142 49 -147 132h44c9 -52 53 -78 103 -78s94 26 103 78z" />
    <glyph glyph-name="five.onum" horiz-adv-x="519" 
d="M449 531v-65h-274l-25 -198c21 6 48 10 73 10c123 0 223 -73 223 -207c0 -161 -115 -241 -267 -241c-36 0 -81 3 -111 10l10 63c27 -7 60 -11 95 -11c127 0 201 60 201 176c0 105 -80 152 -175 152c-41 0 -88 -10 -121 -21l38 332h333z" />
    <glyph glyph-name="Ecircumflex" unicode="&#xca;" horiz-adv-x="592" 
d="M166 337v-273h379v-64h-451v708h439v-64h-367v-244h343v-63h-343zM356 908l109 -144h-66l-83 108l-83 -108h-66l109 144h80z" />
    <glyph glyph-name="Idotaccent" unicode="&#x130;" horiz-adv-x="260" 
d="M166 708v-708h-72v708h72zM179 848c0 -28 -24 -48 -48 -48s-48 20 -48 48s24 48 48 48s48 -20 48 -48z" />
    <glyph glyph-name="florin.sc" horiz-adv-x="484" 
d="M367 336v-52h-91l-37 -236c-14 -91 -56 -134 -127 -134c-26 0 -58 10 -74 23l25 52c12 -11 33 -17 48 -17c22 0 49 14 59 75l37 237h-80v52h85l18 105c12 69 57 102 111 102c29 0 62 -11 84 -30l-36 -46c-14 12 -31 18 -44 18c-24 0 -42 -16 -48 -54l-16 -95h86z" />
    <glyph glyph-name="atilde.sc" horiz-adv-x="534" 
d="M136 133l-56 -133h-74l229 531h65l228 -531h-79l-55 133h-258zM266 450l-105 -256h208zM148 611h-43c9 52 32 104 92 104c24 0 49 -11 73 -23c24 -11 47 -23 67 -23c30 0 43 25 49 50h43c-9 -52 -32 -104 -92 -104c-24 0 -50 11 -73 23s-46 23 -67 23
c-30 0 -43 -25 -49 -50z" />
    <glyph glyph-name="dollar.sc" horiz-adv-x="484" 
d="M214 55v197c-79 22 -143 59 -143 144c0 86 63 130 143 135v58h47v-58c53 -2 97 -22 134 -58l-47 -45c-24 29 -57 49 -87 49v-173c101 -30 150 -80 150 -161c0 -80 -66 -140 -150 -143v-61h-47v61c-68 3 -121 33 -161 80l51 43c26 -40 74 -67 110 -68zM261 239v-184
c47 4 82 35 82 87c0 48 -34 81 -82 97zM214 318v160c-45 -2 -78 -27 -78 -77c0 -48 30 -69 78 -83z" />
    <glyph glyph-name="divide" unicode="&#xf7;" horiz-adv-x="666" 
d="M588 333v-60h-510v60h510zM387 465c0 -28 -22 -54 -54 -54s-54 26 -54 54s22 54 54 54s54 -26 54 -54zM387 141c0 -28 -22 -54 -54 -54s-54 26 -54 54s22 54 54 54s54 -26 54 -54z" />
    <glyph glyph-name="Idieresis" unicode="&#xcf;" horiz-adv-x="260" 
d="M166 708v-708h-72v708h72zM-17 847c0 26 21 51 51 51s51 -25 51 -51s-21 -51 -51 -51s-51 25 -51 51zM175 847c0 26 21 51 51 51s51 -25 51 -51s-21 -51 -51 -51s-51 25 -51 51z" />
    <glyph glyph-name="Gcommaaccent" unicode="&#x122;" horiz-adv-x="783" 
d="M681 631l-50 -50c-49 52 -117 82 -205 82c-182 0 -294 -144 -294 -309s112 -308 294 -308c80 0 150 19 191 46v215h-165v63h237v-319c-77 -46 -168 -69 -264 -69c-214 0 -369 157 -369 372s158 372 369 372c112 0 196 -36 256 -95zM476 -45l-76 -185h-57l62 185h71z" />
    <glyph glyph-name="Udieresis" unicode="&#xdc;" horiz-adv-x="710" 
d="M355 -18c-212 0 -265 164 -265 282v444h72v-436c0 -114 49 -226 193 -226s193 112 193 226v436h72v-444c0 -118 -53 -282 -265 -282zM209 847c0 26 21 51 51 51s51 -25 51 -51s-21 -51 -51 -51s-51 25 -51 51zM401 847c0 26 21 51 51 51s51 -25 51 -51s-21 -51 -51 -51
s-51 25 -51 51z" />
    <glyph glyph-name="aogonek" unicode="&#x105;" horiz-adv-x="534" 
d="M470 -147l19 -40c-23 -22 -57 -36 -90 -36c-47 0 -90 34 -90 85c0 56 48 105 89 138h-2c-4 23 -7 51 -7 76h-2c-43 -62 -95 -88 -170 -88c-71 0 -162 38 -162 142c0 144 159 157 330 157v15c0 81 -44 121 -125 121c-55 0 -106 -22 -139 -55l-38 45c38 38 104 67 184 67
c101 0 182 -56 182 -170v-205c0 -36 3 -79 8 -105h-11c-49 -49 -77 -82 -77 -121c0 -28 23 -48 50 -48c18 0 38 8 51 22zM385 234h-20c-111 0 -240 -12 -240 -101c0 -67 57 -89 110 -89c96 0 150 72 150 155v35z" />
    <glyph glyph-name="aring" unicode="&#xe5;" horiz-adv-x="534" 
d="M385 287v15c0 81 -44 121 -125 121c-55 0 -106 -22 -139 -55l-38 45c38 38 104 67 184 67c101 0 182 -56 182 -170v-205c0 -36 3 -79 8 -105h-61c-4 23 -7 51 -7 76h-2c-43 -62 -95 -88 -170 -88c-71 0 -162 38 -162 142c0 144 159 157 330 157zM385 234h-20
c-111 0 -240 -12 -240 -101c0 -67 57 -89 110 -89c96 0 150 72 150 155v35zM361 650c0 -54 -44 -95 -96 -95s-96 41 -96 95s44 95 96 95s96 -41 96 -95zM325 650c0 33 -27 59 -60 59s-60 -26 -60 -59s27 -59 60 -59s60 26 60 59z" />
    <glyph glyph-name="ccedilla.sc" horiz-adv-x="559" 
d="M481 123l56 -37c-39 -56 -107 -96 -198 -98l-39 -63c10 3 20 4 35 4c40 0 82 -24 82 -72c0 -67 -64 -87 -118 -87c-27 0 -66 7 -94 20l16 36c22 -10 47 -14 72 -14c21 0 64 11 64 44c0 26 -21 39 -54 39c-14 0 -30 -3 -43 -8l-18 15l55 88c-142 16 -241 125 -241 276
c0 165 120 277 281 277c74 0 152 -30 190 -83l-56 -43c-25 36 -77 63 -134 63c-126 0 -205 -96 -205 -214c0 -120 79 -214 203 -214c60 0 113 24 146 71z" />
    <glyph glyph-name="Edotaccent" unicode="&#x116;" horiz-adv-x="592" 
d="M166 337v-273h379v-64h-451v708h439v-64h-367v-244h343v-63h-343zM369 848c0 -28 -24 -48 -48 -48s-48 20 -48 48s24 48 48 48s48 -20 48 -48z" />
    <glyph glyph-name="gbreve.sc" horiz-adv-x="617" 
d="M533 473l-50 -50c-31 34 -83 57 -145 57c-127 0 -206 -96 -206 -214c0 -119 79 -214 207 -214c52 0 97 10 128 28v149h-119v61h189v-254c-56 -31 -122 -48 -199 -48c-165 0 -282 115 -282 278c0 165 120 277 281 277c84 0 152 -27 196 -70zM442 738h44
c-5 -83 -65 -132 -147 -132s-142 49 -147 132h44c9 -52 53 -78 103 -78s94 26 103 78z" />
    <glyph glyph-name="Scircumflex" unicode="&#x15c;" horiz-adv-x="564" 
d="M494 640l-57 -46c-30 43 -79 71 -146 71c-70 0 -151 -42 -151 -133c0 -90 75 -113 154 -139c100 -33 210 -65 210 -207s-119 -204 -231 -204c-86 0 -172 35 -223 105l62 46c31 -50 88 -89 162 -89c73 0 157 46 157 137c0 99 -83 124 -173 152c-94 29 -190 70 -190 198
c0 137 122 195 226 195c95 0 166 -40 200 -86zM333 908l109 -144h-66l-83 108l-83 -108h-66l109 144h80z" />
    <glyph glyph-name="Ycircumflex" unicode="&#x176;" horiz-adv-x="602" 
d="M337 305v-305h-72v305l-265 403h90l213 -343l215 343h84zM343 908l109 -144h-66l-83 108l-83 -108h-66l109 144h80z" />
    <glyph glyph-name="uni021A" unicode="&#x21a;" horiz-adv-x="570" 
d="M321 644v-644h-72v644h-237v64h546v-64h-237zM338 -45l-76 -185h-57l62 185h71z" />
    <glyph glyph-name="Ncaron" unicode="&#x147;" horiz-adv-x="764" 
d="M184 708l412 -603h2v603h72v-708h-90l-412 609h-2v-609h-72v708h90zM532 908l-109 -144h-80l-109 144h66l83 -108l83 108h66z" />
    <glyph glyph-name="Ntilde" unicode="&#xd1;" horiz-adv-x="764" 
d="M184 708l412 -603h2v603h72v-708h-90l-412 609h-2v-609h-72v708h90zM266 776h-43c9 52 32 104 92 104c24 0 49 -11 73 -23c24 -11 47 -23 67 -23c30 0 43 25 49 50h43c-9 -52 -32 -104 -92 -104c-24 0 -50 11 -73 23s-46 23 -67 23c-30 0 -43 -25 -49 -50z" />
    <glyph glyph-name="Ccaron" unicode="&#x10c;" horiz-adv-x="720" 
d="M634 150l56 -36c-47 -71 -138 -132 -265 -132c-214 0 -369 157 -369 372s158 372 369 372c104 0 203 -43 252 -112l-60 -44c-30 46 -101 93 -191 93c-183 0 -294 -144 -294 -309s112 -309 294 -309c81 0 159 32 208 105zM572 908l-109 -144h-80l-109 144h66l83 -108
l83 108h66z" />
    <glyph glyph-name="lcaron.sc" horiz-adv-x="421" 
d="M160 531v-468h239v-63h-309v531h70zM359 531l-76 -185h-57l62 185h71z" />
    <glyph glyph-name="racute.sc" horiz-adv-x="497" 
d="M160 237v-237h-70v531h168c103 0 187 -39 187 -146c0 -78 -54 -127 -130 -139l149 -246h-85l-138 237h-81zM160 469v-171h87c73 0 127 23 127 87c0 65 -55 84 -122 84h-92zM380 738l-132 -144h-59l100 144h91z" />
    <glyph glyph-name="dcroat.sc" horiz-adv-x="612" 
d="M17 251v52h73v228h181c135 0 285 -79 285 -265c0 -181 -150 -266 -285 -266h-181v251h-73zM160 469v-166h145v-52h-145v-188h96c134 0 225 79 225 203c0 127 -91 203 -225 203h-96z" />
    <glyph glyph-name="four.onum" horiz-adv-x="569" 
d="M543 8h-116v-178h-69v178h-314v65l279 472h76l-283 -475h242v255h69v-255h116v-62z" />
    <glyph glyph-name="tilde.cap" 
d="M1 776h-43c9 52 32 104 92 104c24 0 49 -11 73 -23c24 -11 47 -23 67 -23c30 0 43 25 49 50h43c-9 -52 -32 -104 -92 -104c-24 0 -50 11 -73 23s-46 23 -67 23c-30 0 -43 -25 -49 -50z" />
    <glyph glyph-name="utilde.sc" horiz-adv-x="572" 
d="M286 -12c-144 0 -204 105 -204 211v332h70v-327c0 -76 33 -152 134 -152c100 0 134 76 134 152v327h70v-332c0 -106 -61 -211 -204 -211zM169 611h-43c9 52 32 104 92 104c24 0 49 -11 73 -23c24 -11 47 -23 67 -23c30 0 43 25 49 50h43c-9 -52 -32 -104 -92 -104
c-24 0 -50 11 -73 23s-46 23 -67 23c-30 0 -43 -25 -49 -50z" />
    <glyph glyph-name="acircumflex.sc" horiz-adv-x="534" 
d="M136 133l-56 -133h-74l229 531h65l228 -531h-79l-55 133h-258zM266 450l-105 -256h208zM307 738l109 -144h-66l-83 108l-83 -108h-66l109 144h80z" />
    <glyph glyph-name="Gdotaccent" unicode="&#x120;" horiz-adv-x="779" 
d="M681 631l-50 -50c-49 52 -117 82 -205 82c-182 0 -294 -144 -294 -309s112 -308 294 -308c80 0 150 19 191 46v215h-165v63h237v-319c-77 -46 -168 -69 -264 -69c-214 0 -369 157 -369 372s158 372 369 372c112 0 196 -36 256 -95zM473 848c0 -28 -24 -48 -48 -48
s-48 20 -48 48s24 48 48 48s48 -20 48 -48z" />
    <glyph glyph-name="Ldot" unicode="&#x13f;" horiz-adv-x="510" 
d="M166 708v-644h330v-64h-402v708h72zM377 428c0 -28 -24 -48 -48 -48s-48 20 -48 48s24 48 48 48s48 -20 48 -48z" />
    <glyph glyph-name="Hbar" unicode="&#x126;" horiz-adv-x="718" 
d="M94 0v708h72v-158h386v158h72v-708h-72v335h-386v-335h-72zM166 401h386v99h-386v-99z" />
    <glyph glyph-name="edotaccent" unicode="&#x117;" horiz-adv-x="572" 
d="M128 270h319c-4 88 -58 153 -155 153c-91 0 -158 -73 -164 -153zM516 248c0 -9 0 -20 -1 -32h-388c2 -94 75 -170 171 -170c70 0 124 39 150 81l51 -40c-55 -70 -124 -99 -201 -99c-139 0 -242 105 -242 246s103 246 236 246c147 0 224 -104 224 -232zM342 648
c0 -28 -24 -48 -48 -48s-48 20 -48 48s24 48 48 48s48 -20 48 -48z" />
    <glyph glyph-name="fi.sc" horiz-adv-x="726" 
d="M160 240v-240h-70v531h329v-62h-259v-168h243v-61h-243zM636 531v-531h-70v531h70z" />
    <glyph glyph-name="ldot.sc" horiz-adv-x="421" 
d="M160 531v-468h239v-63h-309v531h70zM334 318c0 -28 -24 -48 -48 -48s-48 20 -48 48s24 48 48 48s48 -20 48 -48z" />
    <glyph glyph-name="Cacute" unicode="&#x106;" horiz-adv-x="720" 
d="M634 150l56 -36c-47 -71 -138 -132 -265 -132c-214 0 -369 157 -369 372s158 372 369 372c104 0 203 -43 252 -112l-60 -44c-30 46 -101 93 -191 93c-183 0 -294 -144 -294 -309s112 -309 294 -309c81 0 159 32 208 105zM560 908l-132 -144h-59l100 144h91z" />
    <glyph glyph-name="zero.sc" horiz-adv-x="484" 
d="M242 543c136 0 180 -140 180 -278s-44 -277 -180 -277c-138 0 -180 139 -180 277s42 278 180 278zM242 482c-82 0 -104 -119 -104 -217c0 -99 22 -215 104 -215c81 0 104 116 104 215c0 98 -23 217 -104 217z" />
    <glyph glyph-name="uni2219" unicode="&#x2219;" horiz-adv-x="260" 
d="M184 314c0 -28 -22 -54 -54 -54s-54 26 -54 54s22 54 54 54s54 -26 54 -54z" />
    <glyph glyph-name="b.sc" horiz-adv-x="516" 
d="M90 0v531h179c80 0 166 -32 166 -134c0 -58 -31 -98 -82 -117v-2c63 -13 108 -55 108 -128c0 -99 -87 -150 -200 -150h-171zM160 469v-163h99c57 0 106 24 106 84c0 58 -48 79 -118 79h-87zM160 245v-182h95c65 0 134 19 134 91c0 64 -45 91 -127 91h-102z" />
    <glyph glyph-name="Igrave" unicode="&#xcc;" horiz-adv-x="260" 
d="M166 708v-708h-72v708h72zM106 764l-132 144h91l100 -144h-59z" />
    <glyph glyph-name="sacute" unicode="&#x15b;" horiz-adv-x="444" 
d="M391 396l-52 -39c-20 39 -63 66 -115 66c-49 0 -99 -21 -99 -73c0 -44 35 -64 112 -80c110 -23 162 -64 162 -137c0 -107 -90 -145 -176 -145c-71 0 -142 28 -185 91l54 40c24 -41 75 -73 130 -73c58 0 110 21 110 82c0 49 -49 69 -138 90c-55 13 -134 37 -134 126
c0 95 82 136 167 136c65 0 134 -31 164 -84zM380 708l-132 -144h-59l100 144h91z" />
    <glyph glyph-name="caron.cap" 
d="M269 908l-109 -144h-80l-109 144h66l83 -108l83 108h66z" />
    <glyph glyph-name="ebreve" unicode="&#x115;" horiz-adv-x="572" 
d="M128 270h319c-4 88 -58 153 -155 153c-91 0 -158 -73 -164 -153zM516 248c0 -9 0 -20 -1 -32h-388c2 -94 75 -170 171 -170c70 0 124 39 150 81l51 -40c-55 -70 -124 -99 -201 -99c-139 0 -242 105 -242 246s103 246 236 246c147 0 224 -104 224 -232zM397 708h44
c-5 -83 -65 -132 -147 -132s-142 49 -147 132h44c9 -52 53 -78 103 -78s94 26 103 78z" />
    <glyph glyph-name="Adieresis" unicode="&#xc4;" horiz-adv-x="700" 
d="M166 186l-77 -186h-79l306 708h70l304 -708h-80l-78 186h-366zM349 628l-156 -376h312zM204 847c0 26 21 51 51 51s51 -25 51 -51s-21 -51 -51 -51s-51 25 -51 51zM396 847c0 26 21 51 51 51s51 -25 51 -51s-21 -51 -51 -51s-51 25 -51 51z" />
    <glyph glyph-name="Lacute" unicode="&#x139;" horiz-adv-x="510" 
d="M166 708v-644h330v-64h-402v708h72zM291 908l-132 -144h-59l100 144h91z" />
    <glyph glyph-name="two.sc" horiz-adv-x="484" 
d="M414 63v-63h-345v68l209 208c38 38 59 74 59 117c0 55 -38 87 -90 87c-49 0 -85 -31 -98 -90l-69 14c18 87 80 139 167 139c91 0 161 -50 161 -149c0 -60 -34 -113 -85 -164l-169 -167h260z" />
    <glyph glyph-name="Hcircumflex" unicode="&#x124;" horiz-adv-x="718" 
d="M94 0v708h72v-307h386v307h72v-708h-72v335h-386v-335h-72zM398 908l109 -144h-66l-83 108l-83 -108h-66l109 144h80z" />
    <glyph glyph-name="dotaccent.sc" 
d="M168 678c0 -28 -24 -48 -48 -48s-48 20 -48 48s24 48 48 48s48 -20 48 -48z" />
    <glyph glyph-name="eth" unicode="&#xf0;" horiz-adv-x="611" 
d="M120 234c0 -105 68 -186 176 -186c109 0 177 81 177 186s-68 186 -177 186c-108 0 -176 -81 -176 -186zM455 714l-103 -54c109 -101 193 -250 193 -408c0 -120 -66 -264 -249 -264c-145 0 -248 105 -248 246s103 246 248 246c58 0 102 -18 150 -58l2 2
c-36 76 -93 151 -156 205l-112 -57l-36 36l110 56c-33 32 -71 57 -100 77l59 37c35 -26 70 -54 100 -82l102 53z" />
    <glyph glyph-name="cdotaccent" unicode="&#x10b;" horiz-adv-x="500" 
d="M480 399l-53 -38c-22 36 -69 62 -120 62c-109 0 -179 -82 -179 -189c0 -106 69 -188 178 -188c59 0 100 25 127 61l51 -38c-40 -49 -97 -81 -178 -81c-151 0 -250 105 -250 246s99 246 250 246c63 0 134 -27 174 -81zM343 648c0 -28 -24 -48 -48 -48s-48 20 -48 48
s24 48 48 48s48 -20 48 -48z" />
    <glyph glyph-name="yen.sc" horiz-adv-x="484" 
d="M94 167h117v66h-117v52h105l-170 246h78l138 -210l135 210h75l-168 -246h107v-52h-117v-66h117v-52h-117v-115h-66v115h-117v52z" />
    <glyph glyph-name="Otilde" unicode="&#xd5;" horiz-adv-x="850" 
d="M794 354c0 -215 -158 -372 -369 -372s-369 157 -369 372s158 372 369 372s369 -157 369 -372zM718 354c0 165 -111 309 -293 309s-293 -144 -293 -309s111 -308 293 -308s293 143 293 308zM306 776h-43c9 52 32 104 92 104c24 0 49 -11 73 -23c24 -11 47 -23 67 -23
c30 0 43 25 49 50h43c-9 -52 -32 -104 -92 -104c-24 0 -50 11 -73 23s-46 23 -67 23c-30 0 -43 -25 -49 -50z" />
    <glyph glyph-name="eogonek" unicode="&#x119;" horiz-adv-x="572" 
d="M380 -147l19 -40c-23 -22 -57 -36 -90 -36c-47 0 -90 34 -90 85c0 50 37 94 74 126c-136 2 -237 106 -237 246c0 141 103 246 236 246c147 0 224 -104 224 -232c0 -9 0 -20 -1 -32h-388c2 -94 75 -170 171 -170c70 0 124 39 150 81l51 -40c-43 -55 -94 -84 -151 -94
c-44 -45 -69 -77 -69 -114c0 -28 23 -48 50 -48c18 0 38 8 51 22zM128 270h319c-4 88 -58 153 -155 153c-91 0 -158 -73 -164 -153z" />
    <glyph glyph-name="Icircumflex" unicode="&#xce;" horiz-adv-x="260" 
d="M166 708v-708h-72v708h72zM170 908l109 -144h-66l-83 108l-83 -108h-66l109 144h80z" />
    <glyph glyph-name="scedilla.sc" horiz-adv-x="450" 
d="M389 481l-50 -48c-22 30 -60 50 -105 50c-49 0 -105 -25 -105 -86c0 -60 49 -75 109 -94c73 -23 157 -48 157 -154c0 -100 -74 -151 -157 -159l-40 -65c10 3 20 4 35 4c40 0 82 -24 82 -72c0 -67 -64 -87 -118 -87c-27 0 -66 7 -94 20l16 36c22 -10 47 -14 72 -14
c21 0 64 11 64 44c0 26 -21 39 -54 39c-14 0 -30 -3 -43 -8l-18 15l55 87c-60 5 -120 30 -155 77l56 47c23 -38 68 -64 118 -64c51 0 110 29 110 93c0 67 -60 82 -127 103c-69 21 -139 52 -139 149c0 105 93 149 180 149c62 0 119 -25 151 -62z" />
    <glyph glyph-name="cent.sc" horiz-adv-x="484" 
d="M260 51v366c-86 -15 -138 -89 -138 -183s52 -168 138 -183zM308 419v-370c48 3 87 29 107 61l54 -41c-43 -51 -101 -77 -161 -80v-61h-48v63c-131 14 -210 114 -210 243s79 229 210 243v63h48v-61c60 -3 118 -29 161 -80l-54 -41c-20 32 -59 58 -107 61z" />
    <glyph glyph-name="gcircumflex" unicode="&#x11d;" horiz-adv-x="632" 
d="M66 -146l49 52c37 -48 108 -86 179 -86c134 0 183 83 183 184v88h-2c-36 -58 -109 -92 -177 -92c-146 0 -242 101 -242 238c0 133 96 242 242 242c68 0 140 -33 177 -93h2v81h68v-464c0 -102 -47 -244 -254 -244c-86 0 -170 36 -225 94zM128 240c0 -98 64 -182 177 -182
c105 0 180 74 180 182c0 98 -75 183 -180 183c-113 0 -177 -85 -177 -183zM348 708l109 -144h-66l-83 108l-83 -108h-66l109 144h80z" />
    <glyph glyph-name="uogonek.sc" horiz-adv-x="572" 
d="M363 -147l19 -40c-23 -22 -57 -36 -90 -36c-47 0 -90 34 -90 85c0 50 37 94 74 126c-137 5 -194 107 -194 211v332h70v-327c0 -76 33 -152 134 -152c100 0 134 76 134 152v327h70v-332c0 -95 -48 -188 -160 -207c-43 -45 -68 -76 -68 -113c0 -28 23 -48 50 -48
c18 0 38 8 51 22z" />
    <glyph glyph-name="emacron.sc" horiz-adv-x="499" 
d="M160 245v-182h279v-63h-349v531h338v-62h-268v-163h252v-61h-252zM398 684v-54h-270v54h270z" />
    <glyph glyph-name="rcaron.sc" horiz-adv-x="497" 
d="M160 237v-237h-70v531h168c103 0 187 -39 187 -146c0 -78 -54 -127 -130 -139l149 -246h-85l-138 237h-81zM160 469v-171h87c73 0 127 23 127 87c0 65 -55 84 -122 84h-92zM403 738l-109 -144h-80l-109 144h66l83 -108l83 108h66z" />
    <glyph glyph-name="registered" unicode="&#xae;" horiz-adv-x="600" 
d="M72 493c0 126 102 227 228 227s228 -101 228 -227s-102 -225 -228 -225s-228 99 -228 225zM108 493c0 -105 86 -192 192 -192s192 87 192 192c0 106 -86 192 -192 192s-192 -86 -192 -192zM211 366v256h90c48 0 95 -20 95 -75c0 -37 -23 -61 -59 -69l69 -112h-56l-60 107
h-33v-107h-46zM257 510h37c26 0 56 7 56 38c0 28 -27 35 -51 35h-42v-73z" />
    <glyph glyph-name="eth.sc" horiz-adv-x="612" 
d="M17 251v52h73v228h181c135 0 285 -79 285 -265c0 -181 -150 -266 -285 -266h-181v251h-73zM160 469v-166h145v-52h-145v-188h96c134 0 225 79 225 203c0 127 -91 203 -225 203h-96z" />
    <glyph glyph-name="Ecaron" unicode="&#x11a;" horiz-adv-x="592" 
d="M166 337v-273h379v-64h-451v708h439v-64h-367v-244h343v-63h-343zM466 908l-109 -144h-80l-109 144h66l83 -108l83 108h66z" />
    <glyph glyph-name="ampersand.sc" horiz-adv-x="558" 
d="M521 286l-97 -164l121 -122h-97l-63 66c-47 -57 -102 -78 -167 -78c-91 0 -168 56 -168 152c0 73 46 119 114 156c-37 44 -55 80 -55 124c0 75 58 123 136 123c80 0 133 -43 133 -119c0 -64 -54 -109 -114 -139l113 -116l67 117h77zM310 424c0 39 -29 62 -64 62
s-69 -28 -69 -69c0 -27 15 -57 46 -90c62 30 87 61 87 97zM340 112l-135 140c-61 -31 -83 -66 -83 -113c0 -54 40 -92 97 -92c54 0 93 23 121 65z" />
    <glyph glyph-name="rcaron" unicode="&#x159;" horiz-adv-x="360" 
d="M90 365c0 25 -1 71 -4 103h65c2 -25 4 -60 4 -80h2c26 54 84 92 150 92c17 0 31 -1 45 -5l-9 -64c-8 3 -30 6 -48 6c-72 0 -137 -52 -137 -177v-240h-68v365zM364 708l-109 -144h-80l-109 144h66l83 -108l83 108h66z" />
    <glyph glyph-name="eight.onum" horiz-adv-x="576" 
d="M516 191c0 -129 -102 -207 -228 -207s-228 78 -228 207c0 90 56 161 138 184v2c-69 25 -113 87 -113 161c0 112 90 186 203 186c112 0 202 -72 202 -185c0 -73 -43 -138 -113 -162v-2c86 -23 139 -96 139 -184zM288 664c-74 0 -130 -53 -130 -128c0 -72 54 -130 130 -130
c74 0 131 58 131 130c0 75 -59 128 -131 128zM442 195c0 87 -66 150 -154 150s-154 -63 -154 -150s62 -150 154 -150c91 0 154 63 154 150z" />
    <glyph glyph-name="Jcircumflex" unicode="&#x134;" horiz-adv-x="492" 
d="M25 126l67 18c11 -55 52 -99 115 -99c99 0 125 79 125 164v499h72v-504c0 -92 -34 -222 -189 -222c-102 0 -173 60 -190 144zM407 908l109 -144h-66l-83 108l-83 -108h-66l109 144h80z" />
    <glyph glyph-name="ncaron.sc" horiz-adv-x="613" 
d="M181 531l270 -429h2v429h70v-531h-88l-274 438h-1v-438h-70v531h91zM457 738l-109 -144h-80l-109 144h66l83 -108l83 108h66z" />
    <glyph glyph-name="x.sc" horiz-adv-x="490" 
d="M114 531l131 -201l129 201h83l-169 -251l192 -280h-88l-147 227l-147 -227h-88l191 280l-174 251h87z" />
    <glyph glyph-name="Iacute" unicode="&#xcd;" horiz-adv-x="260" 
d="M166 708v-708h-72v708h72zM285 908l-132 -144h-59l100 144h91z" />
    <glyph glyph-name="Euro" unicode="&#x20ac;" horiz-adv-x="580" 
d="M511 633c-34 20 -77 30 -127 30c-115 0 -193 -75 -221 -194h300l-18 -55h-291c-3 -20 -5 -43 -5 -65c0 -16 2 -41 4 -57h256l-18 -55h-231c21 -116 112 -192 224 -192c52 0 96 12 136 40l29 -56c-44 -31 -102 -47 -174 -47c-161 0 -264 124 -287 255h-76l20 55h49
c-1 13 -3 38 -3 56c0 22 2 50 4 66h-69l20 55h57c37 163 152 257 297 257c55 0 111 -12 149 -32z" />
    <glyph glyph-name="threesuperior" unicode="&#xb3;" horiz-adv-x="370" 
d="M137 484v51h27c47 0 84 19 84 70c0 37 -31 62 -69 62c-30 0 -58 -18 -75 -50l-50 26c30 53 76 77 127 77c69 0 127 -38 127 -114c0 -42 -23 -75 -57 -93c42 -16 69 -52 69 -102c0 -83 -65 -127 -140 -127c-63 0 -114 30 -141 96l57 19c13 -39 45 -61 84 -61
c41 0 80 24 80 73c0 54 -48 73 -96 73h-27z" />
    <glyph glyph-name="breve.sc" 
d="M223 738h44c-5 -83 -65 -132 -147 -132s-142 49 -147 132h44c9 -52 53 -78 103 -78s94 26 103 78z" />
    <glyph glyph-name="fl.sc" horiz-adv-x="898" 
d="M160 240v-240h-70v531h329v-62h-259v-168h243v-61h-243zM637 531v-468h239v-63h-309v531h70z" />
    <glyph glyph-name="dcaron.sc" horiz-adv-x="612" 
d="M90 0v531h181c135 0 285 -79 285 -265c0 -181 -150 -266 -285 -266h-181zM160 469v-406h96c134 0 225 79 225 203c0 127 -91 203 -225 203h-96zM442 738l-109 -144h-80l-109 144h66l83 -108l83 108h66z" />
    <glyph glyph-name="agrave.sc" horiz-adv-x="534" 
d="M136 133l-56 -133h-74l229 531h65l228 -531h-79l-55 133h-258zM266 450l-105 -256h208zM236 594l-132 144h91l100 -144h-59z" />
    <glyph glyph-name="rcommaaccent.sc" horiz-adv-x="497" 
d="M160 237v-237h-70v531h168c103 0 187 -39 187 -146c0 -78 -54 -127 -130 -139l149 -246h-85l-138 237h-81zM160 469v-171h87c73 0 127 23 127 87c0 65 -55 84 -122 84h-92zM308 -45l-76 -185h-57l62 185h71z" />
    <glyph glyph-name="ydieresis" unicode="&#xff;" horiz-adv-x="488" 
d="M92 468l159 -395h2l145 395h74l-233 -589c-28 -72 -66 -119 -147 -119c-20 0 -41 2 -61 6l7 62c15 -5 32 -8 50 -8c46 0 70 30 90 83l38 98l-200 467h76zM105 647c0 26 21 51 51 51s51 -25 51 -51s-21 -51 -51 -51s-51 25 -51 51zM297 647c0 26 21 51 51 51
s51 -25 51 -51s-21 -51 -51 -51s-51 25 -51 51z" />
    <glyph glyph-name="Scommaaccent" unicode="&#x218;" horiz-adv-x="564" 
d="M494 640l-57 -46c-30 43 -79 71 -146 71c-70 0 -151 -42 -151 -133c0 -90 75 -113 154 -139c100 -33 210 -65 210 -207s-119 -204 -231 -204c-86 0 -172 35 -223 105l62 46c31 -50 88 -89 162 -89c73 0 157 46 157 137c0 99 -83 124 -173 152c-94 29 -190 70 -190 198
c0 137 122 195 226 195c95 0 166 -40 200 -86zM338 -45l-76 -185h-57l62 185h71z" />
    <glyph glyph-name="ccaron" unicode="&#x10d;" horiz-adv-x="500" 
d="M480 399l-53 -38c-22 36 -69 62 -120 62c-109 0 -179 -82 -179 -189c0 -106 69 -188 178 -188c59 0 100 25 127 61l51 -38c-40 -49 -97 -81 -178 -81c-151 0 -250 105 -250 246s99 246 250 246c63 0 134 -27 174 -81zM453 708l-109 -144h-80l-109 144h66l83 -108l83 108
h66z" />
    <glyph glyph-name="Iogonek" unicode="&#x12e;" horiz-adv-x="260" 
d="M184 -147l19 -40c-23 -22 -57 -36 -90 -36c-47 0 -90 34 -90 85c0 56 48 105 89 138h-18v708h72v-708h-6c-49 -49 -77 -82 -77 -121c0 -28 23 -48 50 -48c18 0 38 8 51 22z" />
    <glyph glyph-name="u.sc" horiz-adv-x="572" 
d="M286 -12c-144 0 -204 105 -204 211v332h70v-327c0 -76 33 -152 134 -152c100 0 134 76 134 152v327h70v-332c0 -106 -61 -211 -204 -211z" />
    <glyph glyph-name="amacron" unicode="&#x101;" horiz-adv-x="534" 
d="M385 287v15c0 81 -44 121 -125 121c-55 0 -106 -22 -139 -55l-38 45c38 38 104 67 184 67c101 0 182 -56 182 -170v-205c0 -36 3 -79 8 -105h-61c-4 23 -7 51 -7 76h-2c-43 -62 -95 -88 -170 -88c-71 0 -162 38 -162 142c0 144 159 157 330 157zM385 234h-20
c-111 0 -240 -12 -240 -101c0 -67 57 -89 110 -89c96 0 150 72 150 155v35zM405 654v-54h-270v54h270z" />
    <glyph glyph-name="uacute.sc" horiz-adv-x="572" 
d="M286 -12c-144 0 -204 105 -204 211v332h70v-327c0 -76 33 -152 134 -152c100 0 134 76 134 152v327h70v-332c0 -106 -61 -211 -204 -211zM435 738l-132 -144h-59l100 144h91z" />
    <glyph glyph-name="dcroat" unicode="&#x111;" horiz-adv-x="637" 
d="M321 620h156v136h68v-136h56v-50h-56v-570h-68v79h-2c-40 -59 -110 -91 -177 -91c-146 0 -242 108 -242 246s96 246 242 246c67 0 137 -32 177 -93h2v183h-156v50zM128 234c0 -104 64 -188 177 -188c105 0 180 81 180 188s-75 189 -180 189c-113 0 -177 -85 -177 -189z
" />
    <glyph glyph-name="zero.onum" horiz-adv-x="689" 
d="M627 267c0 -164 -120 -280 -284 -280c-161 0 -281 116 -281 280c0 166 120 278 281 278c164 0 284 -112 284 -278zM550 267c0 121 -80 214 -207 214c-126 0 -204 -93 -204 -214c0 -122 79 -216 204 -216c127 0 207 94 207 216z" />
    <glyph glyph-name="eacute.sc" horiz-adv-x="499" 
d="M160 245v-182h279v-63h-349v531h338v-62h-268v-163h252v-61h-252zM407 738l-132 -144h-59l100 144h91z" />
    <glyph glyph-name="dotlessj" horiz-adv-x="251" 
d="M-27 -233l10 57c13 -4 30 -6 43 -6c57 0 66 41 66 100v550h68v-561c0 -75 -27 -147 -133 -147c-14 0 -37 2 -54 7z" />
    <glyph glyph-name="atilde" unicode="&#xe3;" horiz-adv-x="534" 
d="M385 287v15c0 81 -44 121 -125 121c-55 0 -106 -22 -139 -55l-38 45c38 38 104 67 184 67c101 0 182 -56 182 -170v-205c0 -36 3 -79 8 -105h-61c-4 23 -7 51 -7 76h-2c-43 -62 -95 -88 -170 -88c-71 0 -162 38 -162 142c0 144 159 157 330 157zM385 234h-20
c-111 0 -240 -12 -240 -101c0 -67 57 -89 110 -89c96 0 150 72 150 155v35zM146 576h-43c9 52 32 104 92 104c24 0 49 -11 73 -23c24 -11 47 -23 67 -23c30 0 43 25 49 50h43c-9 -52 -32 -104 -92 -104c-24 0 -50 11 -73 23s-46 23 -67 23c-30 0 -43 -25 -49 -50z" />
    <glyph glyph-name="eight.sc" horiz-adv-x="484" 
d="M395 397c0 -53 -32 -96 -74 -114v-2c56 -22 93 -71 93 -137c0 -97 -74 -156 -172 -156c-99 0 -173 59 -173 156c0 66 36 115 92 137v2c-42 18 -73 61 -73 114c0 88 69 146 154 146c84 0 153 -58 153 -146zM139 151c0 -57 41 -99 103 -99s102 42 102 99s-42 97 -102 97
s-103 -40 -103 -97zM156 394c0 -51 40 -82 86 -82c45 0 85 31 85 82c0 52 -37 86 -85 86c-49 0 -86 -34 -86 -86z" />
    <glyph glyph-name="dieresis.sc" 
d="M-27 677c0 26 21 51 51 51s51 -25 51 -51s-21 -51 -51 -51s-51 25 -51 51zM165 677c0 26 21 51 51 51s51 -25 51 -51s-21 -51 -51 -51s-51 25 -51 51z" />
    <glyph glyph-name="edieresis.sc" horiz-adv-x="499" 
d="M160 245v-182h279v-63h-349v531h338v-62h-268v-163h252v-61h-252zM113 677c0 26 21 51 51 51s51 -25 51 -51s-21 -51 -51 -51s-51 25 -51 51zM305 677c0 26 21 51 51 51s51 -25 51 -51s-21 -51 -51 -51s-51 25 -51 51z" />
    <glyph glyph-name="caron.alt" 
d="M219 708l-76 -185h-57l62 185h71z" />
    <glyph glyph-name="Kcommaaccent" unicode="&#x136;" horiz-adv-x="628" 
d="M166 708v-318h1l337 318h103l-357 -321l377 -387h-106l-354 377h-1v-377h-72v708h72zM388 -45l-76 -185h-57l62 185h71z" />
    <glyph glyph-name="amacron.sc" horiz-adv-x="534" 
d="M136 133l-56 -133h-74l229 531h65l228 -531h-79l-55 133h-258zM266 450l-105 -256h208zM402 684v-54h-270v54h270z" />
    <glyph glyph-name="Ncommaaccent" unicode="&#x145;" horiz-adv-x="764" 
d="M184 708l412 -603h2v603h72v-708h-90l-412 609h-2v-609h-72v708h90zM425 -45l-76 -185h-57l62 185h71z" />
    <glyph glyph-name="ccedilla" unicode="&#xe7;" horiz-adv-x="500" 
d="M480 399l-53 -38c-22 36 -69 62 -120 62c-109 0 -179 -82 -179 -189c0 -106 69 -188 178 -188c59 0 100 25 127 61l51 -38c-39 -48 -94 -79 -172 -81l-39 -63c10 3 20 4 35 4c40 0 82 -24 82 -72c0 -67 -64 -87 -118 -87c-27 0 -66 7 -94 20l16 36c22 -10 47 -14 72 -14
c21 0 64 11 64 44c0 26 -21 39 -54 39c-14 0 -30 -3 -43 -8l-18 15l55 88c-130 15 -214 114 -214 244c0 141 99 246 250 246c63 0 134 -27 174 -81z" />
    <glyph glyph-name="Itilde" unicode="&#x128;" horiz-adv-x="260" 
d="M166 708v-708h-72v708h72zM12 776h-43c9 52 32 104 92 104c24 0 49 -11 73 -23c24 -11 47 -23 67 -23c30 0 43 25 49 50h43c-9 -52 -32 -104 -92 -104c-24 0 -50 11 -73 23s-46 23 -67 23c-30 0 -43 -25 -49 -50z" />
    <glyph glyph-name="thorn" unicode="&#xfe;" horiz-adv-x="633" 
d="M334 -12c-69 0 -135 30 -174 91h-2v-319h-66v996h66v-369h2c40 61 107 93 174 93c139 0 243 -105 243 -246s-104 -246 -243 -246zM505 234c0 105 -68 186 -177 186c-108 0 -176 -81 -176 -186s68 -186 176 -186c109 0 177 81 177 186z" />
    <glyph glyph-name="brokenbar" unicode="&#xa6;" horiz-adv-x="222" 
d="M81 675h60v-350h-60v350zM81 175h60v-350h-60v350z" />
    <glyph glyph-name="ccircumflex.sc" horiz-adv-x="559" 
d="M481 123l56 -37c-40 -57 -109 -98 -203 -98c-161 0 -278 115 -278 278c0 165 120 277 281 277c74 0 152 -30 190 -83l-56 -43c-25 36 -77 63 -134 63c-126 0 -205 -96 -205 -214c0 -120 79 -214 203 -214c60 0 113 24 146 71zM376 738l109 -144h-66l-83 108l-83 -108h-66
l109 144h80z" />
    <glyph glyph-name="Eogonek" unicode="&#x118;" horiz-adv-x="592" 
d="M553 -147l19 -40c-23 -22 -57 -36 -90 -36c-47 0 -90 34 -90 85c0 56 48 105 89 138h-387v708h439v-64h-367v-244h343v-63h-343v-273h379v-64h-16c-49 -49 -77 -82 -77 -121c0 -28 23 -48 50 -48c18 0 38 8 51 22z" />
    <glyph glyph-name="eacute" unicode="&#xe9;" horiz-adv-x="572" 
d="M128 270h319c-4 88 -58 153 -155 153c-91 0 -158 -73 -164 -153zM516 248c0 -9 0 -20 -1 -32h-388c2 -94 75 -170 171 -170c70 0 124 39 150 81l51 -40c-55 -70 -124 -99 -201 -99c-139 0 -242 105 -242 246s103 246 236 246c147 0 224 -104 224 -232zM442 708l-132 -144
h-59l100 144h91z" />
    <glyph glyph-name="g.sc" horiz-adv-x="617" 
d="M533 473l-50 -50c-31 34 -83 57 -145 57c-127 0 -206 -96 -206 -214c0 -119 79 -214 207 -214c52 0 97 10 128 28v149h-119v61h189v-254c-56 -31 -122 -48 -199 -48c-165 0 -282 115 -282 278c0 165 120 277 281 277c84 0 152 -27 196 -70z" />
    <glyph glyph-name="Eth" unicode="&#xd0;" horiz-adv-x="757" 
d="M86 0v347h-73v54h73v307h235c177 0 372 -118 372 -354s-195 -354 -372 -354h-235zM158 347v-281h140c216 0 317 142 317 288s-101 288 -317 288h-140v-241h258v-54h-258z" />
    <glyph glyph-name="Lcommaaccent" unicode="&#x13b;" horiz-adv-x="510" 
d="M166 708v-644h330v-64h-402v708h72zM347 -45l-76 -185h-57l62 185h71z" />
    <glyph glyph-name="ecaron.sc" horiz-adv-x="499" 
d="M160 245v-182h279v-63h-349v531h338v-62h-268v-163h252v-61h-252zM411 738l-109 -144h-80l-109 144h66l83 -108l83 108h66z" />
    <glyph glyph-name="estimated" unicode="&#x212e;" horiz-adv-x="604" 
d="M561 259h-404v-181c39 -39 87 -59 145 -59c83 0 143 36 193 120l35 -21c-61 -95 -123 -135 -228 -135c-157 0 -258 122 -258 276c0 155 101 276 258 276c154 0 258 -114 259 -276zM157 295h291v145c-42 40 -91 60 -147 60c-57 0 -105 -21 -144 -60v-145z" />
    <glyph glyph-name="eogonek.sc" horiz-adv-x="499" 
d="M444 -147l19 -40c-23 -22 -57 -36 -90 -36c-47 0 -90 34 -90 85c0 56 48 105 89 138h-282v531h338v-62h-268v-163h252v-61h-252v-182h279v-63h-19c-49 -49 -77 -82 -77 -121c0 -28 23 -48 50 -48c18 0 38 8 51 22z" />
    <glyph glyph-name="lcommaaccent.sc" horiz-adv-x="421" 
d="M160 531v-468h239v-63h-309v531h70zM298 -45l-76 -185h-57l62 185h71z" />
    <glyph glyph-name="edieresis" unicode="&#xeb;" horiz-adv-x="572" 
d="M128 270h319c-4 88 -58 153 -155 153c-91 0 -158 -73 -164 -153zM516 248c0 -9 0 -20 -1 -32h-388c2 -94 75 -170 171 -170c70 0 124 39 150 81l51 -40c-55 -70 -124 -99 -201 -99c-139 0 -242 105 -242 246s103 246 236 246c147 0 224 -104 224 -232zM152 647
c0 26 21 51 51 51s51 -25 51 -51s-21 -51 -51 -51s-51 25 -51 51zM344 647c0 26 21 51 51 51s51 -25 51 -51s-21 -51 -51 -51s-51 25 -51 51z" />
    <glyph glyph-name="ae.sc" horiz-adv-x="779" 
d="M440 245v-182h279v-63h-349v143h-217l-92 -143h-81l345 531h383v-62h-268v-163h252v-61h-252zM360 469l-169 -265h179v265h-10z" />
    <glyph glyph-name="ccaron.sc" horiz-adv-x="559" 
d="M481 123l56 -37c-40 -57 -109 -98 -203 -98c-161 0 -278 115 -278 278c0 165 120 277 281 277c74 0 152 -30 190 -83l-56 -43c-25 36 -77 63 -134 63c-126 0 -205 -96 -205 -214c0 -120 79 -214 203 -214c60 0 113 24 146 71zM484 738l-109 -144h-80l-109 144h66l83 -108
l83 108h66z" />
    <glyph glyph-name="ecircumflex" unicode="&#xea;" horiz-adv-x="572" 
d="M128 270h319c-4 88 -58 153 -155 153c-91 0 -158 -73 -164 -153zM516 248c0 -9 0 -20 -1 -32h-388c2 -94 75 -170 171 -170c70 0 124 39 150 81l51 -40c-55 -70 -124 -99 -201 -99c-139 0 -242 105 -242 246s103 246 236 246c147 0 224 -104 224 -232zM339 708l109 -144
h-66l-83 108l-83 -108h-66l109 144h80z" />
    <glyph glyph-name="v.sc" horiz-adv-x="497" 
d="M85 531l163 -440h2l162 440h77l-207 -531h-67l-207 531h77z" />
    <glyph glyph-name="thorn.sc" horiz-adv-x="491" 
d="M91 0v531h70v-105h96c127 0 189 -49 189 -144c0 -93 -65 -150 -193 -150h-92v-132h-70zM161 364v-171h87c87 0 127 30 127 89c0 55 -33 82 -126 82h-88z" />
    <glyph glyph-name="ring.cap" 
d="M216 850c0 -54 -44 -95 -96 -95s-96 41 -96 95s44 95 96 95s96 -41 96 -95zM180 850c0 33 -27 59 -60 59s-60 -26 -60 -59s27 -59 60 -59s60 26 60 59z" />
    <glyph glyph-name="emacron" unicode="&#x113;" horiz-adv-x="572" 
d="M128 270h319c-4 88 -58 153 -155 153c-91 0 -158 -73 -164 -153zM516 248c0 -9 0 -20 -1 -32h-388c2 -94 75 -170 171 -170c70 0 124 39 150 81l51 -40c-55 -70 -124 -99 -201 -99c-139 0 -242 105 -242 246s103 246 236 246c147 0 224 -104 224 -232zM431 654v-54h-270
v54h270z" />
    <glyph glyph-name="e.sc" horiz-adv-x="499" 
d="M160 245v-182h279v-63h-349v531h338v-62h-268v-163h252v-61h-252z" />
    <glyph glyph-name="abreve.sc" horiz-adv-x="534" 
d="M136 133l-56 -133h-74l229 531h65l228 -531h-79l-55 133h-258zM266 450l-105 -256h208zM370 738h44c-5 -83 -65 -132 -147 -132s-142 49 -147 132h44c9 -52 53 -78 103 -78s94 26 103 78z" />
    <glyph glyph-name="adieresis.sc" horiz-adv-x="534" 
d="M136 133l-56 -133h-74l229 531h65l228 -531h-79l-55 133h-258zM266 450l-105 -256h208zM120 677c0 26 21 51 51 51s51 -25 51 -51s-21 -51 -51 -51s-51 25 -51 51zM312 677c0 26 21 51 51 51s51 -25 51 -51s-21 -51 -51 -51s-51 25 -51 51z" />
    <glyph glyph-name="ccircumflex" unicode="&#x109;" horiz-adv-x="500" 
d="M480 399l-53 -38c-22 36 -69 62 -120 62c-109 0 -179 -82 -179 -189c0 -106 69 -188 178 -188c59 0 100 25 127 61l51 -38c-40 -49 -97 -81 -178 -81c-151 0 -250 105 -250 246s99 246 250 246c63 0 134 -27 174 -81zM343 708l109 -144h-66l-83 108l-83 -108h-66l109 144
h80z" />
    <glyph glyph-name="five.sc" horiz-adv-x="484" 
d="M389 531v-62h-215l-4 -140c18 6 39 9 58 9c109 0 177 -66 177 -170c0 -103 -72 -180 -181 -180c-78 0 -141 44 -163 108l64 28c14 -51 58 -72 97 -72c67 0 112 46 112 112c0 70 -50 115 -117 115c-33 0 -77 -13 -115 -36l5 288h282z" />
    <glyph glyph-name="ecircumflex.sc" horiz-adv-x="499" 
d="M160 245v-182h279v-63h-349v531h338v-62h-268v-163h252v-61h-252zM297 738l109 -144h-66l-83 108l-83 -108h-66l109 144h80z" />
    <glyph glyph-name="circumflex.cap" 
d="M160 908l109 -144h-66l-83 108l-83 -108h-66l109 144h80z" />
    <glyph glyph-name="commaaccent" 
d="M181 -45l-76 -185h-57l62 185h71z" />
    <glyph glyph-name="ycircumflex" unicode="&#x177;" horiz-adv-x="488" 
d="M92 468l159 -395h2l145 395h74l-233 -589c-28 -72 -66 -119 -147 -119c-20 0 -41 2 -61 6l7 62c15 -5 32 -8 50 -8c46 0 70 30 90 83l38 98l-200 467h76zM292 708l109 -144h-66l-83 108l-83 -108h-66l109 144h80z" />
    <glyph glyph-name="Nacute" unicode="&#x143;" horiz-adv-x="764" 
d="M184 708l412 -603h2v603h72v-708h-90l-412 609h-2v-609h-72v708h90zM535 908l-132 -144h-59l100 144h91z" />
    <glyph glyph-name="rcommaaccent" unicode="&#x157;" horiz-adv-x="360" 
d="M90 365c0 25 -1 71 -4 103h65c2 -25 4 -60 4 -80h2c26 54 84 92 150 92c17 0 31 -1 45 -5l-9 -64c-8 3 -30 6 -48 6c-72 0 -137 -52 -137 -177v-240h-68v365zM176 -45l-76 -185h-57l62 185h71z" />
    <glyph glyph-name="cacute.sc" horiz-adv-x="559" 
d="M481 123l56 -37c-40 -57 -109 -98 -203 -98c-161 0 -278 115 -278 278c0 165 120 277 281 277c74 0 152 -30 190 -83l-56 -43c-25 36 -77 63 -134 63c-126 0 -205 -96 -205 -214c0 -120 79 -214 203 -214c60 0 113 24 146 71zM462 738l-132 -144h-59l100 144h91z" />
    <glyph glyph-name="egrave" unicode="&#xe8;" horiz-adv-x="572" 
d="M128 270h319c-4 88 -58 153 -155 153c-91 0 -158 -73 -164 -153zM516 248c0 -9 0 -20 -1 -32h-388c2 -94 75 -170 171 -170c70 0 124 39 150 81l51 -40c-55 -70 -124 -99 -201 -99c-139 0 -242 105 -242 246s103 246 236 246c147 0 224 -104 224 -232zM282 564l-132 144
h91l100 -144h-59z" />
    <glyph glyph-name="breve.cap" 
d="M223 908h44c-5 -83 -65 -132 -147 -132s-142 49 -147 132h44c9 -52 53 -78 103 -78s94 26 103 78z" />
    <glyph glyph-name="tcommaaccent" unicode="&#x163;" horiz-adv-x="317" 
d="M301 468v-57h-132v-273c0 -70 29 -86 70 -86c19 0 41 6 59 15l3 -59c-24 -9 -49 -14 -80 -14c-50 0 -120 22 -120 125v292h-97v57h97v132h68v-132h132zM250 -45l-76 -185h-57l62 185h71z" />
    <glyph glyph-name="dcaron" unicode="&#x10f;" horiz-adv-x="675" 
d="M475 79c-40 -59 -110 -91 -177 -91c-146 0 -242 108 -242 246s96 246 242 246c67 0 137 -32 177 -93h2v369h68v-756h-68v79h-2zM128 234c0 -104 64 -188 177 -188c105 0 180 81 180 188s-75 189 -180 189c-113 0 -177 -85 -177 -189zM734 708l-76 -185h-57l62 185h71z
" />
    <glyph glyph-name="gbreve" unicode="&#x11f;" horiz-adv-x="632" 
d="M66 -146l49 52c37 -48 108 -86 179 -86c134 0 183 83 183 184v88h-2c-36 -58 -109 -92 -177 -92c-146 0 -242 101 -242 238c0 133 96 242 242 242c68 0 140 -33 177 -93h2v81h68v-464c0 -102 -47 -244 -254 -244c-86 0 -170 36 -225 94zM128 240c0 -98 64 -182 177 -182
c105 0 180 74 180 182c0 98 -75 183 -180 183c-113 0 -177 -85 -177 -183zM413 708h44c-5 -83 -65 -132 -147 -132s-142 49 -147 132h44c9 -52 53 -78 103 -78s94 26 103 78z" />
    <glyph glyph-name="edotaccent.sc" horiz-adv-x="499" 
d="M160 245v-182h279v-63h-349v531h338v-62h-268v-163h252v-61h-252zM312 678c0 -28 -24 -48 -48 -48s-48 20 -48 48s24 48 48 48s48 -20 48 -48z" />
    <glyph glyph-name="six.sc" horiz-adv-x="484" 
d="M338 531l-142 -219c19 9 40 12 56 12c93 0 165 -63 165 -163c0 -102 -72 -173 -174 -173c-103 0 -176 69 -176 172c0 48 18 96 48 142l143 229h80zM137 160c0 -63 45 -108 106 -108c62 0 104 46 104 108c0 60 -41 107 -104 107c-66 0 -106 -47 -106 -107z" />
    <glyph glyph-name="egrave.sc" horiz-adv-x="499" 
d="M160 245v-182h279v-63h-349v531h338v-62h-268v-163h252v-61h-252zM248 594l-132 144h91l100 -144h-59z" />
    <glyph glyph-name="c.sc" horiz-adv-x="559" 
d="M481 123l56 -37c-40 -57 -109 -98 -203 -98c-161 0 -278 115 -278 278c0 165 120 277 281 277c74 0 152 -30 190 -83l-56 -43c-25 36 -77 63 -134 63c-126 0 -205 -96 -205 -214c0 -120 79 -214 203 -214c60 0 113 24 146 71z" />
    <glyph glyph-name="circumflex.sc" 
d="M160 738l109 -144h-66l-83 108l-83 -108h-66l109 144h80z" />
    <glyph glyph-name="degree" unicode="&#xb0;" horiz-adv-x="400" 
d="M349 571c0 -86 -63 -149 -149 -149s-149 63 -149 149s63 149 149 149s149 -63 149 -149zM301 571c0 56 -45 101 -101 101s-101 -45 -101 -101s45 -101 101 -101s101 45 101 101z" />
    <glyph glyph-name="t.sc" horiz-adv-x="438" 
d="M253 469v-469h-70v469h-171v62h414v-62h-173z" />
    <glyph glyph-name="dieresis.cap" 
d="M-27 847c0 26 21 51 51 51s51 -25 51 -51s-21 -51 -51 -51s-51 25 -51 51zM165 847c0 26 21 51 51 51s51 -25 51 -51s-21 -51 -51 -51s-51 25 -51 51z" />
    <glyph glyph-name="sacute.sc" horiz-adv-x="450" 
d="M389 481l-50 -48c-22 30 -60 50 -105 50c-49 0 -105 -25 -105 -86c0 -60 49 -75 109 -94c73 -23 157 -48 157 -154c0 -110 -89 -161 -182 -161c-66 0 -134 27 -173 78l56 47c23 -38 68 -64 118 -64c51 0 110 29 110 93c0 67 -60 82 -127 103c-69 21 -139 52 -139 149
c0 105 93 149 180 149c62 0 119 -25 151 -62zM361 738l-132 -144h-59l100 144h91z" />
    <glyph glyph-name="caron.sc" 
d="M269 738l-109 -144h-80l-109 144h66l83 -108l83 108h66z" />
    <glyph glyph-name="cacute" unicode="&#x107;" horiz-adv-x="500" 
d="M480 399l-53 -38c-22 36 -69 62 -120 62c-109 0 -179 -82 -179 -189c0 -106 69 -188 178 -188c59 0 100 25 127 61l51 -38c-40 -49 -97 -81 -178 -81c-151 0 -250 105 -250 246s99 246 250 246c63 0 134 -27 174 -81zM441 708l-132 -144h-59l100 144h91z" />
    <glyph glyph-name="copyright" unicode="&#xa9;" horiz-adv-x="800" 
d="M580 224l-52 34c-32 -46 -76 -65 -118 -65c-98 0 -157 78 -157 166c0 87 61 165 159 165c46 0 89 -30 108 -59l52 40c-33 49 -98 79 -162 79c-130 0 -226 -95 -226 -225c0 -131 96 -226 226 -226c79 0 138 42 170 91zM20 353c0 -209 171 -375 381 -375
c209 0 379 166 379 375c0 210 -170 377 -379 377c-210 0 -381 -167 -381 -377zM80 353c0 177 144 321 321 321c176 0 319 -144 319 -321c0 -176 -143 -319 -319 -319c-177 0 -321 143 -321 319z" />
    <glyph glyph-name="d.sc" horiz-adv-x="612" 
d="M90 0v531h181c135 0 285 -79 285 -265c0 -181 -150 -266 -285 -266h-181zM160 469v-406h96c134 0 225 79 225 203c0 127 -91 203 -225 203h-96z" />
    <glyph glyph-name="cdotaccent.sc" horiz-adv-x="559" 
d="M481 123l56 -37c-40 -57 -109 -98 -203 -98c-161 0 -278 115 -278 278c0 165 120 277 281 277c74 0 152 -30 190 -83l-56 -43c-25 36 -77 63 -134 63c-126 0 -205 -96 -205 -214c0 -120 79 -214 203 -214c60 0 113 24 146 71zM385 678c0 -28 -24 -48 -48 -48
s-48 20 -48 48s24 48 48 48s48 -20 48 -48z" />
    <glyph glyph-name="f.sc" horiz-adv-x="469" 
d="M160 240v-240h-70v531h329v-62h-259v-168h243v-61h-243z" />
    <glyph glyph-name="gcommaaccent" unicode="&#x123;" horiz-adv-x="632" 
d="M66 -146l49 52c37 -48 108 -86 179 -86c134 0 183 83 183 184v88h-2c-36 -58 -109 -92 -177 -92c-146 0 -242 101 -242 238c0 133 96 242 242 242c68 0 140 -33 177 -93h2v81h68v-464c0 -102 -47 -244 -254 -244c-86 0 -170 36 -225 94zM128 240c0 -98 64 -182 177 -182
c105 0 180 74 180 182c0 98 -75 183 -180 183c-113 0 -177 -85 -177 -183zM281 564l76 185h57l-62 -185h-71z" />
    <glyph glyph-name="commaaccent.alt" 
d="M96 564l76 185h57l-62 -185h-71z" />
    <glyph glyph-name="tcaron.sc" horiz-adv-x="438" 
d="M253 469v-469h-70v469h-171v62h414v-62h-173zM368 738l-109 -144h-80l-109 144h66l83 -108l83 108h66z" />
    <glyph glyph-name="gdotaccent.sc" horiz-adv-x="617" 
d="M533 473l-50 -50c-31 34 -83 57 -145 57c-127 0 -206 -96 -206 -214c0 -119 79 -214 207 -214c52 0 97 10 128 28v149h-119v61h189v-254c-56 -31 -122 -48 -199 -48c-165 0 -282 115 -282 278c0 165 120 277 281 277c84 0 152 -27 196 -70zM384 678
c0 -28 -24 -48 -48 -48s-48 20 -48 48s24 48 48 48s48 -20 48 -48z" />
    <glyph glyph-name="gcommaaccent.sc" horiz-adv-x="617" 
d="M533 473l-50 -50c-31 34 -83 57 -145 57c-127 0 -206 -96 -206 -214c0 -119 79 -214 207 -214c52 0 97 10 128 28v149h-119v61h189v-254c-56 -31 -122 -48 -199 -48c-165 0 -282 115 -282 278c0 165 120 277 281 277c84 0 152 -27 196 -70zM381 -45l-76 -185h-57l62 185
h71z" />
    <glyph glyph-name="gcircumflex.sc" horiz-adv-x="617" 
d="M533 473l-50 -50c-31 34 -83 57 -145 57c-127 0 -206 -96 -206 -214c0 -119 79 -214 207 -214c52 0 97 10 128 28v149h-119v61h189v-254c-56 -31 -122 -48 -199 -48c-165 0 -282 115 -282 278c0 165 120 277 281 277c84 0 152 -27 196 -70zM378 738l109 -144h-66l-83 108
l-83 -108h-66l109 144h80z" />
    <glyph glyph-name="space" unicode=" " horiz-adv-x="250" 
 />
    <glyph glyph-name=".null" horiz-adv-x="500" 
 />
    <glyph glyph-name=".null" horiz-adv-x="500" 
 />
    </font>
</defs>
</svg>
