<?xml version="1.0" encoding="UTF-8" standalone="no"?>
<!DOCTYPE svg  PUBLIC '-//W3C//DTD SVG 1.1//EN'  'http://www.w3.org/Graphics/SVG/1.1/DTD/svg11.dtd'>
<svg xmlns="http://www.w3.org/2000/svg">
<defs>
<font id="CenturyGothic-BoldItalic" horiz-adv-x="1147">
<font-face slope="-7.59999" underline-position="-96" font-weight="700" descent="-410" panose-1="2 11 6 2 2 2 2 9 2 4" units-per-em="2048" unicode-range="U+0020-F003" bbox="-401 -451 2494 2060" x-height="1088" underline-thickness="184" font-family="CenturyGothic" ascent="1638" font-style="italic" cap-height="1471"/>
<missing-glyph horiz-adv-x="2048"/>
<glyph glyph-name=".notdef" horiz-adv-x="2048"/>
<glyph glyph-name="glyph1" horiz-adv-x="0"/>
<glyph glyph-name="glyph2" horiz-adv-x="2048"/>
<glyph glyph-name="space" horiz-adv-x="573" unicode=" "/>
<glyph glyph-name="exclam" horiz-adv-x="573" unicode="!" d="M214 308q69 0 118.5 -49t49.5 -119q0 -69 -49.5 -118.5t-118.5 -49.5q-70 0 -119 49.5t-49 118.5q0 70 49 119t119 49zM260 1508h275l-151 -1074h-275z"/>
<glyph glyph-name="quotedbl" horiz-adv-x="737" unicode='&quot;' d="M295 1004h-156l-55 504h267zM706 1004h-156l-55 504h267z"/>
<glyph glyph-name="numbersign" horiz-adv-x="1229" unicode="#" d="M736 866h-194l-26 -188h189zM1110 678v-199h-231l-71 -479h-201l70 479h-191l-70 -479h-200l70 479h-225v199h256l30 188h-223v199h251l65 443h195l-62 -443h191l65 443h201l-65 -443h202v-199h-231l-26 -188h200z"/>
<glyph glyph-name="dollar" d="M619 1607h175l-18 -119q90 -24 156 -69t138 -134l-192 -150q-70 78 -127 107t-116 29q-75 0 -128.5 -46.5t-53.5 -105.5q0 -31 10 -54q15 -30 46 -56q13 -12 119 -78q155 -97 209 -143q94 -80 139 -168.5t45 -193.5q0 -118 -58 -222.5t-154.5 -164.5t-245.5 -73l-37 -263 h-174l36 263q-142 27 -233.5 99t-169.5 222l240 121q108 -210 291 -210q104 0 172 62t68 149q0 70 -46 129q-46 58 -214 157q-182 108 -245 202q-64 93 -64 204q0 144 107.5 267t309.5 134z" unicode="$"/>
<glyph glyph-name="percent" horiz-adv-x="1761" unicode="%" d="M1325 488q-80 0 -136 -58t-56 -143q0 -69 42 -111t106 -42q75 0 131.5 61.5t56.5 144.5q0 68 -39.5 108t-104.5 40zM1348 660q131 0 217.5 -87.5t86.5 -221.5q0 -101 -52.5 -193.5t-141.5 -143.5t-195 -51q-148 0 -229.5 92t-81.5 216q0 96 54.5 189.5t147 146.5 t194.5 53zM471 1331q-82 0 -138.5 -59t-56.5 -146q0 -61 41.5 -104t103.5 -43q78 0 135 59.5t57 143.5q0 67 -39.5 108t-102.5 41zM1465 1536h201l-1399 -1636h-202l1197 1405q-69 -13 -137.5 -20t-136.5 -7q-95 0 -204 12q13 -55 13 -95q0 -100 -53 -193t-141.5 -143.5 t-195.5 -50.5q-137 0 -224 85.5t-87 217.5q0 179 147 302q112 95 231 95q43 0 169 -24q221 -42 371 -42q118 0 231 23.5t220 70.5z"/>
<glyph glyph-name="ampersand" horiz-adv-x="1393" unicode="&amp;" d="M556 550q-78 -42 -156 -100q-40 -29 -60 -66q-15 -28 -15 -57q0 -50 35 -82.5t92 -32.5q49 0 121 26q17 7 154 75q-19 23 -56 76zM645 897q151 103 151 189q0 29 -25 50.5t-64 21.5q-48 0 -81 -31.5t-33 -72.5q0 -69 52 -157zM1133 588l146 -198q-55 -48 -116 -91 l-58 -43l62 -76q96 -118 142 -180h-327q-53 54 -99 111q-106 -71 -225 -109.5t-224 -38.5q-148 0 -258.5 106t-110.5 250q0 122 75.5 226.5t283.5 225.5q-54 104 -71.5 163t-17.5 119q0 148 113.5 253t279.5 105q140 0 231.5 -89.5t91.5 -223.5q0 -109 -64 -209.5 t-209 -200.5q98 -146 170 -232q107 71 185 132z"/>
<glyph glyph-name="quotesingle" horiz-adv-x="451" unicode="&apos;" d="M357 1004h-156l-55 504h266z"/>
<glyph glyph-name="parenleft" horiz-adv-x="778" unicode="(" d="M614 1536h347q-510 -489 -510 -1250q0 -196 49.5 -351.5t182.5 -360.5h-345q-93 182 -132.5 343t-39.5 342q0 234 51 469t144 423.5t253 384.5z"/>
<glyph glyph-name="parenright" horiz-adv-x="778" unicode=")" d="M123 -426h-347q510 489 510 1250q0 196 -49.5 351.5t-182.5 360.5h345q93 -183 132.5 -343.5t39.5 -342.5q0 -234 -51 -468.5t-144 -423t-253 -384.5z"/>
<glyph glyph-name="asterisk" horiz-adv-x="901" unicode="*" d="M386 1508h254l-79 -301l226 213l117 -220l-305 -78l305 -87l-132 -217l-218 217l77 -300h-245l77 300l-223 -217l-133 217l306 87l-306 85l133 223l223 -223z"/>
<glyph glyph-name="plus" horiz-adv-x="1229" unicode="+" d="M490 860v375h250v-375h374v-250h-374v-374h-250v374h-375v250h375z"/>
<glyph glyph-name="comma" horiz-adv-x="573" unicode="," d="M147 267l207 -123l-276 -360l-129 78z"/>
<glyph glyph-name="hyphen" horiz-adv-x="860" unicode="-" d="M156 663h539l-31 -243h-540z"/>
<glyph glyph-name="hyphen" horiz-adv-x="860" unicode="­" d="M156 663h539l-31 -243h-540z"/>
<glyph glyph-name="period" horiz-adv-x="573" unicode="." d="M205 308q69 0 118.5 -49t49.5 -119q0 -69 -49.5 -118.5t-118.5 -49.5q-70 0 -119 49.5t-49 118.5q0 70 49 119t119 49z"/>
<glyph glyph-name="slash" horiz-adv-x="942" unicode="/" d="M44 -262l661 1775h194l-662 -1775h-193z"/>
<glyph glyph-name="zero" d="M643 1248q-61 0 -113 -51q-76 -76 -135 -273.5t-59 -410.5q0 -176 41 -238.5t113 -62.5q65 0 134 65t126.5 256t57.5 418q0 160 -46 228.5t-119 68.5zM669 1508q171 0 286 -149.5t115 -436.5q0 -295 -92.5 -526.5t-227.5 -332t-289 -100.5q-110 0 -196.5 60t-138.5 179.5 t-52 311.5q0 322 92 570q83 220 217.5 322t285.5 102z" unicode="0"/>
<glyph glyph-name="one" d="M412 1471h435l-198 -1471h-270l164 1214h-218z" unicode="1"/>
<glyph glyph-name="two" d="M422 1021h-268q6 149 66 260.5t160 169t227 57.5q184 0 304 -118.5t120 -294.5q0 -140 -94 -303.5t-461 -540.5h495l-33 -251h-909l25 193q379 385 492 515q152 177 188 261q29 65 29 126q0 69 -45.5 114.5t-111.5 45.5q-70 0 -117 -52.5t-67 -181.5z" unicode="2"/>
<glyph glyph-name="three" d="M474 1116h-254q22 180 141 286t291 106q107 0 193 -48.5t137.5 -137.5t51.5 -184q0 -96 -56.5 -187t-171.5 -161q199 -122 199 -340q0 -201 -147 -344t-358 -143q-192 0 -317.5 133t-125.5 353h260q11 -112 53 -163q58 -69 152 -69q99 0 157 74t58 176q0 58 -31.5 108.5 t-83 77t-157.5 32.5l33 230q127 0 193.5 57.5t66.5 145.5q0 60 -37.5 98t-94.5 38q-58 0 -99.5 -36t-52.5 -102z" unicode="3"/>
<glyph glyph-name="four" d="M720 1041l-390 -519h326zM795 1508h245l-129 -986h145l-32 -239h-145l-38 -283h-251l36 283h-618l32 239z" unicode="4"/>
<glyph glyph-name="five" d="M406 1471h703l-34 -251h-475l-84 -286q64 31 135 31q166 0 267 -109.5t101 -308.5q0 -262 -147.5 -423t-367.5 -161q-155 0 -276 78t-196 233l242 110q63 -95 119.5 -130.5t123.5 -35.5q97 0 161 76.5t64 203.5q0 95 -49 153t-118 58q-94 0 -151 -88l-245 68z" unicode="5"/>
<glyph glyph-name="six" d="M559 651q-94 0 -161 -66t-67 -159q0 -87 61.5 -147.5t151.5 -60.5q95 0 159.5 65.5t64.5 161.5q0 88 -59.5 147t-149.5 59zM675 1508l211 -142l-354 -494q53 14 96 14q169 0 289 -125t120 -310q0 -209 -141 -348.5t-360 -139.5q-199 0 -331 132.5t-132 324.5q0 77 20 149 q30 103 82 198q93 169 192 308z" unicode="6"/>
<glyph glyph-name="seven" d="M237 1471h918l-16 -180l-743 -1328l-225 124l639 1129h-605z" unicode="7"/>
<glyph glyph-name="eight" d="M556 678q-100 0 -170.5 -74.5t-70.5 -185.5q0 -86 59 -144.5t148 -58.5q100 0 168 70.5t68 172.5q0 93 -60 156.5t-142 63.5zM639 1251q-75 0 -125 -49.5t-50 -119.5q0 -65 39.5 -107t104.5 -42q72 0 122 49t50 120q0 69 -38.5 109t-102.5 40zM789 792 q110 -42 172 -132.5t62 -215.5q0 -138 -64.5 -247.5t-184 -171.5t-272.5 -62q-200 0 -330.5 124t-130.5 298q0 92 40 182.5t105.5 151t174.5 100.5q-71 42 -107 97q-58 88 -58 191q0 104 57 198t162.5 148.5t229.5 54.5q181 0 297 -108.5t116 -256.5q0 -110 -66.5 -202 t-202.5 -149z" unicode="8"/>
<glyph glyph-name="nine" d="M599 820q94 0 161 66t67 158q0 88 -61.5 148t-151.5 60q-95 0 -159.5 -65.5t-64.5 -161.5q0 -87 59.5 -146t149.5 -59zM483 -37l-211 141l354 494q-53 -13 -96 -13q-169 0 -289 125t-120 310q0 209 141 348.5t360 139.5q199 0 331 -132.5t132 -324.5q0 -77 -20 -149 q-30 -104 -82 -198q-93 -170 -192 -309z" unicode="9"/>
<glyph glyph-name="colon" horiz-adv-x="573" unicode=":" d="M205 308q69 0 118.5 -49t49.5 -119q0 -69 -49.5 -118.5t-118.5 -49.5q-70 0 -119 49.5t-49 118.5q0 70 49 119t119 49zM319 1116q69 0 118.5 -49t49.5 -118t-49.5 -118t-118.5 -49q-70 0 -119 49t-49 118q0 70 48.5 118.5t119.5 48.5z"/>
<glyph glyph-name="less" horiz-adv-x="1229" unicode="&lt;" d="M1114 366v-250l-999 508v222l999 508v-249l-712 -370z"/>
<glyph glyph-name="equal" horiz-adv-x="1229" unicode="=" d="M115 646h999v-250h-999v250zM115 1074h999v-250h-999v250z"/>
<glyph glyph-name="greater" horiz-adv-x="1229" unicode="&gt;" d="M115 1105v249l999 -508v-222l-999 -508v250l713 369z"/>
<glyph glyph-name="question" d="M425 308q69 0 118 -49t49 -119q0 -69 -49 -118.5t-118 -49.5q-70 0 -119 49.5t-49 118.5q0 70 49 119t119 49zM347 1098h-261q14 126 84 226t187 156t263 56q193 0 315 -115.5t122 -276.5q0 -204 -242 -382q-110 -80 -137.5 -111.5t-47 -83.5t-26.5 -131h-257 q5 181 60.5 287.5t203.5 206.5q119 80 150.5 123.5t31.5 88.5q0 58 -54.5 102t-144.5 44q-199 0 -247 -190z" unicode="?"/>
<glyph glyph-name="at" horiz-adv-x="1515" unicode="@" d="M763 526q87 0 144 71.5t57 161.5q0 78 -46.5 127.5t-116.5 49.5q-82 0 -143 -67.5t-61 -163.5q0 -81 46 -130t120 -49zM1252 301h191q-109 -135 -193.5 -196.5t-196.5 -96.5t-233 -35q-214 0 -397 104.5t-287 284.5t-104 392q0 214 104.5 398t285 286t396.5 102 q300 0 506.5 -193t206.5 -449q0 -188 -86.5 -323.5t-235.5 -211.5q-114 -58 -191 -58q-58 0 -93 31q-27 22 -29 76q-88 -97 -214 -97q-142 0 -236.5 101t-94.5 269q0 185 116 330.5t308 145.5q79 0 141 -32.5t106 -98.5l21 105h196l-99 -583q-10 -62 -10 -70 q0 -11 10.5 -20.5t24.5 -9.5q35 0 94.5 48.5t97 140t37.5 200.5q0 162 -71 286t-204 195t-305 71q-181 0 -325 -80.5t-227 -228t-83 -324.5q0 -181 84 -328t235 -229t338 -82q110 0 208 41t208 139z"/>
<glyph glyph-name="A" horiz-adv-x="1515" unicode="A" d="M956 573l-118 483l-259 -483h377zM770 1471h233l366 -1471h-268l-78 313h-581l-169 -313h-297z"/>
<glyph glyph-name="B" horiz-adv-x="1188" unicode="B" d="M383 261l166 -6q125 0 182 49t57 134q0 62 -35.5 111t-94.5 69t-226 21zM465 887h50q112 0 152 16.5t68 61.5t28 100q0 51 -25 88t-65.5 50t-164.5 13zM266 1471h230q210 0 312 -45t164.5 -140t62.5 -205q0 -92 -44 -173.5t-127 -136.5q197 -137 197 -364 q0 -118 -62.5 -216t-154.5 -144.5t-266 -46.5h-508z"/>
<glyph glyph-name="C" horiz-adv-x="1597" unicode="C" d="M1524 1281l-201 -186q-65 75 -159 115.5t-204 40.5q-154 0 -295 -79t-219.5 -209t-78.5 -277q0 -200 138 -332.5t354 -132.5q231 0 400 134l163 -215q-251 -177 -581 -177q-232 0 -394.5 88t-261 258.5t-98.5 369.5q0 213 116.5 408.5t315.5 308t434 112.5 q330 0 571 -227z"/>
<glyph glyph-name="D" horiz-adv-x="1434" unicode="D" d="M510 1212l-127 -955h91q210 0 304 35q132 50 212 171t80 299q0 146 -56.5 244.5t-159.5 152t-274 53.5h-70zM267 1471h234q329 0 489.5 -77.5t261 -243.5t100.5 -383q0 -223 -106.5 -409.5t-268.5 -272t-450 -85.5h-457z"/>
<glyph glyph-name="E" horiz-adv-x="1065" unicode="E" d="M245 1471h799l-34 -261h-520l-42 -304h522l-33 -259h-522l-52 -390h525l-35 -257h-801z"/>
<glyph glyph-name="F" horiz-adv-x="983" unicode="F" d="M247 1471h725l-33 -261h-447l-42 -304h448l-33 -259h-449l-84 -647h-278z"/>
<glyph glyph-name="G" horiz-adv-x="1720" unicode="G" d="M1541 1197l-230 -149q-100 114 -193 158.5t-211 44.5q-255 0 -415 -205q-127 -163 -127 -362q0 -196 130.5 -329t321.5 -133q142 0 258.5 68.5t190.5 205.5h-459l34 261h744q-16 -365 -228.5 -579.5t-541.5 -214.5q-358 0 -563 248q-165 199 -165 474q0 335 241.5 579 t575.5 244q124 0 242 -36t213 -101t182 -174z"/>
<glyph glyph-name="H" horiz-adv-x="1393" unicode="H" d="M266 1471h277l-74 -555h503l75 555h278l-200 -1471h-276l91 668h-507l-90 -668h-275z"/>
<glyph glyph-name="I" horiz-adv-x="573" unicode="I" d="M256 1471h270l-203 -1471h-265z"/>
<glyph glyph-name="J" horiz-adv-x="983" unicode="J" d="M643 1471h276l-138 -1038q-28 -206 -70 -291.5t-122 -132t-187 -46.5q-133 0 -253.5 78t-195.5 222l219 133q58 -90 115 -130.5t101 -40.5q47 0 73 36t39 157z"/>
<glyph glyph-name="K" horiz-adv-x="1270" unicode="K" d="M270 1471h277l-68 -500l474 500h342l-641 -673l507 -798h-309l-415 654l-89 -654h-274z"/>
<glyph glyph-name="L" horiz-adv-x="901" unicode="L" d="M271 1471h277l-166 -1218h457l-32 -253h-735z"/>
<glyph glyph-name="M" horiz-adv-x="1843" unicode="M" d="M376 1471h250l249 -1025l508 1025h238l20 -1471h-258l-12 880l-436 -880h-211l-224 924l-235 -924h-264z"/>
<glyph glyph-name="N" horiz-adv-x="1515" unicode="N" d="M266 1471h242l533 -1000l135 1000h269l-198 -1471h-236l-540 1011l-135 -1011h-265z"/>
<glyph glyph-name="O" horiz-adv-x="1720" unicode="O" d="M935 1247q-158 0 -288.5 -76.5t-210.5 -220t-80 -296.5q0 -181 111 -307t319 -126q241 0 409.5 170t168.5 413q0 201 -118.5 322t-310.5 121zM945 1508q303 0 500 -195t197 -495q0 -230 -116.5 -433.5t-310 -312.5t-444.5 -109q-314 0 -501.5 186t-187.5 490 q0 345 224 593q250 276 639 276z"/>
<glyph glyph-name="P" d="M465 881q226 1 295 47t69 137q0 51 -27 86t-80 49t-210 14zM269 1471h259q236 0 333 -41q120 -51 182 -142t62 -213q0 -134 -72.5 -242.5t-194.5 -158t-406 -53.5l-84 -621h-277z" unicode="P"/>
<glyph glyph-name="Q" horiz-adv-x="1720" unicode="Q" d="M1228 427q136 161 136 377q0 202 -118.5 322.5t-314.5 120.5q-155 0 -285 -77t-210 -220.5t-80 -295.5q0 -182 111.5 -307.5t317.5 -125.5q127 0 232 46l-220 247h354zM1408 224l258 -293h-350l-117 132q-196 -100 -427 -100q-315 0 -502.5 186t-187.5 490 q0 239 114.5 440t310 315t431.5 114q309 0 506.5 -195t197.5 -495q0 -162 -62.5 -320.5t-171.5 -273.5z"/>
<glyph glyph-name="R" horiz-adv-x="1188" unicode="R" d="M478 883q227 1 295.5 46.5t68.5 136.5q0 52 -27.5 87t-79.5 49t-211 14zM281 1471h257q238 0 335 -41q121 -51 182.5 -141.5t61.5 -214.5q0 -153 -91 -262.5t-275 -152.5l321 -659h-286l-314 642h-26l-85 -642h-276z"/>
<glyph glyph-name="S" horiz-adv-x="1065" unicode="S" d="M1017 1266l-201 -178q-124 160 -231 160q-53 0 -88 -31.5t-35 -75.5q0 -41 32 -91t194 -221q86 -91 113 -129q65 -88 93.5 -164.5t28.5 -155.5q0 -177 -126 -297t-323 -120q-300 0 -489 285l212 171q128 -195 277 -195q71 0 119.5 46t48.5 111q0 51 -29.5 104t-168.5 200 q-147 155 -193 234q-62 107 -62 210q0 136 89 244q112 135 302 135q261 0 437 -242z"/>
<glyph glyph-name="T" horiz-adv-x="860" unicode="T" d="M79 1471h898l-32 -262h-313l-159 -1209h-274l159 1209h-313z"/>
<glyph glyph-name="U" horiz-adv-x="1311" unicode="U" d="M260 1471h275l-122 -908q-16 -119 -16 -168q0 -83 51.5 -129.5t149.5 -46.5q79 0 138 35q44 26 70.5 86.5t51.5 240.5l123 890h278l-120 -878q-37 -271 -97 -389t-173.5 -179.5t-276.5 -61.5q-220 0 -343 117t-123 320q0 88 24 260z"/>
<glyph glyph-name="V" horiz-adv-x="1434" unicode="V" d="M105 1471h270l263 -1062l569 1062h297l-787 -1471h-247z"/>
<glyph glyph-name="W" horiz-adv-x="1843" unicode="W" d="M132 1471h252l84 -953l451 953h208l175 -928l327 928h267l-520 -1471h-226l-185 974l-461 -974h-241z"/>
<glyph glyph-name="X" horiz-adv-x="1393" unicode="X" d="M250 1471h284l207 -455l321 455h320l-518 -728l338 -743h-286l-224 499l-354 -499h-322l552 772z"/>
<glyph glyph-name="Y" horiz-adv-x="1270" unicode="Y" d="M66 1471h279l230 -589l418 589h317l-628 -883l-79 -588h-276l81 588z"/>
<glyph glyph-name="Z" horiz-adv-x="1024" unicode="Z" d="M183 1471h831l-584 -1215h463l-34 -256h-841l585 1212h-456z"/>
<glyph glyph-name="bracketleft" horiz-adv-x="655" unicode="[" d="M316 1508h437l-35 -255h-161l-195 -1397h161l-34 -254h-439z"/>
<glyph glyph-name="backslash" horiz-adv-x="1311" unicode="\" d="M1082 -262h-193l-661 1775h193z"/>
<glyph glyph-name="bracketright" horiz-adv-x="655" unicode="]" d="M311 -398h-437l35 255h161l196 1397h-162l35 254h438z"/>
<glyph glyph-name="asciicircum" horiz-adv-x="1229" unicode="^" d="M497 1471h232l390 -1105h-242l-262 748l-263 -748h-243z"/>
<glyph glyph-name="underscore" horiz-adv-x="1024" unicode="_" d="M-12 -154h1048v-102h-1048v102z"/>
<glyph glyph-name="grave" horiz-adv-x="860" unicode="`" d="M216 1677h322l182 -392h-195z"/>
<glyph glyph-name="a" horiz-adv-x="1352" unicode="a" d="M590 210q98 0 171 44t122.5 138t49.5 192q0 129 -74.5 207.5t-196.5 78.5q-142 0 -241 -105t-99 -271q0 -128 75 -206t193 -78zM984 1088h267l-142 -1088h-264l15 117q-87 -81 -162.5 -113t-169.5 -32q-216 0 -343.5 159t-127.5 370q0 161 81 306.5t217.5 227t285.5 81.5 q100 0 184.5 -46t139.5 -134z"/>
<glyph glyph-name="b" horiz-adv-x="1352" unicode="b" d="M704 879q-98 0 -171 -44.5t-122.5 -138.5t-49.5 -192q0 -129 74.5 -207.5t196.5 -78.5q142 0 241 105t99 271q0 128 -75 206.5t-193 78.5zM310 0h-267l197 1508h264l-70 -537q87 82 162.5 113.5t169.5 31.5q216 0 343.5 -159t127.5 -369q0 -161 -81 -307t-217.5 -227.5 t-284.5 -81.5q-101 0 -185.5 46t-138.5 134z"/>
<glyph glyph-name="c" horiz-adv-x="1311" unicode="c" d="M1187 863l-226 -123q-96 122 -258 122q-109 0 -193 -46.5t-134 -134.5t-50 -186q0 -126 79 -202t217 -76q191 0 293 129l210 -148q-89 -106 -221.5 -166t-295.5 -60q-254 0 -400.5 140t-146.5 370q0 263 181 448.5t466 185.5q321 0 479 -253z"/>
<glyph glyph-name="d" horiz-adv-x="1352" unicode="d" d="M590 210q98 0 171 44t122.5 138t49.5 192q0 129 -74.5 207.5t-196.5 78.5q-142 0 -241 -105t-99 -271q0 -128 75 -206t193 -78zM1039 1508h267l-197 -1508h-264l15 117q-87 -81 -162.5 -113t-169.5 -32q-216 0 -343.5 159t-127.5 370q0 161 81 306.5t217.5 227 t285.5 81.5q100 0 184.5 -46t139.5 -134z"/>
<glyph glyph-name="e" horiz-adv-x="1311" unicode="e" d="M929 662q-30 100 -100 151.5t-169 51.5q-98 0 -177 -53t-120 -150h566zM861 319l235 -122q-79 -104 -209.5 -164.5t-289.5 -60.5q-249 0 -392.5 140t-143.5 372q0 265 179.5 448.5t433.5 183.5q153 0 272.5 -67t188.5 -195t69 -278q0 -47 -10 -110h-868q4 -113 74.5 -180 t194.5 -67q150 0 266 100z"/>
<glyph glyph-name="f" horiz-adv-x="573" unicode="f" d="M56 1088h116q28 213 62.5 291.5t93.5 117.5t146 39q113 0 209 -65l-30 -218q-55 49 -111 49q-42 0 -61.5 -30.5t-41.5 -183.5h166l-29 -230h-166l-120 -858h-266l117 858h-114z"/>
<glyph glyph-name="g" horiz-adv-x="1352" unicode="g" d="M667 864q-145 0 -244.5 -102t-99.5 -251q0 -121 74 -194t198 -73q93 0 172 45t125 129t46 181q0 114 -76 189.5t-195 75.5zM984 1088h267l-119 -871q-35 -258 -72 -342q-58 -130 -195 -215.5t-344 -85.5q-172 0 -299.5 66.5t-190.5 171.5l229 120q103 -109 268 -109 q96 0 166 35t109 94.5t55 176.5q-145 -129 -329 -129q-128 0 -236.5 64.5t-170.5 181.5t-62 260q0 161 81 302.5t220.5 224.5t291.5 83q92 0 167 -36t147 -121z"/>
<glyph glyph-name="h" horiz-adv-x="1229" unicode="h" d="M250 1508h265l-72 -530q153 138 318 138q141 0 231 -89.5t90 -225.5q0 -64 -17 -191l-81 -610h-265l79 595q12 92 12 138q0 66 -37.5 101.5t-106.5 35.5q-67 0 -134 -46.5t-103 -129t-66 -309.5l-51 -385h-266z"/>
<glyph glyph-name="i" horiz-adv-x="491" unicode="i" d="M158 1088h264l-146 -1088h-266zM324 1533q68 0 116.5 -48.5t48.5 -116.5t-48.5 -116.5t-116.5 -48.5t-116.5 48.5t-48.5 116.5t48.5 116.5t116.5 48.5z"/>
<glyph glyph-name="j" horiz-adv-x="532" unicode="j" d="M178 1088h266l-130 -963q-37 -272 -75.5 -364t-108.5 -139.5t-161 -47.5q-70 0 -164 39l32 240q45 -29 83 -29q45 0 68 38q33 55 56 228zM348 1533q69 0 117 -48.5t48 -116.5t-48 -116.5t-117 -48.5q-68 0 -116.5 48.5t-48.5 116.5t48.5 116.5t116.5 48.5z"/>
<glyph glyph-name="k" horiz-adv-x="1188" unicode="k" d="M246 1508h263l-107 -799l430 379h366l-550 -485l481 -603h-320l-430 536l-71 -536h-262z"/>
<glyph glyph-name="l" horiz-adv-x="491" unicode="l" d="M214 1508h266l-200 -1508h-266z"/>
<glyph glyph-name="m" horiz-adv-x="1925" unicode="m" d="M187 1088h268l-16 -118q145 146 325 146q73 0 136.5 -25t103 -64t67.5 -109q75 97 176 147.5t210 50.5q137 0 227 -91.5t90 -237.5q0 -55 -10 -137l-86 -650h-265l73 559q15 113 15 150q0 77 -38.5 117t-108.5 40q-68 0 -137.5 -48.5t-106 -129t-61.5 -276.5l-54 -412 h-267l79 592q10 72 10 123q0 71 -41 112.5t-108 41.5q-64 0 -131.5 -44.5t-105 -121t-58.5 -234.5l-61 -469h-267z"/>
<glyph glyph-name="n" horiz-adv-x="1229" unicode="n" d="M193 1088h266l-16 -110q153 138 318 138q141 0 231 -89.5t90 -225.5q0 -64 -17 -191l-81 -610h-265l79 595q12 92 12 138q0 66 -37.5 101.5t-106.5 35.5q-67 0 -134 -46.5t-103 -129t-66 -309.5l-51 -385h-266z"/>
<glyph glyph-name="o" horiz-adv-x="1311" unicode="o" d="M665 863q-164 0 -251.5 -117.5t-87.5 -254.5q0 -122 71.5 -196.5t190.5 -74.5q169 0 257.5 113.5t88.5 259.5q0 120 -75 195t-194 75zM684 1116q145 0 263.5 -67t184.5 -190t66 -276q0 -254 -181 -432.5t-448 -178.5q-232 0 -370 140.5t-138 367.5q0 274 187 455t436 181 z"/>
<glyph glyph-name="p" horiz-adv-x="1352" unicode="p" d="M704 879q-97 0 -170.5 -44.5t-123 -138.5t-49.5 -192q0 -129 74.5 -207.5t196.5 -78.5q142 0 241 105t99 271q0 128 -75 206.5t-193 78.5zM258 -398h-267l195 1486h263l-15 -117q87 82 162.5 113.5t169.5 31.5q217 0 344 -159t127 -369q0 -161 -81 -307t-217.5 -227.5 t-284.5 -81.5q-100 0 -185 46t-139 134z"/>
<glyph glyph-name="q" horiz-adv-x="1352" unicode="q" d="M590 210q98 0 171 44t122.5 138t49.5 192q0 129 -74.5 207.5t-196.5 78.5q-142 0 -241 -105t-99 -271q0 -128 75 -206t193 -78zM984 1088h267l-194 -1486h-264l67 515q-87 -81 -162.5 -113t-169.5 -32q-216 0 -343.5 159t-127.5 370q0 161 81 306.5t217.5 227t285.5 81.5 q100 0 184.5 -46t139.5 -134z"/>
<glyph glyph-name="r" horiz-adv-x="655" unicode="r" d="M126 1088h238l-19 -148q107 176 257 176q36 0 75 -19l-96 -241q-30 9 -44 9q-77 0 -137.5 -90.5t-95.5 -365.5l-52 -409h-268z"/>
<glyph glyph-name="s" horiz-adv-x="901" unicode="s" d="M790 936l-127 -204q-49 73 -103 107.5t-101 34.5q-36 0 -61 -20t-25 -45q0 -24 20 -48q19 -24 115 -93q153 -110 201.5 -188.5t48.5 -170.5q0 -121 -99.5 -229t-288.5 -108q-109 0 -198.5 44t-199.5 161l165 192q112 -148 245 -148q53 0 84.5 25.5t31.5 60.5 q0 28 -24 57.5t-131 105.5q-124 88 -171 151q-66 88 -66 186q0 137 103.5 223t244.5 86q99 0 188 -47t148 -133z"/>
<glyph glyph-name="t" horiz-adv-x="614" unicode="t" d="M249 1492h266l-56 -404h169l-32 -230h-168l-117 -858h-267l118 858h-131l31 230h131z"/>
<glyph glyph-name="u" horiz-adv-x="1229" unicode="u" d="M195 1088h264l-73 -556q-12 -92 -12 -138q0 -72 50 -121t130 -49q103 0 158.5 63t81.5 256l75 545h264l-79 -585q-27 -198 -90.5 -306.5t-168.5 -166.5t-247 -58q-200 0 -318 115.5t-118 298.5q0 112 25 288z"/>
<glyph glyph-name="v" d="M55 1088h262l170 -605l349 605h290l-631 -1088h-129z" unicode="v"/>
<glyph glyph-name="w" horiz-adv-x="1638" unicode="w" d="M52 1088h257l150 -583l317 583h105l152 -583l315 583h284l-591 -1088h-129l-148 575l-310 -575h-127z"/>
<glyph glyph-name="x" d="M60 1088h294l190 -309l226 309h311l-395 -541l335 -547h-294l-202 329l-244 -329h-311l414 560z" unicode="x"/>
<glyph glyph-name="y" horiz-adv-x="1188" unicode="y" d="M45 1088h262l212 -646l372 646h288l-855 -1486h-282l309 546z"/>
<glyph glyph-name="z" horiz-adv-x="942" unicode="z" d="M87 1088h862l-557 -842h510l-34 -246h-939l555 839h-429z"/>
<glyph glyph-name="braceleft" horiz-adv-x="696" unicode="{" d="M-16 390l34 240q91 4 140.5 37.5t83.5 114.5q25 60 45.5 208.5t36.5 206.5q28 105 79.5 161t154.5 90q69 23 209 23h53l-34 -240q-113 0 -148 -13.5t-52 -42.5q-12 -21 -35 -149q-40 -232 -58 -282q-30 -82 -73.5 -133.5t-126.5 -101.5q132 -83 132 -258q0 -74 -19 -258 q-10 -93 -10 -117q0 -50 47 -73q30 -15 140 -15l-34 -239h-52q-153 0 -223.5 28t-107.5 85t-37 146q0 69 21 206q19 123 19 192q0 86 -50 140q-36 38 -135 44z"/>
<glyph glyph-name="bar" horiz-adv-x="1229" unicode="|" d="M536 1508h158v-1906h-158v1906z"/>
<glyph glyph-name="braceright" horiz-adv-x="696" unicode="}" d="M627 630l-34 -240q-91 -5 -140.5 -38.5t-83.5 -113.5q-26 -60 -46.5 -208.5t-35.5 -207.5q-28 -104 -80 -160.5t-155 -90.5q-69 -22 -208 -22h-53l34 239q113 0 148 14t52 42q12 21 34 149q41 232 59 283q30 82 73 133.5t127 100.5q-133 84 -133 258q0 74 20 258 q10 93 10 118q0 49 -48 73q-29 14 -140 14l34 240h53q153 0 223 -28.5t107 -85t37 -145.5q0 -70 -20 -207q-19 -123 -19 -192q0 -85 50 -139q36 -39 135 -44z"/>
<glyph glyph-name="asciitilde" horiz-adv-x="1229" unicode="~" d="M100 564v319q152 74 250 74q64 0 140.5 -21.5t203.5 -82.5q83 -41 109 -48q35 -10 69 -10q111 0 258 113v-322q-126 -72 -247 -72q-66 0 -133 18t-218 85q-96 42 -128.5 50.5t-65.5 8.5q-50 0 -101 -22t-137 -90z"/>
<glyph glyph-name="nbspace" horiz-adv-x="573" unicode=" "/>
<glyph glyph-name="exclamdown" horiz-adv-x="573" unicode="¡" d="M279 -398h-275l151 1074h275zM326 802q-70 0 -119 49t-49 119q0 69 49 118.5t119 49.5q69 0 118 -49.5t49 -118.5q0 -70 -49 -119t-118 -49z"/>
<glyph glyph-name="cent" d="M730 883l-48 2q-144 0 -253 -117t-109 -282q0 -80 46 -166zM1037 1356l132 -86l-159 -243q53 -35 99 -79l-147 -186q-39 36 -82 64l-394 -607q52 -14 90 -14q68 0 148.5 41.5t141.5 114.5l144 -193q-114 -110 -223.5 -157.5t-231.5 -47.5q-107 0 -206 42l-200 -308 l-132 84l203 312q-150 153 -150 378q0 174 86 328t231.5 239.5t311.5 85.5q81 0 167 -29z" unicode="¢"/>
<glyph glyph-name="sterling" d="M1066 1088h-269q4 31 4 53q0 51 -32.5 82t-89.5 31q-71 0 -116 -50.5t-45 -138.5q0 -51 22 -197h326l-33 -252h-279q-1 -94 -22 -163q-28 -93 -91 -210q19 0 103 -11q62 -8 99 -8q100 0 142 109h267q-51 -181 -164 -275.5t-259 -94.5q-70 0 -224 19q-145 18 -195 18 q-95 0 -236 -41l34 251q70 23 141 33q83 157 105.5 224.5t27.5 148.5h-220l32 252h161q-27 114 -27 199q0 189 133 315t348 126q170 0 268 -92.5t98 -236.5q0 -36 -9 -91z" unicode="£"/>
<glyph glyph-name="currency" horiz-adv-x="1229" unicode="¤" d="M303 816q0 -132 92.5 -225t221.5 -93t221 93.5t92 227.5q0 133 -91.5 226.5t-220.5 93.5t-222 -94t-93 -229zM96 425l103 104q-52 79 -72 145t-20 144q0 83 21 151.5t73 140.5l-106 104l121 124l106 -106q70 49 144 73t152 24q75 0 146 -22t145 -72l105 103l119 -124 l-104 -101q53 -72 75.5 -142.5t22.5 -152.5q0 -81 -22 -149.5t-73 -139.5l104 -104l-119 -121l-105 103q-73 -53 -144.5 -76.5t-151.5 -23.5q-79 0 -150.5 23.5t-144.5 76.5l-105 -103z"/>
<glyph glyph-name="yen" d="M66 1471h271l179 -580l364 580h307l-465 -739h217l-21 -166h-298l-16 -115h296l-20 -168h-300l-38 -283h-276l38 283h-284l21 168h286l15 115h-284l24 166h213z" unicode="¥"/>
<glyph glyph-name="brokenbar" horiz-adv-x="1229" unicode="¦" d="M537 -398v910l158 55v-965h-158zM537 744v764h158v-709z"/>
<glyph glyph-name="section" d="M487 800q-77 -23 -119.5 -73.5t-42.5 -109.5q0 -39 18 -67.5t98 -90.5l160 -123q83 25 124 67.5t41 101.5q0 44 -27.5 85.5t-121.5 112.5zM1048 1151h-267q-4 64 -41.5 98.5t-99.5 34.5q-58 0 -93 -30.5t-35 -72.5q0 -35 30 -72q29 -37 154 -128q158 -115 211 -171.5 t78 -117.5t25 -130q0 -115 -70.5 -205t-201.5 -130q73 -55 109 -124.5t36 -153.5q0 -162 -130 -268.5t-310 -106.5q-113 0 -199 45.5t-135.5 129t-49.5 178.5v23h261q6 -57 45 -91.5t102 -34.5q66 0 103.5 31t37.5 76q0 19 -7.5 37t-23.5 35q-55 62 -262 214 q-137 100 -182.5 176.5t-45.5 165.5q0 111 69 210.5t188 149.5q-55 50 -83 109.5t-28 128.5q0 153 123 266t311 113q171 0 276 -108t105 -277z" unicode="§"/>
<glyph glyph-name="dieresis" horiz-adv-x="1024" unicode="¨" d="M808 1536q52 0 87.5 -35t35.5 -84q0 -69 -48 -118t-117 -49q-56 0 -90 34.5t-34 90.5q0 64 49.5 112.5t116.5 48.5zM365 1536q52 0 87.5 -35t35.5 -84q0 -69 -48 -118t-117 -49q-56 0 -90 34.5t-34 90.5q0 64 49.5 112.5t116.5 48.5z"/>
<glyph glyph-name="copyright" horiz-adv-x="1515" unicode="©" d="M980 616h176q-17 -131 -118 -216t-248 -85q-188 0 -308.5 126.5t-120.5 328.5q0 196 119 318t304 122q149 0 245 -75t127 -218h-176q-17 74 -68 114t-126 40q-111 0 -183 -80.5t-72 -218.5q0 -142 76.5 -229.5t182.5 -87.5q75 0 128 45t62 116zM1366 754 q0 253 -177.5 430.5t-429.5 177.5q-164 0 -305.5 -81t-222.5 -221.5t-81 -301.5t81 -300.5t222.5 -220.5t303.5 -81q163 0 305 81t223 219.5t81 297.5zM1524 757q0 -205 -102.5 -382.5t-280.5 -280t-383 -102.5t-383 102.5t-280.5 280t-102.5 382.5q0 204 102.5 381 t280 279.5t383.5 102.5t383.5 -102.5t280 -279.5t102.5 -381z"/>
<glyph glyph-name="ordfeminine" horiz-adv-x="737" unicode="ª" d="M368 964q53 0 87 48q45 65 45 163q0 77 -29.5 117.5t-73.5 40.5q-50 0 -90 -56t-40 -156q0 -76 30 -116.5t71 -40.5zM535 1491h198l-96 -681h-196l8 60q-49 -47 -82.5 -61.5t-81.5 -14.5q-88 0 -150.5 80.5t-62.5 220.5q0 174 98.5 293.5t218.5 119.5q39 0 68.5 -16.5 t68.5 -64.5z"/>
<glyph glyph-name="guillemotleft" horiz-adv-x="942" unicode="«" d="M714 1088h253l-263 -550l108 -538h-254l-108 538zM260 1088h254l-263 -550l108 -538h-255l-107 538z"/>
<glyph glyph-name="logicalnot" horiz-adv-x="1229" unicode="¬" d="M115 1074h999v-678l-249 1v428l-750 -1v250z"/>
<glyph glyph-name="registered" horiz-adv-x="1515" unicode="®" d="M625 1012v-199h154q89 0 118 24t29 77t-28.5 75.5t-117.5 22.5h-155zM441 1173h371q117 0 172 -26t88.5 -82t33.5 -135q0 -67 -20.5 -109.5t-77.5 -83.5q46 -26 63 -58.5t21 -114.5q7 -156 13.5 -181.5t35.5 -48.5h-210q-14 34 -18 57t-5 79q-3 111 -12 137t-31.5 39 t-90.5 13h-149v-325h-184v839zM1366 753q0 254 -177.5 431.5t-428.5 177.5q-253 0 -431.5 -177t-178.5 -427q0 -162 80.5 -301t222.5 -220t305 -81q162 0 304 80.5t223 219t81 297.5zM1524 755q0 -205 -102.5 -381.5t-280 -279t-383.5 -102.5q-205 0 -383 102.5t-280.5 279 t-102.5 382.5q0 205 102.5 382t280 279.5t383.5 102.5t383.5 -102.5t280 -279.5t102.5 -383z"/>
<glyph glyph-name="overscore" horiz-adv-x="1024" unicode="¯" d="M103 1685h1048v-102h-1048v102z"/>
<glyph glyph-name="degree" horiz-adv-x="819" unicode="°" d="M678 1162q0 99 -65 166t-158 67q-95 0 -162 -67.5t-67 -163.5q0 -94 67.5 -163t160.5 -69q92 0 158 67.5t66 162.5zM797 1164q0 -145 -101 -244.5t-245 -99.5t-244 100t-100 247q0 141 102.5 241t244.5 100t242.5 -100t100.5 -244z"/>
<glyph glyph-name="plusminus" horiz-adv-x="1124" unicode="±" d="M62 250h999v-250h-999v250zM437 1079v375h250v-375h374v-250h-374v-374h-250v374h-375v250h375z"/>
<glyph glyph-name="twosuperior" horiz-adv-x="688" unicode="²" d="M313 1239h-181q5 126 80 197.5t201 71.5q117 0 189.5 -64t72.5 -154q0 -70 -49.5 -146.5t-253.5 -257.5h270l-24 -153h-561l18 118q308 262 375 344q42 52 42 95q0 26 -22.5 45.5t-57.5 19.5q-40 0 -63.5 -24.5t-35.5 -91.5z"/>
<glyph glyph-name="threesuperior" horiz-adv-x="688" unicode="³" d="M343 1286h-174q14 104 85.5 163t181.5 59q106 0 173 -59t67 -138q0 -102 -119 -173q102 -64 102 -168q0 -102 -88.5 -178.5t-222.5 -76.5q-83 0 -146 34.5t-95 90.5t-32 144h176q8 -115 111 -115q50 0 82 31t32 78q0 39 -35.5 65.5t-127.5 29.5l24 141q80 0 116 25.5 t36 61.5q0 23 -18.5 38t-49.5 15q-67 0 -78 -68z"/>
<glyph glyph-name="acute" horiz-adv-x="860" unicode="´" d="M615 1677h323l-421 -391h-196z"/>
<glyph glyph-name="mu1" horiz-adv-x="1180" unicode="µ" d="M-69 -398l222 1486h265l-86 -571q-13 -85 -13 -123q0 -81 56 -136t137 -55q64 0 120 33.5t92.5 98.5t54.5 190l85 563h264l-164 -1088h-263l19 127q-57 -85 -118 -120.5t-131 -35.5q-66 0 -116.5 35.5t-82.5 112.5l-77 -517h-264z"/>
<glyph glyph-name="paragraph" horiz-adv-x="1229" unicode="¶" d="M552 -379v1089q-184 1 -286.5 105t-102.5 289q0 203 111.5 306t361.5 103h420v-116h-82v-1776h-139v1776h-144v-1776h-139z"/>
<glyph glyph-name="middot" horiz-adv-x="682" unicode="·" d="M713 874q52 0 87.5 -35t35.5 -84q0 -69 -48 -118t-117 -49q-56 0 -90 34.5t-34 90.5q0 64 49.5 112.5t116.5 48.5z"/>
<glyph glyph-name="cedilla" horiz-adv-x="696" unicode="¸" d="M265 14h169l-18 -44q60 -16 91 -52.5t31 -81.5q0 -86 -77.5 -152t-206.5 -66q-108 0 -216 47l54 129q71 -24 138 -24q53 0 82.5 23t29.5 57q0 24 -16.5 36t-62.5 12l-51 -2z"/>
<glyph glyph-name="onesuperior" horiz-adv-x="688" unicode="¹" d="M290 1489h279l-122 -756h-183l96 602h-133z"/>
<glyph glyph-name="ordmasculine" horiz-adv-x="737" unicode="º" d="M416 1328q-61 0 -105 -57t-44 -152q0 -71 31.5 -110t82.5 -39q65 0 109.5 56.5t44.5 152.5q0 70 -34 109.5t-85 39.5zM431 1508q129 0 214.5 -91.5t85.5 -242.5q0 -160 -106 -270t-259 -110q-133 0 -214.5 87t-81.5 231q0 168 107 282t254 114z"/>
<glyph glyph-name="guillemotright" horiz-adv-x="942" unicode="»" d="M174 0h-253l263 550l-108 538h254l108 -538zM628 0h-254l263 550l-108 538h255l107 -538z"/>
<glyph glyph-name="onequarter" horiz-adv-x="1720" unicode="¼" d="M298 1489h279l-122 -756h-183l96 602h-133zM296 -37l988 1545h171l-988 -1545h-171zM1453 529l-216 -242h181zM1494 775h168l-77 -488h82l-23 -147h-82l-22 -140h-166l22 140h-376l22 140z"/>
<glyph glyph-name="onehalf" horiz-adv-x="1720" unicode="½" d="M298 1489h279l-122 -756h-183l96 602h-133zM271 -37l988 1545h171l-988 -1545h-171zM1289 506h-181q5 126 80 197.5t201 71.5q117 0 189.5 -64t72.5 -154q0 -70 -49.5 -146.5t-253.5 -257.5h270l-24 -153h-561l18 118q308 262 375 344q42 52 42 95q0 26 -22.5 45.5 t-57.5 19.5q-40 0 -63.5 -24.5t-35.5 -91.5z"/>
<glyph glyph-name="threequarters" horiz-adv-x="1720" unicode="¾" d="M351 1286h-174q14 104 85.5 163t181.5 59q106 0 173 -59t67 -138q0 -102 -119 -173q102 -64 102 -168q0 -102 -88.5 -178.5t-222.5 -76.5q-83 0 -146 34.5t-95 90.5t-32 144h176q8 -115 111 -115q50 0 82 31t32 78q0 39 -35.5 65.5t-127.5 29.5l24 141q80 0 116 25.5 t36 61.5q0 23 -18.5 38t-49.5 15q-67 0 -78 -68zM331 -37l988 1545h171l-988 -1545h-171zM1452 529l-216 -242h181zM1493 775h168l-77 -488h82l-23 -147h-82l-22 -140h-166l22 140h-376l22 140z"/>
<glyph glyph-name="questiondown" d="M710 12h262q-14 -126 -84 -226t-187 -156t-264 -56q-192 0 -314 115.5t-122 276.5q0 204 242 381q110 81 137.5 112.5t47 83.5t26.5 131h256q-4 -181 -59.5 -287.5t-203.5 -206.5q-119 -80 -150.5 -124t-31.5 -88q0 -58 54.5 -102t144.5 -44q199 0 246 190zM633 802 q-69 0 -118.5 49t-49.5 119q0 69 49.5 118.5t118.5 49.5q70 0 119 -49.5t49 -118.5q0 -70 -49 -119t-119 -49z" unicode="¿"/>
<glyph glyph-name="Agrave" horiz-adv-x="1515" unicode="À" d="M956 573l-118 483l-259 -483h377zM770 1471h233l366 -1471h-268l-78 313h-581l-169 -313h-297zM604 2006h322l182 -392h-195z"/>
<glyph glyph-name="Aacute" horiz-adv-x="1515" unicode="Á" d="M956 573l-118 483l-259 -483h377zM770 1471h233l366 -1471h-268l-78 313h-581l-169 -313h-297zM1003 2006h323l-421 -391h-196z"/>
<glyph glyph-name="Acircumflex" horiz-adv-x="1515" unicode="Â" d="M956 573l-118 483l-259 -483h377zM770 1471h233l366 -1471h-268l-78 313h-581l-169 -313h-297zM835 1865h218l259 -282h-298l-90 130l-130 -130h-300z"/>
<glyph glyph-name="Atilde" horiz-adv-x="1515" unicode="Ã" d="M956 573l-118 483l-259 -483h377zM770 1471h233l366 -1471h-268l-78 313h-581l-169 -313h-297zM574 1618l-86 165q89 57 150.5 77t123.5 20q47 0 122 -21q119 -33 167 -33q85 0 179 51l83 -155q-102 -72 -140 -86q-61 -22 -122 -22t-148 27q-71 22 -89 26q-24 4 -54 4 q-98 0 -186 -53z"/>
<glyph glyph-name="Adieresis" horiz-adv-x="1515" unicode="Ä" d="M956 573l-118 483l-259 -483h377zM770 1471h233l366 -1471h-268l-78 313h-581l-169 -313h-297zM1150 1865q52 0 87.5 -35t35.5 -84q0 -69 -48 -118t-117 -49q-56 0 -90 34.5t-34 90.5q0 64 49.5 112.5t116.5 48.5zM707 1865q52 0 87.5 -35t35.5 -84q0 -69 -48 -118 t-117 -49q-56 0 -90 34.5t-34 90.5q0 64 49.5 112.5t116.5 48.5z"/>
<glyph glyph-name="Aring" horiz-adv-x="1515" unicode="Å" d="M956 573l-118 483l-259 -483h377zM770 1471h233l366 -1471h-268l-78 313h-581l-169 -313h-297zM943 1932q-40 0 -69.5 -30t-29.5 -71q0 -34 20 -55t51 -21q37 0 66 30t29 70q0 34 -19.5 55.5t-47.5 21.5zM962 2060q81 0 133.5 -53t52.5 -140q0 -99 -77 -176t-176 -77 q-82 0 -135.5 55t-53.5 138q0 104 75.5 178.5t180.5 74.5z"/>
<glyph glyph-name="AE" horiz-adv-x="1843" unicode="Æ" d="M865 572l94 726l-391 -726h297zM761 1471h1015l-35 -261h-523l-42 -306h527l-35 -258h-524l-54 -390h527l-34 -256h-795l42 314h-399l-171 -314h-296z"/>
<glyph glyph-name="Ccedilla" horiz-adv-x="1597" unicode="Ç" d="M1524 1281l-201 -186q-65 75 -159 115.5t-204 40.5q-154 0 -295 -79t-219.5 -209t-78.5 -277q0 -200 138 -332.5t354 -132.5q231 0 400 134l163 -215q-251 -177 -581 -177q-232 0 -394.5 88t-261 258.5t-98.5 369.5q0 213 116.5 408.5t315.5 308t434 112.5 q330 0 571 -227zM716 14h169l-18 -44q60 -16 91 -52.5t31 -81.5q0 -86 -77.5 -152t-206.5 -66q-108 0 -216 47l54 129q71 -24 138 -24q53 0 82.5 23t29.5 57q0 24 -16.5 36t-62.5 12l-51 -2z"/>
<glyph glyph-name="Egrave" horiz-adv-x="1065" unicode="È" d="M245 1471h799l-34 -261h-520l-42 -304h522l-33 -259h-522l-52 -390h525l-35 -257h-801zM378 2006h322l182 -392h-195z"/>
<glyph glyph-name="Eacute" horiz-adv-x="1065" unicode="É" d="M245 1471h799l-34 -261h-520l-42 -304h522l-33 -259h-522l-52 -390h525l-35 -257h-801zM777 2006h323l-421 -391h-196z"/>
<glyph glyph-name="Ecircumflex" horiz-adv-x="1065" unicode="Ê" d="M245 1471h799l-34 -261h-520l-42 -304h522l-33 -259h-522l-52 -390h525l-35 -257h-801zM609 1865h218l259 -282h-298l-90 130l-130 -130h-300z"/>
<glyph glyph-name="Edieresis" horiz-adv-x="1065" unicode="Ë" d="M245 1471h799l-34 -261h-520l-42 -304h522l-33 -259h-522l-52 -390h525l-35 -257h-801zM889 1865q52 0 87.5 -35t35.5 -84q0 -69 -48 -118t-117 -49q-56 0 -90 34.5t-34 90.5q0 64 49.5 112.5t116.5 48.5zM446 1865q52 0 87.5 -35t35.5 -84q0 -69 -48 -118t-117 -49 q-56 0 -90 34.5t-34 90.5q0 64 49.5 112.5t116.5 48.5z"/>
<glyph glyph-name="Igrave" horiz-adv-x="573" unicode="Ì" d="M256 1471h270l-203 -1471h-265zM121 2006h322l182 -392h-195z"/>
<glyph glyph-name="Iacute" horiz-adv-x="573" unicode="Í" d="M256 1471h270l-203 -1471h-265zM520 2006h323l-421 -391h-196z"/>
<glyph glyph-name="Icircumflex" horiz-adv-x="573" unicode="Î" d="M256 1471h270l-203 -1471h-265zM352 1865h218l259 -282h-298l-90 130l-130 -130h-300z"/>
<glyph glyph-name="Idieresis" horiz-adv-x="573" unicode="Ï" d="M256 1471h270l-203 -1471h-265zM655 1865q52 0 87.5 -35t35.5 -84q0 -69 -48 -118t-117 -49q-56 0 -90 34.5t-34 90.5q0 64 49.5 112.5t116.5 48.5zM212 1865q52 0 87.5 -35t35.5 -84q0 -69 -48 -118t-117 -49q-56 0 -90 34.5t-34 90.5q0 64 49.5 112.5t116.5 48.5z"/>
<glyph glyph-name="Eth" horiz-adv-x="1520" unicode="Ð" d="M508 651l-53 -394h91q211 0 305 35q132 50 212 171t80 299q0 146 -57 244.5t-159.5 152t-273.5 53.5h-71l-52 -395h322l-21 -166h-323zM230 651h-126l23 166h125l88 654h233q330 0 490 -77.5t261 -243.5t101 -383q0 -223 -106.5 -409.5t-268.5 -272t-451 -85.5h-456z"/>
<glyph glyph-name="Ntilde" horiz-adv-x="1515" unicode="Ñ" d="M266 1471h242l533 -1000l135 1000h269l-198 -1471h-236l-540 1011l-135 -1011h-265zM574 1618l-86 165q89 57 150.5 77t123.5 20q47 0 122 -21q119 -33 167 -33q85 0 179 51l83 -155q-102 -72 -140 -86q-61 -22 -122 -22t-148 27q-71 22 -89 26q-24 4 -54 4 q-98 0 -186 -53z"/>
<glyph glyph-name="Ograve" horiz-adv-x="1720" unicode="Ò" d="M935 1247q-158 0 -288.5 -76.5t-210.5 -220t-80 -296.5q0 -181 111 -307t319 -126q241 0 409.5 170t168.5 413q0 201 -118.5 322t-310.5 121zM945 1508q303 0 500 -195t197 -495q0 -230 -116.5 -433.5t-310 -312.5t-444.5 -109q-314 0 -501.5 186t-187.5 490 q0 345 224 593q250 276 639 276zM707 2006h322l182 -392h-195z"/>
<glyph glyph-name="Oacute" horiz-adv-x="1720" unicode="Ó" d="M935 1247q-158 0 -288.5 -76.5t-210.5 -220t-80 -296.5q0 -181 111 -307t319 -126q241 0 409.5 170t168.5 413q0 201 -118.5 322t-310.5 121zM945 1508q303 0 500 -195t197 -495q0 -230 -116.5 -433.5t-310 -312.5t-444.5 -109q-314 0 -501.5 186t-187.5 490 q0 345 224 593q250 276 639 276zM1105 2006h323l-421 -391h-196z"/>
<glyph glyph-name="Ocircumflex" horiz-adv-x="1720" unicode="Ô" d="M935 1247q-158 0 -288.5 -76.5t-210.5 -220t-80 -296.5q0 -181 111 -307t319 -126q241 0 409.5 170t168.5 413q0 201 -118.5 322t-310.5 121zM945 1508q303 0 500 -195t197 -495q0 -230 -116.5 -433.5t-310 -312.5t-444.5 -109q-314 0 -501.5 186t-187.5 490 q0 345 224 593q250 276 639 276zM938 1865h218l259 -282h-298l-90 130l-130 -130h-300z"/>
<glyph glyph-name="Otilde" horiz-adv-x="1720" unicode="Õ" d="M935 1247q-158 0 -288.5 -76.5t-210.5 -220t-80 -296.5q0 -181 111 -307t319 -126q241 0 409.5 170t168.5 413q0 201 -118.5 322t-310.5 121zM945 1508q303 0 500 -195t197 -495q0 -230 -116.5 -433.5t-310 -312.5t-444.5 -109q-314 0 -501.5 186t-187.5 490 q0 345 224 593q250 276 639 276zM677 1618l-86 165q89 57 150.5 77t123.5 20q47 0 122 -21q119 -33 167 -33q85 0 179 51l83 -155q-102 -72 -140 -86q-61 -22 -122 -22t-148 27q-71 22 -89 26q-24 4 -54 4q-98 0 -186 -53z"/>
<glyph glyph-name="Odieresis" horiz-adv-x="1720" unicode="Ö" d="M935 1247q-158 0 -288.5 -76.5t-210.5 -220t-80 -296.5q0 -181 111 -307t319 -126q241 0 409.5 170t168.5 413q0 201 -118.5 322t-310.5 121zM945 1508q303 0 500 -195t197 -495q0 -230 -116.5 -433.5t-310 -312.5t-444.5 -109q-314 0 -501.5 186t-187.5 490 q0 345 224 593q250 276 639 276zM1217 1865q52 0 87.5 -35t35.5 -84q0 -69 -48 -118t-117 -49q-56 0 -90 34.5t-34 90.5q0 64 49.5 112.5t116.5 48.5zM774 1865q52 0 87.5 -35t35.5 -84q0 -69 -48 -118t-117 -49q-56 0 -90 34.5t-34 90.5q0 64 49.5 112.5t116.5 48.5z"/>
<glyph glyph-name="multiply" horiz-adv-x="1229" unicode="×" d="M615 588l-317 -316l-148 147l317 317l-317 317l148 148l317 -317l316 317l148 -148l-317 -317l317 -317l-148 -147z"/>
<glyph glyph-name="Oslash" horiz-adv-x="1720" unicode="Ø" d="M1286 1076l-710 -810q91 -45 213 -45q239 0 407 170.5t168 411.5q0 157 -78 273zM453 364l718 822q-105 61 -241 61q-154 0 -284.5 -77t-210 -220.5t-79.5 -295.5q0 -168 97 -290zM1472 1284q170 -195 170 -465q0 -230 -116 -433.5t-310 -313t-443 -109.5q-225 0 -382 91 l-135 -154l-121 100l132 151q-185 190 -185 488q0 239 114 440t310 315t430 114q244 0 414 -117l128 147l121 -104z"/>
<glyph glyph-name="Ugrave" horiz-adv-x="1311" unicode="Ù" d="M260 1471h275l-122 -908q-16 -119 -16 -168q0 -83 51.5 -129.5t149.5 -46.5q79 0 138 35q44 26 70.5 86.5t51.5 240.5l123 890h278l-120 -878q-37 -271 -97 -389t-173.5 -179.5t-276.5 -61.5q-220 0 -343 117t-123 320q0 88 24 260zM502 2006h322l182 -392h-195z"/>
<glyph glyph-name="Uacute" horiz-adv-x="1311" unicode="Ú" d="M260 1471h275l-122 -908q-16 -119 -16 -168q0 -83 51.5 -129.5t149.5 -46.5q79 0 138 35q44 26 70.5 86.5t51.5 240.5l123 890h278l-120 -878q-37 -271 -97 -389t-173.5 -179.5t-276.5 -61.5q-220 0 -343 117t-123 320q0 88 24 260zM901 2006h323l-421 -391h-196z"/>
<glyph glyph-name="Ucircumflex" horiz-adv-x="1311" unicode="Û" d="M260 1471h275l-122 -908q-16 -119 -16 -168q0 -83 51.5 -129.5t149.5 -46.5q79 0 138 35q44 26 70.5 86.5t51.5 240.5l123 890h278l-120 -878q-37 -271 -97 -389t-173.5 -179.5t-276.5 -61.5q-220 0 -343 117t-123 320q0 88 24 260zM733 1865h218l259 -282h-298l-90 130 l-130 -130h-300z"/>
<glyph glyph-name="Udieresis" horiz-adv-x="1311" unicode="Ü" d="M260 1471h275l-122 -908q-16 -119 -16 -168q0 -83 51.5 -129.5t149.5 -46.5q79 0 138 35q44 26 70.5 86.5t51.5 240.5l123 890h278l-120 -878q-37 -271 -97 -389t-173.5 -179.5t-276.5 -61.5q-220 0 -343 117t-123 320q0 88 24 260zM1048 1865q52 0 87.5 -35t35.5 -84 q0 -69 -48 -118t-117 -49q-56 0 -90 34.5t-34 90.5q0 64 49.5 112.5t116.5 48.5zM605 1865q52 0 87.5 -35t35.5 -84q0 -69 -48 -118t-117 -49q-56 0 -90 34.5t-34 90.5q0 64 49.5 112.5t116.5 48.5z"/>
<glyph glyph-name="Yacute" horiz-adv-x="1270" unicode="Ý" d="M66 1471h279l230 -589l418 589h317l-628 -883l-79 -588h-276l81 588zM879 2006h323l-421 -391h-196z"/>
<glyph glyph-name="Thorn" d="M426 571q226 0 295 46t69 138q0 51 -27.5 86t-80 49t-209.5 14zM269 1471h277l-39 -311q197 -2 277 -27q127 -39 204.5 -135t77.5 -234q0 -133 -72.5 -241.5t-194.5 -158t-407 -54.5l-44 -310h-277z" unicode="Þ"/>
<glyph glyph-name="germandbls" horiz-adv-x="1229" unicode="ß" d="M545 729l31 210q87 0 157 31t102.5 78t32.5 101q0 56 -44.5 96.5t-114.5 40.5q-103 0 -174.5 -75.5t-91.5 -243.5l-7 -59l-124 -908h-265l111 866q36 283 101.5 404t188 193.5t275.5 72.5q187 0 299 -102t112 -256q0 -126 -74 -222t-206 -138q244 -122 244 -372 q0 -201 -142 -337.5t-363 -136.5q-99 0 -184 35l30 250q67 -37 139 -37q110 0 185 72.5t75 179.5q0 112 -78.5 184t-214.5 73z"/>
<glyph glyph-name="agrave" horiz-adv-x="1352" unicode="à" d="M590 210q98 0 171 44t122.5 138t49.5 192q0 129 -74.5 207.5t-196.5 78.5q-142 0 -241 -105t-99 -271q0 -128 75 -206t193 -78zM984 1088h267l-142 -1088h-264l15 117q-87 -81 -162.5 -113t-169.5 -32q-216 0 -343.5 159t-127.5 370q0 161 81 306.5t217.5 227t285.5 81.5 q100 0 184.5 -46t139.5 -134zM461 1677h322l182 -392h-195z"/>
<glyph glyph-name="aacute" horiz-adv-x="1352" unicode="á" d="M590 210q98 0 171 44t122.5 138t49.5 192q0 129 -74.5 207.5t-196.5 78.5q-142 0 -241 -105t-99 -271q0 -128 75 -206t193 -78zM984 1088h267l-142 -1088h-264l15 117q-87 -81 -162.5 -113t-169.5 -32q-216 0 -343.5 159t-127.5 370q0 161 81 306.5t217.5 227t285.5 81.5 q100 0 184.5 -46t139.5 -134zM860 1677h323l-421 -391h-196z"/>
<glyph glyph-name="acircumflex" horiz-adv-x="1352" unicode="â" d="M590 210q98 0 171 44t122.5 138t49.5 192q0 129 -74.5 207.5t-196.5 78.5q-142 0 -241 -105t-99 -271q0 -128 75 -206t193 -78zM984 1088h267l-142 -1088h-264l15 117q-87 -81 -162.5 -113t-169.5 -32q-216 0 -343.5 159t-127.5 370q0 161 81 306.5t217.5 227t285.5 81.5 q100 0 184.5 -46t139.5 -134zM692 1536h218l259 -282h-298l-90 130l-130 -130h-300z"/>
<glyph glyph-name="atilde" horiz-adv-x="1352" unicode="ã" d="M590 210q98 0 171 44t122.5 138t49.5 192q0 129 -74.5 207.5t-196.5 78.5q-142 0 -241 -105t-99 -271q0 -128 75 -206t193 -78zM984 1088h267l-142 -1088h-264l15 117q-87 -81 -162.5 -113t-169.5 -32q-216 0 -343.5 159t-127.5 370q0 161 81 306.5t217.5 227t285.5 81.5 q100 0 184.5 -46t139.5 -134zM432 1289l-86 165q89 57 150.5 77t123.5 20q47 0 122 -21q119 -33 167 -33q85 0 179 51l83 -155q-102 -72 -140 -86q-61 -22 -122 -22t-148 27q-71 22 -89 26q-24 4 -54 4q-98 0 -186 -53z"/>
<glyph glyph-name="adieresis" horiz-adv-x="1352" unicode="ä" d="M590 210q98 0 171 44t122.5 138t49.5 192q0 129 -74.5 207.5t-196.5 78.5q-142 0 -241 -105t-99 -271q0 -128 75 -206t193 -78zM984 1088h267l-142 -1088h-264l15 117q-87 -81 -162.5 -113t-169.5 -32q-216 0 -343.5 159t-127.5 370q0 161 81 306.5t217.5 227t285.5 81.5 q100 0 184.5 -46t139.5 -134zM972 1536q52 0 87.5 -35t35.5 -84q0 -69 -48 -118t-117 -49q-56 0 -90 34.5t-34 90.5q0 64 49.5 112.5t116.5 48.5zM529 1536q52 0 87.5 -35t35.5 -84q0 -69 -48 -118t-117 -49q-56 0 -90 34.5t-34 90.5q0 64 49.5 112.5t116.5 48.5z"/>
<glyph glyph-name="aring" horiz-adv-x="1352" unicode="å" d="M590 210q98 0 171 44t122.5 138t49.5 192q0 129 -74.5 207.5t-196.5 78.5q-142 0 -241 -105t-99 -271q0 -128 75 -206t193 -78zM984 1088h267l-142 -1088h-264l15 117q-87 -81 -162.5 -113t-169.5 -32q-216 0 -343.5 159t-127.5 370q0 161 81 306.5t217.5 227t285.5 81.5 q100 0 184.5 -46t139.5 -134zM801 1603q-40 0 -69.5 -30t-29.5 -71q0 -34 20 -55t51 -21q37 0 66 30t29 70q0 34 -19.5 55.5t-47.5 21.5zM820 1731q81 0 133.5 -53t52.5 -140q0 -99 -77 -176t-176 -77q-82 0 -135.5 55t-53.5 138q0 104 75.5 178.5t180.5 74.5z"/>
<glyph glyph-name="ae" horiz-adv-x="2212" unicode="æ" d="M1816 659q-29 99 -98 151.5t-166 52.5q-98 0 -179 -49t-142 -155h585zM680 867q-142 0 -241 -106.5t-99 -268.5q0 -130 74.5 -208t193.5 -78q96 0 173 45.5t123.5 136.5t46.5 191q0 129 -76 208.5t-195 79.5zM2080 463h-886q43 -247 284 -247q156 0 269 100l236 -121 q-72 -97 -206 -160t-291 -63q-107 0 -190.5 27.5t-175.5 94.5l-12 -94h-244l15 114q-130 -142 -332 -142q-137 0 -237 62t-167.5 191t-67.5 275q0 160 81.5 305.5t219.5 228t285 82.5q97 0 182.5 -47.5t140.5 -134.5l22 182h243l-16 -121q171 121 355 121 q206 0 354.5 -156.5t148.5 -380.5q0 -48 -11 -116z"/>
<glyph glyph-name="ccedilla" horiz-adv-x="1311" unicode="ç" d="M1187 863l-226 -123q-96 122 -258 122q-109 0 -193 -46.5t-134 -134.5t-50 -186q0 -126 79 -202t217 -76q191 0 293 129l210 -148q-89 -106 -221.5 -166t-295.5 -60q-254 0 -400.5 140t-146.5 370q0 263 181 448.5t466 185.5q321 0 479 -253zM573 14h169l-18 -44 q60 -16 91 -52.5t31 -81.5q0 -86 -77.5 -152t-206.5 -66q-108 0 -216 47l54 129q71 -24 138 -24q53 0 82.5 23t29.5 57q0 24 -16.5 36t-62.5 12l-51 -2z"/>
<glyph glyph-name="egrave" horiz-adv-x="1311" unicode="è" d="M929 662q-30 100 -100 151.5t-169 51.5q-98 0 -177 -53t-120 -150h566zM861 319l235 -122q-79 -104 -209.5 -164.5t-289.5 -60.5q-249 0 -392.5 140t-143.5 372q0 265 179.5 448.5t433.5 183.5q153 0 272.5 -67t188.5 -195t69 -278q0 -47 -10 -110h-868q4 -113 74.5 -180 t194.5 -67q150 0 266 100zM441 1677h322l182 -392h-195z"/>
<glyph glyph-name="eacute" horiz-adv-x="1311" unicode="é" d="M929 662q-30 100 -100 151.5t-169 51.5q-98 0 -177 -53t-120 -150h566zM861 319l235 -122q-79 -104 -209.5 -164.5t-289.5 -60.5q-249 0 -392.5 140t-143.5 372q0 265 179.5 448.5t433.5 183.5q153 0 272.5 -67t188.5 -195t69 -278q0 -47 -10 -110h-868q4 -113 74.5 -180 t194.5 -67q150 0 266 100zM840 1677h323l-421 -391h-196z"/>
<glyph glyph-name="ecircumflex" horiz-adv-x="1311" unicode="ê" d="M929 662q-30 100 -100 151.5t-169 51.5q-98 0 -177 -53t-120 -150h566zM861 319l235 -122q-79 -104 -209.5 -164.5t-289.5 -60.5q-249 0 -392.5 140t-143.5 372q0 265 179.5 448.5t433.5 183.5q153 0 272.5 -67t188.5 -195t69 -278q0 -47 -10 -110h-868q4 -113 74.5 -180 t194.5 -67q150 0 266 100zM672 1536h218l259 -282h-298l-90 130l-130 -130h-300z"/>
<glyph glyph-name="edieresis" horiz-adv-x="1311" unicode="ë" d="M929 662q-30 100 -100 151.5t-169 51.5q-98 0 -177 -53t-120 -150h566zM861 319l235 -122q-79 -104 -209.5 -164.5t-289.5 -60.5q-249 0 -392.5 140t-143.5 372q0 265 179.5 448.5t433.5 183.5q153 0 272.5 -67t188.5 -195t69 -278q0 -47 -10 -110h-868q4 -113 74.5 -180 t194.5 -67q150 0 266 100zM952 1536q52 0 87.5 -35t35.5 -84q0 -69 -48 -118t-117 -49q-56 0 -90 34.5t-34 90.5q0 64 49.5 112.5t116.5 48.5zM509 1536q52 0 87.5 -35t35.5 -84q0 -69 -48 -118t-117 -49q-56 0 -90 34.5t-34 90.5q0 64 49.5 112.5t116.5 48.5z"/>
<glyph glyph-name="igrave" horiz-adv-x="491" unicode="ì" d="M158 1088h264l-146 -1088h-266zM31 1677h322l182 -392h-195z"/>
<glyph glyph-name="iacute" horiz-adv-x="491" unicode="í" d="M158 1088h264l-146 -1088h-266zM430 1677h323l-421 -391h-196z"/>
<glyph glyph-name="icircumflex" horiz-adv-x="491" unicode="î" d="M158 1088h264l-146 -1088h-266zM262 1536h218l259 -282h-298l-90 130l-130 -130h-300z"/>
<glyph glyph-name="idieresis" horiz-adv-x="491" unicode="ï" d="M158 1088h264l-146 -1088h-266zM542 1536q52 0 87.5 -35t35.5 -84q0 -69 -48 -118t-117 -49q-56 0 -90 34.5t-34 90.5q0 64 49.5 112.5t116.5 48.5zM99 1536q52 0 87.5 -35t35.5 -84q0 -69 -48 -118t-117 -49q-56 0 -90 34.5t-34 90.5q0 64 49.5 112.5t116.5 48.5z"/>
<glyph glyph-name="eth" horiz-adv-x="1311" unicode="ð" d="M666 862q-146 0 -245 -105t-99 -263q0 -121 75 -197.5t194 -76.5q154 0 249.5 111t95.5 264q0 114 -76.5 190.5t-193.5 76.5zM989 1508l52 -147l-147 -46q144 -151 226.5 -340.5t82.5 -364.5q0 -273 -178.5 -455.5t-439.5 -182.5q-231 0 -379 149t-148 376q0 245 173 425 t401 180q69 0 152 -23q-45 89 -107 168l-197 -58l-54 145l144 45q-59 65 -123 129h240q41 -32 80 -68z"/>
<glyph glyph-name="ntilde" horiz-adv-x="1229" unicode="ñ" d="M193 1088h266l-16 -110q153 138 318 138q141 0 231 -89.5t90 -225.5q0 -64 -17 -191l-81 -610h-265l79 595q12 92 12 138q0 66 -37.5 101.5t-106.5 35.5q-67 0 -134 -46.5t-103 -129t-66 -309.5l-51 -385h-266zM371 1289l-86 165q89 57 150.5 77t123.5 20q47 0 122 -21 q119 -33 167 -33q85 0 179 51l83 -155q-102 -72 -140 -86q-61 -22 -122 -22t-148 27q-71 22 -89 26q-24 4 -54 4q-98 0 -186 -53z"/>
<glyph glyph-name="ograve" horiz-adv-x="1311" unicode="ò" d="M665 863q-164 0 -251.5 -117.5t-87.5 -254.5q0 -122 71.5 -196.5t190.5 -74.5q169 0 257.5 113.5t88.5 259.5q0 120 -75 195t-194 75zM684 1116q145 0 263.5 -67t184.5 -190t66 -276q0 -254 -181 -432.5t-448 -178.5q-232 0 -370 140.5t-138 367.5q0 274 187 455t436 181 zM442 1677h322l182 -392h-195z"/>
<glyph glyph-name="oacute" horiz-adv-x="1311" unicode="ó" d="M665 863q-164 0 -251.5 -117.5t-87.5 -254.5q0 -122 71.5 -196.5t190.5 -74.5q169 0 257.5 113.5t88.5 259.5q0 120 -75 195t-194 75zM684 1116q145 0 263.5 -67t184.5 -190t66 -276q0 -254 -181 -432.5t-448 -178.5q-232 0 -370 140.5t-138 367.5q0 274 187 455t436 181 zM840 1677h323l-421 -391h-196z"/>
<glyph glyph-name="ocircumflex" horiz-adv-x="1311" unicode="ô" d="M665 863q-164 0 -251.5 -117.5t-87.5 -254.5q0 -122 71.5 -196.5t190.5 -74.5q169 0 257.5 113.5t88.5 259.5q0 120 -75 195t-194 75zM684 1116q145 0 263.5 -67t184.5 -190t66 -276q0 -254 -181 -432.5t-448 -178.5q-232 0 -370 140.5t-138 367.5q0 274 187 455t436 181 zM672 1536h218l259 -282h-298l-90 130l-130 -130h-300z"/>
<glyph glyph-name="otilde" horiz-adv-x="1311" unicode="õ" d="M665 863q-164 0 -251.5 -117.5t-87.5 -254.5q0 -122 71.5 -196.5t190.5 -74.5q169 0 257.5 113.5t88.5 259.5q0 120 -75 195t-194 75zM684 1116q145 0 263.5 -67t184.5 -190t66 -276q0 -254 -181 -432.5t-448 -178.5q-232 0 -370 140.5t-138 367.5q0 274 187 455t436 181 zM412 1289l-86 165q89 57 150.5 77t123.5 20q47 0 122 -21q119 -33 167 -33q85 0 179 51l83 -155q-102 -72 -140 -86q-61 -22 -122 -22t-148 27q-71 22 -89 26q-24 4 -54 4q-98 0 -186 -53z"/>
<glyph glyph-name="odieresis" horiz-adv-x="1311" unicode="ö" d="M665 863q-164 0 -251.5 -117.5t-87.5 -254.5q0 -122 71.5 -196.5t190.5 -74.5q169 0 257.5 113.5t88.5 259.5q0 120 -75 195t-194 75zM684 1116q145 0 263.5 -67t184.5 -190t66 -276q0 -254 -181 -432.5t-448 -178.5q-232 0 -370 140.5t-138 367.5q0 274 187 455t436 181 zM952 1536q52 0 87.5 -35t35.5 -84q0 -69 -48 -118t-117 -49q-56 0 -90 34.5t-34 90.5q0 64 49.5 112.5t116.5 48.5zM509 1536q52 0 87.5 -35t35.5 -84q0 -69 -48 -118t-117 -49q-56 0 -90 34.5t-34 90.5q0 64 49.5 112.5t116.5 48.5z"/>
<glyph glyph-name="divide" horiz-adv-x="1124" unicode="÷" d="M401 466h322v-321h-322v321zM62 860h999v-250h-999v250zM401 1326h322v-321h-322v321z"/>
<glyph glyph-name="oslash" horiz-adv-x="1352" unicode="ø" d="M922 731l-429 -490q52 -21 116 -21q167 0 256.5 112.5t89.5 258.5q0 81 -33 140zM379 349l427 490q-55 24 -125 24q-161 0 -248 -118.5t-87 -252.5q0 -79 33 -143zM1102 937q117 -150 117 -354q0 -254 -181 -432.5t-447 -178.5q-164 0 -277 65l-153 -176l-116 105 l151 173q-115 143 -115 340q0 174 83 319.5t228.5 231.5t306.5 86t284 -75l163 187l119 -104z"/>
<glyph glyph-name="ugrave" horiz-adv-x="1229" unicode="ù" d="M195 1088h264l-73 -556q-12 -92 -12 -138q0 -72 50 -121t130 -49q103 0 158.5 63t81.5 256l75 545h264l-79 -585q-27 -198 -90.5 -306.5t-168.5 -166.5t-247 -58q-200 0 -318 115.5t-118 298.5q0 112 25 288zM400 1677h322l182 -392h-195z"/>
<glyph glyph-name="uacute" horiz-adv-x="1229" unicode="ú" d="M195 1088h264l-73 -556q-12 -92 -12 -138q0 -72 50 -121t130 -49q103 0 158.5 63t81.5 256l75 545h264l-79 -585q-27 -198 -90.5 -306.5t-168.5 -166.5t-247 -58q-200 0 -318 115.5t-118 298.5q0 112 25 288zM798 1677h323l-421 -391h-196z"/>
<glyph glyph-name="ucircumflex" horiz-adv-x="1229" unicode="û" d="M195 1088h264l-73 -556q-12 -92 -12 -138q0 -72 50 -121t130 -49q103 0 158.5 63t81.5 256l75 545h264l-79 -585q-27 -198 -90.5 -306.5t-168.5 -166.5t-247 -58q-200 0 -318 115.5t-118 298.5q0 112 25 288zM631 1536h218l259 -282h-298l-90 130l-130 -130h-300z"/>
<glyph glyph-name="udieresis" horiz-adv-x="1229" unicode="ü" d="M195 1088h264l-73 -556q-12 -92 -12 -138q0 -72 50 -121t130 -49q103 0 158.5 63t81.5 256l75 545h264l-79 -585q-27 -198 -90.5 -306.5t-168.5 -166.5t-247 -58q-200 0 -318 115.5t-118 298.5q0 112 25 288zM910 1536q52 0 87.5 -35t35.5 -84q0 -69 -48 -118t-117 -49 q-56 0 -90 34.5t-34 90.5q0 64 49.5 112.5t116.5 48.5zM467 1536q52 0 87.5 -35t35.5 -84q0 -69 -48 -118t-117 -49q-56 0 -90 34.5t-34 90.5q0 64 49.5 112.5t116.5 48.5z"/>
<glyph glyph-name="yacute" horiz-adv-x="1188" unicode="ý" d="M45 1088h262l212 -646l372 646h288l-855 -1486h-282l309 546zM779 1677h323l-421 -391h-196z"/>
<glyph glyph-name="thorn" horiz-adv-x="1352" unicode="þ" d="M704 879q-97 0 -170.5 -44.5t-123 -138.5t-49.5 -192q0 -129 74.5 -207.5t196.5 -78.5q142 0 241 105t99 271q0 128 -75 206.5t-193 78.5zM258 -398h-267l250 1906h267l-74 -537q87 82 162.5 113.5t169.5 31.5q217 0 344 -159t127 -369q0 -161 -81 -307t-217.5 -227.5 t-284.5 -81.5q-100 0 -185 46t-139 134z"/>
<glyph glyph-name="dotlessi" horiz-adv-x="491" unicode="ı" d="M158 1088h264l-146 -1088h-266z"/>
<glyph glyph-name="OE" horiz-adv-x="2171" unicode="Œ" d="M919 1247q-154 0 -286.5 -78t-210 -217t-77.5 -302q0 -193 116 -311t307 -118q238 0 403 169.5t165 419.5q0 196 -117 316.5t-300 120.5zM1420 1471h742l-34 -259h-471l-39 -306h472l-35 -260h-472l-52 -388h477l-37 -258h-747l17 120q-103 -83 -217.5 -120t-265.5 -37 q-338 0 -515 198t-177 484q0 236 114 436t312 313.5t433 113.5q145 0 257.5 -44.5t218.5 -145.5z"/>
<glyph glyph-name="oe" horiz-adv-x="2212" unicode="œ" d="M677 864q-136 0 -234.5 -105.5t-98.5 -266.5q0 -127 71.5 -200.5t192.5 -73.5q147 0 240 102q106 115 106 276q0 113 -78.5 190.5t-198.5 77.5zM1814 661q-29 97 -101 151t-169 54q-203 0 -300 -205h570zM2079 467h-869q1 -94 66.5 -171.5t204.5 -77.5q156 0 264 101 l236 -121q-85 -106 -215 -166t-289 -60q-137 0 -240.5 44.5t-191.5 141.5q-93 -93 -205.5 -139.5t-244.5 -46.5q-172 0 -277.5 58t-172.5 180t-67 273q0 258 184 445.5t431 187.5q130 0 235 -50t184 -151q94 100 212 150.5t244 50.5q144 0 264.5 -69.5t187.5 -196t67 -278.5 q0 -42 -8 -105z"/>
<glyph glyph-name="Scaron" horiz-adv-x="1065" unicode="Š" d="M1017 1266l-201 -178q-124 160 -231 160q-53 0 -88 -31.5t-35 -75.5q0 -41 32 -91t194 -221q86 -91 113 -129q65 -88 93.5 -164.5t28.5 -155.5q0 -177 -126 -297t-323 -120q-300 0 -489 285l212 171q128 -195 277 -195q71 0 119.5 46t48.5 111q0 51 -29.5 104t-168.5 200 q-147 155 -193 234q-62 107 -62 210q0 136 89 244q112 135 302 135q261 0 437 -242zM764 1583h-218l-259 282h298l90 -130l130 130h300z"/>
<glyph glyph-name="scaron" horiz-adv-x="901" unicode="š" d="M790 936l-127 -204q-49 73 -103 107.5t-101 34.5q-36 0 -61 -20t-25 -45q0 -24 20 -48q19 -24 115 -93q153 -110 201.5 -188.5t48.5 -170.5q0 -121 -99.5 -229t-288.5 -108q-109 0 -198.5 44t-199.5 161l165 192q112 -148 245 -148q53 0 84.5 25.5t31.5 60.5 q0 28 -24 57.5t-131 105.5q-124 88 -171 151q-66 88 -66 186q0 137 103.5 223t244.5 86q99 0 188 -47t148 -133zM622 1254h-218l-259 282h298l90 -130l130 130h300z"/>
<glyph glyph-name="Ydieresis" horiz-adv-x="1270" unicode="Ÿ" d="M66 1471h279l230 -589l418 589h317l-628 -883l-79 -588h-276l81 588zM991 1865q52 0 87.5 -35t35.5 -84q0 -69 -48 -118t-117 -49q-56 0 -90 34.5t-34 90.5q0 64 49.5 112.5t116.5 48.5zM548 1865q52 0 87.5 -35t35.5 -84q0 -69 -48 -118t-117 -49q-56 0 -90 34.5 t-34 90.5q0 64 49.5 112.5t116.5 48.5z"/>
<glyph glyph-name="circumflex" horiz-adv-x="1106" unicode="ˆ" d="M570 1536h218l259 -282h-298l-90 130l-130 -130h-300z"/>
<glyph glyph-name="caron" horiz-adv-x="1106" unicode="ˇ" d="M725 1254h-218l-259 282h298l90 -130l130 130h300z"/>
<glyph glyph-name="ring" horiz-adv-x="737" unicode="˚" d="M494 1603q-40 0 -69.5 -30t-29.5 -71q0 -34 20 -55t51 -21q37 0 66 30t29 70q0 34 -19.5 55.5t-47.5 21.5zM513 1731q81 0 133.5 -53t52.5 -140q0 -99 -77 -176t-176 -77q-82 0 -135.5 55t-53.5 138q0 104 75.5 178.5t180.5 74.5z"/>
<glyph glyph-name="tilde" horiz-adv-x="983" unicode="˜" d="M248 1289l-86 165q89 57 150.5 77t123.5 20q47 0 122 -21q119 -33 167 -33q85 0 179 51l83 -155q-102 -72 -140 -86q-61 -22 -122 -22t-148 27q-71 22 -89 26q-24 4 -54 4q-98 0 -186 -53z"/>
<glyph glyph-name="Alpha" horiz-adv-x="1515" unicode="Α" d="M956 573l-118 483l-259 -483h377zM770 1471h233l366 -1471h-268l-78 313h-581l-169 -313h-297z"/>
<glyph glyph-name="Beta" horiz-adv-x="1188" unicode="Β" d="M383 261l166 -6q125 0 182 49t57 134q0 62 -35.5 111t-94.5 69t-226 21zM465 887h50q112 0 152 16.5t68 61.5t28 100q0 51 -25 88t-65.5 50t-164.5 13zM266 1471h230q210 0 312 -45t164.5 -140t62.5 -205q0 -92 -44 -173.5t-127 -136.5q197 -137 197 -364 q0 -118 -62.5 -216t-154.5 -144.5t-266 -46.5h-508z"/>
<glyph glyph-name="Gamma" horiz-adv-x="948" unicode="Γ" d="M265 1471h730l-35 -260h-455l-165 -1211h-275z"/>
<glyph glyph-name="Delta" horiz-adv-x="1515" unicode="Δ" d="M1077 257l-260 841l-485 -841h745zM1338 0h-1360l32 235l725 1236h243l392 -1236z"/>
<glyph glyph-name="Epsilon" horiz-adv-x="1065" unicode="Ε" d="M245 1471h799l-34 -261h-520l-42 -304h522l-33 -259h-522l-52 -390h525l-35 -257h-801z"/>
<glyph glyph-name="Zeta" horiz-adv-x="1024" unicode="Ζ" d="M183 1471h831l-584 -1215h463l-34 -256h-841l585 1212h-456z"/>
<glyph glyph-name="Eta" horiz-adv-x="1393" unicode="Η" d="M266 1471h277l-74 -555h503l75 555h278l-200 -1471h-276l91 668h-507l-90 -668h-275z"/>
<glyph glyph-name="Theta" horiz-adv-x="1720" unicode="Θ" d="M614 876h525l-36 -269h-525zM356 654q0 -196 117 -314.5t313 -118.5q244 0 411 169.5t167 413.5q0 200 -117.5 321.5t-311.5 121.5q-269 0 -424 -188t-155 -405zM1642 818q0 -342 -239 -598.5t-632 -256.5q-314 0 -501.5 185t-187.5 491q0 361 244.5 615t618.5 254 q304 0 500.5 -193.5t196.5 -496.5z"/>
<glyph glyph-name="Iota" horiz-adv-x="573" unicode="Ι" d="M256 1471h270l-203 -1471h-265z"/>
<glyph glyph-name="Kappa" horiz-adv-x="1270" unicode="Κ" d="M270 1471h277l-68 -500l474 500h342l-641 -673l507 -798h-309l-415 654l-89 -654h-274z"/>
<glyph glyph-name="Lambda" horiz-adv-x="1434" unicode="Λ" d="M1306 0h-270l-263 1062l-569 -1062h-297l787 1471h247z"/>
<glyph glyph-name="Mu" horiz-adv-x="1843" unicode="Μ" d="M376 1471h250l249 -1025l508 1025h238l20 -1471h-258l-12 880l-436 -880h-211l-224 924l-235 -924h-264z"/>
<glyph glyph-name="Nu" horiz-adv-x="1515" unicode="Ν" d="M266 1471h242l533 -1000l135 1000h269l-198 -1471h-236l-540 1011l-135 -1011h-265z"/>
<glyph glyph-name="Xi" horiz-adv-x="1083" unicode="Ξ" d="M871 0h-863l35 260h863zM960 661h-863l34 260h863zM1033 1211h-863l35 260h863z"/>
<glyph glyph-name="Omicron" horiz-adv-x="1720" unicode="Ο" d="M935 1247q-158 0 -288.5 -76.5t-210.5 -220t-80 -296.5q0 -181 111 -307t319 -126q241 0 409.5 170t168.5 413q0 201 -118.5 322t-310.5 121zM945 1508q303 0 500 -195t197 -495q0 -230 -116.5 -433.5t-310 -312.5t-444.5 -109q-314 0 -501.5 186t-187.5 490 q0 345 224 593q250 276 639 276z"/>
<glyph glyph-name="Pi" horiz-adv-x="1393" unicode="Π" d="M265 1471h1059l-200 -1471h-275l165 1211h-509l-165 -1211h-275z"/>
<glyph glyph-name="Rho" d="M465 881q226 1 295 47t69 137q0 51 -27 86t-80 49t-210 14zM269 1471h259q236 0 333 -41q120 -51 182 -142t62 -213q0 -134 -72.5 -242.5t-194.5 -158t-406 -53.5l-84 -621h-277z" unicode="Ρ"/>
<glyph glyph-name="Sigma" horiz-adv-x="1027" unicode="Σ" d="M-76 0l488 734l-282 737h902l-35 -260h-480l197 -504l-301 -447h467l-35 -260h-921z"/>
<glyph glyph-name="Tau" horiz-adv-x="860" unicode="Τ" d="M79 1471h898l-32 -262h-313l-159 -1209h-274l159 1209h-313z"/>
<glyph glyph-name="Upsilon" horiz-adv-x="1270" unicode="Υ" d="M99 1471h279l230 -589l418 589h317l-628 -883l-79 -588h-276l81 588z"/>
<glyph glyph-name="Phi" horiz-adv-x="1760" unicode="Φ" d="M1061 1094l-95 -699q448 27 448 412q0 253 -353 287zM787 1094q-202 -10 -324 -121t-122 -294q0 -249 351 -284zM932 148l-20 -148h-274l20 148q-273 27 -429.5 164.5t-156.5 360.5q1 290 207.5 468.5t540.5 198.5l18 131h274l-18 -131q247 -18 420 -142.5t173 -377.5 q0 -300 -203 -477.5t-552 -194.5z"/>
<glyph glyph-name="Chi" horiz-adv-x="1393" unicode="Χ" d="M250 1471h284l207 -455l321 455h320l-518 -728l338 -743h-286l-224 499l-354 -499h-322l552 772z"/>
<glyph glyph-name="Psi" horiz-adv-x="1682" unicode="Ψ" d="M1650 1471l-72 -529q-71 -525 -652 -573l-50 -369h-275l50 369q-496 69 -496 509q0 54 8 113l65 480h275l-65 -477q-9 -67 -9 -114q1 -120 59 -180t197 -81l116 852h275l-116 -853q168 27 246.5 110t104.5 276l64 467h275z"/>
<glyph glyph-name="alpha" horiz-adv-x="1352" unicode="α" d="M590 210q98 0 171 44t122.5 138t49.5 192q0 129 -74.5 207.5t-196.5 78.5q-142 0 -241 -105t-99 -271q0 -128 75 -206t193 -78zM984 1088h267l-142 -1088h-264l15 117q-87 -81 -162.5 -113t-169.5 -32q-216 0 -343.5 159t-127.5 370q0 161 81 306.5t217.5 227t285.5 81.5 q100 0 184.5 -46t139.5 -134z"/>
<glyph glyph-name="beta" horiz-adv-x="1267" unicode="β" d="M521 716l30 231q240 28 240 213q1 57 -34.5 91.5t-95.5 34.5q-197 0 -232 -265l-67 -505q-5 -37 -5 -70q0 -224 224 -224q131 0 213 73.5t82 194.5q0 226 -348 226h-7zM307 102l-66 -500h-266l198 1490q28 208 165 326t346 118q167 0 272 -93.5t105 -241.5 q0 -199 -199 -306q282 -101 282 -378q0 -240 -158 -392.5t-404 -152.5q-166 0 -275 130z"/>
<glyph glyph-name="gamma" d="M585 156l-74 -554h-266l76 555l-266 931h262l170 -605l349 605h290z" unicode="γ"/>
<glyph glyph-name="delta" horiz-adv-x="1228" unicode="δ" d="M310 437q0 -95 65 -156.5t165 -61.5q121 0 209 87.5t88 207.5q0 98 -63.5 161.5t-165.5 63.5q-117 0 -207 -92t-91 -210zM412 898q-108 94 -108 236q0 183 145 292.5t358 109.5q130 0 302 -43l-102 -241q-130 34 -222 34q-216 0 -216 -142q0 -48 46.5 -84t184.5 -93 q303 -124 303 -427q0 -252 -167.5 -410t-423.5 -158q-202 0 -335 129.5t-134 315.5q0 337 369 481z"/>
<glyph glyph-name="epsilon" horiz-adv-x="897" unicode="ε" d="M790 96q-160 -124 -381 -124q-151 0 -268.5 74.5t-117.5 225.5q0 224 241 309q-123 77 -123 206q1 150 119 239.5t291 89.5t299 -112l-133 -188q-92 65 -169 65q-62 0 -106.5 -32.5t-44.5 -86.5q0 -47 42 -76.5t100 -29.5h54l-26 -195h-71q-66 0 -123.5 -34.5 t-57.5 -98.5q0 -50 43.5 -82t102.5 -32q108 0 235 91z"/>
<glyph glyph-name="zeta" horiz-adv-x="974" unicode="ζ" d="M186 -393l90 241q72 -31 169 -31q149 0 149 99q0 56 -58 75q-138 33 -248.5 73.5t-179 138.5t-68.5 249q0 209 133.5 399.5t466.5 406.5h-409l33 250h785l-30 -227q-406 -261 -556 -445t-150 -353q0 -78 41.5 -127.5t193.5 -91.5q315 -87 315 -303q1 -187 -118.5 -287 t-332.5 -100q-97 0 -226 33z"/>
<glyph glyph-name="eta" horiz-adv-x="1229" unicode="η" d="M935 -398h-270l133 993q12 90 12 138q0 137 -144 137q-70 0 -137 -48t-102 -131t-64 -306l-51 -385h-266l147 1088h266l-16 -110q153 138 318 138q140 0 230.5 -88t90.5 -227q0 -59 -17 -191z"/>
<glyph glyph-name="theta" horiz-adv-x="1341" unicode="θ" d="M968 625h-634q0 -234 69.5 -320t190.5 -86q274 0 374 406zM367 880h636v7q0 241 -73 321.5t-193 80.5q-271 0 -370 -409zM559 -28q-252 0 -368 172.5t-116 435.5q0 390 183.5 673t511.5 283q237 0 364.5 -161.5t126.5 -447.5q0 -387 -174.5 -671t-527.5 -284z"/>
<glyph glyph-name="iota" horiz-adv-x="491" unicode="ι" d="M158 1088h264l-146 -1088h-266z"/>
<glyph glyph-name="kappa" horiz-adv-x="1188" unicode="κ" d="M190 1089h263l-51 -380l430 379h366l-550 -485l481 -603h-320l-430 536l-71 -536h-262z"/>
<glyph glyph-name="lambda" horiz-adv-x="1188" unicode="λ" d="M1069 0h-277l-214 675l-364 -675h-299l552 1014l-166 494h276z"/>
<glyph glyph-name="mu" horiz-adv-x="1229" unicode="μ" d="M979 0h-266l16 110q-142 -128 -280 -128q-81 0 -132 65l-60 -445h-267l197 1486h267l-89 -670q-3 -26 -3 -63q0 -137 144 -137q70 0 137 48t102 131t64 306l51 385h266z"/>
<glyph glyph-name="nu" d="M55 1088h262l170 -605l349 605h290l-631 -1088h-129z" unicode="ν"/>
<glyph glyph-name="xi" horiz-adv-x="974" unicode="ξ" d="M186 -392l90 240q82 -31 170 -31q147 0 147 92q0 40 -30.5 57.5t-170.5 53.5q-356 87 -356 392q0 303 304 459q-135 91 -135 258q0 195 140 301t375 106q157 0 314 -46l-105 -238q-122 34 -250 34q-88 0 -150.5 -49.5t-62.5 -128.5q0 -142 270 -142h147l-33 -249h-196 q-187 0 -268.5 -82t-81.5 -191q0 -73 48.5 -110t219.5 -85q291 -81 291 -287q0 -189 -119 -288.5t-337 -99.5q-100 0 -221 34z"/>
<glyph glyph-name="omicron" horiz-adv-x="1311" unicode="ο" d="M665 863q-164 0 -251.5 -117.5t-87.5 -254.5q0 -122 71.5 -196.5t190.5 -74.5q169 0 257.5 113.5t88.5 259.5q0 120 -75 195t-194 75zM684 1116q145 0 263.5 -67t184.5 -190t66 -276q0 -254 -181 -432.5t-448 -178.5q-232 0 -370 140.5t-138 367.5q0 274 187 455t436 181 z"/>
<glyph glyph-name="pi" horiz-adv-x="1382" unicode="π" d="M1331 838h-183l-111 -838h-266l111 838h-374l-111 -838h-266l111 838h-173l33 250h1262z"/>
<glyph glyph-name="rho" horiz-adv-x="1336" unicode="ρ" d="M347 491q0 -123 71.5 -197t190.5 -74q152 0 249 103t97 270q0 120 -74.5 195t-194.5 75q-149 0 -244 -107.5t-95 -264.5zM302 147l-77 -545h-265l124 933q37 276 216 428.5t405 152.5q243 0 378.5 -156.5t135.5 -376.5q0 -261 -178 -436t-437 -175q-188 0 -302 175z"/>
<glyph glyph-name="sigma1" horiz-adv-x="1199" unicode="ς" d="M1184 868l-244 -125q-111 123 -257 123q-151 0 -253.5 -96t-103.5 -244q0 -93 65 -154.5t234 -112.5q316 -95 316 -303q0 -182 -122 -282t-329 -100q-97 0 -226 33l90 241q70 -31 169 -31q148 0 148 95q0 59 -137 92q-476 114 -476 483q0 289 183.5 459t484.5 170 q142 0 268 -66.5t190 -181.5z"/>
<glyph glyph-name="sigma" horiz-adv-x="1468" unicode="σ" d="M326 491q0 -123 71.5 -197t190.5 -74q152 0 249 103t97 270q0 120 -74.5 195t-194.5 75q-149 0 -244 -107.5t-95 -264.5zM860 1088h590l-33 -250h-285q66 -110 66 -265q0 -265 -178 -433t-451 -168q-231 0 -369.5 138.5t-138.5 369.5q0 265 180.5 450.5t442.5 185.5 q93 0 176 -28z"/>
<glyph glyph-name="tau" horiz-adv-x="852" unicode="τ" d="M801 838h-233l-111 -838h-266l111 838h-233l33 250h732z"/>
<glyph glyph-name="upsilon" horiz-adv-x="1229" unicode="υ" d="M152 1089h266l-70 -532q-10 -72 -10 -121q0 -210 210 -210q137 0 220 101t83 250q0 182 -223 325l170 218q317 -189 317 -528q0 -270 -167.5 -445t-433.5 -175q-442 0 -442 441q0 73 12 159z"/>
<glyph glyph-name="phi" horiz-adv-x="1632" unicode="φ" d="M955 857l-82 -625q377 34 377 358q0 255 -295 267zM839 -23l-50 -375h-266l50 376q-246 24 -382.5 155t-136.5 347q0 410 485 628l41 -265q-262 -136 -262 -359q0 -218 289 -252l116 877q78 7 137 7q303 0 480 -137t177 -375q0 -568 -678 -627z"/>
<glyph glyph-name="chi" d="M1142 1088l-474 -721l323 -765h-282l-210 524l-335 -524h-318l526 799l-290 687h282l177 -445l282 445h319z" unicode="χ"/>
<glyph glyph-name="psi" horiz-adv-x="1560" unicode="ψ" d="M812 -22l-50 -376h-266l50 376q-463 54 -463 480q0 56 8 118l68 512h266l-64 -480q-12 -94 -12 -144q0 -107 54.5 -156t177.5 -66l112 846h266l-112 -847q129 17 209.5 92t111.5 315l59 440h266l-75 -561q-34 -256 -176.5 -386.5t-429.5 -162.5z"/>
<glyph glyph-name="endash" horiz-adv-x="1024" unicode="–" d="M-12 469v242h1048v-242h-1048z"/>
<glyph glyph-name="emdash" horiz-adv-x="2048" unicode="—" d="M-12 469v242h2072v-242h-2072z"/>
<glyph glyph-name="quoteleft" horiz-adv-x="573" unicode="‘" d="M471 949h-251l17 124q17 133 57.5 222t147.5 213l86 -75q-85 -111 -116 -198h100z"/>
<glyph glyph-name="quotesinglbase" horiz-adv-x="573" unicode="‚" d="M143 286h251l-17 -125q-17 -132 -57.5 -221t-147.5 -213l-86 75q85 111 116 198h-100z"/>
<glyph glyph-name="quotedblleft" horiz-adv-x="983" unicode="“" d="M474 949h-251l17 124q17 133 57.5 222t147.5 213l86 -75q-85 -111 -116 -198h100zM880 949h-250l16 124q18 133 58.5 222t147.5 213l86 -75q-85 -111 -116 -198h100z"/>
<glyph glyph-name="quotedblright" horiz-adv-x="983" unicode="”" d="M687 1508h251l-17 -125q-17 -132 -57.5 -221t-147.5 -213l-86 75q85 110 116 198h-101zM280 1508h251l-17 -125q-17 -132 -57.5 -221t-147.5 -213l-86 75q85 110 116 198h-100z"/>
<glyph glyph-name="dagger" d="M546 1508h268l-124 -544l460 46l-40 -269l-443 53l-121 -1192h-269l220 1192l-459 -53l37 269l444 -46z" unicode="†"/>
<glyph glyph-name="daggerdbl" d="M548 1508h271l-118 -467l463 47l-37 -267l-448 51v-317l-95 -325l468 56l-38 -277l-452 55l-14 -462h-272l115 462l-457 -55l40 277l442 -56v325l93 317l-458 -51l38 267l443 -47z" unicode="‡"/>
<glyph glyph-name="ellipsis" horiz-adv-x="2048" unicode="…" d="M1706 308q70 0 119 -49t49 -119q0 -69 -49 -118.5t-119 -49.5q-69 0 -118.5 49.5t-49.5 118.5q0 70 49.5 119t118.5 49zM341 308q69 0 118.5 -49t49.5 -119q0 -69 -49.5 -118.5t-118.5 -49.5q-70 0 -119 49.5t-49 118.5q0 70 49 119t119 49zM1024 308q69 0 118 -49 t49 -119q0 -69 -49 -118.5t-118 -49.5q-70 0 -119 49.5t-49 118.5q0 70 49 119t119 49z"/>
<glyph glyph-name="perthousand" horiz-adv-x="2621" unicode="‰" d="M2167 488q-80 0 -136 -58t-56 -143q0 -69 42 -111t107 -42q74 0 130.5 61.5t56.5 144.5q0 68 -39.5 108t-104.5 40zM2190 660q131 0 217.5 -87.5t86.5 -221.5q0 -101 -52 -193.5t-141.5 -143.5t-195.5 -51q-147 0 -229 92t-82 216q0 96 55 189.5t147 146.5t194 53z M1329 488q-80 0 -136 -58t-56 -143q0 -69 42 -111t106 -42q75 0 131.5 61.5t56.5 144.5q0 68 -39.5 108t-104.5 40zM1352 660q131 0 217.5 -87.5t86.5 -221.5q0 -101 -52.5 -193.5t-141.5 -143.5t-195 -51q-148 0 -229.5 92t-81.5 216q0 96 54.5 189.5t147 146.5t194.5 53z M475 1331q-82 0 -138.5 -59t-56.5 -146q0 -61 41.5 -104t103.5 -43q78 0 135 59.5t57 143.5q0 67 -39.5 108t-102.5 41zM1469 1536h201l-1399 -1636h-202l1197 1405q-69 -13 -137.5 -20t-136.5 -7q-95 0 -204 12q13 -55 13 -95q0 -100 -53 -193t-141.5 -143.5t-195.5 -50.5 q-137 0 -224 85.5t-87 217.5q0 179 147 302q112 95 231 95q43 0 169 -24q221 -42 371 -42q118 0 231 23.5t220 70.5z"/>
<glyph glyph-name="minute" horiz-adv-x="451" unicode="′" d="M354 1004h-156l16 504h266z"/>
<glyph glyph-name="second" horiz-adv-x="737" unicode="″" d="M291 1004h-156l16 504h267zM702 1004h-156l16 504h267z"/>
<glyph glyph-name="guilsinglleft" horiz-adv-x="491" unicode="‹" d="M254 1088h254l-263 -550l108 -538h-255l-107 538z"/>
<glyph glyph-name="guilsinglright" horiz-adv-x="491" unicode="›" d="M167 0h-253l263 550l-108 538h254l108 -538z"/>
<glyph glyph-name="radicalex" d="M-42 1869h1231v-74h-1231v74z" unicode="‾"/>
<glyph glyph-name="fraction" horiz-adv-x="328" unicode="⁄" d="M-401 -37l988 1545h171l-988 -1545h-171z"/>
<glyph glyph-name="fraction" horiz-adv-x="328" unicode="∕" d="M-401 -37l988 1545h171l-988 -1545h-171z"/>
<glyph glyph-name="Euro" d="M438 508q135 -289 469 -289q101 0 203 35v-266q-94 -25 -207 -25q-608 0 -758 545h-135l51 164h66q0 46 8 127h-125l51 164h121q103 253 324.5 397.5t497.5 144.5q97 0 165 -16l-77 -248q-36 8 -82 8q-162 0 -301.5 -77t-223.5 -209h519l-52 -164h-532q-12 -49 -12 -84 v-43h507l-51 -164h-426z" unicode="€"/>
<glyph glyph-name="trademark" horiz-adv-x="2048" unicode="™" d="M809 1471v-147h-262v-693h-182v693h-264v147h708zM1905 1471v-840h-176v691l-275 -691h-88l-266 691v-691h-176v840h267l219 -540l230 540h265z"/>
<glyph glyph-name="arrowleft" horiz-adv-x="2048" unicode="←" d="M492 876h76q-81 -170 -195 -309h1595v-101h-1595q102 -102 198 -309h-78q-223 253 -414 341v45q177 71 413 333z"/>
<glyph glyph-name="arrowup" horiz-adv-x="1024" unicode="↑" d="M153 1050q262 236 333 413h46q87 -192 340 -415v-77q-207 96 -309 197v-1597h-101v1597q-139 -114 -309 -195v77z"/>
<glyph glyph-name="arrowright" horiz-adv-x="2048" unicode="→" d="M1555 876q237 -262 413 -333v-45q-191 -88 -414 -341h-77q95 207 197 309h-1595v101h1595q-114 139 -195 309h76z"/>
<glyph glyph-name="arrowdown" horiz-adv-x="1024" unicode="↓" d="M153 -16v76q170 -81 309 -195v1598h101v-1598q102 102 309 197v-77q-253 -223 -340 -414h-46q-71 176 -333 413z"/>
<glyph glyph-name="partialdiff" horiz-adv-x="1012" unicode="∂" d="M815 758l-44 1q-141 0 -256.5 -56t-178 -157t-62.5 -208q0 -76 41.5 -124.5t99.5 -48.5q130 0 245.5 151.5t154.5 441.5zM380 1123l-137 84q52 141 150 212.5t220 71.5q104 0 185 -57t130.5 -180t49.5 -311q0 -292 -102 -560q-77 -202 -218 -305t-302 -103 q-139 0 -225 92.5t-86 261.5q0 166 89.5 306.5t258.5 224t393 83.5l41 -1q-1 192 -62.5 279.5t-156.5 87.5q-67 0 -119 -38t-109 -148z"/>
<glyph glyph-name="product" horiz-adv-x="1685" unicode="∏" d="M162 1508h1362v-1906h-191v1732h-978v-1732h-193v1906z"/>
<glyph glyph-name="summation" horiz-adv-x="1460" unicode="∑" d="M139 1508h1237v-164h-988l607 -775l-649 -806h1040v-161h-1264v187l620 772l-603 772v175z"/>
<glyph glyph-name="minus" horiz-adv-x="1229" unicode="−" d="M115 860h999v-250h-999v250z"/>
<glyph glyph-name="radical" horiz-adv-x="1124" unicode="√" d="M1047 1869h74l-312 -1947l-496 1021l-198 -91l-34 64l301 151l405 -823z"/>
<glyph glyph-name="infinity" horiz-adv-x="1460" unicode="∞" d="M593 726q-100 141 -190 141q-47 0 -80 -37.5t-33 -102.5q0 -67 32.5 -105.5t80.5 -38.5q40 0 73 23q52 36 117 120zM772 724q84 -129 118 -158q53 -45 115 -45q75 0 116.5 58t41.5 147q0 92 -44 145t-111 53q-54 0 -105.5 -38.5t-130.5 -161.5zM679 843q77 126 155 177 t168 51q133 0 220 -94t87 -255t-87 -255t-220 -94q-90 0 -167.5 50.5t-155.5 177.5q-59 -82 -137 -127t-150 -45q-103 0 -172.5 80t-69.5 213t69.5 212.5t172.5 79.5q72 0 150 -44.5t137 -126.5z"/>
<glyph glyph-name="intersection" horiz-adv-x="1206" unicode="∩" d="M239 0h-110v621l2 238q1 116 18.5 209t58.5 169t106 135.5t139.5 89.5t149.5 30q118 0 225 -68.5t165 -174t71.5 -224t13.5 -404.5v-621h-110v628q0 243 -10 348.5t-52 190t-127.5 139.5t-175.5 55t-174.5 -55t-126 -137t-52.5 -189.5t-11 -351.5v-628z"/>
<glyph glyph-name="approxequal" horiz-adv-x="1124" unicode="≈" d="M47 323v319q152 74 250 74q64 0 140.5 -21.5t203.5 -83.5q83 -40 109 -47q35 -10 69 -10q111 0 258 113v-323q-126 -71 -247 -71q-66 0 -133 17.5t-218 84.5q-96 43 -128.5 51.5t-65.5 8.5q-50 0 -101 -22.5t-137 -89.5zM47 806v318q152 74 250 74q64 0 140.5 -21 t203.5 -83q83 -41 109 -48q35 -10 69 -10q111 0 258 113v-322q-126 -72 -247 -72q-66 0 -133 18t-218 85q-96 42 -128.5 51t-65.5 9q-50 0 -101 -22.5t-137 -89.5z"/>
<glyph glyph-name="notequal" horiz-adv-x="1124" unicode="≠" d="M803 1074h258v-250h-365l-76 -178h441v-250h-548l-186 -433h-193l186 433h-258v250h365l76 178h-441v250h548l186 434h193z"/>
<glyph glyph-name="equivalence" horiz-adv-x="1229" unicode="≡" d="M115 432h999v-250h-999v250zM115 860h999v-250h-999v250zM115 1288h999v-250h-999v250z"/>
<glyph glyph-name="lessequal" horiz-adv-x="1124" unicode="≤" d="M62 206h999v-250h-999v250zM1061 568v-250l-999 509v221l999 508v-249l-712 -370z"/>
<glyph glyph-name="greaterequal" horiz-adv-x="1124" unicode="≥" d="M1061 206v-250h-999v250h999zM62 568l713 369l-713 370v249l999 -508v-221l-999 -509v250z"/>
<glyph glyph-name="lozenge" horiz-adv-x="1012" unicode="◊" d="M495 1325l-340 -616l340 -615l359 615zM549 1422l418 -713l-418 -709h-111l-391 709l391 713h111z"/>
<glyph glyph-name="spade" horiz-adv-x="1092" unicode="♠" d="M547 1231q19 -82 65 -169t203 -230q121 -111 169 -181t48 -152q0 -96 -64 -160t-156 -64q-154 0 -254 190q0 -229 101 -325t277 -103l7 -37h-793l8 37q182 0 282 105t101 282v41q-90 -190 -262 -190q-91 0 -155 66t-64 155q0 150 188 305q262 215 299 430z"/>
<glyph glyph-name="club" horiz-adv-x="1354" unicode="♣" d="M1103 0h-848l8 34q153 32 219 68t126 139q58 103 58 228l-1 42q-55 -117 -143 -177t-184 -61q-114 0 -196 81t-82 199q0 111 72 193t170 82q64 0 163 -51q-67 106 -67 182q0 113 79 193t197 79q118 1 198 -79t81 -188q0 -94 -69 -187q106 53 162 53q105 0 176 -82 t71 -191q0 -119 -81 -201t-193 -82q-78 0 -167 50t-165 187q4 -157 48 -251q45 -94 123 -144q78 -51 237 -82z"/>
<glyph glyph-name="heart" horiz-adv-x="1210" unicode="♥" d="M607 -24q-33 122 -93 228t-275 390q-101 133 -140 212t-39 163q0 109 74 185t183 76q206 0 290 -251q33 129 113 191t172 61q110 0 184 -75t74 -177q0 -84 -40 -179t-174 -264q-284 -360 -329 -560z"/>
<glyph glyph-name="diamond" horiz-adv-x="1038" unicode="♦" d="M517 1231q193 -323 461 -627q-52 -52 -214 -265t-247 -363q-101 190 -457 628q324 383 457 627z"/>
<glyph glyph-name="foursuperior" horiz-adv-x="688" unicode="" d="M477 1262l-216 -242h181zM518 1508h168l-77 -488h82l-23 -147h-82l-22 -140h-166l22 140h-376l22 140z"/>
</font>
</defs>
</svg>
